osu file format v14

[General]
AudioFilename: Ether.mp3
AudioLeadIn: 0
PreviewTime:50750
Countdown: 0
SampleSet: Soft
StackLeniency: 0.2
Mode: 0
LetterboxInBreaks: 0
EpilepsyWarning: 1
WidescreenStoryboard: 1

[Editor]
Bookmarks: 1058,10658,29858,51458,80258,99458,121058,137858,157058,176258,179858,197858,249308
DistanceSpacing: 0.5
BeatDivisor: 4
GridSize: 32
TimelineZoom: 3.799999

[Metadata]
Title:Ether
TitleUnicode:エーテル
Artist:Feryquitous feat. Aitsuki Nakuru
ArtistUnicode:Feryquitous feat. 藍月なくる
Creator:Acyl
Version:Neilperry x Sing's Extra
Source:
Tags:『JelLaboratory』 c95 female vocal japanese doujin pop artcore -tochi j1_ how2miss otosaka-yu necho reincarnation suzuki_1112 moecho neilperry sing toybot kalibe lit120 lami lmt firika fanzhen0019 skystar yusomi amamiya yuko _epreus bbj0920 len fast kawashiro heilia cococolaco 藍月なくる aitsuki nakuru _todestrieb coco
BeatmapID:2022531
BeatmapSetID:902425

[Difficulty]
HPDrainRate:6
CircleSize:4.5
OverallDifficulty:9
ApproachRate:9.4
SliderMultiplier:2.3
SliderTickRate:1

[Events]
//Background and Video events
0,0,"background.jpg",0,0
//Break Periods
2,176458,179318
//Storyboard Layer 0 (Background)
Sprite,Background,Centre,"background.jpg",320,240 F,0,0,,0
Sprite,Background,Centre,"sb\blank.jpg",0,0 F,0,-4025,-3682,0,1 F,0,-3682,-253,1 F,0,-253,3,1,0 M,0,3,,320,240 S,0,3,,0.6493149
Sprite,Background,Centre,"sb\tochi.png",320,240 S,0,-3532,,0.6 F,0,-3532,-3187,0,1 F,0,-3187,-596,1,0.9893727 F,0,-596,-253,0.9893727,0
Sprite,Background,Centre,"sb\bgblurbw.jpg",0,0 F,2,1058,10658,0,0.6487671 M,0,1058,50258,320,-18.8055,320,240 S,0,1058,50258,0.9298632,0.5160549 F,0,10658,49058,0.6487671 F,0,49058,50258,0.6487671,0
Sprite,Background,Centre,"sb\bgblur.jpg",320,240 S,0,51458,,0.5160547 F,0,51458,70658,1 F,0,70658,70958,1,0
Sprite,Background,Centre,"sb\blank.jpg",320,240 S,0,49058,,0.537096 F,0,49058,50258,0,1 F,0,50258,51458,1 F,0,51458,51758,1,0
Sprite,Background,Centre,"sb\blank.jpg",320,240 S,0,70658,,0.5230685 F,0,70658,70958,0,1 F,0,70958,80258,1,0.9966667 F,0,80258,80408,0.9966667,0
Sprite,Background,Centre,"sb\bgblurbw.jpg",320,240 S,0,80258,,0.5300821 F,0,80258,80408,0,1 F,0,80408,118658,1,0.9866667 F,0,118658,119258,0.9866667,0.2384657 F,0,119258,121058,0.2384657,0.2459477 F,0,121058,121358,0.2459477,0
Sprite,Background,Centre,"sb\bgblur.jpg",320,240 F,0,121058,137858,1 S,0,121058,137858,0.5160547,0.5230685 F,0,137858,138158,1,0
Sprite,Background,Centre,"background.jpg",320,240 S,0,137858,,0.5230684 F,0,137858,138158,0,1 F,0,138158,156758,1,0.9866667 F,0,156758,157358,0.9866667,0
Sprite,Background,Centre,"sb\bgblur.jpg",320,240 S,0,181058,,0.5160547 F,0,181058,214658,1 F,0,214658,214958,1,0
Sprite,Background,Centre,"sb\bgblurbw.jpg",0,0 S,0,156758,,0.6493151 P,0,156758,,V F,0,156758,157358,0,1 M,0,156758,179858,200.0658,240,384.526,240 F,0,157358,175058,1 F,0,175058,176258,1,0.2565479 F,0,176258,181058,0.2565479
Sprite,Background,Centre,"background.jpg",320,240 S,0,214658,,0.5160549 F,0,214658,214958,0,1 F,0,214958,231458,1 F,0,231458,232658,1,0
Sprite,Background,Centre,"sb\bgblurbw.jpg",0,0 P,0,231458,,H F,0,231458,232658,0,1 M,2,231458,255458,457.4685,148.8219,-109.9397,549.3041 S,0,231458,255458,0.6984109,1.140274 R,0,231458,255458,-0.01402771,-0.2665204 F,0,232658,249308,1 F,0,249308,255458,1,0
Sprite,Background,Centre,"sb\blank.jpg",0,0 F,0,51308,51458,0,0.5 M,0,51458,,320,240 F,0,51458,51758,0.5,0.1 V,1,51458,51758,0.42,0.51,0.4,0.05 R,0,51458,70658,0.08416412,-0.1402744 P,0,51758,,A F,0,51758,70658,0.1 F,0,70658,70958,0.1,0
Sprite,Background,Centre,"sb\blank.jpg",0,0 F,0,120608,120758,0,0.5 M,0,120758,,320,240 F,0,120758,121058,0.5,0.1 V,1,120758,121058,0.42,0.51,0.4,0.05 R,0,120758,157058,-0.1402744,0.08416412 P,0,121058,,A F,0,121058,157058,0.1 F,0,157058,157358,0.1,0
Sprite,Background,Centre,"sb\blank.jpg",0,0 F,0,180458,180608,0,0.5 M,0,180608,,320,240 F,0,180608,180908,0.5,0.1 V,1,180608,180908,0.42,0.51,0.4,0.05 R,0,180608,231458,0.08416412,-0.1402744 P,0,180908,,A F,0,180908,231458,0.1 F,0,231458,231758,0.1,0
Sprite,Background,Centre,"sb\ring.png",0,0 M,0,51458,,217,91 C,0,51458,,255,255,255 F,1,51458,53458,0.9,0 S,1,51458,53458,0.25,0.5
Sprite,Background,Centre,"sb\ring.png",0,0 M,0,51608,,437,127 C,0,51608,,255,255,255 F,1,51608,53608,0.9,0 S,1,51608,53608,0.25,0.5
Sprite,Background,Centre,"sb\ring.png",0,0 M,0,51758,,263,226 C,0,51758,,255,255,255 F,1,51758,53758,0.9,0 S,1,51758,53758,0.25,0.5
Sprite,Background,Centre,"sb\ring.png",0,0 M,0,51908,,366,159 C,0,51908,,255,255,255 F,1,51908,53908,0.9,0 S,1,51908,53908,0.25,0.5
Sprite,Background,Centre,"sb\ring.png",0,0 M,0,52058,,317,283 C,0,52058,,255,255,255 F,1,52058,54058,0.9,0 S,1,52058,54058,0.25,0.5
Sprite,Background,Centre,"sb\ring.png",0,0 M,0,52208,,380,238 C,0,52208,,255,255,255 F,1,52208,54208,0.9,0 S,1,52208,54208,0.25,0.5
Sprite,Background,Centre,"sb\ring.png",0,0 M,0,52358,,231,306 C,0,52358,,255,255,255 F,1,52358,54583,0.9,0 S,1,52358,54583,0.25,0.5
Sprite,Background,Centre,"sb\ring.png",0,0 M,0,52658,,470,310 C,0,52658,,255,255,255 F,1,52658,54658,0.9,0 S,1,52658,54658,0.25,0.5
Sprite,Background,Centre,"sb\ring.png",0,0 M,0,52808,,448,385 C,0,52808,,255,255,255 F,1,52808,54808,0.9,0 S,1,52808,54808,0.25,0.5
Sprite,Background,Centre,"sb\ring.png",0,0 M,0,52958,,367,431 C,0,52958,,255,255,255 F,1,52958,54958,0.9,0 S,1,52958,54958,0.25,0.5
Sprite,Background,Centre,"sb\ring.png",0,0 M,0,53108,,247,424 C,0,53108,,255,255,255 F,1,53108,55108,0.9,0 S,1,53108,55108,0.25,0.5
Sprite,Background,Centre,"sb\ring.png",0,0 M,0,53258,,150,344 C,0,53258,,255,255,255 F,1,53258,55408,0.9,0 S,1,53258,55408,0.25,0.5
Sprite,Background,Centre,"sb\ring.png",0,0 M,0,53558,,252,318 C,0,53558,,255,255,255 F,1,53558,55558,0.9,0 S,1,53558,55558,0.25,0.5
Sprite,Background,Centre,"sb\ring.png",0,0 M,0,53708,,310,167 C,0,53708,,255,255,255 F,1,53708,55708,0.9,0 S,1,53708,55708,0.25,0.5
Sprite,Background,Centre,"sb\ring.png",0,0 M,0,53858,,463,117 C,0,53858,,255,255,255 F,1,53858,55858,0.9,0 S,1,53858,55858,0.25,0.5
Sprite,Background,Centre,"sb\ring.png",0,0 M,0,54008,,371,94 C,0,54008,,255,255,255 F,1,54008,56008,0.9,0 S,1,54008,56008,0.25,0.5
Sprite,Background,Centre,"sb\ring.png",0,0 M,0,54158,,515,193 C,0,54158,,255,255,255 F,1,54158,56158,0.9,0 S,1,54158,56158,0.25,0.5
Sprite,Background,Centre,"sb\ring.png",0,0 M,0,54308,,283,246 C,0,54308,,255,255,255 F,1,54308,56458,0.9,0 S,1,54308,56458,0.25,0.5
Sprite,Background,Centre,"sb\ring.png",0,0 M,0,54608,,171,91 C,0,54608,,255,255,255 F,1,54608,56608,0.9,0 S,1,54608,56608,0.25,0.5
Sprite,Background,Centre,"sb\ring.png",0,0 M,0,54758,,145,249 C,0,54758,,255,255,255 F,1,54758,56758,0.9,0 S,1,54758,56758,0.25,0.5
Sprite,Background,Centre,"sb\ring.png",0,0 M,0,54908,,119,407 C,0,54908,,255,255,255 F,1,54908,56908,0.9,0 S,1,54908,56908,0.25,0.5
Sprite,Background,Centre,"sb\ring.png",0,0 M,0,55058,,186,437 C,0,55058,,255,255,255 F,1,55058,57208,0.9,0 S,1,55058,57208,0.25,0.5
Sprite,Background,Centre,"sb\ring.png",0,0 M,0,55358,,267,132 C,0,55358,,255,255,255 F,1,55358,57508,0.9,0 S,1,55358,57508,0.25,0.5
Sprite,Background,Centre,"sb\ring.png",0,0 M,0,55658,,529,116 C,0,55658,,255,255,255 F,1,55658,57658,0.9,0 S,1,55658,57658,0.25,0.5
Sprite,Background,Centre,"sb\ring.png",0,0 M,0,55808,,515,193 C,0,55808,,255,255,255 F,1,55808,57808,0.9,0 S,1,55808,57808,0.25,0.5
Sprite,Background,Centre,"sb\ring.png",0,0 M,0,55958,,353,120 C,0,55958,,255,255,255 F,1,55958,57958,0.9,0 S,1,55958,57958,0.25,0.5
Sprite,Background,Centre,"sb\ring.png",0,0 M,0,56108,,368,233 C,0,56108,,255,255,255 F,1,56108,58108,0.9,0 S,1,56108,58108,0.25,0.5
Sprite,Background,Centre,"sb\ring.png",0,0 M,0,56258,,107,212 C,0,56258,,255,255,255 F,1,56258,58258,0.9,0 S,1,56258,58258,0.25,0.5
Sprite,Background,Centre,"sb\ring.png",0,0 M,0,56408,,282,245 C,0,56408,,255,255,255 F,1,56408,58408,0.9,0 S,1,56408,58408,0.25,0.5
Sprite,Background,Centre,"sb\ring.png",0,0 M,0,56558,,155,323 C,0,56558,,255,255,255 F,1,56558,58558,0.9,0 S,1,56558,58558,0.25,0.5
Sprite,Background,Centre,"sb\ring.png",0,0 M,0,56708,,228,309 C,0,56708,,255,255,255 F,1,56708,58708,0.9,0 S,1,56708,58708,0.25,0.5
Sprite,Background,Centre,"sb\ring.png",0,0 M,0,56858,,186,437 C,0,56858,,255,255,255 F,1,56858,59008,0.9,0 S,1,56858,59008,0.25,0.5
Sprite,Background,Centre,"sb\ring.png",0,0 M,0,57158,,304,428 C,0,57158,,255,255,255 F,1,57158,59158,0.9,0 S,1,57158,59158,0.25,0.5
Sprite,Background,Centre,"sb\ring.png",0,0 M,0,57308,,315,353 C,0,57308,,255,255,255 F,1,57308,59458,0.9,0 S,1,57308,59458,0.25,0.5
Sprite,Background,Centre,"sb\ring.png",0,0 M,0,57608,,567,239 C,0,57608,,255,255,255 F,1,57608,59608,0.9,0 S,1,57608,59608,0.25,0.5
Sprite,Background,Centre,"sb\ring.png",0,0 M,0,57758,,492,82 C,0,57758,,255,255,255 F,1,57758,59758,0.9,0 S,1,57758,59758,0.25,0.5
Sprite,Background,Centre,"sb\ring.png",0,0 M,0,57908,,497,280 C,0,57908,,255,255,255 F,1,57908,59908,0.9,0 S,1,57908,59908,0.25,0.5
Sprite,Background,Centre,"sb\ring.png",0,0 M,0,58058,,430,238 C,0,58058,,255,255,255 F,1,58058,60058,0.9,0 S,1,58058,60058,0.25,0.5
Sprite,Background,Centre,"sb\ring.png",0,0 M,0,58208,,342,262 C,0,58208,,255,255,255 F,1,58208,60208,0.9,0 S,1,58208,60208,0.25,0.5
Sprite,Background,Centre,"sb\ring.png",0,0 M,0,58358,,221,155 C,0,58358,,255,255,255 F,1,58358,60358,0.9,0 S,1,58358,60358,0.25,0.5
Sprite,Background,Centre,"sb\ring.png",0,0 M,0,58508,,64,192 C,0,58508,,255,255,255 F,1,58508,60508,0.9,0 S,1,58508,60508,0.25,0.5
Sprite,Background,Centre,"sb\ring.png",0,0 M,0,58658,,112,64 C,0,58658,,255,255,255 F,1,58658,60658,0.9,0 S,1,58658,60658,0.25,0.5
Sprite,Background,Centre,"sb\ring.png",0,0 M,0,58808,,131,135 C,0,58808,,255,255,255 F,1,58808,60808,0.9,0 S,1,58808,60808,0.25,0.5
Sprite,Background,Centre,"sb\ring.png",0,0 M,0,58958,,249,83 C,0,58958,,255,255,255 F,1,58958,61108,0.9,0 S,1,58958,61108,0.25,0.5
Sprite,Background,Centre,"sb\ring.png",0,0 M,0,59258,,567,239 C,0,59258,,255,255,255 F,1,59258,61408,0.9,0 S,1,59258,61408,0.25,0.5
Sprite,Background,Centre,"sb\ring.png",0,0 M,0,59558,,425,134 C,0,59558,,255,255,255 F,1,59558,61558,0.9,0 S,1,59558,61558,0.25,0.5
Sprite,Background,Centre,"sb\ring.png",0,0 M,0,59708,,410,209 C,0,59708,,255,255,255 F,1,59708,61783,0.9,0 S,1,59708,61783,0.25,0.5
Sprite,Background,Centre,"sb\ring.png",0,0 M,0,59858,,397,279 C,0,59858,,255,255,255 F,1,59858,61858,0.9,0 S,1,59858,61858,0.25,0.5
Sprite,Background,Centre,"sb\ring.png",0,0 M,0,60008,,325,305 C,0,60008,,255,255,255 F,1,60008,62008,0.9,0 S,1,60008,62008,0.25,0.5
Sprite,Background,Centre,"sb\ring.png",0,0 M,0,60158,,245,74 C,0,60158,,255,255,255 F,1,60158,62158,0.9,0 S,1,60158,62158,0.25,0.5
Sprite,Background,Centre,"sb\ring.png",0,0 M,0,60308,,237,338 C,0,60308,,255,255,255 F,1,60308,62458,0.9,0 S,1,60308,62458,0.25,0.5
Sprite,Background,Centre,"sb\ring.png",0,0 M,0,60608,,167,380 C,0,60608,,255,255,255 F,1,60608,62683,0.9,0 S,1,60608,62683,0.25,0.5
Sprite,Background,Centre,"sb\ring.png",0,0 M,0,60758,,93,387 C,0,60758,,255,255,255 F,1,60758,62758,0.9,0 S,1,60758,62758,0.25,0.5
Sprite,Background,Centre,"sb\ring.png",0,0 M,0,60908,,320,216 C,0,60908,,255,255,255 F,1,60908,62908,0.9,0 S,1,60908,62908,0.25,0.5
Sprite,Background,Centre,"sb\ring.png",0,0 M,0,61058,,547,387 C,0,61058,,255,255,255 F,1,61058,63058,0.9,0 S,1,61058,63058,0.25,0.5
Sprite,Background,Centre,"sb\ring.png",0,0 M,0,61208,,369,423 C,0,61208,,255,255,255 F,1,61208,63208,0.9,0 S,1,61208,63208,0.25,0.5
Sprite,Background,Centre,"sb\ring.png",0,0 M,0,61358,,478,428 C,0,61358,,255,255,255 F,1,61358,63358,0.9,0 S,1,61358,63358,0.25,0.5
Sprite,Background,Centre,"sb\ring.png",0,0 M,0,61508,,387,299 C,0,61508,,255,255,255 F,1,61508,63508,0.9,0 S,1,61508,63508,0.25,0.5
Sprite,Background,Centre,"sb\ring.png",0,0 M,0,61658,,485,336 C,0,61658,,255,255,255 F,1,61658,63658,0.9,0 S,1,61658,63658,0.25,0.5
Sprite,Background,Centre,"sb\ring.png",0,0 M,0,61808,,419,367 C,0,61808,,255,255,255 F,1,61808,63808,0.9,0 S,1,61808,63808,0.25,0.5
Sprite,Background,Centre,"sb\ring.png",0,0 M,0,61958,,560,307 C,0,61958,,255,255,255 F,1,61958,64108,0.9,0 S,1,61958,64108,0.25,0.5
Sprite,Background,Centre,"sb\ring.png",0,0 M,0,62258,,320,216 C,0,62258,,255,255,255 F,1,62258,64258,0.9,0 S,1,62258,64258,0.25,0.5
Sprite,Background,Centre,"sb\ring.png",0,0 M,0,62408,,334,141 C,0,62408,,255,255,255 F,1,62408,64408,0.9,0 S,1,62408,64408,0.25,0.5
Sprite,Background,Centre,"sb\ring.png",0,0 M,0,62558,,391,193 C,0,62558,,255,255,255 F,1,62558,64558,0.9,0 S,1,62558,64558,0.25,0.5
Sprite,Background,Centre,"sb\ring.png",0,0 M,0,62708,,122,249 C,0,62708,,255,255,255 F,1,62708,64708,0.9,0 S,1,62708,64708,0.25,0.5
Sprite,Background,Centre,"sb\ring.png",0,0 M,0,62858,,175,192 C,0,62858,,255,255,255 F,1,62858,65008,0.9,0 S,1,62858,65008,0.25,0.5
Sprite,Background,Centre,"sb\ring.png",0,0 M,0,63158,,341,66 C,0,63158,,255,255,255 F,1,63158,65158,0.9,0 S,1,63158,65158,0.25,0.5
Sprite,Background,Centre,"sb\ring.png",0,0 M,0,63308,,462,172 C,0,63308,,255,255,255 F,1,63308,65308,0.9,0 S,1,63308,65308,0.25,0.5
Sprite,Background,Centre,"sb\ring.png",0,0 M,0,63458,,450,332 C,0,63458,,255,255,255 F,1,63458,65458,0.9,0 S,1,63458,65458,0.25,0.5
Sprite,Background,Centre,"sb\ring.png",0,0 M,0,63608,,422,262 C,0,63608,,255,255,255 F,1,63608,65608,0.9,0 S,1,63608,65608,0.25,0.5
Sprite,Background,Centre,"sb\ring.png",0,0 M,0,63758,,393,384 C,0,63758,,255,255,255 F,1,63758,65758,0.9,0 S,1,63758,65758,0.25,0.5
Sprite,Background,Centre,"sb\ring.png",0,0 M,0,63908,,217,332 C,0,63908,,255,255,255 F,1,63908,66058,0.9,0 S,1,63908,66058,0.25,0.5
Sprite,Background,Centre,"sb\ring.png",0,0 M,0,64208,,289,427 C,0,64208,,255,255,255 F,1,64208,66208,0.9,0 S,1,64208,66208,0.25,0.5
Sprite,Background,Centre,"sb\ring.png",0,0 M,0,64358,,306,266 C,0,64358,,255,255,255 F,1,64358,66358,0.9,0 S,1,64358,66358,0.25,0.5
Sprite,Background,Centre,"sb\ring.png",0,0 M,0,64508,,325,106 C,0,64508,,255,255,255 F,1,64508,66508,0.9,0 S,1,64508,66508,0.25,0.5
Sprite,Background,Centre,"sb\ring.png",0,0 M,0,64658,,399,116 C,0,64658,,255,255,255 F,1,64658,66808,0.9,0 S,1,64658,66808,0.25,0.5
Sprite,Background,Centre,"sb\ring.png",0,0 M,0,64958,,252,136 C,0,64958,,255,255,255 F,1,64958,66958,0.9,0 S,1,64958,66958,0.25,0.5
Sprite,Background,Centre,"sb\ring.png",0,0 M,0,65108,,230,68 C,0,65108,,255,255,255 F,1,65108,67108,0.9,0 S,1,65108,67108,0.25,0.5
Sprite,Background,Centre,"sb\ring.png",0,0 M,0,65258,,246,146 C,0,65258,,255,255,255 F,1,65258,67258,0.9,0 S,1,65258,67258,0.25,0.5
Sprite,Background,Centre,"sb\ring.png",0,0 M,0,65408,,170,164 C,0,65408,,255,255,255 F,1,65408,67408,0.9,0 S,1,65408,67408,0.25,0.5
Sprite,Background,Centre,"sb\ring.png",0,0 M,0,65558,,370,222 C,0,65558,,255,255,255 F,1,65558,67708,0.9,0 S,1,65558,67708,0.25,0.5
Sprite,Background,Centre,"sb\ring.png",0,0 M,0,65858,,85,353 C,0,65858,,255,255,255 F,1,65858,67958,0.9,0 S,1,65858,67958,0.25,0.5
Sprite,Background,Centre,"sb\ring.png",0,0 M,0,66058,,243,126 C,0,66058,,255,255,255 F,1,66058,68158,0.9,0 S,1,66058,68158,0.25,0.5
Sprite,Background,Centre,"sb\ring.png",0,0 M,0,66258,,211,259 C,0,66258,,255,255,255 F,1,66258,68358,0.9,0 S,1,66258,68358,0.25,0.5
Sprite,Background,Centre,"sb\ring.png",0,0 M,0,66458,,555,143 C,0,66458,,255,255,255 F,1,66458,68558,0.9,0 S,1,66458,68558,0.25,0.5
Sprite,Background,Centre,"sb\ring.png",0,0 M,0,66658,,397,370 C,0,66658,,255,255,255 F,1,66658,68758,0.9,0 S,1,66658,68758,0.25,0.5
Sprite,Background,Centre,"sb\ring.png",0,0 M,0,66858,,429,237 C,0,66858,,255,255,255 F,1,66858,68958,0.9,0 S,1,66858,68958,0.25,0.5
Sprite,Background,Centre,"sb\ring.png",0,0 M,0,67058,,335,417 C,0,67058,,255,255,255 F,1,67058,69058,0.9,0 S,1,67058,69058,0.25,0.5
Sprite,Background,Centre,"sb\ring.png",0,0 M,0,67208,,130,300 C,0,67208,,255,255,255 F,1,67208,69208,0.9,0 S,1,67208,69208,0.25,0.5
Sprite,Background,Centre,"sb\ring.png",0,0 M,0,67358,,74,343 C,0,67358,,255,255,255 F,1,67358,69358,0.9,0 S,1,67358,69358,0.25,0.5
Sprite,Background,Centre,"sb\ring.png",0,0 M,0,67508,,165,429 C,0,67508,,255,255,255 F,1,67508,69658,0.9,0 S,1,67508,69658,0.25,0.5
Sprite,Background,Centre,"sb\ring.png",0,0 M,0,67808,,474,66 C,0,67808,,255,255,255 F,1,67808,69958,0.9,0 S,1,67808,69958,0.25,0.5
Sprite,Background,Centre,"sb\ring.png",0,0 M,0,68108,,320,248 C,0,68108,,255,255,255 F,1,68108,70108,0.9,0 S,1,68108,70108,0.25,0.5
Sprite,Background,Centre,"sb\ring.png",0,0 M,0,68183,,320,248 C,0,68183,,255,255,255 F,1,68183,72508,0.9,0 S,1,68183,72508,0.25,0.5
Sprite,Background,Centre,"sb\ring.png",0,0 M,0,121058,,217,365 C,0,121058,,255,255,255 F,1,121058,123358,0.9,0 S,1,121058,123358,0.25,0.5
Sprite,Background,Centre,"sb\ring.png",0,0 M,0,121433,,354,396 C,0,121433,,255,255,255 F,1,121433,123433,0.9,0 S,1,121433,123433,0.25,0.5
Sprite,Background,Centre,"sb\ring.png",0,0 M,0,121508,,353,394 C,0,121508,,255,255,255 F,1,121508,123733,0.9,0 S,1,121508,123733,0.25,0.5
Sprite,Background,Centre,"sb\ring.png",0,0 M,0,121808,,98,304 C,0,121808,,255,255,255 F,1,121808,123883,0.9,0 S,1,121808,123883,0.25,0.5
Sprite,Background,Centre,"sb\ring.png",0,0 M,0,121958,,269,73 C,0,121958,,255,255,255 F,1,121958,124033,0.9,0 S,1,121958,124033,0.25,0.5
Sprite,Background,Centre,"sb\ring.png",0,0 M,0,122108,,343,238 C,0,122108,,255,255,255 F,1,122108,124333,0.9,0 S,1,122108,124333,0.25,0.5
Sprite,Background,Centre,"sb\ring.png",0,0 M,0,122408,,123,154 C,0,122408,,255,255,255 F,1,122408,124408,0.9,0 S,1,122408,124408,0.25,0.5
Sprite,Background,Centre,"sb\ring.png",0,0 M,0,122558,,343,238 C,0,122558,,255,255,255 F,1,122558,124708,0.9,0 S,1,122558,124708,0.25,0.5
Sprite,Background,Centre,"sb\ring.png",0,0 M,0,122858,,403,318 C,0,122858,,255,255,255 F,1,122858,124933,0.9,0 S,1,122858,124933,0.25,0.5
Sprite,Background,Centre,"sb\ring.png",0,0 M,0,123008,,301,411 C,0,123008,,255,255,255 F,1,123008,125083,0.9,0 S,1,123008,125083,0.25,0.5
Sprite,Background,Centre,"sb\ring.png",0,0 M,0,123158,,302,164 C,0,123158,,255,255,255 F,1,123158,125233,0.9,0 S,1,123158,125233,0.25,0.5
Sprite,Background,Centre,"sb\ring.png",0,0 M,0,123308,,274,366 C,0,123308,,255,255,255 F,1,123308,125383,0.9,0 S,1,123308,125383,0.25,0.5
Sprite,Background,Centre,"sb\ring.png",0,0 M,0,123458,,201,112 C,0,123458,,255,255,255 F,1,123458,125683,0.9,0 S,1,123458,125683,0.25,0.5
Sprite,Background,Centre,"sb\ring.png",0,0 M,0,123758,,199,406 C,0,123758,,255,255,255 F,1,123758,125758,0.9,0 S,1,123758,125758,0.25,0.5
Sprite,Background,Centre,"sb\ring.png",0,0 M,0,123908,,154,320 C,0,123908,,255,255,255 F,1,123908,125908,0.9,0 S,1,123908,125908,0.25,0.5
Sprite,Background,Centre,"sb\ring.png",0,0 M,0,124058,,83,345 C,0,124058,,255,255,255 F,1,124058,126058,0.9,0 S,1,124058,126058,0.25,0.5
Sprite,Background,Centre,"sb\ring.png",0,0 M,0,124208,,274,364 C,0,124208,,255,255,255 F,1,124208,126283,0.9,0 S,1,124208,126283,0.25,0.5
Sprite,Background,Centre,"sb\ring.png",0,0 M,0,124358,,142,232 C,0,124358,,255,255,255 F,1,124358,126433,0.9,0 S,1,124358,126433,0.25,0.5
Sprite,Background,Centre,"sb\ring.png",0,0 M,0,124508,,313,172 C,0,124508,,255,255,255 F,1,124508,126658,0.9,0 S,1,124508,126658,0.25,0.5
Sprite,Background,Centre,"sb\ring.png",0,0 M,0,124733,,353,270 C,0,124733,,255,255,255 F,1,124733,126733,0.9,0 S,1,124733,126733,0.25,0.5
Sprite,Background,Centre,"sb\ring.png",0,0 M,0,124808,,346,271 C,0,124808,,255,255,255 F,1,124808,126808,0.9,0 S,1,124808,126808,0.25,0.5
Sprite,Background,Centre,"sb\ring.png",0,0 M,0,124958,,217,137 C,0,124958,,255,255,255 F,1,124958,127033,0.9,0 S,1,124958,127033,0.25,0.5
Sprite,Background,Centre,"sb\ring.png",0,0 M,0,125108,,138,156 C,0,125108,,255,255,255 F,1,125108,127182,0.9,0 S,1,125108,127182,0.25,0.5
Sprite,Background,Centre,"sb\ring.png",0,0 M,0,125258,,83,345 C,0,125258,,255,255,255 F,1,125258,127483,0.9,0 S,1,125258,127483,0.25,0.5
Sprite,Background,Centre,"sb\ring.png",0,0 M,0,125558,,250,312 C,0,125558,,255,255,255 F,1,125558,127782,0.9,0 S,1,125558,127782,0.25,0.5
Sprite,Background,Centre,"sb\ring.png",0,0 M,0,125858,,222,418 C,0,125858,,255,255,255 F,1,125858,128158,0.9,0 S,1,125858,128158,0.25,0.5
Sprite,Background,Centre,"sb\ring.png",0,0 M,0,126233,,356,180 C,0,126233,,255,255,255 F,1,126233,128233,0.9,0 S,1,126233,128233,0.25,0.5
Sprite,Background,Centre,"sb\ring.png",0,0 M,0,126308,,365,173 C,0,126308,,255,255,255 F,1,126308,128533,0.9,0 S,1,126308,128533,0.25,0.5
Sprite,Background,Centre,"sb\ring.png",0,0 M,0,126608,,451,439 C,0,126608,,255,255,255 F,1,126608,128683,0.9,0 S,1,126608,128683,0.25,0.5
Sprite,Background,Centre,"sb\ring.png",0,0 M,0,126758,,516,179 C,0,126758,,255,255,255 F,1,126758,128833,0.9,0 S,1,126758,128833,0.25,0.5
Sprite,Background,Centre,"sb\ring.png",0,0 M,0,126908,,518,284 C,0,126908,,255,255,255 F,1,126908,129133,0.9,0 S,1,126908,129133,0.25,0.5
Sprite,Background,Centre,"sb\ring.png",0,0 M,0,127208,,222,418 C,0,127208,,255,255,255 F,1,127208,129208,0.9,0 S,1,127208,129208,0.25,0.5
Sprite,Background,Centre,"sb\ring.png",0,0 M,0,127358,,124,129 C,0,127358,,255,255,255 F,1,127358,129358,0.9,0 S,1,127358,129358,0.25,0.5
Sprite,Background,Centre,"sb\ring.png",0,0 M,0,127508,,184,181 C,0,127508,,255,255,255 F,1,127508,129508,0.9,0 S,1,127508,129508,0.25,0.5
Sprite,Background,Centre,"sb\ring.png",0,0 M,0,127658,,109,206 C,0,127658,,255,255,255 F,1,127658,129658,0.9,0 S,1,127658,129658,0.25,0.5
Sprite,Background,Centre,"sb\ring.png",0,0 M,0,127808,,93,351 C,0,127808,,255,255,255 F,1,127808,129883,0.9,0 S,1,127808,129883,0.25,0.5
Sprite,Background,Centre,"sb\ring.png",0,0 M,0,127958,,178,349 C,0,127958,,255,255,255 F,1,127958,130032,0.9,0 S,1,127958,130032,0.25,0.5
Sprite,Background,Centre,"sb\ring.png",0,0 M,0,128108,,267,347 C,0,128108,,255,255,255 F,1,128108,130183,0.9,0 S,1,128108,130183,0.25,0.5
Sprite,Background,Centre,"sb\ring.png",0,0 M,0,128258,,432,380 C,0,128258,,255,255,255 F,1,128258,130408,0.9,0 S,1,128258,130408,0.25,0.5
Sprite,Background,Centre,"sb\ring.png",0,0 M,0,128483,,250,435 C,0,128483,,255,255,255 F,1,128483,130483,0.9,0 S,1,128483,130483,0.25,0.5
Sprite,Background,Centre,"sb\ring.png",0,0 M,0,128558,,258,440 C,0,128558,,255,255,255 F,1,128558,130633,0.9,0 S,1,128558,130633,0.25,0.5
Sprite,Background,Centre,"sb\ring.png",0,0 M,0,128708,,531,361 C,0,128708,,255,255,255 F,1,128708,130708,0.9,0 S,1,128708,130708,0.25,0.5
Sprite,Background,Centre,"sb\ring.png",0,0 M,0,128858,,493,272 C,0,128858,,255,255,255 F,1,128858,130858,0.9,0 S,1,128858,130858,0.25,0.5
Sprite,Background,Centre,"sb\ring.png",0,0 M,0,129008,,525,155 C,0,129008,,255,255,255 F,1,129008,131008,0.9,0 S,1,129008,131008,0.25,0.5
Sprite,Background,Centre,"sb\ring.png",0,0 M,0,129158,,519,77 C,0,129158,,255,255,255 F,1,129158,131158,0.9,0 S,1,129158,131158,0.25,0.5
Sprite,Background,Centre,"sb\ring.png",0,0 M,0,129308,,444,58 C,0,129308,,255,255,255 F,1,129308,131308,0.9,0 S,1,129308,131308,0.25,0.5
Sprite,Background,Centre,"sb\ring.png",0,0 M,0,129458,,462,204 C,0,129458,,255,255,255 F,1,129458,131458,0.9,0 S,1,129458,131458,0.25,0.5
Sprite,Background,Centre,"sb\ring.png",0,0 M,0,129608,,525,155 C,0,129608,,255,255,255 F,1,129608,131608,0.9,0 S,1,129608,131608,0.25,0.5
Sprite,Background,Centre,"sb\ring.png",0,0 M,0,129758,,368,190 C,0,129758,,255,255,255 F,1,129758,131833,0.9,0 S,1,129758,131833,0.25,0.5
Sprite,Background,Centre,"sb\ring.png",0,0 M,0,129908,,556,316 C,0,129908,,255,255,255 F,1,129908,131983,0.9,0 S,1,129908,131983,0.25,0.5
Sprite,Background,Centre,"sb\ring.png",0,0 M,0,130058,,375,361 C,0,130058,,255,255,255 F,1,130058,132058,0.9,0 S,1,130058,132058,0.25,0.5
Sprite,Background,Centre,"sb\ring.png",0,0 M,0,130208,,544,232 C,0,130208,,255,255,255 F,1,130208,132208,0.9,0 S,1,130208,132208,0.25,0.5
Sprite,Background,Centre,"sb\ring.png",0,0 M,0,130358,,525,155 C,0,130358,,255,255,255 F,1,130358,132358,0.9,0 S,1,130358,132358,0.25,0.5
Sprite,Background,Centre,"sb\ring.png",0,0 M,0,130508,,549,90 C,0,130508,,255,255,255 F,1,130508,132508,0.9,0 S,1,130508,132508,0.25,0.5
Sprite,Background,Centre,"sb\ring.png",0,0 M,0,130658,,525,155 C,0,130658,,255,255,255 F,1,130658,132958,0.9,0 S,1,130658,132958,0.25,0.5
Sprite,Background,Centre,"sb\ring.png",0,0 M,0,131033,,332,154 C,0,131033,,255,255,255 F,1,131033,133033,0.9,0 S,1,131033,133033,0.25,0.5
Sprite,Background,Centre,"sb\ring.png",0,0 M,0,131109,,332,154 C,0,131109,,255,255,255 F,1,131109,133334,0.9,0 S,1,131109,133334,0.25,0.5
Sprite,Background,Centre,"sb\ring.png",0,0 M,0,131408,,387,309 C,0,131408,,255,255,255 F,1,131408,133483,0.9,0 S,1,131408,133483,0.25,0.5
Sprite,Background,Centre,"sb\ring.png",0,0 M,0,131558,,177,188 C,0,131558,,255,255,255 F,1,131558,133633,0.9,0 S,1,131558,133633,0.25,0.5
Sprite,Background,Centre,"sb\ring.png",0,0 M,0,131708,,135,345 C,0,131708,,255,255,255 F,1,131708,133933,0.9,0 S,1,131708,133933,0.25,0.5
Sprite,Background,Centre,"sb\ring.png",0,0 M,0,132008,,177,273 C,0,132008,,255,255,255 F,1,132008,134008,0.9,0 S,1,132008,134008,0.25,0.5
Sprite,Background,Centre,"sb\ring.png",0,0 M,0,132158,,306,67 C,0,132158,,255,255,255 F,1,132158,134308,0.9,0 S,1,132158,134308,0.25,0.5
Sprite,Background,Centre,"sb\ring.png",0,0 M,0,132458,,243,146 C,0,132458,,255,255,255 F,1,132458,134533,0.9,0 S,1,132458,134533,0.25,0.5
Sprite,Background,Centre,"sb\ring.png",0,0 M,0,132608,,348,252 C,0,132608,,255,255,255 F,1,132608,134683,0.9,0 S,1,132608,134683,0.25,0.5
Sprite,Background,Centre,"sb\ring.png",0,0 M,0,132758,,213,400 C,0,132758,,255,255,255 F,1,132758,134833,0.9,0 S,1,132758,134833,0.25,0.5
Sprite,Background,Centre,"sb\ring.png",0,0 M,0,132908,,454,330 C,0,132908,,255,255,255 F,1,132908,134983,0.9,0 S,1,132908,134983,0.25,0.5
Sprite,Background,Centre,"sb\ring.png",0,0 M,0,133058,,462,90 C,0,133058,,255,255,255 F,1,133058,135283,0.9,0 S,1,133058,135283,0.25,0.5
Sprite,Background,Centre,"sb\ring.png",0,0 M,0,133358,,213,204 C,0,133358,,255,255,255 F,1,133358,135508,0.9,0 S,1,133358,135508,0.25,0.5
Sprite,Background,Centre,"sb\ring.png",0,0 M,0,133658,,292,170 C,0,133658,,255,255,255 F,1,133658,135658,0.9,0 S,1,133658,135658,0.25,0.5
Sprite,Background,Centre,"sb\ring.png",0,0 M,0,133808,,264,56 C,0,133808,,255,255,255 F,1,133808,135883,0.9,0 S,1,133808,135883,0.25,0.5
Sprite,Background,Centre,"sb\ring.png",0,0 M,0,133958,,239,287 C,0,133958,,255,255,255 F,1,133958,136033,0.9,0 S,1,133958,136033,0.25,0.5
Sprite,Background,Centre,"sb\ring.png",0,0 M,0,134108,,116,433 C,0,134108,,255,255,255 F,1,134108,136258,0.9,0 S,1,134108,136258,0.25,0.5
Sprite,Background,Centre,"sb\ring.png",0,0 M,0,134333,,69,268 C,0,134333,,255,255,255 F,1,134333,136333,0.9,0 S,1,134333,136333,0.25,0.5
Sprite,Background,Centre,"sb\ring.png",0,0 M,0,134408,,69,268 C,0,134408,,255,255,255 F,1,134408,136408,0.9,0 S,1,134408,136408,0.25,0.5
Sprite,Background,Centre,"sb\ring.png",0,0 M,0,134558,,348,252 C,0,134558,,255,255,255 F,1,134558,136633,0.9,0 S,1,134558,136633,0.25,0.5
Sprite,Background,Centre,"sb\ring.png",0,0 M,0,134708,,318,331 C,0,134708,,255,255,255 F,1,134708,136783,0.9,0 S,1,134708,136783,0.25,0.5
Sprite,Background,Centre,"sb\ring.png",0,0 M,0,134858,,478,228 C,0,134858,,255,255,255 F,1,134858,136858,0.9,0 S,1,134858,136858,0.25,0.5
Sprite,Background,Centre,"sb\ring.png",0,0 M,0,135008,,235,392 C,0,135008,,255,255,255 F,1,135008,137008,0.9,0 S,1,135008,137008,0.25,0.5
Sprite,Background,Centre,"sb\ring.png",0,0 M,0,135158,,514,318 C,0,135158,,255,255,255 F,1,135158,137158,0.9,0 S,1,135158,137158,0.25,0.5
Sprite,Background,Centre,"sb\ring.png",0,0 M,0,135308,,236,189 C,0,135308,,255,255,255 F,1,135308,137308,0.9,0 S,1,135308,137308,0.25,0.5
Sprite,Background,Centre,"sb\ring.png",0,0 M,0,135458,,419,72 C,0,135458,,255,255,255 F,1,135458,137608,0.9,0 S,1,135458,137608,0.25,0.5
Sprite,Background,Centre,"sb\ring.png",0,0 M,0,135758,,484,279 C,0,135758,,255,255,255 F,1,135758,137983,0.9,0 S,1,135758,137983,0.25,0.5
Sprite,Background,Centre,"sb\ring.png",0,0 M,0,136058,,493,133 C,0,136058,,255,255,255 F,1,136058,138058,0.9,0 S,1,136058,138058,0.25,0.5
Sprite,Background,Centre,"sb\ring.png",0,0 M,0,136208,,509,365 C,0,136208,,255,255,255 F,1,136208,138358,0.9,0 S,1,136208,138358,0.25,0.5
Sprite,Background,Centre,"sb\ring.png",0,0 M,0,136508,,321,174 C,0,136508,,255,255,255 F,1,136508,138508,0.9,0 S,1,136508,138508,0.25,0.5
Sprite,Background,Centre,"sb\ring.png",0,0 M,0,136808,,321,174 C,0,136808,,255,255,255 F,1,136808,138958,0.9,0 S,1,136808,138958,0.25,0.5
Sprite,Background,Centre,"sb\ring.png",0,0 M,0,137033,,73,245 C,0,137033,,255,255,255 F,1,137033,139033,0.9,0 S,1,137033,139033,0.25,0.5
Sprite,Background,Centre,"sb\ring.png",0,0 M,0,137108,,73,245 C,0,137108,,255,255,255 F,1,137108,139333,0.9,0 S,1,137108,139333,0.25,0.5
Sprite,Background,Centre,"sb\ring.png",0,0 M,0,137408,,188,421 C,0,137408,,255,255,255 F,1,137408,139558,0.9,0 S,1,137408,139558,0.25,0.5
Sprite,Background,Centre,"sb\ring.png",0,0 M,0,137708,,327,276 C,0,137708,,255,255,255 F,1,137708,139708,0.9,0 S,1,137708,139708,0.25,0.5
Sprite,Background,Centre,"sb\ring.png",0,0 M,0,137858,,462,148 C,0,137858,,255,255,255 F,1,137858,140158,0.9,0 S,1,137858,140158,0.25,0.5
Sprite,Background,Centre,"sb\ring.png",0,0 M,0,138308,,372,207 C,0,138308,,255,255,255 F,1,138308,140608,0.9,0 S,1,138308,140608,0.25,0.5
Sprite,Background,Centre,"sb\ring.png",0,0 M,0,138758,,271,171 C,0,138758,,255,255,255 F,1,138758,140758,0.9,0 S,1,138758,140758,0.25,0.5
Sprite,Background,Centre,"sb\ring.png",0,0 M,0,138908,,291,244 C,0,138908,,255,255,255 F,1,138908,140908,0.9,0 S,1,138908,140908,0.25,0.5
Sprite,Background,Centre,"sb\ring.png",0,0 M,0,139058,,259,173 C,0,139058,,255,255,255 F,1,139058,141058,0.9,0 S,1,139058,141058,0.25,0.5
Sprite,Background,Centre,"sb\ring.png",0,0 M,0,139208,,246,307 C,0,139208,,255,255,255 F,1,139208,141208,0.9,0 S,1,139208,141208,0.25,0.5
Sprite,Background,Centre,"sb\ring.png",0,0 M,0,139358,,98,282 C,0,139358,,255,255,255 F,1,139358,141358,0.9,0 S,1,139358,141358,0.25,0.5
Sprite,Background,Centre,"sb\ring.png",0,0 M,0,139508,,151,438 C,0,139508,,255,255,255 F,1,139508,141658,0.9,0 S,1,139508,141658,0.25,0.5
Sprite,Background,Centre,"sb\ring.png",0,0 M,0,139808,,400,303 C,0,139808,,255,255,255 F,1,139808,141958,0.9,0 S,1,139808,141958,0.25,0.5
Sprite,Background,Centre,"sb\ring.png",0,0 M,0,140108,,272,95 C,0,140108,,255,255,255 F,1,140108,142183,0.9,0 S,1,140108,142183,0.25,0.5
Sprite,Background,Centre,"sb\ring.png",0,0 M,0,140258,,297,168 C,0,140258,,255,255,255 F,1,140258,142408,0.9,0 S,1,140258,142408,0.25,0.5
Sprite,Background,Centre,"sb\ring.png",0,0 M,0,140558,,172,364 C,0,140558,,255,255,255 F,1,140558,142708,0.9,0 S,1,140558,142708,0.25,0.5
Sprite,Background,Centre,"sb\ring.png",0,0 M,0,140858,,64,157 C,0,140858,,255,255,255 F,1,140858,143008,0.9,0 S,1,140858,143008,0.25,0.5
Sprite,Background,Centre,"sb\ring.png",0,0 M,0,141158,,375,189 C,0,141158,,255,255,255 F,1,141158,143308,0.9,0 S,1,141158,143308,0.25,0.5
Sprite,Background,Centre,"sb\ring.png",0,0 M,0,141458,,550,430 C,0,141458,,255,255,255 F,1,141458,143458,0.9,0 S,1,141458,143458,0.25,0.5
Sprite,Background,Centre,"sb\ring.png",0,0 M,0,141608,,339,375 C,0,141608,,255,255,255 F,1,141608,143608,0.9,0 S,1,141608,143608,0.25,0.5
Sprite,Background,Centre,"sb\ring.png",0,0 M,0,141758,,520,359 C,0,141758,,255,255,255 F,1,141758,143758,0.9,0 S,1,141758,143758,0.25,0.5
Sprite,Background,Centre,"sb\ring.png",0,0 M,0,141908,,421,314 C,0,141908,,255,255,255 F,1,141908,144058,0.9,0 S,1,141908,144058,0.25,0.5
Sprite,Background,Centre,"sb\ring.png",0,0 M,0,142208,,209,318 C,0,142208,,255,255,255 F,1,142208,144208,0.9,0 S,1,142208,144208,0.25,0.5
Sprite,Background,Centre,"sb\ring.png",0,0 M,0,142358,,339,375 C,0,142358,,255,255,255 F,1,142358,144583,0.9,0 S,1,142358,144583,0.25,0.5
Sprite,Background,Centre,"sb\ring.png",0,0 M,0,142658,,82,410 C,0,142658,,255,255,255 F,1,142658,144733,0.9,0 S,1,142658,144733,0.25,0.5
Sprite,Background,Centre,"sb\ring.png",0,0 M,0,142808,,134,291 C,0,142808,,255,255,255 F,1,142808,144883,0.9,0 S,1,142808,144883,0.25,0.5
Sprite,Background,Centre,"sb\ring.png",0,0 M,0,142958,,117,160 C,0,142958,,255,255,255 F,1,142958,144958,0.9,0 S,1,142958,144958,0.25,0.5
Sprite,Background,Centre,"sb\ring.png",0,0 M,0,143108,,238,213 C,0,143108,,255,255,255 F,1,143108,145183,0.9,0 S,1,143108,145183,0.25,0.5
Sprite,Background,Centre,"sb\ring.png",0,0 M,0,143408,,529,345 C,0,143408,,255,255,255 F,1,143408,145483,0.9,0 S,1,143408,145483,0.25,0.5
Sprite,Background,Centre,"sb\ring.png",0,0 M,0,143558,,458,368 C,0,143558,,255,255,255 F,1,143558,145633,0.9,0 S,1,143558,145633,0.25,0.5
Sprite,Background,Centre,"sb\ring.png",0,0 M,0,143858,,534,79 C,0,143858,,255,255,255 F,1,143858,145933,0.9,0 S,1,143858,145933,0.25,0.5
Sprite,Background,Centre,"sb\ring.png",0,0 M,0,144008,,487,252 C,0,144008,,255,255,255 F,1,144008,146083,0.9,0 S,1,144008,146083,0.25,0.5
Sprite,Background,Centre,"sb\ring.png",0,0 M,0,144158,,399,193 C,0,144158,,255,255,255 F,1,144158,146158,0.9,0 S,1,144158,146158,0.25,0.5
Sprite,Background,Centre,"sb\ring.png",0,0 M,0,144308,,323,326 C,0,144308,,255,255,255 F,1,144308,146383,0.9,0 S,1,144308,146383,0.25,0.5
Sprite,Background,Centre,"sb\ring.png",0,0 M,0,144458,,180,276 C,0,144458,,255,255,255 F,1,144458,146533,0.9,0 S,1,144458,146533,0.25,0.5
Sprite,Background,Centre,"sb\ring.png",0,0 M,0,144608,,270,210 C,0,144608,,255,255,255 F,1,144608,146608,0.9,0 S,1,144608,146608,0.25,0.5
Sprite,Background,Centre,"sb\ring.png",0,0 M,0,144758,,207,106 C,0,144758,,255,255,255 F,1,144758,146833,0.9,0 S,1,144758,146833,0.25,0.5
Sprite,Background,Centre,"sb\ring.png",0,0 M,0,144908,,64,156 C,0,144908,,255,255,255 F,1,144908,146983,0.9,0 S,1,144908,146983,0.25,0.5
Sprite,Background,Centre,"sb\ring.png",0,0 M,0,145058,,67,294 C,0,145058,,255,255,255 F,1,145058,147058,0.9,0 S,1,145058,147058,0.25,0.5
Sprite,Background,Centre,"sb\ring.png",0,0 M,0,145208,,312,363 C,0,145208,,255,255,255 F,1,145208,147283,0.9,0 S,1,145208,147283,0.25,0.5
Sprite,Background,Centre,"sb\ring.png",0,0 M,0,145358,,149,440 C,0,145358,,255,255,255 F,1,145358,147433,0.9,0 S,1,145358,147433,0.25,0.5
Sprite,Background,Centre,"sb\ring.png",0,0 M,0,145508,,163,260 C,0,145508,,255,255,255 F,1,145508,147583,0.9,0 S,1,145508,147583,0.25,0.5
Sprite,Background,Centre,"sb\ring.png",0,0 M,0,145808,,527,417 C,0,145808,,255,255,255 F,1,145808,147883,0.9,0 S,1,145808,147883,0.25,0.5
Sprite,Background,Centre,"sb\ring.png",0,0 M,0,145958,,243,356 C,0,145958,,255,255,255 F,1,145958,148033,0.9,0 S,1,145958,148033,0.25,0.5
Sprite,Background,Centre,"sb\ring.png",0,0 M,0,146108,,397,356 C,0,146108,,255,255,255 F,1,146108,148183,0.9,0 S,1,146108,148183,0.25,0.5
Sprite,Background,Centre,"sb\ring.png",0,0 M,0,146258,,113,417 C,0,146258,,255,255,255 F,1,146258,148333,0.9,0 S,1,146258,148333,0.25,0.5
Sprite,Background,Centre,"sb\ring.png",0,0 M,0,146408,,320,408 C,0,146408,,255,255,255 F,1,146408,148408,0.9,0 S,1,146408,148408,0.25,0.5
Sprite,Background,Centre,"sb\ring.png",0,0 M,0,146558,,321,261 C,0,146558,,255,255,255 F,1,146558,148633,0.9,0 S,1,146558,148633,0.25,0.5
Sprite,Background,Centre,"sb\ring.png",0,0 M,0,146708,,233,159 C,0,146708,,255,255,255 F,1,146708,148933,0.9,0 S,1,146708,148933,0.25,0.5
Sprite,Background,Centre,"sb\ring.png",0,0 M,0,147008,,488,233 C,0,147008,,255,255,255 F,1,147008,149008,0.9,0 S,1,147008,149008,0.25,0.5
Sprite,Background,Centre,"sb\ring.png",0,0 M,0,147158,,320,88 C,0,147158,,255,255,255 F,1,147158,149158,0.9,0 S,1,147158,149158,0.25,0.5
Sprite,Background,Centre,"sb\ring.png",0,0 M,0,147308,,152,233 C,0,147308,,255,255,255 F,1,147308,149308,0.9,0 S,1,147308,149308,0.25,0.5
Sprite,Background,Centre,"sb\ring.png",0,0 M,0,147458,,64,75 C,0,147458,,255,255,255 F,1,147458,149683,0.9,0 S,1,147458,149683,0.25,0.5
Sprite,Background,Centre,"sb\ring.png",0,0 M,0,147758,,96,186 C,0,147758,,255,255,255 F,1,147758,149758,0.9,0 S,1,147758,149758,0.25,0.5
Sprite,Background,Centre,"sb\ring.png",0,0 M,0,147908,,152,233 C,0,147908,,255,255,255 F,1,147908,149908,0.9,0 S,1,147908,149908,0.25,0.5
Sprite,Background,Centre,"sb\ring.png",0,0 M,0,148058,,240,248 C,0,148058,,255,255,255 F,1,148058,150058,0.9,0 S,1,148058,150058,0.25,0.5
Sprite,Background,Centre,"sb\ring.png",0,0 M,0,148208,,347,219 C,0,148208,,255,255,255 F,1,148208,150208,0.9,0 S,1,148208,150208,0.25,0.5
Sprite,Background,Centre,"sb\ring.png",0,0 M,0,148358,,436,114 C,0,148358,,255,255,255 F,1,148358,150358,0.9,0 S,1,148358,150358,0.25,0.5
Sprite,Background,Centre,"sb\ring.png",0,0 M,0,148508,,495,160 C,0,148508,,255,255,255 F,1,148508,150583,0.9,0 S,1,148508,150583,0.25,0.5
Sprite,Background,Centre,"sb\ring.png",0,0 M,0,148658,,436,113 C,0,148658,,255,255,255 F,1,148658,150808,0.9,0 S,1,148658,150808,0.25,0.5
Sprite,Background,Centre,"sb\ring.png",0,0 M,0,148958,,576,305 C,0,148958,,255,255,255 F,1,148958,150958,0.9,0 S,1,148958,150958,0.25,0.5
Sprite,Background,Centre,"sb\ring.png",0,0 M,0,149108,,506,261 C,0,149108,,255,255,255 F,1,149108,151108,0.9,0 S,1,149108,151108,0.25,0.5
Sprite,Background,Centre,"sb\ring.png",0,0 M,0,149258,,404,245 C,0,149258,,255,255,255 F,1,149258,151258,0.9,0 S,1,149258,151258,0.25,0.5
Sprite,Background,Centre,"sb\ring.png",0,0 M,0,149408,,277,295 C,0,149408,,255,255,255 F,1,149408,151408,0.9,0 S,1,149408,151408,0.25,0.5
Sprite,Background,Centre,"sb\ring.png",0,0 M,0,149558,,207,428 C,0,149558,,255,255,255 F,1,149558,151558,0.9,0 S,1,149558,151558,0.25,0.5
Sprite,Background,Centre,"sb\ring.png",0,0 M,0,149708,,163,363 C,0,149708,,255,255,255 F,1,149708,151783,0.9,0 S,1,149708,151783,0.25,0.5
Sprite,Background,Centre,"sb\ring.png",0,0 M,0,149858,,207,428 C,0,149858,,255,255,255 F,1,149858,152083,0.9,0 S,1,149858,152083,0.25,0.5
Sprite,Background,Centre,"sb\ring.png",0,0 M,0,150158,,471,434 C,0,150158,,255,255,255 F,1,150158,152158,0.9,0 S,1,150158,152158,0.25,0.5
Sprite,Background,Centre,"sb\ring.png",0,0 M,0,150308,,550,375 C,0,150308,,255,255,255 F,1,150308,152308,0.9,0 S,1,150308,152308,0.25,0.5
Sprite,Background,Centre,"sb\ring.png",0,0 M,0,150458,,563,257 C,0,150458,,255,255,255 F,1,150458,152458,0.9,0 S,1,150458,152458,0.25,0.5
Sprite,Background,Centre,"sb\ring.png",0,0 M,0,150608,,461,175 C,0,150608,,255,255,255 F,1,150608,152608,0.9,0 S,1,150608,152608,0.25,0.5
Sprite,Background,Centre,"sb\ring.png",0,0 M,0,150758,,333,205 C,0,150758,,255,255,255 F,1,150758,152758,0.9,0 S,1,150758,152758,0.25,0.5
Sprite,Background,Centre,"sb\ring.png",0,0 M,0,150908,,300,342 C,0,150908,,255,255,255 F,1,150908,152908,0.9,0 S,1,150908,152908,0.25,0.5
Sprite,Background,Centre,"sb\ring.png",0,0 M,0,151058,,165,383 C,0,151058,,255,255,255 F,1,151058,153058,0.9,0 S,1,151058,153058,0.25,0.5
Sprite,Background,Centre,"sb\ring.png",0,0 M,0,151208,,64,288 C,0,151208,,255,255,255 F,1,151208,153208,0.9,0 S,1,151208,153208,0.25,0.5
Sprite,Background,Centre,"sb\ring.png",0,0 M,0,151358,,124,243 C,0,151358,,255,255,255 F,1,151358,153358,0.9,0 S,1,151358,153358,0.25,0.5
Sprite,Background,Centre,"sb\ring.png",0,0 M,0,151508,,190,65 C,0,151508,,255,255,255 F,1,151508,153733,0.9,0 S,1,151508,153733,0.25,0.5
Sprite,Background,Centre,"sb\ring.png",0,0 M,0,151808,,124,243 C,0,151808,,255,255,255 F,1,151808,153883,0.9,0 S,1,151808,153883,0.25,0.5
Sprite,Background,Centre,"sb\ring.png",0,0 M,0,151958,,281,60 C,0,151958,,255,255,255 F,1,151958,154033,0.9,0 S,1,151958,154033,0.25,0.5
Sprite,Background,Centre,"sb\ring.png",0,0 M,0,152108,,352,90 C,0,152108,,255,255,255 F,1,152108,154108,0.9,0 S,1,152108,154108,0.25,0.5
Sprite,Background,Centre,"sb\ring.png",0,0 M,0,152183,,352,90 C,0,152183,,255,255,255 F,1,152183,154183,0.9,0 S,1,152183,154183,0.25,0.5
Sprite,Background,Centre,"sb\ring.png",0,0 M,0,152258,,352,90 C,0,152258,,255,255,255 F,1,152258,154358,0.9,0 S,1,152258,154358,0.25,0.5
Sprite,Background,Centre,"sb\ring.png",0,0 M,0,152458,,440,354 C,0,152458,,255,255,255 F,1,152458,154558,0.9,0 S,1,152458,154558,0.25,0.5
Sprite,Background,Centre,"sb\ring.png",0,0 M,0,152658,,167,299 C,0,152658,,255,255,255 F,1,152658,154758,0.9,0 S,1,152658,154758,0.25,0.5
Sprite,Background,Centre,"sb\ring.png",0,0 M,0,152858,,361,174 C,0,152858,,255,255,255 F,1,152858,154958,0.9,0 S,1,152858,154958,0.25,0.5
Sprite,Background,Centre,"sb\ring.png",0,0 M,0,153058,,362,320 C,0,153058,,255,255,255 F,1,153058,155158,0.9,0 S,1,153058,155158,0.25,0.5
Sprite,Background,Centre,"sb\ring.png",0,0 M,0,153258,,235,248 C,0,153258,,255,255,255 F,1,153258,155358,0.9,0 S,1,153258,155358,0.25,0.5
Sprite,Background,Centre,"sb\ring.png",0,0 M,0,153458,,542,237 C,0,153458,,255,255,255 F,1,153458,155533,0.9,0 S,1,153458,155533,0.25,0.5
Sprite,Background,Centre,"sb\ring.png",0,0 M,0,153608,,444,106 C,0,153608,,255,255,255 F,1,153608,155758,0.9,0 S,1,153608,155758,0.25,0.5
Sprite,Background,Centre,"sb\ring.png",0,0 M,0,153908,,528,440 C,0,153908,,255,255,255 F,1,153908,155983,0.9,0 S,1,153908,155983,0.25,0.5
Sprite,Background,Centre,"sb\ring.png",0,0 M,0,154208,,112,440 C,0,154208,,255,255,255 F,1,154208,156283,0.9,0 S,1,154208,156283,0.25,0.5
Sprite,Background,Centre,"sb\ring.png",0,0 M,0,154508,,320,248 C,0,154508,,255,255,255 F,1,154508,156583,0.9,0 S,1,154508,156583,0.25,0.5
Sprite,Background,Centre,"sb\ring.png",0,0 M,0,154658,,320,248 C,0,154658,,255,255,255 F,1,154658,157858,0.9,0 S,1,154658,157858,0.25,0.5
Sprite,Background,Centre,"sb\ring.png",0,0 M,0,155933,,320,248 C,0,155933,,255,255,255 F,1,155933,158908,0.9,0 S,1,155933,158908,0.25,0.5
Sprite,Background,Centre,"sb\ring.png",0,0 M,0,181058,,305,77 C,0,181058,,255,255,255 F,1,181058,183058,0.9,0 S,1,181058,183058,0.25,0.5
Sprite,Background,Centre,"sb\ring.png",0,0 M,0,181208,,92,142 C,0,181208,,255,255,255 F,1,181208,183208,0.9,0 S,1,181208,183208,0.25,0.5
Sprite,Background,Centre,"sb\ring.png",0,0 M,0,181358,,401,208 C,0,181358,,255,255,255 F,1,181358,183358,0.9,0 S,1,181358,183358,0.25,0.5
Sprite,Background,Centre,"sb\ring.png",0,0 M,0,181508,,172,287 C,0,181508,,255,255,255 F,1,181508,183508,0.9,0 S,1,181508,183508,0.25,0.5
Sprite,Background,Centre,"sb\ring.png",0,0 M,0,181658,,328,243 C,0,181658,,255,255,255 F,1,181658,183658,0.9,0 S,1,181658,183658,0.25,0.5
Sprite,Background,Centre,"sb\ring.png",0,0 M,0,181808,,241,331 C,0,181808,,255,255,255 F,1,181808,183808,0.9,0 S,1,181808,183808,0.25,0.5
Sprite,Background,Centre,"sb\ring.png",0,0 M,0,181958,,439,402 C,0,181958,,255,255,255 F,1,181958,184183,0.9,0 S,1,181958,184183,0.25,0.5
Sprite,Background,Centre,"sb\ring.png",0,0 M,0,182258,,204,428 C,0,182258,,255,255,255 F,1,182258,184258,0.9,0 S,1,182258,184258,0.25,0.5
Sprite,Background,Centre,"sb\ring.png",0,0 M,0,182408,,157,364 C,0,182408,,255,255,255 F,1,182408,184408,0.9,0 S,1,182408,184408,0.25,0.5
Sprite,Background,Centre,"sb\ring.png",0,0 M,0,182558,,144,277 C,0,182558,,255,255,255 F,1,182558,184558,0.9,0 S,1,182558,184558,0.25,0.5
Sprite,Background,Centre,"sb\ring.png",0,0 M,0,182708,,209,177 C,0,182708,,255,255,255 F,1,182708,184708,0.9,0 S,1,182708,184708,0.25,0.5
Sprite,Background,Centre,"sb\ring.png",0,0 M,0,182858,,324,124 C,0,182858,,255,255,255 F,1,182858,185008,0.9,0 S,1,182858,185008,0.25,0.5
Sprite,Background,Centre,"sb\ring.png",0,0 M,0,183158,,133,191 C,0,183158,,255,255,255 F,1,183158,185158,0.9,0 S,1,183158,185158,0.25,0.5
Sprite,Background,Centre,"sb\ring.png",0,0 M,0,183308,,314,220 C,0,183308,,255,255,255 F,1,183308,185308,0.9,0 S,1,183308,185308,0.25,0.5
Sprite,Background,Centre,"sb\ring.png",0,0 M,0,183458,,400,382 C,0,183458,,255,255,255 F,1,183458,185458,0.9,0 S,1,183458,185458,0.25,0.5
Sprite,Background,Centre,"sb\ring.png",0,0 M,0,183608,,561,358 C,0,183608,,255,255,255 F,1,183608,185608,0.9,0 S,1,183608,185608,0.25,0.5
Sprite,Background,Centre,"sb\ring.png",0,0 M,0,183758,,459,329 C,0,183758,,255,255,255 F,1,183758,185758,0.9,0 S,1,183758,185758,0.25,0.5
Sprite,Background,Centre,"sb\ring.png",0,0 M,0,183908,,524,287 C,0,183908,,255,255,255 F,1,183908,186058,0.9,0 S,1,183908,186058,0.25,0.5
Sprite,Background,Centre,"sb\ring.png",0,0 M,0,184208,,259,82 C,0,184208,,255,255,255 F,1,184208,186208,0.9,0 S,1,184208,186208,0.25,0.5
Sprite,Background,Centre,"sb\ring.png",0,0 M,0,184358,,324,124 C,0,184358,,255,255,255 F,1,184358,186508,0.9,0 S,1,184358,186508,0.25,0.5
Sprite,Background,Centre,"sb\ring.png",0,0 M,0,184658,,135,415 C,0,184658,,255,255,255 F,1,184658,186658,0.9,0 S,1,184658,186658,0.25,0.5
Sprite,Background,Centre,"sb\ring.png",0,0 M,0,184808,,266,378 C,0,184808,,255,255,255 F,1,184808,186808,0.9,0 S,1,184808,186808,0.25,0.5
Sprite,Background,Centre,"sb\ring.png",0,0 M,0,184958,,163,286 C,0,184958,,255,255,255 F,1,184958,186958,0.9,0 S,1,184958,186958,0.25,0.5
Sprite,Background,Centre,"sb\ring.png",0,0 M,0,185108,,189,357 C,0,185108,,255,255,255 F,1,185108,187108,0.9,0 S,1,185108,187108,0.25,0.5
Sprite,Background,Centre,"sb\ring.png",0,0 M,0,185258,,152,271 C,0,185258,,255,255,255 F,1,185258,187258,0.9,0 S,1,185258,187258,0.25,0.5
Sprite,Background,Centre,"sb\ring.png",0,0 M,0,185408,,123,424 C,0,185408,,255,255,255 F,1,185408,187408,0.9,0 S,1,185408,187408,0.25,0.5
Sprite,Background,Centre,"sb\ring.png",0,0 M,0,185558,,360,299 C,0,185558,,255,255,255 F,1,185558,187558,0.9,0 S,1,185558,187558,0.25,0.5
Sprite,Background,Centre,"sb\ring.png",0,0 M,0,185708,,387,401 C,0,185708,,255,255,255 F,1,185708,187708,0.9,0 S,1,185708,187708,0.25,0.5
Sprite,Background,Centre,"sb\ring.png",0,0 M,0,185858,,288,266 C,0,185858,,255,255,255 F,1,185858,187858,0.9,0 S,1,185858,187858,0.25,0.5
Sprite,Background,Centre,"sb\ring.png",0,0 M,0,186008,,498,360 C,0,186008,,255,255,255 F,1,186008,188008,0.9,0 S,1,186008,188008,0.25,0.5
Sprite,Background,Centre,"sb\ring.png",0,0 M,0,186158,,351,212 C,0,186158,,255,255,255 F,1,186158,188158,0.9,0 S,1,186158,188158,0.25,0.5
Sprite,Background,Centre,"sb\ring.png",0,0 M,0,186308,,498,212 C,0,186308,,255,255,255 F,1,186308,188308,0.9,0 S,1,186308,188308,0.25,0.5
Sprite,Background,Centre,"sb\ring.png",0,0 M,0,186458,,407,77 C,0,186458,,255,255,255 F,1,186458,188608,0.9,0 S,1,186458,188608,0.25,0.5
Sprite,Background,Centre,"sb\ring.png",0,0 M,0,186758,,86,124 C,0,186758,,255,255,255 F,1,186758,188758,0.9,0 S,1,186758,188758,0.25,0.5
Sprite,Background,Centre,"sb\ring.png",0,0 M,0,186908,,163,286 C,0,186908,,255,255,255 F,1,186908,189058,0.9,0 S,1,186908,189058,0.25,0.5
Sprite,Background,Centre,"sb\ring.png",0,0 M,0,187208,,320,133 C,0,187208,,255,255,255 F,1,187208,189208,0.9,0 S,1,187208,189208,0.25,0.5
Sprite,Background,Centre,"sb\ring.png",0,0 M,0,187358,,259,81 C,0,187358,,255,255,255 F,1,187358,189358,0.9,0 S,1,187358,189358,0.25,0.5
Sprite,Background,Centre,"sb\ring.png",0,0 M,0,187508,,242,280 C,0,187508,,255,255,255 F,1,187508,189508,0.9,0 S,1,187508,189508,0.25,0.5
Sprite,Background,Centre,"sb\ring.png",0,0 M,0,187658,,185,103 C,0,187658,,255,255,255 F,1,187658,189658,0.9,0 S,1,187658,189658,0.25,0.5
Sprite,Background,Centre,"sb\ring.png",0,0 M,0,187808,,70,205 C,0,187808,,255,255,255 F,1,187808,189808,0.9,0 S,1,187808,189808,0.25,0.5
Sprite,Background,Centre,"sb\ring.png",0,0 M,0,187958,,321,293 C,0,187958,,255,255,255 F,1,187958,189958,0.9,0 S,1,187958,189958,0.25,0.5
Sprite,Background,Centre,"sb\ring.png",0,0 M,0,188108,,101,339 C,0,188108,,255,255,255 F,1,188108,190108,0.9,0 S,1,188108,190108,0.25,0.5
Sprite,Background,Centre,"sb\ring.png",0,0 M,0,188258,,228,420 C,0,188258,,255,255,255 F,1,188258,190258,0.9,0 S,1,188258,190258,0.25,0.5
Sprite,Background,Centre,"sb\ring.png",0,0 M,0,188408,,156,395 C,0,188408,,255,255,255 F,1,188408,190408,0.9,0 S,1,188408,190408,0.25,0.5
Sprite,Background,Centre,"sb\ring.png",0,0 M,0,188558,,242,280 C,0,188558,,255,255,255 F,1,188558,190708,0.9,0 S,1,188558,190708,0.25,0.5
Sprite,Background,Centre,"sb\ring.png",0,0 M,0,188858,,454,336 C,0,188858,,255,255,255 F,1,188858,191008,0.9,0 S,1,188858,191008,0.25,0.5
Sprite,Background,Centre,"sb\ring.png",0,0 M,0,189158,,332,60 C,0,189158,,255,255,255 F,1,189158,191158,0.9,0 S,1,189158,191158,0.25,0.5
Sprite,Background,Centre,"sb\ring.png",0,0 M,0,189308,,320,133 C,0,189308,,255,255,255 F,1,189308,191383,0.9,0 S,1,189308,191383,0.25,0.5
Sprite,Background,Centre,"sb\ring.png",0,0 M,0,189458,,311,204 C,0,189458,,255,255,255 F,1,189458,191458,0.9,0 S,1,189458,191458,0.25,0.5
Sprite,Background,Centre,"sb\ring.png",0,0 M,0,189608,,364,263 C,0,189608,,255,255,255 F,1,189608,191608,0.9,0 S,1,189608,191608,0.25,0.5
Sprite,Background,Centre,"sb\ring.png",0,0 M,0,189758,,118,266 C,0,189758,,255,255,255 F,1,189758,191758,0.9,0 S,1,189758,191758,0.25,0.5
Sprite,Background,Centre,"sb\ring.png",0,0 M,0,189908,,266,270 C,0,189908,,255,255,255 F,1,189908,192058,0.9,0 S,1,189908,192058,0.25,0.5
Sprite,Background,Centre,"sb\ring.png",0,0 M,0,190208,,190,306 C,0,190208,,255,255,255 F,1,190208,192283,0.9,0 S,1,190208,192283,0.25,0.5
Sprite,Background,Centre,"sb\ring.png",0,0 M,0,190358,,109,341 C,0,190358,,255,255,255 F,1,190358,192358,0.9,0 S,1,190358,192358,0.25,0.5
Sprite,Background,Centre,"sb\ring.png",0,0 M,0,190508,,320,191 C,0,190508,,255,255,255 F,1,190508,192508,0.9,0 S,1,190508,192508,0.25,0.5
Sprite,Background,Centre,"sb\ring.png",0,0 M,0,190658,,531,341 C,0,190658,,255,255,255 F,1,190658,192658,0.9,0 S,1,190658,192658,0.25,0.5
Sprite,Background,Centre,"sb\ring.png",0,0 M,0,190808,,328,278 C,0,190808,,255,255,255 F,1,190808,192808,0.9,0 S,1,190808,192808,0.25,0.5
Sprite,Background,Centre,"sb\ring.png",0,0 M,0,190958,,561,262 C,0,190958,,255,255,255 F,1,190958,192958,0.9,0 S,1,190958,192958,0.25,0.5
Sprite,Background,Centre,"sb\ring.png",0,0 M,0,191108,,360,353 C,0,191108,,255,255,255 F,1,191108,193108,0.9,0 S,1,191108,193108,0.25,0.5
Sprite,Background,Centre,"sb\ring.png",0,0 M,0,191258,,562,413 C,0,191258,,255,255,255 F,1,191258,193258,0.9,0 S,1,191258,193258,0.25,0.5
Sprite,Background,Centre,"sb\ring.png",0,0 M,0,191408,,339,426 C,0,191408,,255,255,255 F,1,191408,193408,0.9,0 S,1,191408,193408,0.25,0.5
Sprite,Background,Centre,"sb\ring.png",0,0 M,0,191558,,413,177 C,0,191558,,255,255,255 F,1,191558,193708,0.9,0 S,1,191558,193708,0.25,0.5
Sprite,Background,Centre,"sb\ring.png",0,0 M,0,191858,,121,139 C,0,191858,,255,255,255 F,1,191858,193858,0.9,0 S,1,191858,193858,0.25,0.5
Sprite,Background,Centre,"sb\ring.png",0,0 M,0,192008,,134,209 C,0,192008,,255,255,255 F,1,192008,194008,0.9,0 S,1,192008,194008,0.25,0.5
Sprite,Background,Centre,"sb\ring.png",0,0 M,0,192158,,147,278 C,0,192158,,255,255,255 F,1,192158,194158,0.9,0 S,1,192158,194158,0.25,0.5
Sprite,Background,Centre,"sb\ring.png",0,0 M,0,192308,,360,111 C,0,192308,,255,255,255 F,1,192308,194308,0.9,0 S,1,192308,194308,0.25,0.5
Sprite,Background,Centre,"sb\ring.png",0,0 M,0,192458,,303,165 C,0,192458,,255,255,255 F,1,192458,194608,0.9,0 S,1,192458,194608,0.25,0.5
Sprite,Background,Centre,"sb\ring.png",0,0 M,0,192758,,430,56 C,0,192758,,255,255,255 F,1,192758,194758,0.9,0 S,1,192758,194758,0.25,0.5
Sprite,Background,Centre,"sb\ring.png",0,0 M,0,192908,,483,246 C,0,192908,,255,255,255 F,1,192908,194908,0.9,0 S,1,192908,194908,0.25,0.5
Sprite,Background,Centre,"sb\ring.png",0,0 M,0,193058,,522,106 C,0,193058,,255,255,255 F,1,193058,195058,0.9,0 S,1,193058,195058,0.25,0.5
Sprite,Background,Centre,"sb\ring.png",0,0 M,0,193208,,452,134 C,0,193208,,255,255,255 F,1,193208,195208,0.9,0 S,1,193208,195208,0.25,0.5
Sprite,Background,Centre,"sb\ring.png",0,0 M,0,193358,,528,120 C,0,193358,,255,255,255 F,1,193358,195358,0.9,0 S,1,193358,195358,0.25,0.5
Sprite,Background,Centre,"sb\ring.png",0,0 M,0,193508,,405,291 C,0,193508,,255,255,255 F,1,193508,195658,0.9,0 S,1,193508,195658,0.25,0.5
Sprite,Background,Centre,"sb\ring.png",0,0 M,0,193808,,90,403 C,0,193808,,255,255,255 F,1,193808,195808,0.9,0 S,1,193808,195808,0.25,0.5
Sprite,Background,Centre,"sb\ring.png",0,0 M,0,193958,,132,240 C,0,193958,,255,255,255 F,1,193958,195958,0.9,0 S,1,193958,195958,0.25,0.5
Sprite,Background,Centre,"sb\ring.png",0,0 M,0,194108,,174,77 C,0,194108,,255,255,255 F,1,194108,196108,0.9,0 S,1,194108,196108,0.25,0.5
Sprite,Background,Centre,"sb\ring.png",0,0 M,0,194258,,247,64 C,0,194258,,255,255,255 F,1,194258,196408,0.9,0 S,1,194258,196408,0.25,0.5
Sprite,Background,Centre,"sb\ring.png",0,0 M,0,194558,,98,310 C,0,194558,,255,255,255 F,1,194558,196558,0.9,0 S,1,194558,196558,0.25,0.5
Sprite,Background,Centre,"sb\ring.png",0,0 M,0,194708,,172,316 C,0,194708,,255,255,255 F,1,194708,196708,0.9,0 S,1,194708,196708,0.25,0.5
Sprite,Background,Centre,"sb\ring.png",0,0 M,0,194858,,203,388 C,0,194858,,255,255,255 F,1,194858,196858,0.9,0 S,1,194858,196858,0.25,0.5
Sprite,Background,Centre,"sb\ring.png",0,0 M,0,195008,,335,320 C,0,195008,,255,255,255 F,1,195008,197008,0.9,0 S,1,195008,197008,0.25,0.5
Sprite,Background,Centre,"sb\ring.png",0,0 M,0,195158,,405,291 C,0,195158,,255,255,255 F,1,195158,197308,0.9,0 S,1,195158,197308,0.25,0.5
Sprite,Background,Centre,"sb\ring.png",0,0 M,0,195458,,98,107 C,0,195458,,255,255,255 F,1,195458,197858,0.9,0 S,1,195458,197858,0.25,0.5
Sprite,Background,Centre,"sb\ring.png",0,0 M,0,196058,,291,204 C,0,196058,,255,255,255 F,1,196058,198258,0.9,0 S,1,196058,198258,0.25,0.5
Sprite,Background,Centre,"sb\ring.png",0,0 M,0,196508,,522,58 C,0,196508,,255,255,255 F,1,196508,198508,0.9,0 S,1,196508,198508,0.25,0.5
Sprite,Background,Centre,"sb\ring.png",0,0 M,0,196658,,450,83 C,0,196658,,255,255,255 F,1,196658,198658,0.9,0 S,1,196658,198658,0.25,0.5
Sprite,Background,Centre,"sb\ring.png",0,0 M,0,196808,,527,70 C,0,196808,,255,255,255 F,1,196808,198808,0.9,0 S,1,196808,198808,0.25,0.5
Sprite,Background,Centre,"sb\ring.png",0,0 M,0,196958,,494,245 C,0,196958,,255,255,255 F,1,196958,198958,0.9,0 S,1,196958,198958,0.25,0.5
Sprite,Background,Centre,"sb\ring.png",0,0 M,0,197108,,374,72 C,0,197108,,255,255,255 F,1,197108,199183,0.9,0 S,1,197108,199183,0.25,0.5
Sprite,Background,Centre,"sb\ring.png",0,0 M,0,197258,,566,205 C,0,197258,,255,255,255 F,1,197258,199258,0.9,0 S,1,197258,199258,0.25,0.5
Sprite,Background,Centre,"sb\ring.png",0,0 M,0,197408,,278,212 C,0,197408,,255,255,255 F,1,197408,199483,0.9,0 S,1,197408,199483,0.25,0.5
Sprite,Background,Centre,"sb\ring.png",0,0 M,0,197558,,576,132 C,0,197558,,255,255,255 F,1,197558,199558,0.9,0 S,1,197558,199558,0.25,0.5
Sprite,Background,Centre,"sb\ring.png",0,0 M,0,197708,,347,346 C,0,197708,,255,255,255 F,1,197708,199858,0.9,0 S,1,197708,199858,0.25,0.5
Sprite,Background,Centre,"sb\ring.png",0,0 M,0,198158,,347,346 C,0,198158,,255,255,255 F,1,198158,200158,0.9,0 S,1,198158,200158,0.25,0.5
Sprite,Background,Centre,"sb\ring.png",0,0 M,0,198308,,422,65 C,0,198308,,255,255,255 F,1,198308,200308,0.9,0 S,1,198308,200308,0.25,0.5
Sprite,Background,Centre,"sb\ring.png",0,0 M,0,198458,,411,301 C,0,198458,,255,255,255 F,1,198458,200458,0.9,0 S,1,198458,200458,0.25,0.5
Sprite,Background,Centre,"sb\ring.png",0,0 M,0,198608,,356,103 C,0,198608,,255,255,255 F,1,198608,200608,0.9,0 S,1,198608,200608,0.25,0.5
Sprite,Background,Centre,"sb\ring.png",0,0 M,0,198758,,460,216 C,0,198758,,255,255,255 F,1,198758,200758,0.9,0 S,1,198758,200758,0.25,0.5
Sprite,Background,Centre,"sb\ring.png",0,0 M,0,198908,,375,205 C,0,198908,,255,255,255 F,1,198908,200908,0.9,0 S,1,198908,200908,0.25,0.5
Sprite,Background,Centre,"sb\ring.png",0,0 M,0,199058,,291,190 C,0,199058,,255,255,255 F,1,199058,201058,0.9,0 S,1,199058,201058,0.25,0.5
Sprite,Background,Centre,"sb\ring.png",0,0 M,0,199208,,442,374 C,0,199208,,255,255,255 F,1,199208,201208,0.9,0 S,1,199208,201208,0.25,0.5
Sprite,Background,Centre,"sb\ring.png",0,0 M,0,199358,,356,103 C,0,199358,,255,255,255 F,1,199358,201358,0.9,0 S,1,199358,201358,0.25,0.5
Sprite,Background,Centre,"sb\ring.png",0,0 M,0,199508,,191,390 C,0,199508,,255,255,255 F,1,199508,201583,0.9,0 S,1,199508,201583,0.25,0.5
Sprite,Background,Centre,"sb\ring.png",0,0 M,0,199808,,424,66 C,0,199808,,255,255,255 F,1,199808,201958,0.9,0 S,1,199808,201958,0.25,0.5
Sprite,Background,Centre,"sb\ring.png",0,0 M,0,200108,,138,293 C,0,200108,,255,255,255 F,1,200108,202183,0.9,0 S,1,200108,202183,0.25,0.5
Sprite,Background,Centre,"sb\ring.png",0,0 M,0,200558,,138,293 C,0,200558,,255,255,255 F,1,200558,202783,0.9,0 S,1,200558,202783,0.25,0.5
Sprite,Background,Centre,"sb\ring.png",0,0 M,0,200858,,434,257 C,0,200858,,255,255,255 F,1,200858,202858,0.9,0 S,1,200858,202858,0.25,0.5
Sprite,Background,Centre,"sb\ring.png",0,0 M,0,201008,,375,317 C,0,201008,,255,255,255 F,1,201008,203008,0.9,0 S,1,201008,203008,0.25,0.5
Sprite,Background,Centre,"sb\ring.png",0,0 M,0,201158,,546,425 C,0,201158,,255,255,255 F,1,201158,203233,0.9,0 S,1,201158,203233,0.25,0.5
Sprite,Background,Centre,"sb\ring.png",0,0 M,0,201308,,485,194 C,0,201308,,255,255,255 F,1,201308,203383,0.9,0 S,1,201308,203383,0.25,0.5
Sprite,Background,Centre,"sb\ring.png",0,0 M,0,201458,,361,62 C,0,201458,,255,255,255 F,1,201458,203608,0.9,0 S,1,201458,203608,0.25,0.5
Sprite,Background,Centre,"sb\ring.png",0,0 M,0,201758,,428,380 C,0,201758,,255,255,255 F,1,201758,203758,0.9,0 S,1,201758,203758,0.25,0.5
Sprite,Background,Centre,"sb\ring.png",0,0 M,0,201908,,375,317 C,0,201908,,255,255,255 F,1,201908,203908,0.9,0 S,1,201908,203908,0.25,0.5
Sprite,Background,Centre,"sb\ring.png",0,0 M,0,202058,,347,397 C,0,202058,,255,255,255 F,1,202058,204058,0.9,0 S,1,202058,204058,0.25,0.5
Sprite,Background,Centre,"sb\ring.png",0,0 M,0,202208,,485,194 C,0,202208,,255,255,255 F,1,202208,204208,0.9,0 S,1,202208,204208,0.25,0.5
Sprite,Background,Centre,"sb\ring.png",0,0 M,0,202358,,375,317 C,0,202358,,255,255,255 F,1,202358,204583,0.9,0 S,1,202358,204583,0.25,0.5
Sprite,Background,Centre,"sb\ring.png",0,0 M,0,202658,,127,143 C,0,202658,,255,255,255 F,1,202658,204808,0.9,0 S,1,202658,204808,0.25,0.5
Sprite,Background,Centre,"sb\ring.png",0,0 M,0,202958,,181,190 C,0,202958,,255,255,255 F,1,202958,205033,0.9,0 S,1,202958,205033,0.25,0.5
Sprite,Background,Centre,"sb\ring.png",0,0 M,0,203108,,70,309 C,0,203108,,255,255,255 F,1,203108,205183,0.9,0 S,1,203108,205183,0.25,0.5
Sprite,Background,Centre,"sb\ring.png",0,0 M,0,203258,,363,227 C,0,203258,,255,255,255 F,1,203258,205258,0.9,0 S,1,203258,205258,0.25,0.5
Sprite,Background,Centre,"sb\ring.png",0,0 M,0,203408,,141,348 C,0,203408,,255,255,255 F,1,203408,205408,0.9,0 S,1,203408,205408,0.25,0.5
Sprite,Background,Centre,"sb\ring.png",0,0 M,0,203558,,308,419 C,0,203558,,255,255,255 F,1,203558,205633,0.9,0 S,1,203558,205633,0.25,0.5
Sprite,Background,Centre,"sb\ring.png",0,0 M,0,203708,,419,144 C,0,203708,,255,255,255 F,1,203708,205858,0.9,0 S,1,203708,205858,0.25,0.5
Sprite,Background,Centre,"sb\ring.png",0,0 M,0,204008,,392,314 C,0,204008,,255,255,255 F,1,204008,206008,0.9,0 S,1,204008,206008,0.25,0.5
Sprite,Background,Centre,"sb\ring.png",0,0 M,0,204158,,320,72 C,0,204158,,255,255,255 F,1,204158,206158,0.9,0 S,1,204158,206158,0.25,0.5
Sprite,Background,Centre,"sb\ring.png",0,0 M,0,204308,,254,115 C,0,204308,,255,255,255 F,1,204308,206308,0.9,0 S,1,204308,206308,0.25,0.5
Sprite,Background,Centre,"sb\ring.png",0,0 M,0,204458,,319,150 C,0,204458,,255,255,255 F,1,204458,206458,0.9,0 S,1,204458,206458,0.25,0.5
Sprite,Background,Centre,"sb\ring.png",0,0 M,0,204608,,392,314 C,0,204608,,255,255,255 F,1,204608,206683,0.9,0 S,1,204608,206683,0.25,0.5
Sprite,Background,Centre,"sb\ring.png",0,0 M,0,204758,,178,140 C,0,204758,,255,255,255 F,1,204758,206833,0.9,0 S,1,204758,206833,0.25,0.5
Sprite,Background,Centre,"sb\ring.png",0,0 M,0,204908,,218,328 C,0,204908,,255,255,255 F,1,204908,206983,0.9,0 S,1,204908,206983,0.25,0.5
Sprite,Background,Centre,"sb\ring.png",0,0 M,0,205058,,92,154 C,0,205058,,255,255,255 F,1,205058,207208,0.9,0 S,1,205058,207208,0.25,0.5
Sprite,Background,Centre,"sb\ring.png",0,0 M,0,205358,,312,295 C,0,205358,,255,255,255 F,1,205358,207358,0.9,0 S,1,205358,207358,0.25,0.5
Sprite,Background,Centre,"sb\ring.png",0,0 M,0,205508,,392,314 C,0,205508,,255,255,255 F,1,205508,207508,0.9,0 S,1,205508,207508,0.25,0.5
Sprite,Background,Centre,"sb\ring.png",0,0 M,0,205658,,332,372 C,0,205658,,255,255,255 F,1,205658,207658,0.9,0 S,1,205658,207658,0.25,0.5
Sprite,Background,Centre,"sb\ring.png",0,0 M,0,205808,,169,437 C,0,205808,,255,255,255 F,1,205808,207883,0.9,0 S,1,205808,207883,0.25,0.5
Sprite,Background,Centre,"sb\ring.png",0,0 M,0,205958,,71,304 C,0,205958,,255,255,255 F,1,205958,208033,0.9,0 S,1,205958,208033,0.25,0.5
Sprite,Background,Centre,"sb\ring.png",0,0 M,0,206108,,92,154 C,0,206108,,255,255,255 F,1,206108,208333,0.9,0 S,1,206108,208333,0.25,0.5
Sprite,Background,Centre,"sb\ring.png",0,0 M,0,206408,,166,189 C,0,206408,,255,255,255 F,1,206408,208408,0.9,0 S,1,206408,208408,0.25,0.5
Sprite,Background,Centre,"sb\ring.png",0,0 M,0,206558,,338,375 C,0,206558,,255,255,255 F,1,206558,208558,0.9,0 S,1,206558,208558,0.25,0.5
Sprite,Background,Centre,"sb\ring.png",0,0 M,0,206708,,405,420 C,0,206708,,255,255,255 F,1,206708,208708,0.9,0 S,1,206708,208708,0.25,0.5
Sprite,Background,Centre,"sb\ring.png",0,0 M,0,206858,,483,405 C,0,206858,,255,255,255 F,1,206858,208858,0.9,0 S,1,206858,208858,0.25,0.5
Sprite,Background,Centre,"sb\ring.png",0,0 M,0,207008,,538,214 C,0,207008,,255,255,255 F,1,207008,209008,0.9,0 S,1,207008,209008,0.25,0.5
Sprite,Background,Centre,"sb\ring.png",0,0 M,0,207158,,509,235 C,0,207158,,255,255,255 F,1,207158,209158,0.9,0 S,1,207158,209158,0.25,0.5
Sprite,Background,Centre,"sb\ring.png",0,0 M,0,207308,,505,256 C,0,207308,,255,255,255 F,1,207308,209308,0.9,0 S,1,207308,209308,0.25,0.5
Sprite,Background,Centre,"sb\ring.png",0,0 M,0,207458,,249,390 C,0,207458,,255,255,255 F,1,207458,209758,0.9,0 S,1,207458,209758,0.25,0.5
Sprite,Background,Centre,"sb\ring.png",0,0 M,0,207833,,181,310 C,0,207833,,255,255,255 F,1,207833,209833,0.9,0 S,1,207833,209833,0.25,0.5
Sprite,Background,Centre,"sb\ring.png",0,0 M,0,207908,,179,303 C,0,207908,,255,255,255 F,1,207908,210133,0.9,0 S,1,207908,210133,0.25,0.5
Sprite,Background,Centre,"sb\ring.png",0,0 M,0,208208,,96,426 C,0,208208,,255,255,255 F,1,208208,210283,0.9,0 S,1,208208,210283,0.25,0.5
Sprite,Background,Centre,"sb\ring.png",0,0 M,0,208358,,268,125 C,0,208358,,255,255,255 F,1,208358,210433,0.9,0 S,1,208358,210433,0.25,0.5
Sprite,Background,Centre,"sb\ring.png",0,0 M,0,208508,,273,286 C,0,208508,,255,255,255 F,1,208508,210658,0.9,0 S,1,208508,210658,0.25,0.5
Sprite,Background,Centre,"sb\ring.png",0,0 M,0,208808,,273,286 C,0,208808,,255,255,255 F,1,208808,210808,0.9,0 S,1,208808,210808,0.25,0.5
Sprite,Background,Centre,"sb\ring.png",0,0 M,0,208958,,492,189 C,0,208958,,255,255,255 F,1,208958,211033,0.9,0 S,1,208958,211033,0.25,0.5
Sprite,Background,Centre,"sb\ring.png",0,0 M,0,209108,,387,417 C,0,209108,,255,255,255 F,1,209108,211183,0.9,0 S,1,209108,211183,0.25,0.5
Sprite,Background,Centre,"sb\ring.png",0,0 M,0,209258,,576,115 C,0,209258,,255,255,255 F,1,209258,211333,0.9,0 S,1,209258,211333,0.25,0.5
Sprite,Background,Centre,"sb\ring.png",0,0 M,0,209408,,198,274 C,0,209408,,255,255,255 F,1,209408,211483,0.9,0 S,1,209408,211483,0.25,0.5
Sprite,Background,Centre,"sb\ring.png",0,0 M,0,209558,,543,420 C,0,209558,,255,255,255 F,1,209558,211783,0.9,0 S,1,209558,211783,0.25,0.5
Sprite,Background,Centre,"sb\ring.png",0,0 M,0,209858,,379,77 C,0,209858,,255,255,255 F,1,209858,212083,0.9,0 S,1,209858,212083,0.25,0.5
Sprite,Background,Centre,"sb\ring.png",0,0 M,0,210158,,521,56 C,0,210158,,255,255,255 F,1,210158,212158,0.9,0 S,1,210158,212158,0.25,0.5
Sprite,Background,Centre,"sb\ring.png",0,0 M,0,210308,,437,128 C,0,210308,,255,255,255 F,1,210308,212308,0.9,0 S,1,210308,212308,0.25,0.5
Sprite,Background,Centre,"sb\ring.png",0,0 M,0,210458,,491,188 C,0,210458,,255,255,255 F,1,210458,212458,0.9,0 S,1,210458,212458,0.25,0.5
Sprite,Background,Centre,"sb\ring.png",0,0 M,0,210608,,576,346 C,0,210608,,255,255,255 F,1,210608,212683,0.9,0 S,1,210608,212683,0.25,0.5
Sprite,Background,Centre,"sb\ring.png",0,0 M,0,210758,,352,169 C,0,210758,,255,255,255 F,1,210758,212833,0.9,0 S,1,210758,212833,0.25,0.5
Sprite,Background,Centre,"sb\ring.png",0,0 M,0,210908,,186,405 C,0,210908,,255,255,255 F,1,210908,213208,0.9,0 S,1,210908,213208,0.25,0.5
Sprite,Background,Centre,"sb\ring.png",0,0 M,0,211358,,205,320 C,0,211358,,255,255,255 F,1,211358,213433,0.9,0 S,1,211358,213433,0.25,0.5
Sprite,Background,Centre,"sb\ring.png",0,0 M,0,211508,,398,241 C,0,211508,,255,255,255 F,1,211508,213658,0.9,0 S,1,211508,213658,0.25,0.5
Sprite,Background,Centre,"sb\ring.png",0,0 M,0,211808,,208,205 C,0,211808,,255,255,255 F,1,211808,213808,0.9,0 S,1,211808,213808,0.25,0.5
Sprite,Background,Centre,"sb\ring.png",0,0 M,0,211958,,417,316 C,0,211958,,255,255,255 F,1,211958,213958,0.9,0 S,1,211958,213958,0.25,0.5
Sprite,Background,Centre,"sb\ring.png",0,0 M,0,212108,,89,413 C,0,212108,,255,255,255 F,1,212108,214108,0.9,0 S,1,212108,214108,0.25,0.5
Sprite,Background,Centre,"sb\ring.png",0,0 M,0,212258,,223,113 C,0,212258,,255,255,255 F,1,212258,214258,0.9,0 S,1,212258,214258,0.25,0.5
Sprite,Background,Centre,"sb\ring.png",0,0 M,0,212408,,156,84 C,0,212408,,255,255,255 F,1,212408,214707,0.9,0 S,1,212408,214707,0.25,0.5
Sprite,Background,Centre,"sb\ring.png",0,0 M,0,212858,,205,320 C,0,212858,,255,255,255 F,1,212858,214858,0.9,0 S,1,212858,214858,0.25,0.5
Sprite,Background,Centre,"sb\ring.png",0,0 M,0,213008,,159,377 C,0,213008,,255,255,255 F,1,213008,215158,0.9,0 S,1,213008,215158,0.25,0.5
Sprite,Background,Centre,"sb\ring.png",0,0 M,0,213308,,121,90 C,0,213308,,255,255,255 F,1,213308,215308,0.9,0 S,1,213308,215308,0.25,0.5
Sprite,Background,Centre,"sb\ring.png",0,0 M,0,213458,,139,133 C,0,213458,,255,255,255 F,1,213458,215458,0.9,0 S,1,213458,215458,0.25,0.5
Sprite,Background,Centre,"sb\ring.png",0,0 M,0,213608,,222,184 C,0,213608,,255,255,255 F,1,213608,215608,0.9,0 S,1,213608,215608,0.25,0.5
Sprite,Background,Centre,"sb\ring.png",0,0 M,0,213758,,367,211 C,0,213758,,255,255,255 F,1,213758,215758,0.9,0 S,1,213758,215758,0.25,0.5
Sprite,Background,Centre,"sb\ring.png",0,0 M,0,213908,,559,115 C,0,213908,,255,255,255 F,1,213908,215982,0.9,0 S,1,213908,215982,0.25,0.5
Sprite,Background,Centre,"sb\ring.png",0,0 M,0,214058,,308,164 C,0,214058,,255,255,255 F,1,214058,216058,0.9,0 S,1,214058,216058,0.25,0.5
Sprite,Background,Centre,"sb\ring.png",0,0 M,0,214133,,289,203 C,0,214133,,255,255,255 F,1,214133,216133,0.9,0 S,1,214133,216133,0.25,0.5
Sprite,Background,Centre,"sb\ring.png",0,0 M,0,214208,,294,240 C,0,214208,,255,255,255 F,1,214208,216282,0.9,0 S,1,214208,216282,0.25,0.5
Sprite,Background,Centre,"sb\ring.png",0,0 M,0,214358,,576,402 C,0,214358,,255,255,255 F,1,214358,216358,0.9,0 S,1,214358,216358,0.25,0.5
Sprite,Background,Centre,"sb\ring.png",0,0 M,0,214433,,530,396 C,0,214433,,255,255,255 F,1,214433,216433,0.9,0 S,1,214433,216433,0.25,0.5
Sprite,Background,Centre,"sb\ring.png",0,0 M,0,214508,,482,388 C,0,214508,,255,255,255 F,1,214508,216582,0.9,0 S,1,214508,216582,0.25,0.5
Sprite,Background,Centre,"sb\ring.png",0,0 M,0,214658,,293,79 C,0,214658,,255,255,255 F,1,214658,216958,0.9,0 S,1,214658,216958,0.25,0.5
Sprite,Background,Centre,"sb\ring.png",0,0 M,0,215033,,125,199 C,0,215033,,255,255,255 F,1,215033,217033,0.9,0 S,1,215033,217033,0.25,0.5
Sprite,Background,Centre,"sb\ring.png",0,0 M,0,215108,,138,196 C,0,215108,,255,255,255 F,1,215108,217258,0.9,0 S,1,215108,217258,0.25,0.5
Sprite,Background,Centre,"sb\ring.png",0,0 M,0,215408,,307,165 C,0,215408,,255,255,255 F,1,215408,217483,0.9,0 S,1,215408,217483,0.25,0.5
Sprite,Background,Centre,"sb\ring.png",0,0 M,0,215558,,508,215 C,0,215558,,255,255,255 F,1,215558,217633,0.9,0 S,1,215558,217633,0.25,0.5
Sprite,Background,Centre,"sb\ring.png",0,0 M,0,215708,,423,436 C,0,215708,,255,255,255 F,1,215708,217783,0.9,0 S,1,215708,217783,0.25,0.5
Sprite,Background,Centre,"sb\ring.png",0,0 M,0,215858,,491,299 C,0,215858,,255,255,255 F,1,215858,217933,0.9,0 S,1,215858,217933,0.25,0.5
Sprite,Background,Centre,"sb\ring.png",0,0 M,0,216008,,324,420 C,0,216008,,255,255,255 F,1,216008,218008,0.9,0 S,1,216008,218008,0.25,0.5
Sprite,Background,Centre,"sb\ring.png",0,0 M,0,216158,,508,215 C,0,216158,,255,255,255 F,1,216158,218158,0.9,0 S,1,216158,218158,0.25,0.5
Sprite,Background,Centre,"sb\ring.png",0,0 M,0,216308,,307,165 C,0,216308,,255,255,255 F,1,216308,218308,0.9,0 S,1,216308,218308,0.25,0.5
Sprite,Background,Centre,"sb\ring.png",0,0 M,0,216458,,396,253 C,0,216458,,255,255,255 F,1,216458,218458,0.9,0 S,1,216458,218458,0.25,0.5
Sprite,Background,Centre,"sb\ring.png",0,0 M,0,216608,,508,215 C,0,216608,,255,255,255 F,1,216608,218608,0.9,0 S,1,216608,218608,0.25,0.5
Sprite,Background,Centre,"sb\ring.png",0,0 M,0,216758,,501,124 C,0,216758,,255,255,255 F,1,216758,218758,0.9,0 S,1,216758,218758,0.25,0.5
Sprite,Background,Centre,"sb\ring.png",0,0 M,0,216908,,429,175 C,0,216908,,255,255,255 F,1,216908,218908,0.9,0 S,1,216908,218908,0.25,0.5
Sprite,Background,Centre,"sb\ring.png",0,0 M,0,217058,,414,355 C,0,217058,,255,255,255 F,1,217058,219358,0.9,0 S,1,217058,219358,0.25,0.5
Sprite,Background,Centre,"sb\ring.png",0,0 M,0,217433,,539,430 C,0,217433,,255,255,255 F,1,217433,219433,0.9,0 S,1,217433,219433,0.25,0.5
Sprite,Background,Centre,"sb\ring.png",0,0 M,0,217508,,532,426 C,0,217508,,255,255,255 F,1,217508,219583,0.9,0 S,1,217508,219583,0.25,0.5
Sprite,Background,Centre,"sb\ring.png",0,0 M,0,217658,,508,215 C,0,217658,,255,255,255 F,1,217658,219733,0.9,0 S,1,217658,219733,0.25,0.5
Sprite,Background,Centre,"sb\ring.png",0,0 M,0,217808,,414,355 C,0,217808,,255,255,255 F,1,217808,219808,0.9,0 S,1,217808,219808,0.25,0.5
Sprite,Background,Centre,"sb\ring.png",0,0 M,0,217958,,231,329 C,0,217958,,255,255,255 F,1,217958,219958,0.9,0 S,1,217958,219958,0.25,0.5
Sprite,Background,Centre,"sb\ring.png",0,0 M,0,218108,,429,175 C,0,218108,,255,255,255 F,1,218108,220108,0.9,0 S,1,218108,220108,0.25,0.5
Sprite,Background,Centre,"sb\ring.png",0,0 M,0,218258,,168,67 C,0,218258,,255,255,255 F,1,218258,220408,0.9,0 S,1,218258,220408,0.25,0.5
Sprite,Background,Centre,"sb\ring.png",0,0 M,0,218558,,231,329 C,0,218558,,255,255,255 F,1,218558,220558,0.9,0 S,1,218558,220558,0.25,0.5
Sprite,Background,Centre,"sb\ring.png",0,0 M,0,218708,,176,388 C,0,218708,,255,255,255 F,1,218708,220708,0.9,0 S,1,218708,220708,0.25,0.5
Sprite,Background,Centre,"sb\ring.png",0,0 M,0,218858,,437,263 C,0,218858,,255,255,255 F,1,218858,221008,0.9,0 S,1,218858,221008,0.25,0.5
Sprite,Background,Centre,"sb\ring.png",0,0 M,0,219158,,101,347 C,0,219158,,255,255,255 F,1,219158,221158,0.9,0 S,1,219158,221158,0.25,0.5
Sprite,Background,Centre,"sb\ring.png",0,0 M,0,219308,,324,287 C,0,219308,,255,255,255 F,1,219308,221308,0.9,0 S,1,219308,221308,0.25,0.5
Sprite,Background,Centre,"sb\ring.png",0,0 M,0,219458,,86,167 C,0,219458,,255,255,255 F,1,219458,221758,0.9,0 S,1,219458,221758,0.25,0.5
Sprite,Background,Centre,"sb\ring.png",0,0 M,0,219833,,229,57 C,0,219833,,255,255,255 F,1,219833,221833,0.9,0 S,1,219833,221833,0.25,0.5
Sprite,Background,Centre,"sb\ring.png",0,0 M,0,219908,,227,63 C,0,219908,,255,255,255 F,1,219908,221983,0.9,0 S,1,219908,221983,0.25,0.5
Sprite,Background,Centre,"sb\ring.png",0,0 M,0,220058,,280,208 C,0,220058,,255,255,255 F,1,220058,222133,0.9,0 S,1,220058,222133,0.25,0.5
Sprite,Background,Centre,"sb\ring.png",0,0 M,0,220208,,486,177 C,0,220208,,255,255,255 F,1,220208,222508,0.9,0 S,1,220208,222508,0.25,0.5
Sprite,Background,Centre,"sb\ring.png",0,0 M,0,220658,,235,390 C,0,220658,,255,255,255 F,1,220658,222807,0.9,0 S,1,220658,222807,0.25,0.5
Sprite,Background,Centre,"sb\ring.png",0,0 M,0,220958,,64,85 C,0,220958,,255,255,255 F,1,220958,222958,0.9,0 S,1,220958,222958,0.25,0.5
Sprite,Background,Centre,"sb\ring.png",0,0 M,0,221108,,280,208 C,0,221108,,255,255,255 F,1,221108,223108,0.9,0 S,1,221108,223108,0.25,0.5
Sprite,Background,Centre,"sb\ring.png",0,0 M,0,221258,,76,428 C,0,221258,,255,255,255 F,1,221258,223408,0.9,0 S,1,221258,223408,0.25,0.5
Sprite,Background,Centre,"sb\ring.png",0,0 M,0,221558,,331,406 C,0,221558,,255,255,255 F,1,221558,223558,0.9,0 S,1,221558,223558,0.25,0.5
Sprite,Background,Centre,"sb\ring.png",0,0 M,0,221708,,235,390 C,0,221708,,255,255,255 F,1,221708,223708,0.9,0 S,1,221708,223708,0.25,0.5
Sprite,Background,Centre,"sb\ring.png",0,0 M,0,221858,,170,115 C,0,221858,,255,255,255 F,1,221858,224158,0.9,0 S,1,221858,224158,0.25,0.5
Sprite,Background,Centre,"sb\ring.png",0,0 M,0,222233,,67,85 C,0,222233,,255,255,255 F,1,222233,224233,0.9,0 S,1,222233,224233,0.25,0.5
Sprite,Background,Centre,"sb\ring.png",0,0 M,0,222308,,70,93 C,0,222308,,255,255,255 F,1,222308,224383,0.9,0 S,1,222308,224383,0.25,0.5
Sprite,Background,Centre,"sb\ring.png",0,0 M,0,222458,,262,306 C,0,222458,,255,255,255 F,1,222458,224533,0.9,0 S,1,222458,224533,0.25,0.5
Sprite,Background,Centre,"sb\ring.png",0,0 M,0,222608,,115,249 C,0,222608,,255,255,255 F,1,222608,224608,0.9,0 S,1,222608,224608,0.25,0.5
Sprite,Background,Centre,"sb\ring.png",0,0 M,0,222758,,279,207 C,0,222758,,255,255,255 F,1,222758,224758,0.9,0 S,1,222758,224758,0.25,0.5
Sprite,Background,Centre,"sb\ring.png",0,0 M,0,222908,,353,139 C,0,222908,,255,255,255 F,1,222908,224908,0.9,0 S,1,222908,224908,0.25,0.5
Sprite,Background,Centre,"sb\ring.png",0,0 M,0,223058,,348,59 C,0,223058,,255,255,255 F,1,223058,225208,0.9,0 S,1,223058,225208,0.25,0.5
Sprite,Background,Centre,"sb\ring.png",0,0 M,0,223358,,274,129 C,0,223358,,255,255,255 F,1,223358,225433,0.9,0 S,1,223358,225433,0.25,0.5
Sprite,Background,Centre,"sb\ring.png",0,0 M,0,223508,,64,311 C,0,223508,,255,255,255 F,1,223508,225583,0.9,0 S,1,223508,225583,0.25,0.5
Sprite,Background,Centre,"sb\ring.png",0,0 M,0,223658,,348,59 C,0,223658,,255,255,255 F,1,223658,225658,0.9,0 S,1,223658,225658,0.25,0.5
Sprite,Background,Centre,"sb\ring.png",0,0 M,0,223808,,208,176 C,0,223808,,255,255,255 F,1,223808,225808,0.9,0 S,1,223808,225808,0.25,0.5
Sprite,Background,Centre,"sb\ring.png",0,0 M,0,223958,,64,73 C,0,223958,,255,255,255 F,1,223958,225958,0.9,0 S,1,223958,225958,0.25,0.5
Sprite,Background,Centre,"sb\ring.png",0,0 M,0,224108,,111,162 C,0,224108,,255,255,255 F,1,224108,226108,0.9,0 S,1,224108,226108,0.25,0.5
Sprite,Background,Centre,"sb\ring.png",0,0 M,0,224258,,353,139 C,0,224258,,255,255,255 F,1,224258,226558,0.9,0 S,1,224258,226558,0.25,0.5
Sprite,Background,Centre,"sb\ring.png",0,0 M,0,224633,,281,349 C,0,224633,,255,255,255 F,1,224633,226633,0.9,0 S,1,224633,226633,0.25,0.5
Sprite,Background,Centre,"sb\ring.png",0,0 M,0,224708,,287,354 C,0,224708,,255,255,255 F,1,224708,226783,0.9,0 S,1,224708,226783,0.25,0.5
Sprite,Background,Centre,"sb\ring.png",0,0 M,0,224858,,448,440 C,0,224858,,255,255,255 F,1,224858,226933,0.9,0 S,1,224858,226933,0.25,0.5
Sprite,Background,Centre,"sb\ring.png",0,0 M,0,225008,,353,139 C,0,225008,,255,255,255 F,1,225008,227008,0.9,0 S,1,225008,227008,0.25,0.5
Sprite,Background,Centre,"sb\ring.png",0,0 M,0,225158,,444,283 C,0,225158,,255,255,255 F,1,225158,227158,0.9,0 S,1,225158,227158,0.25,0.5
Sprite,Background,Centre,"sb\ring.png",0,0 M,0,225308,,569,315 C,0,225308,,255,255,255 F,1,225308,227308,0.9,0 S,1,225308,227308,0.25,0.5
Sprite,Background,Centre,"sb\ring.png",0,0 M,0,225458,,377,57 C,0,225458,,255,255,255 F,1,225458,227608,0.9,0 S,1,225458,227608,0.25,0.5
Sprite,Background,Centre,"sb\ring.png",0,0 M,0,225758,,267,153 C,0,225758,,255,255,255 F,1,225758,227758,0.9,0 S,1,225758,227758,0.25,0.5
Sprite,Background,Centre,"sb\ring.png",0,0 M,0,225908,,523,213 C,0,225908,,255,255,255 F,1,225908,227908,0.9,0 S,1,225908,227908,0.25,0.5
Sprite,Background,Centre,"sb\ring.png",0,0 M,0,226058,,315,301 C,0,226058,,255,255,255 F,1,226058,228058,0.9,0 S,1,226058,228058,0.25,0.5
Sprite,Background,Centre,"sb\ring.png",0,0 M,0,226208,,380,368 C,0,226208,,255,255,255 F,1,226208,228208,0.9,0 S,1,226208,228208,0.25,0.5
Sprite,Background,Centre,"sb\ring.png",0,0 M,0,226358,,360,398 C,0,226358,,255,255,255 F,1,226358,228358,0.9,0 S,1,226358,228358,0.25,0.5
Sprite,Background,Centre,"sb\ring.png",0,0 M,0,226508,,365,412 C,0,226508,,255,255,255 F,1,226508,228508,0.9,0 S,1,226508,228508,0.25,0.5
Sprite,Background,Centre,"sb\ring.png",0,0 M,0,226658,,340,226 C,0,226658,,255,255,255 F,1,226658,228958,0.9,0 S,1,226658,228958,0.25,0.5
Sprite,Background,Centre,"sb\ring.png",0,0 M,0,227033,,482,368 C,0,227033,,255,255,255 F,1,227033,229033,0.9,0 S,1,227033,229033,0.25,0.5
Sprite,Background,Centre,"sb\ring.png",0,0 M,0,227108,,465,362 C,0,227108,,255,255,255 F,1,227108,229183,0.9,0 S,1,227108,229183,0.25,0.5
Sprite,Background,Centre,"sb\ring.png",0,0 M,0,227258,,416,187 C,0,227258,,255,255,255 F,1,227258,229333,0.9,0 S,1,227258,229333,0.25,0.5
Sprite,Background,Centre,"sb\ring.png",0,0 M,0,227408,,114,211 C,0,227408,,255,255,255 F,1,227408,229708,0.9,0 S,1,227408,229708,0.25,0.5
Sprite,Background,Centre,"sb\ring.png",0,0 M,0,227858,,484,103 C,0,227858,,255,255,255 F,1,227858,229933,0.9,0 S,1,227858,229933,0.25,0.5
Sprite,Background,Centre,"sb\ring.png",0,0 M,0,228008,,340,226 C,0,228008,,255,255,255 F,1,228008,230008,0.9,0 S,1,228008,230008,0.25,0.5
Sprite,Background,Centre,"sb\ring.png",0,0 M,0,228158,,505,240 C,0,228158,,255,255,255 F,1,228158,230233,0.9,0 S,1,228158,230233,0.25,0.5
Sprite,Background,Centre,"sb\ring.png",0,0 M,0,228308,,259,214 C,0,228308,,255,255,255 F,1,228308,230308,0.9,0 S,1,228308,230308,0.25,0.5
Sprite,Background,Centre,"sb\ring.png",0,0 M,0,228458,,523,356 C,0,228458,,255,255,255 F,1,228458,230458,0.9,0 S,1,228458,230458,0.25,0.5
Sprite,Background,Centre,"sb\ring.png",0,0 M,0,228608,,388,311 C,0,228608,,255,255,255 F,1,228608,230608,0.9,0 S,1,228608,230608,0.25,0.5
Sprite,Background,Centre,"sb\ring.png",0,0 M,0,228758,,340,226 C,0,228758,,255,255,255 F,1,228758,230758,0.9,0 S,1,228758,230758,0.25,0.5
Sprite,Background,Centre,"sb\ring.png",0,0 M,0,228908,,365,156 C,0,228908,,255,255,255 F,1,228908,230908,0.9,0 S,1,228908,230908,0.25,0.5
Sprite,Background,Centre,"sb\ring.png",0,0 M,0,229058,,180,81 C,0,229058,,255,255,255 F,1,229058,231358,0.9,0 S,1,229058,231358,0.25,0.5
Sprite,Background,Centre,"sb\ring.png",0,0 M,0,229508,,258,56 C,0,229508,,255,255,255 F,1,229508,231508,0.9,0 S,1,229508,231508,0.25,0.5
Sprite,Background,Centre,"sb\ring.png",0,0 M,0,229658,,258,56 C,0,229658,,255,255,255 F,1,229658,231958,0.9,0 S,1,229658,231958,0.25,0.5
Sprite,Background,Centre,"sb\ring.png",0,0 M,0,230108,,116,264 C,0,230108,,255,255,255 F,1,230108,232183,0.9,0 S,1,230108,232183,0.25,0.5
Sprite,Background,Centre,"sb\ring.png",0,0 M,0,230258,,316,267 C,0,230258,,255,255,255 F,1,230258,232483,0.9,0 S,1,230258,232483,0.25,0.5
Sprite,Background,Centre,"sb\ring.png",0,0 M,0,230558,,352,186 C,0,230558,,255,255,255 F,1,230558,232708,0.9,0 S,1,230558,232708,0.25,0.5
Sprite,Background,Centre,"sb\ring.png",0,0 M,0,230783,,396,374 C,0,230783,,255,255,255 F,1,230783,232783,0.9,0 S,1,230783,232783,0.25,0.5
Sprite,Background,Centre,"sb\ring.png",0,0 M,0,230858,,396,374 C,0,230858,,255,255,255 F,1,230858,232933,0.9,0 S,1,230858,232933,0.25,0.5
Sprite,Background,Centre,"sb\ring.png",0,0 M,0,231008,,514,230 C,0,231008,,255,255,255 F,1,231008,233008,0.9,0 S,1,231008,233008,0.25,0.5
Sprite,Background,Centre,"sb\ring.png",0,0 M,0,231083,,519,209 C,0,231083,,255,255,255 F,1,231083,233083,0.9,0 S,1,231083,233083,0.25,0.5
Sprite,Background,Centre,"sb\ring.png",0,0 M,0,231158,,525,188 C,0,231158,,255,255,255 F,1,231158,233158,0.9,0 S,1,231158,233158,0.25,0.5
Sprite,Background,Centre,"sb\ring.png",0,0 M,0,231233,,530,167 C,0,231233,,255,255,255 F,1,231233,233233,0.9,0 S,1,231233,233233,0.25,0.5
Sprite,Background,Centre,"sb\ring.png",0,0 M,0,231308,,535,146 C,0,231308,,255,255,255 F,1,231308,233383,0.9,0 S,1,231308,233383,0.25,0.5
//Storyboard Layer 1 (Fail)
//Storyboard Layer 2 (Pass)
//Storyboard Layer 3 (Foreground)
//Storyboard Layer 4 (Overlay)
//Storyboard Sound Samples

[TimingPoints]
1058,300,4,2,3,40,1,0
11558,-250,4,2,3,40,0,0
15158,-125,4,2,3,40,0,0
15458,-250,4,2,3,40,0,0
21758,-125,4,2,3,40,0,0
22358,-250,4,2,3,40,0,0
23858,-166.666666666667,4,2,3,40,0,0
24308,-125,4,2,3,40,0,0
24758,-62.5,4,2,3,40,0,0
25058,-166.666666666667,4,2,3,40,0,0
29858,-125,4,2,3,50,0,0
51008,-250,4,2,3,50,0,0
51458,-100,4,2,3,70,0,1
65858,-66.6666666666667,4,2,3,70,0,1
66058,-100,4,2,3,70,0,1
66258,-200,4,2,3,70,0,1
66458,-66.6666666666667,4,2,3,70,0,1
66658,-100,4,2,3,70,0,1
66858,-200,4,2,3,70,0,1
67508,-100,4,2,3,70,0,1
70658,-100,4,2,3,70,0,0
71558,-250,4,2,3,50,0,0
72008,-250,4,2,3,60,0,0
73058,-250,4,2,3,70,0,0
73958,-250,4,2,3,50,0,0
74558,-250,4,2,3,60,0,0
74858,-66.6666666666667,4,2,3,60,0,0
75158,-66.6666666666667,4,2,3,70,0,0
76358,-100,4,2,3,50,0,0
76808,-250,4,2,3,60,0,0
77858,-250,4,2,3,70,0,0
78758,-100,4,2,3,70,0,0
79208,-250,4,2,3,70,0,0
79658,-125,4,2,3,70,0,0
80258,-50,4,2,3,60,0,0
80858,-83.3333333333333,4,2,3,60,0,0
82958,-50,4,2,3,60,0,0
83558,-100,4,2,3,60,0,0
85058,-83.3333333333333,4,2,3,60,0,0
85358,-50,4,2,3,60,0,0
85583,-83.3333333333333,4,2,3,60,0,0
87458,-100,4,2,3,60,0,0
87758,-50,4,2,3,60,0,0
88358,-83.3333333333333,4,2,3,60,0,0
90158,-50,4,2,3,60,0,0
90458,-83.3333333333333,4,2,3,60,0,0
92558,-50,4,2,3,60,0,0
93158,-83.3333333333333,4,2,3,60,0,0
94358,-66.6666666666667,4,2,3,60,0,0
94658,-83.3333333333333,4,2,3,60,0,0
94958,-50,4,2,3,60,0,0
95183,-83.3333333333333,4,2,3,60,0,0
97358,-50,4,2,3,60,0,0
97958,-83.3333333333333,4,2,3,60,0,0
99158,-100,4,2,3,60,0,0
99458,-166.666666666667,4,2,3,55,0,0
105458,-133.333333333333,4,2,3,55,0,0
106658,-166.666666666667,4,2,3,55,0,0
109058,-125,4,2,3,55,0,0
116258,-333.333333333334,4,2,3,55,0,0
120308,-166.666666666667,4,2,3,55,0,0
121058,-66.6666666666667,4,2,3,55,0,1
122558,-100,4,2,3,55,0,1
123158,-66.6666666666667,4,2,3,55,0,1
125108,-83.3333333333333,4,2,3,55,0,1
125258,-100,4,2,3,55,0,1
125558,-83.3333333333333,4,2,3,55,0,1
125858,-66.6666666666667,4,2,3,55,0,1
127808,-100,4,2,3,55,0,1
127958,-83.3333333333333,4,2,3,55,0,1
128108,-66.6666666666667,4,2,3,55,0,1
132158,-100,4,2,3,55,0,1
132758,-66.6666666666667,4,2,3,55,0,1
133358,-133.333333333333,4,2,3,55,0,1
133808,-66.6666666666667,4,2,3,55,0,1
134558,-100,4,2,3,55,0,1
134708,-66.6666666666667,4,2,3,55,0,1
135458,-133.333333333333,4,2,3,55,0,0
137108,-100,4,2,3,55,0,0
137858,-90.9090909090909,4,2,3,55,0,1
156458,-90.9090909090909,4,2,3,40,0,1
157058,-90.9090909090909,4,2,3,40,0,0
164258,-250,4,2,3,40,0,0
165158,-166.666666666667,4,2,3,40,0,0
166058,-125,4,2,3,40,0,0
168608,-250,4,2,3,40,0,0
173708,-250,4,2,3,30,0,0
180308,-250,4,2,3,40,0,0
180608,-250,4,2,3,50,0,0
180908,-166.666666666667,4,2,3,60,0,0
181058,-100,4,2,3,70,0,1
195458,-250,4,2,3,70,0,0
196508,-250,4,2,3,70,0,1
196583,-250,4,2,3,70,0,0
197108,-66.6666666666667,4,2,3,70,0,1
197858,-66.6666666666667,4,2,3,70,0,0
198158,-66.6666666666667,4,2,3,70,0,1
202358,-100,4,2,3,70,0,1
202658,-66.6666666666667,4,2,3,70,0,1
208508,-100,4,2,3,70,0,1
208958,-66.6666666666667,4,2,3,70,0,1
209858,-100,4,2,3,70,0,1
210608,-66.6666666666667,4,2,3,70,0,1
212258,-166.666666666667,4,2,3,70,0,0
212858,-133.333333333333,4,2,3,70,0,0
213908,-83.3333333333333,4,2,3,70,0,1
214658,-66.6666666666667,4,2,3,70,0,1
218258,-100,4,2,3,70,0,1
219458,-66.6666666666667,4,2,3,70,0,1
220658,-83.3333333333333,4,2,3,70,0,1
221258,-100,4,2,3,70,0,1
221858,-66.6666666666667,4,2,3,70,0,1
223058,-100,4,2,3,70,0,1
223358,-66.6666666666667,4,2,3,70,0,1
229058,-133.333333333333,4,2,3,70,0,1
230108,-100,4,2,3,70,0,1
230858,-133.333333333333,4,2,3,70,0,1
231458,-250,4,2,3,40,0,0
231908,-166.666666666667,4,2,3,40,0,0
232658,-250,4,2,3,40,0,0
236258,-333.333333333333,4,2,3,40,0,0
237458,-500,4,2,3,40,0,0
238208,-250,4,2,3,40,0,0
243458,-333.333333333333,4,2,3,40,0,0
248743,526.315789473684,4,2,3,10,1,0
248874,555.555555555556,4,2,3,10,1,0
249012,659.340659340659,4,2,3,10,1,0
249176,615.384615384615,4,2,3,10,1,0
249252,300,4,2,3,10,1,0
249308,-333.333333333333,4,2,3,5,0,0

[Colours]
Combo1 : 191,191,191
Combo2 : 204,165,248
Combo3 : 133,84,152
Combo4 : 142,198,204

[HitObjects]
256,192,10658,5,2,0:0:0:0:
70,360,11558,6,0,P|44:329|44:279,1,92
141,336,12158,2,0,P|142:290|114:255,1,92
112,124,12758,6,0,L|225:132,1,92,0|2,0:0|0:0,0:0:0:0:
203,130,13358,1,0,0:0:0:0:
203,130,13958,5,0,0:0:0:0:
248,69,14258,2,0,P|295:66|336:86,1,92,2|0,0:0|0:0,0:0:0:0:
301,253,14708,2,0,P|348:256|389:236,1,92
431,174,15158,2,0,P|445:152|423:173,1,92
447,317,15458,6,0,B|428:214|326:102|182:76|82:133|82:133|107:232|210:245,1,644,2|0,0:0|0:0,0:0:0:0:
202,243,17858,1,2,0:0:0:0:
202,243,18758,6,0,P|179:289|136:303,1,92
107,145,19358,2,0,P|158:141|191:172,1,92
70,277,19958,2,0,P|41:234|51:189,1,92,0|2,0:0|0:0,0:0:0:0:
242,14,21158,6,0,P|271:40|277:94,1,92
277,90,21758,2,0,P|315:124|422:60,1,184,8|0,0:0|0:0,0:0:0:0:
419,72,22358,6,0,P|448:89|463:119,1,69
477,125,22658,2,0,L|465:223,1,92,2|0,0:0|0:0,0:0:0:0:
248,308,23558,2,0,L|254:388,1,69
245,382,23858,6,0,P|188:382|148:313,1,137.999995788574,0|8,0:0|0:0,0:0:0:0:
325,331,24308,6,0,P|377:306|347:173,1,184
182,241,24758,6,0,P|192:191|187:245,1,184
62,125,25058,6,0,B|23:179|11:245|11:245|94:141|227:73|382:61|382:61|313:90|269:161,1,689.999978942872,2|8,0:0|0:0,0:0:0:0:
281,143,27158,2,0,P|242:98|162:92,1,137.999995788574,0|2,0:0|0:0,0:0:0:0:
256,192,27533,12,0,29558,0:0:0:0:
147,318,29858,6,0,B|266:308|191:370|332:354,2,184,4|0|0,0:3|3:0|0:0,0:0:0:0:
77,351,30608,2,0,P|47:312|40:259,1,92
109,237,30908,2,0,P|139:276|146:329,1,92,0|0,1:0|0:0,0:0:0:0:
305,96,31208,5,0,3:0:0:0:
245,47,31358,2,0,P|182:73|158:191,1,184,8|0,0:0|1:0,0:0:0:0:
14,315,31808,1,0,0:0:0:0:
77,351,31958,2,0,L|190:344,1,92
187,343,32183,1,0,0:0:0:0:
187,343,32258,5,2,0:0:0:0:
220,275,32408,1,0,0:0:0:0:
152,177,32558,2,0,L|172:76,1,92,0|0,1:0|0:0,0:0:0:0:
37,86,32858,1,0,0:0:0:0:
28,56,33008,1,0,0:0:0:0:
178,15,33158,6,0,P|122:33|100:82,1,92,0|0,0:0|3:0,0:0:0:0:
228,196,33458,2,0,L|343:183,1,92,0|0,0:0|1:0,0:0:0:0:
512,145,33758,5,8,0:0:0:0:
400,210,33908,2,0,L|377:106,1,92
484,220,34208,5,0,0:0:0:0:
335,254,34358,2,0,L|312:358,1,92,2|0,0:0|0:0,0:0:0:0:
311,361,34583,1,0,0:0:0:0:
311,361,34658,5,0,3:0:0:0:
243,318,34808,1,0,0:0:0:0:
44,171,34958,2,0,P|70:266|76:357,1,184,0|0,1:0|0:0,0:0:0:0:
225,242,35408,5,0,0:0:0:0:
21,254,35558,2,0,P|71:264|114:179,1,138,2|0,0:0|0:0,0:0:0:0:
118,201,35858,6,0,L|128:92,1,92,0|0,0:0|3:0,0:0:0:0:
400,210,36158,1,8,0:0:0:0:
349,158,36308,2,0,L|339:48,1,92
341,66,36608,1,0,0:0:0:0:
169,43,36758,6,0,P|232:45|253:140,1,138,0|0,1:0|0:0,0:0:0:0:
166,297,37058,5,0,0:0:0:0:
206,152,37208,1,0,0:0:0:0:
227,346,37358,1,0,1:0:0:0:
254,210,37508,5,0,0:0:0:0:
300,269,37658,1,0,0:0:0:0:
264,202,37808,1,0,3:0:0:0:
359,319,37958,5,0,0:0:0:0:
374,243,38108,2,0,P|438:239|475:241,1,92
236,357,38408,5,0,1:0:0:0:
124,233,38558,1,8,0:0:0:0:
290,283,38708,1,0,3:0:0:0:
44,323,38858,6,0,P|87:270|204:266,1,184,2|0,0:0|0:0,0:0:0:0:
421,8,39458,6,0,L|435:127,1,92
435,117,39683,1,0,0:0:0:0:
435,117,39758,1,2,0:0:0:0:
200,185,39908,2,0,P|264:183|313:201,1,92
290,190,40208,1,0,0:0:0:0:
344,77,40358,5,0,0:0:0:0:
362,149,40508,1,0,1:0:0:0:
334,74,40658,1,0,0:0:0:0:
278,278,40808,5,8,0:0:0:0:
207,262,40958,2,0,L|-2:222,1,184,0|2,3:0|0:0,0:0:0:0:
43,304,41408,1,0,0:0:0:0:
14,106,41558,2,0,P|62:118|94:161,1,92,0|0,3:0|0:0,0:0:0:0:
95,166,41783,1,0,0:0:0:0:
95,166,41858,5,0,0:0:0:0:
172,149,42008,1,0,3:0:0:0:
200,6,42158,1,0,1:0:0:0:
228,274,42308,6,0,L|240:171,1,92
238,182,42608,1,0,0:0:0:0:
379,354,42758,5,0,0:0:0:0:
367,278,42908,1,0,1:0:0:0:
388,360,43058,1,0,3:0:0:0:
506,159,43208,5,0,1:0:0:0:
315,217,43358,1,8,0:0:0:0:
466,223,43508,2,0,P|425:189|410:142,1,92
411,153,43808,1,0,0:0:0:0:
263,0,43958,2,0,L|252:91,1,92,0|0,3:0|0:0,0:0:0:0:
250,109,44183,1,0,0:0:0:0:
250,109,44258,5,0,3:0:0:0:
176,140,44408,1,0,0:0:0:0:
248,370,44558,2,0,L|139:361,1,92,0|0,1:0|0:0,0:0:0:0:
115,197,44858,2,0,L|128:252,2,46
99,312,45158,5,2,0:0:0:0:
25,295,45308,2,0,P|10:346|5:399,1,92,0|0,1:0|0:0,0:0:0:0:
248,370,45608,5,0,3:0:0:0:
205,250,45758,2,0,P|241:211|285:180,1,92,8|0,0:0|0:0,0:0:0:0:
512,197,46058,6,0,B|393:187|468:249|327:233,2,184,2|0|2,0:0|1:0|0:0,0:0:0:0:
256,192,46733,12,0,49058,0:0:0:0:
111,357,50858,5,0,0:0:0:0:
111,357,51008,2,0,L|98:256,1,92
153,35,51458,5,4,1:0:0:0:
373,71,51608,1,2,0:0:0:0:
199,170,51758,1,8,0:1:0:0:
302,103,51908,5,0,0:0:0:0:
253,227,52058,1,2,0:0:0:0:
316,182,52208,1,0,3:0:0:0:
167,250,52358,6,0,B|280:237|207:294|355:276,1,172.5,8|0,0:1|0:0,0:0:0:0:
406,254,52658,5,0,0:0:0:0:
384,329,52808,1,0,0:0:0:0:
303,375,52958,1,8,0:1:0:0:
183,368,53108,1,0,3:0:0:0:
86,288,53258,6,0,P|65:219|78:158,1,115,0|2,1:0|0:0,0:0:0:0:
188,262,53558,1,8,0:1:0:0:
246,111,53708,1,0,1:0:0:0:
399,61,53858,5,0,3:0:0:0:
307,38,54008,1,0,0:0:0:0:
451,137,54158,1,8,0:1:0:0:
219,190,54308,6,0,L|351:181,1,115,2|0,0:0|1:0,0:0:0:0:
107,35,54608,1,0,1:0:0:0:
81,193,54758,1,8,0:1:0:0:
55,351,54908,5,2,0:0:0:0:
122,381,55058,2,0,P|188:354|208:281,1,115
203,76,55358,2,0,L|221:208,1,115,8|2,0:1|0:0,0:0:0:0:
465,60,55658,5,0,3:0:0:0:
451,137,55808,1,2,0:0:0:0:
289,64,55958,1,8,0:1:0:0:
304,177,56108,1,0,1:0:0:0:
43,156,56258,5,4,1:3:0:0:
218,189,56408,1,0,0:0:0:0:
91,267,56558,1,8,0:1:0:0:
164,253,56708,1,2,0:0:0:0:
122,381,56858,6,0,P|67:352|0:354,1,115,0|2,3:0|0:0,0:0:0:0:
240,372,57158,1,8,0:1:0:0:
251,297,57308,2,0,L|264:171,1,115
503,183,57608,5,0,0:0:0:0:
428,26,57758,1,8,0:1:0:0:
433,224,57908,1,0,0:0:0:0:
366,182,58058,1,0,3:0:0:0:
278,206,58208,5,0,0:0:0:0:
157,99,58358,1,8,0:1:0:0:
0,136,58508,1,0,0:0:0:0:
48,8,58658,5,0,1:0:0:0:
67,79,58808,1,2,0:0:0:0:
185,27,58958,6,0,P|247:46|275:129,1,115,8|2,0:1|0:0,0:0:0:0:
503,183,59258,2,0,P|441:202|413:285,1,115,0|0,3:0|3:0,0:0:0:0:
361,78,59558,1,8,0:1:0:0:
346,153,59708,2,0,L|336:218,1,57.5,2|0,0:0|0:0,0:0:0:0:
333,223,59858,5,0,0:0:0:0:
261,249,60008,1,0,0:0:0:0:
181,18,60158,1,8,0:1:0:0:
173,282,60308,6,0,L|186:147,1,115,2|0,0:0|3:0,0:0:0:0:
103,324,60608,2,0,L|82:255,1,57.5,0|0,3:0|0:0,0:0:0:0:
29,331,60758,5,8,0:1:0:0:
256,160,60908,1,2,0:0:0:0:
483,331,61058,5,4,1:0:0:0:
305,367,61208,1,2,0:0:0:0:
414,372,61358,1,8,0:1:0:0:
323,243,61508,5,0,0:0:0:0:
421,280,61658,1,2,0:0:0:0:
355,311,61808,1,0,3:0:0:0:
496,251,61958,6,0,P|497:187|469:133,1,115,8|0,0:1|1:0,0:0:0:0:
256,160,62258,1,0,0:0:0:0:
270,85,62408,1,0,0:0:0:0:
327,137,62558,5,8,0:1:0:0:
58,193,62708,1,0,3:0:0:0:
111,136,62858,6,0,P|167:157|184:234,1,115,0|2,1:0|0:0,0:0:0:0:
277,10,63158,1,8,0:1:0:0:
398,116,63308,1,0,1:0:0:0:
386,276,63458,5,0,3:0:0:0:
358,206,63608,1,0,0:0:0:0:
329,328,63758,1,8,0:1:0:0:
153,276,63908,6,0,L|21:294,1,115,0|0,0:0|1:0,0:0:0:0:
225,371,64208,1,0,1:0:0:0:
242,210,64358,1,8,0:1:0:0:
261,50,64508,5,2,0:0:0:0:
335,60,64658,2,0,L|467:78,1,115,0|0,1:0|0:0,0:0:0:0:
188,80,64958,5,8,0:1:0:0:
166,12,65108,1,2,0:0:0:0:
182,90,65258,1,0,0:0:0:0:
106,108,65408,5,2,0:0:0:0:
306,166,65558,2,0,P|335:226|324:293,1,115,8|0,0:1|1:0,0:0:0:0:
21,297,65858,6,0,L|148:269,1,115.000004386902,4|0,1:2|0:0,0:0:0:0:
179,70,66058,6,0,L|199:165,1,76.6666666666667,4|0,3:2|0:0,0:0:0:0:
147,203,66258,6,0,L|98:181,1,38.3333333333333,4|0,1:2|0:0,0:0:0:0:
491,87,66458,6,0,L|364:115,1,115.000004386902,4|0,1:2|0:0,0:0:0:0:
333,314,66658,6,0,L|313:219,1,76.6666666666667,4|0,3:2|0:0,0:0:0:0:
365,181,66858,6,0,L|414:203,1,38.3333333333333,8|0,0:1|0:0,0:0:0:0:
271,361,67058,5,0,1:0:0:0:
66,244,67208,1,2,0:0:0:0:
10,287,67358,1,8,0:1:0:0:
101,373,67508,6,0,P|138:317|132:270,1,115,2|0,0:0|3:0,0:0:0:0:
410,10,67808,2,0,P|373:66|379:113,1,115,0|0,3:0|0:0,0:0:0:0:
256,192,68108,5,8,0:3:0:0:
256,192,68183,12,0,70508,0:0:0:0:
508,328,70658,5,4,1:0:0:0:
457,268,70808,1,2,0:0:0:0:
512,63,70958,1,8,0:0:0:0:
379,274,71108,1,0,3:0:0:0:
379,274,71558,6,0,P|365:346|303:370,1,138,2|2,0:0|0:0,0:0:0:0:
310,370,72083,1,0,0:0:0:0:
318,381,72158,5,0,3:0:0:0:
324,371,72233,1,0,0:0:0:0:
330,353,72308,1,0,3:0:0:0:
336,328,72383,1,0,3:0:0:0:
340,296,72458,1,8,3:2:0:0:
337,256,72533,1,0,3:0:0:0:
327,210,72608,1,0,3:0:0:0:
304,162,72683,1,0,3:0:0:0:
273,113,72758,1,0,3:0:0:0:
228,66,72833,1,0,3:0:0:0:
162,38,72908,1,0,1:0:0:0:
84,25,72983,1,0,0:0:0:0:
0,39,73058,5,0,1:0:0:0:
52,97,73208,1,2,0:0:0:0:
242,47,73358,1,8,0:0:0:0:
34,175,73508,1,0,1:0:0:0:
285,108,73658,1,8,0:1:0:0:
106,204,73808,1,0,1:0:0:0:
83,277,73958,6,0,P|104:324|184:341,1,138,2|2,0:0|0:0,0:0:0:0:
247,277,74558,5,0,3:0:0:0:
260,351,74708,1,0,3:0:0:0:
377,217,74858,6,0,P|280:259|434:295,1,345.000013160706,8|2,0:0|0:1,0:0:0:0:
411,350,75308,2,0,P|383:300|343:306,1,86.2500032901765
334,368,75458,5,0,1:0:0:0:
260,351,75608,1,2,0:0:0:0:
226,155,75758,1,8,0:0:0:0:
191,384,75908,1,0,1:0:0:0:
191,384,76358,6,0,P|136:363|116:294,1,115,2|2,0:0|3:0,0:0:0:0:
42,327,76658,5,8,0:0:0:0:
147,248,76808,2,0,P|151:200|101:117,1,138,2|2,3:0|0:0,0:0:0:0:
35,126,77408,1,0,0:0:0:0:
39,144,77708,5,0,1:0:0:0:
39,144,77783,1,0,0:0:0:0:
39,144,77858,1,0,1:0:0:0:
72,213,78008,1,2,0:0:0:0:
245,66,78158,1,8,0:0:0:0:
146,231,78308,1,0,1:0:0:0:
90,26,78458,1,8,0:1:0:0:
95,288,78608,1,0,1:0:0:0:
220,214,78758,6,0,P|285:223|321:274,1,115,2|2,0:0|3:0,0:0:0:0:
385,268,79058,5,8,0:0:0:0:
399,198,79208,2,0,L|409:136,2,46,2|2|8,0:0|3:0|0:0,0:0:0:0:
146,231,79658,6,0,L|171:322,2,92,2|2|8,3:0|0:0|0:0,0:0:0:0:
80,203,80108,1,2,0:0:0:0:
80,203,80183,1,0,0:0:0:0:
146,231,80258,6,0,B|295:178|295:178|304:183|304:183|354:252|354:252|354:262|354:262|242:299,1,345,4|0,1:0|0:0,0:0:0:0:
39,338,80558,6,0,B|78:291|78:291|28:116,1,230,8|2,0:0|0:0,0:0:0:0:
187,7,80783,1,0,0:0:0:0:
187,7,80858,2,0,B|202:36|202:36|188:84,1,68.9999978942872
96,104,81008,2,0,B|30:128,1,68.9999978942872,0|0,3:0|0:0,0:0:0:0:
296,61,81158,5,8,0:0:0:0:
80,203,81308,1,2,0:0:0:0:
223,264,81458,5,0,1:0:0:0:
234,350,81608,1,0,0:0:0:0:
246,372,81758,1,8,0:0:0:0:
258,370,81908,1,0,0:0:0:0:
320,276,82058,1,2,0:0:0:0:
223,264,82208,1,0,0:0:0:0:
106,187,82358,6,0,P|73:201|49:233,1,68.9999978942872,8|0,0:0|0:0,0:0:0:0:
53,111,82508,2,0,P|30:136|0:149,1,68.9999978942872,0|0,1:0|0:0,0:0:0:0:
197,173,82658,2,0,P|142:61|67:1,1,206.999993682861,0|0,3:0|0:0,0:0:0:0:
352,57,82958,6,0,P|262:64|345:18,1,230,8|0,0:1|0:0,0:0:0:0:
507,140,83183,1,0,0:0:0:0:
507,140,83258,2,0,P|390:154|280:218,1,230,0|0,0:0|1:0,0:0:0:0:
292,207,83558,6,0,P|369:218|431:143,1,172.5,8|0,0:0|0:0,0:0:0:0:
448,60,83858,5,0,1:0:0:0:
483,217,84008,1,0,3:0:0:0:
490,240,84158,1,8,0:0:0:0:
502,246,84308,1,2,0:0:0:0:
429,153,84458,1,0,0:0:0:0:
357,108,84608,1,0,1:0:0:0:
253,89,84758,1,8,0:0:0:0:
113,110,84908,1,0,0:0:0:0:
13,326,85058,6,0,B|67:304|105:231|83:187|12:191|22:243|56:255,1,206.999993682861,0|0,1:0|0:0,0:0:0:0:
13,326,85358,6,0,P|133:339|249:393,1,230,8|0,0:1|0:0,0:0:0:0:
311,305,85583,1,0,0:0:0:0:
311,305,85658,2,0,B|288:290|288:290|276:240,1,68.9999978942872,0|0,1:0|0:0,0:0:0:0:
157,220,85808,2,0,B|180:205|180:205|193:154,1,68.9999978942872,2|0,0:0|0:0,0:0:0:0:
319,35,85958,1,0,0:0:0:0:
155,21,86108,6,0,B|215:4|255:42|238:49|245:121|342:111,1,206.999993682861,0|0,3:0|0:0,0:0:0:0:
427,95,86408,6,0,B|436:126|436:126|419:159,1,68.9999978942872,2|0,0:0|0:0,0:0:0:0:
278,249,86558,1,8,0:0:0:0:
419,95,86708,6,0,B|403:122|403:122|412:158,1,68.9999978942872,2|0,0:0|0:0,0:0:0:0:
507,276,86858,1,0,0:0:0:0:
498,35,87008,5,2,0:0:0:0:
218,135,87158,1,8,0:0:0:0:
460,343,87308,1,0,3:0:0:0:
294,84,87458,6,0,P|321:132|334:239,1,115,0|0,1:0|1:0,0:0:0:0:
335,189,87758,6,0,P|297:112|294:56,1,115,8|0,0:1|0:0,0:0:0:0:
345,0,87908,2,0,P|404:25|390:65,1,115
218,135,88058,2,0,P|167:145|113:212,1,115,0|0,1:0|0:0,0:0:0:0:
386,276,88208,1,0,3:0:0:0:
393,370,88358,6,0,P|407:276|470:150,1,206.999993682861,8|0,0:0|0:0,0:0:0:0:
495,112,88658,2,0,B|483:76|483:76|419:47|419:47|375:70,1,137.999995788574,0|0,3:0|0:0,0:0:0:0:
290,259,88958,2,0,B|278:294|278:294|214:323|214:323|170:300,1,137.999995788574,8|2,0:0|0:0,0:0:0:0:
34,119,89258,5,0,1:0:0:0:
99,83,89408,1,0,3:0:0:0:
112,349,89558,5,8,0:0:0:0:
23,329,89708,1,0,0:0:0:0:
214,177,89858,6,0,B|163:204|118:158|135:138|82:83|17:128,1,206.999993682861,4|0,1:2|0:0,0:0:0:0:
58,223,90158,6,0,L|269:111,1,230,8|2,0:0|0:0,0:0:0:0:
363,0,90383,1,0,0:0:0:0:
363,0,90458,2,0,L|309:86,1,68.9999978942872,0|0,3:0|0:0,0:0:0:0:
378,208,90608,2,0,L|324:122,1,68.9999978942872
212,0,90758,6,0,P|198:62|133:65,1,137.999995788574,8|2,0:0|0:0,0:0:0:0:
206,280,91058,2,0,P|141:282|127:345,1,137.999995788574,0|0,1:0|0:0,0:0:0:0:
378,208,91358,5,8,0:0:0:0:
388,226,91508,1,0,0:0:0:0:
399,230,91658,1,2,0:0:0:0:
481,238,91808,1,0,3:0:0:0:
409,109,91883,1,0,0:0:0:0:
330,286,91958,6,0,P|294:319|266:324,1,68.9999978942872,8|0,0:0|0:0,0:0:0:0:
155,141,92108,2,0,P|122:105|117:77,1,68.9999978942872,0|0,1:0|0:0,0:0:0:0:
308,44,92258,2,0,P|303:114|258:189,1,137.999995788574,0|0,3:0|0:0,0:0:0:0:
273,174,92558,6,0,P|275:66|386:-1,1,230,8|0,0:1|0:0,0:0:0:0:
482,68,92783,1,0,0:0:0:0:
482,68,92858,2,0,P|512:110|421:81,1,230,2|0,0:0|1:0,0:0:0:0:
231,330,93158,6,0,P|290:281|371:257,1,137.999995788574,8|0,0:0|0:0,0:0:0:0:
346,260,93458,6,0,P|350:219|356:179,1,68.9999978942872,0|0,1:0|0:0,0:0:0:0:
446,324,93608,1,0,0:0:0:0:
212,229,93758,1,8,0:0:0:0:
297,63,93908,2,0,P|321:22|309:69,2,137.999995788574,2|0|0,0:0|0:0|1:0,0:0:0:0:
182,80,94283,1,0,0:0:0:0:
182,80,94358,2,0,B|200:87|212:126|212:126|118:55|10:79,1,258.75000987053,8|0,0:0|0:0,0:0:0:0:
12,195,94658,6,0,P|77:135|182:79,1,206.999993682861,0|0,1:0|0:0,0:0:0:0:
355,133,94958,6,0,P|324:229|305:142,1,230,8|0,0:1|0:0,0:0:0:0:
208,0,95183,1,0,0:0:0:0:
208,0,95258,2,0,P|241:21|257:69,1,68.9999978942872,0|0,1:0|0:0,0:0:0:0:
288,170,95408,2,0,P|286:209|252:246,1,68.9999978942872,2|0,0:0|0:0,0:0:0:0:
158,355,95558,1,8,0:0:0:0:
98,311,95708,6,0,P|99:242|218:181,1,206.999993682861
429,240,96008,6,0,L|339:216,1,68.9999978942872,2|0,0:0|0:0,0:0:0:0:
208,179,96158,1,8,0:0:0:0:
343,301,96308,6,0,L|433:325,1,68.9999978942872,2|0,0:0|0:0,0:0:0:0:
194,259,96458,1,0,0:0:0:0:
261,359,96608,5,2,0:0:0:0:
127,201,96758,1,8,0:0:0:0:
263,84,96908,1,0,0:0:0:0:
194,259,97058,6,0,P|130:297|67:265,1,137.999995788574,0|0,1:0|0:0,0:0:0:0:
75,275,97358,6,0,P|62:212|123:195,1,115,8|0,0:1|0:0,0:0:0:0:
129,115,97508,2,0,P|185:139|204:200,1,115
261,359,97658,2,0,P|267:296|304:247,1,115,0|0,1:0|0:0,0:0:0:0:
263,84,97808,1,0,3:0:0:0:
396,122,97958,6,0,B|354:87|347:32|347:32|316:80|251:84,1,206.999993682861,8|0,0:0|0:0,0:0:0:0:
288,169,98258,1,0,0:0:0:0:
306,178,98408,1,2,0:0:0:0:
320,177,98558,1,8,0:0:0:0:
438,251,98708,5,2,0:0:0:0:
378,307,98858,1,0,0:0:0:0:
292,333,99008,1,0,3:0:0:0:
178,284,99158,6,0,P|142:200|190:124,1,172.5,8|0,0:0|0:0,0:0:0:0:
155,48,99458,6,0,P|206:47|207:-15,1,103.499996841431,12|0,1:3|0:0,0:0:0:0:
220,5,99758,1,0,1:0:0:0:
70,131,100058,1,8,0:0:0:0:
70,131,100358,6,0,P|87:183|106:274,1,137.999995788574
73,342,100808,1,0,3:0:0:0:
73,342,101108,5,0,3:0:0:0:
191,184,101258,1,0,1:0:0:0:
171,110,101408,1,2,0:0:0:0:
191,184,101558,2,0,P|244:197|298:224,1,103.499996841431
348,171,101858,6,0,P|368:217|342:274,1,103.499996841431,0|0,1:0|0:0,0:0:0:0:
351,265,102158,1,0,3:0:0:0:
496,184,102458,1,8,0:0:0:0:
496,184,102758,6,0,P|454:165|434:104,1,103.499996841431
419,28,103058,2,0,B|409:3|358:13|388:55|411:26,1,68.9999978942872,0|0,0:0|3:0,0:0:0:0:
348,140,103358,2,0,B|323:129|294:172|345:181|340:144,1,68.9999978942872,0|0,0:0|3:0,0:0:0:0:
433,114,103658,5,8,0:0:0:0:
313,51,103808,2,0,B|257:30|218:68|249:77|213:120|146:104,1,172.499994735718,2|0,0:0|0:0,0:0:0:0:
70,76,104258,6,0,P|84:137|98:187,1,103.499996841431,0|0,1:0|0:0,0:0:0:0:
94,176,104558,1,0,1:0:0:0:
266,219,104858,2,0,P|252:268|241:319,1,103.499996841431,8|0,0:0|0:0,0:0:0:0:
241,319,105158,1,0,0:0:0:0:
248,326,105308,1,0,0:0:0:0:
105,299,105458,6,0,P|162:347|171:383,2,115.000004386902
332,134,106058,2,0,P|285:165|265:218,2,115.000004386902,0|0|0,1:0|0:0|0:0,0:0:0:0:
420,155,106583,5,0,0:0:0:0:
420,155,106658,2,0,P|412:105|405:46,1,103.499996841431,0|0,1:0|0:0,0:0:0:0:
405,52,106958,1,0,3:0:0:0:
202,133,107258,1,8,0:0:0:0:
202,133,107558,6,0,P|167:142|123:153,1,68.9999978942872
21,50,107858,1,0,0:0:0:0:
27,54,108008,2,0,P|64:105|71:131,1,68.9999978942872,0|0,3:0|0:0,0:0:0:0:
36,253,108308,1,0,3:0:0:0:
70,184,108458,1,8,0:0:0:0:
137,359,108608,1,2,0:0:0:0:
139,352,108758,2,0,P|154:288|185:237,1,103.499996841431
294,170,109058,6,0,P|227:196|242:116,2,184,0|0|8,1:0|1:0|0:0,0:0:0:0:
294,170,109958,6,0,P|340:156|412:217,1,138
512,250,110258,2,0,P|480:284|409:259,1,92,0|0,0:0|3:0,0:0:0:0:
294,170,110558,1,0,0:0:0:0:
334,84,110708,1,0,3:0:0:0:
355,306,110858,1,0,1:0:0:0:
294,170,111008,1,2,0:0:0:0:
284,172,111158,6,0,P|225:202|184:272,1,138
111,285,111458,2,0,P|144:343|212:340,1,138,0|0,1:0|0:0,0:0:0:0:
213,338,111758,1,0,3:0:0:0:
219,335,111908,1,0,0:0:0:0:
121,163,112058,2,0,P|99:96|66:5,1,138,8|0,0:0|0:0,0:0:0:0:
17,93,112358,5,0,0:0:0:0:
40,169,112508,1,0,0:0:0:0:
135,315,112658,2,0,P|161:278|230:254,1,92,0|0,0:0|3:0,0:0:0:0:
125,173,112958,1,0,0:0:0:0:
166,90,113108,1,0,3:0:0:0:
204,243,113258,1,8,0:0:0:0:
243,58,113408,1,2,0:0:0:0:
166,90,113558,6,0,P|234:101|316:112,1,138
374,135,113858,2,0,P|379:79|307:34,1,138,0|0,1:0|0:0,0:0:0:0:
313,187,114158,2,0,P|308:243|380:288,1,138,0|0,1:0|0:0,0:0:0:0:
302,110,114458,2,0,B|242:97|209:144|224:151|207:209|126:192,1,184,8|0,0:0|0:0,0:0:0:0:
47,138,114908,5,0,0:0:0:0:
69,66,115058,1,0,0:0:0:0:
154,196,115208,1,0,3:0:0:0:
172,276,115358,1,0,0:0:0:0:
74,214,115508,1,0,3:0:0:0:
302,110,115658,1,0,1:0:0:0:
233,223,115808,5,2,0:0:0:0:
172,276,115958,1,0,0:0:0:0:
154,196,116108,1,0,0:0:0:0:
233,223,116258,6,0,B|324:168|398:240|332:295|391:336|525:310|516:166|471:121|352:220|290:157|326:72|386:2|453:104,1,551.999983154297,2|8,0:0|0:3,0:0:0:0:
444,103,119858,6,0,L|437:126,1,17.2499994735718
418,187,120008,2,0,L|411:210,1,17.2499994735718,2|0,0:0|0:0,0:0:0:0:
390,274,120158,2,0,L|383:297,1,17.2499994735718,0|0,3:0|0:0,0:0:0:0:
319,355,120308,6,0,B|301:353|301:353|282:331,1,34.4999989471436,2|2,3:0|3:0,0:0:0:0:
291,232,120458,2,0,B|301:219|301:219|319:217,1,34.4999989471436,0|0,3:0|3:0,0:0:0:0:
484,305,120608,5,0,3:0:0:0:
440,280,120683,1,0,3:0:0:0:
390,274,120758,1,0,3:0:0:0:
340,286,120833,1,0,3:0:0:0:
290,340,120908,1,0,3:0:0:0:
216,359,120983,1,0,0:0:0:0:
153,309,121058,6,0,P|135:238|209:262,2,172.500006580353,4|2|8,1:0|0:0|0:1,0:0:0:0:
290,340,121433,1,0,0:0:0:0:
289,338,121508,2,0,P|162:324|48:382,1,258.75000987053
34,248,121808,6,0,B|31:205|31:205|69:178,1,86.2500032901765,0|0,3:0|0:0,0:0:0:0:
205,17,121958,2,0,B|231:42|231:42|215:101,1,86.2500032901765,8|0,0:1|0:0,0:0:0:0:
279,182,122108,2,0,B|87:158|87:158|51:81,1,258.75000987053,0|0,1:0|0:0,0:0:0:0:
59,98,122408,5,0,0:0:0:0:
279,182,122558,2,0,P|333:215|326:289,1,115,8|0,0:1|3:0,0:0:0:0:
339,262,122858,6,0,P|308:290|274:275,1,57.5,0|0,1:0|0:0,0:0:0:0:
237,355,123008,2,0,P|209:323|224:289,1,57.5
238,108,123158,6,0,P|267:144|279:191,1,86.2500032901765,8|0,0:1|0:0,0:0:0:0:
210,310,123308,2,0,P|173:339|126:351,1,86.2500032901765,0|0,1:0|0:0,0:0:0:0:
137,56,123458,2,0,B|152:17|201:3|201:3|145:74|153:195,1,258.75000987053,0|0,3:0|0:0,0:0:0:0:
135,350,123758,5,8,0:1:0:0:
90,264,123908,1,2,0:0:0:0:
19,289,124058,1,0,1:0:0:0:
210,308,124208,6,0,P|251:327|309:350,1,86.2500032901765,0|0,1:0|0:0,0:0:0:0:
78,176,124358,2,0,P|36:195|-21:216,1,86.2500032901765,8|0,0:1|0:0,0:0:0:0:
249,116,124508,2,0,P|327:153|289:215,1,172.500006580353,2|0,0:0|1:0,0:0:0:0:
289,214,124733,1,0,0:0:0:0:
282,215,124808,1,0,0:0:0:0:
153,81,124958,6,0,L|124:0,1,86.2500032901765,8|0,0:1|0:0,0:0:0:0:
74,100,125108,2,0,L|45:18,1,68.9999978942872,2|0,0:0|0:0,0:0:0:0:
19,289,125258,6,0,B|3:294|-6:323|-6:323|45:277|122:258,1,172.5,0|0,3:0|0:0,0:0:0:0:
186,256,125558,2,0,B|216:262|216:262|188:189|188:189|123:163|123:163|134:197,1,206.999993682861,8|0,0:1|0:0,0:0:0:0:
158,362,125858,6,0,B|290:324|290:324|325:358,2,172.500006580353,4|0|8,1:3|0:0|0:1,0:0:0:0:
292,124,126233,1,0,0:0:0:0:
301,117,126308,2,0,B|369:69|369:69|329:143|307:245,1,258.75000987053,2|0,0:0|0:0,0:0:0:0:
387,383,126608,6,0,P|345:378|315:348,1,86.2500032901765,2|0,0:0|0:0,0:0:0:0:
452,123,126758,2,0,B|463:101|491:101|491:101|474:117|468:131,1,86.2500032901765,8|0,0:1|0:0,0:0:0:0:
454,228,126908,2,0,L|163:302,1,258.75000987053
158,362,127208,5,0,0:0:0:0:
60,73,127358,1,8,0:1:0:0:
120,125,127508,1,0,0:0:0:0:
45,150,127658,1,0,3:0:0:0:
29,295,127808,6,0,L|7:224,1,57.5
114,293,127958,2,0,L|92:222,1,68.9999978942872,8|0,0:1|0:0,0:0:0:0:
203,291,128108,2,0,L|176:206,1,86.2500032901765,0|0,0:0|0:0,1:0:0:0:
368,324,128258,6,0,P|366:256|244:284,1,172.500006580353,0|0,1:0|0:0,0:0:0:0:
186,379,128483,1,0,0:0:0:0:
194,384,128558,2,0,P|233:365|293:347,1,86.2500032901765,8|0,0:1|0:0,0:0:0:0:
467,305,128708,1,2,0:0:0:0:
429,216,128858,1,0,3:0:0:0:
461,99,129008,1,0,3:0:0:0:
455,21,129158,1,8,0:1:0:0:
380,2,129308,1,2,0:0:0:0:
398,148,129458,5,4,1:3:0:0:
461,99,129608,1,0,0:0:0:0:
304,134,129758,2,0,P|315:174|330:243,1,86.2500032901765,8|0,0:1|0:0,0:0:0:0:
492,260,129908,2,0,P|481:300|466:369,1,86.2500032901765,2|0,0:0|0:0,0:0:0:0:
311,305,130058,5,0,3:0:0:0:
480,176,130208,1,0,3:0:0:0:
461,99,130358,1,8,0:1:0:0:
485,34,130508,1,2,0:0:0:0:
461,99,130658,6,0,P|373:116|324:217,2,172.500006580353,4|0|8,1:0|0:0|0:1,0:0:0:0:
268,98,131033,1,0,0:0:0:0:
268,98,131109,2,0,B|201:85|177:35|216:-28|293:-48|320:43,1,258.75000987053
323,253,131408,6,0,P|278:241|255:191,1,86.2500032901765,0|0,3:0|0:0,0:0:0:0:
113,132,131558,2,0,B|68:133|68:133|39:178,1,86.2500032901765,8|0,0:1|0:0,0:0:0:0:
71,289,131708,2,0,B|51:345|102:390|166:347|194:293|151:235|98:208,1,258.75000987053,0|0,1:0|0:0,0:0:0:0:
113,217,132008,5,0,0:0:0:0:
242,11,132158,2,0,P|192:37|188:112,1,115,8|0,0:1|0:0,0:0:0:0:
179,90,132458,6,0,P|211:100|237:128,1,57.5,0|0,1:0|0:0,0:0:0:0:
284,196,132608,2,0,P|299:225|298:263,1,57.5,2|0,0:0|0:0,0:0:0:0:
149,344,132758,6,0,P|179:312|219:299,1,86.2500032901765,8|0,0:1|0:0,0:0:0:0:
390,274,132908,2,0,P|432:283|464:311,1,86.2500032901765,0|0,1:0|0:0,0:0:0:0:
398,34,133058,2,0,B|476:45|476:45|278:127,1,258.75000987053,0|0,3:0|0:0,0:0:0:0:
149,148,133358,6,0,L|233:113,1,86.2500032901765,8|2,0:1|0:0,0:0:0:0:
228,114,133658,1,0,1:0:0:0:
200,0,133808,6,0,P|236:8|264:46,1,86.2500032901765,0|0,1:0|0:0,0:0:0:0:
175,231,133958,2,0,P|151:266|110:277,1,86.2500032901765,8|0,0:1|0:0,0:0:0:0:
52,377,134108,2,0,P|29:291|4:211,1,172.500006580353,2|0,0:0|0:0,0:0:0:0:
5,212,134333,1,0,0:0:0:0:
5,212,134408,1,0,0:0:0:0:
284,196,134558,6,0,L|344:211,1,57.5,8|0,0:1|0:0,0:0:0:0:
254,275,134708,2,0,L|341:296,1,86.2500032901765,2|0,0:0|0:0,0:0:0:0:
414,172,134858,5,0,3:0:0:0:
171,336,135008,1,2,0:0:0:0:
450,262,135158,1,8,0:1:0:0:
172,133,135308,1,0,0:0:0:0:
355,16,135458,6,0,P|344:57|328:123,1,86.2500032901765,4|0,1:2|0:0,0:0:0:0:
420,223,135758,2,0,P|418:161|421:93,1,129.375004935265,2|0,0:0|0:0,0:0:0:0:
429,77,136058,1,0,0:0:0:0:
445,309,136208,2,0,P|478:282|507:250,1,86.2500032901765,2|2,0:0|0:0,0:0:0:0:
257,118,136508,5,4,1:2:0:0:
257,118,136808,2,0,L|148:136,1,86.2500032901765,0|2,0:0|0:0,0:0:0:0:
9,189,137033,5,0,0:0:0:0:
9,189,137108,2,0,B|124:209|124:209|141:262,1,172.5,0|0,1:0|0:0,0:0:0:0:
124,365,137408,2,0,B|108:310|108:310|147:253,1,115,0|0,3:0|0:0,0:0:0:0:
263,220,137708,1,0,0:0:0:0:
398,92,137858,6,0,B|343:31|232:28|232:28|264:56|287:94,1,253.000007720947,4|8,1:0|0:1,0:0:0:0:
308,151,138308,2,0,B|363:212|474:215|474:215|441:186|419:149,1,253.000007720947,2|0,0:0|1:0,0:0:0:0:
207,115,138758,5,8,0:1:0:0:
227,188,138908,1,2,0:0:0:0:
195,117,139058,1,0,1:0:0:0:
182,251,139208,5,0,0:0:0:0:
34,226,139358,1,8,0:1:0:0:
87,382,139508,6,0,P|85:327|107:249,1,126.500003860474,2|0,0:0|0:0,0:0:0:0:
336,247,139808,2,0,P|369:203|436:157,1,126.500003860474,0|8,1:0|0:1,0:0:0:0:
208,39,140108,6,0,P|245:35|279:56,1,63.2500019302369,2|0,0:0|0:0,0:0:0:0:
233,112,140258,2,0,P|169:127|94:86,1,126.500003860474,0|0,1:0|0:0,0:0:0:0:
108,308,140558,2,0,P|126:244|199:201,1,126.500003860474,8|0,0:1|0:0,0:0:0:0:
0,101,140858,2,0,P|45:148|46:233,1,126.500003860474,2|0,3:2|0:0,0:0:0:0:
311,133,141158,2,0,P|294:193|246:232,1,126.500003860474,8|2,0:1|0:0,0:0:0:0:
486,374,141458,5,0,0:0:0:0:
275,319,141608,1,0,3:0:0:0:
456,303,141758,1,8,0:1:0:0:
357,258,141908,6,0,L|345:405,1,126.500003860474,2|0,0:0|1:0,0:0:0:0:
145,262,142208,1,0,0:0:0:0:
275,319,142358,2,0,B|160:297|212:369|78:330,1,189.750005790711,10|0,0:1|0:0,0:0:0:0:
18,354,142658,6,0,P|3:313|13:271,1,63.2500019302369,0|0,1:0|0:0,0:0:0:0:
70,235,142808,2,0,P|77:191|107:160,1,63.2500019302369,2|0,0:0|0:0,0:0:0:0:
53,104,142958,1,8,0:1:0:0:
174,157,143108,6,0,P|202:123|243:111,1,63.2500019302369,0|0,1:0|0:0,0:0:0:0:
465,289,143408,6,0,P|457:248|404:213,1,63.2500019302369,0|0,3:0|0:0,0:0:0:0:
394,312,143558,2,0,P|376:285|373:254,1,63.2500019302369,8|0,0:1|0:0,0:0:0:0:
470,23,143858,6,0,P|460:58|417:85,1,63.2500019302369,0|0,1:0|0:0,0:0:0:0:
423,196,144008,2,0,P|389:210|341:195,1,63.2500019302369,2|0,0:0|0:0,0:0:0:0:
335,137,144158,1,8,0:1:0:0:
259,270,144308,6,0,P|226:254|207:207,1,63.2500019302369,0|0,3:0|0:0,0:0:0:0:
116,220,144458,2,0,P|113:183|144:143,1,63.2500019302369,0|0,1:0|0:0,0:0:0:0:
206,154,144608,1,0,3:0:0:0:
143,50,144758,6,0,P|110:65|91:112,1,63.2500019302369,8|0,0:1|0:0,0:0:0:0:
0,100,144908,2,0,P|-2:136|28:176,1,63.2500019302369,2|0,0:0|0:0,0:0:0:0:
3,238,145058,1,0,0:0:0:0:
248,307,145208,6,0,P|217:292|165:306,1,63.2500019302369,0|0,3:0|0:0,0:0:0:0:
85,384,145358,2,0,P|113:364|127:312,1,63.2500019302369,8|0,0:1|0:0,0:0:0:0:
99,204,145508,2,0,P|101:238|139:276,1,63.2500019302369,2|0,0:0|0:0,0:0:0:0:
463,361,145808,6,0,P|477:322|494:288,1,63.2500019302369,0|0,3:0|0:0,0:0:0:0:
179,300,145958,2,0,P|168:259|154:224,1,63.2500019302369,8|0,0:1|0:0,0:0:0:0:
333,300,146108,2,0,P|343:259|357:224,1,63.2500019302369,2|0,0:0|0:0,0:0:0:0:
49,361,146258,2,0,P|35:322|18:288,1,63.2500019302369,0|0,1:0|0:0,0:0:0:0:
256,352,146408,5,0,0:0:0:0:
257,205,146558,2,0,P|256:247|258:292,1,63.2500019302369,8|0,0:1|0:0,0:0:0:0:
169,103,146708,6,0,B|282:87|226:152|359:129,1,189.750005790711,2|0,0:0|0:0,0:0:0:0:
424,177,147008,5,0,3:0:0:0:
256,32,147158,1,8,0:1:0:0:
88,177,147308,1,2,0:0:0:0:
0,19,147458,6,0,B|-7:-4|-7:-4|54:-10|108:44|91:128,1,189.750005790711,4|0,1:0|0:0,0:0:0:0:
32,130,147758,5,8,0:1:0:0:
88,177,147908,1,2,0:0:0:0:
176,192,148058,1,0,0:0:0:0:
283,163,148208,1,0,1:0:0:0:
372,58,148358,1,8,0:1:0:0:
431,104,148508,6,0,P|446:77|447:45,1,63.2500019302369,2|0,0:0|0:0,0:0:0:0:
372,57,148658,2,0,P|356:119|380:211,1,126.500003860474,0|0,1:0|3:0,0:0:0:0:
512,249,148958,5,8,0:1:0:0:
442,205,149108,1,2,0:0:0:0:
340,189,149258,1,0,0:0:0:0:
213,239,149408,1,0,1:0:0:0:
143,372,149558,1,0,0:0:0:0:
99,307,149708,6,0,P|134:293|175:302,1,63.2500019302369,2|0,0:0|0:0,0:0:0:0:
143,372,149858,2,0,B|260:345|201:412|342:377,1,189.750005790711,0|0,1:0|0:0,0:0:0:0:
407,378,150158,5,8,0:1:0:0:
486,319,150308,1,0,0:0:0:0:
499,201,150458,1,2,3:2:0:0:
397,119,150608,1,0,0:0:0:0:
269,149,150758,1,8,0:1:0:0:
236,286,150908,1,2,0:0:0:0:
101,327,151058,1,0,1:0:0:0:
0,232,151208,1,0,3:0:0:0:
60,187,151358,1,0,0:0:0:0:
126,9,151508,6,0,P|47:30|25:149,1,189.750005790711,2|0,0:0|0:0,0:0:0:0:
60,187,151808,2,0,L|128:203,1,63.2500019302369
217,4,151958,6,0,P|202:43|198:84,1,63.2500019302369,8|0,0:1|0:0,0:0:0:0:
288,34,152108,1,2,0:0:0:0:
288,34,152183,1,0,0:0:0:0:
288,34,152258,6,0,P|332:53|398:68,1,84.3333359069825,4|0,1:2|0:0,0:0:0:0:
376,298,152458,2,0,P|338:327|292:376,1,84.3333359069825,4|0,1:2|0:0,0:0:0:0:
103,243,152658,2,0,P|97:195|77:131,1,84.3333359069825,4|0,1:2|0:0,0:0:0:0:
297,118,152858,6,0,P|275:154|256:191,1,84.3333359069825,4|0,1:2|0:0,0:0:0:0:
298,264,153058,2,0,P|278:227|256:192,1,84.3333359069825,4|0,1:2|0:0,0:0:0:0:
171,192,153258,2,0,P|213:194|256:192,1,84.3333359069825,4|0,1:2|0:0,0:0:0:0:
478,181,153458,6,0,P|479:141|438:102,1,63.2500019302369,0|0,1:0|0:0,0:0:0:0:
380,50,153608,2,0,P|377:121|423:185,1,126.500003860474,8|0,0:1|3:0,0:0:0:0:
464,384,153908,6,0,P|446:348|430:315,1,63.2500019302369,8|0,0:0|0:0,0:0:0:0:
48,384,154208,6,0,P|66:348|82:315,1,63.2500019302369,2|0,0:0|0:0,0:0:0:0:
256,192,154508,6,0,P|255:234|257:274,1,63.2500019302369,2|0,0:0|0:0,0:0:0:0:
256,192,154658,12,2,155858,0:0:0:0:
256,192,155933,12,0,156908,0:0:0:0:
31,322,157058,5,2,0:0:0:0:
37,337,157508,1,0,0:0:0:0:
147,216,158258,5,2,0:0:0:0:
132,289,158708,1,2,0:0:0:0:
256,192,159458,5,2,0:0:0:0:
337,364,160658,5,2,0:0:0:0:
407,337,161108,1,0,0:0:0:0:
431,176,161258,1,2,0:0:0:0:
468,381,161408,1,0,0:0:0:0:
278,305,161858,5,2,0:0:0:0:
316,65,163058,5,2,0:0:0:0:
377,114,163508,1,0,0:0:0:0:
389,109,163808,1,2,0:0:0:0:
512,4,164258,6,0,P|473:14|426:63,1,92,2|0,0:0|0:0,0:0:0:0:
360,38,164708,2,0,P|336:70|332:138,1,92
399,253,165158,6,0,P|331:248|276:207,1,137.999995788574,0|2,0:0|0:0,0:0:0:0:
202,216,165608,2,0,P|171:154|180:87,1,137.999995788574
32,3,166058,6,0,P|92:7|131:60,1,92
91,97,166358,2,0,P|31:93|-8:40,1,92
192,8,166658,5,2,0:0:0:0:
261,41,167558,1,0,0:0:0:0:
202,216,167858,5,2,0:0:0:0:
271,187,168158,1,0,0:0:0:0:
278,197,168308,1,2,0:0:0:0:
352,167,168608,6,0,L|366:223,2,46
512,57,169058,5,2,0:0:0:0:
463,116,169358,1,0,0:0:0:0:
456,107,169508,2,0,L|355:90,2,92
506,183,170258,6,0,P|495:229|453:261,1,92,2|0,0:0|0:0,0:0:0:0:
305,238,170708,2,0,P|350:224|399:244,1,92,2|0,0:0|0:0,0:0:0:0:
454,384,171158,2,0,P|419:351|412:299,1,92,0|2,0:0|0:0,0:0:0:0:
245,293,172208,5,0,0:0:0:0:
240,282,172358,2,0,L|188:293,1,46
136,352,172658,5,2,0:0:0:0:
104,205,172958,1,0,0:0:0:0:
100,192,173108,1,2,0:0:0:0:
20,370,173408,5,0,0:0:0:0:
23,355,173558,2,0,L|31:302,1,46,0|2,0:0|0:0,0:0:0:0:
102,281,173858,1,0,0:0:0:0:
256,192,174458,12,8,176258,0:3:0:0:
422,281,179858,5,0,0:0:0:0:
420,272,179933,1,0,0:0:0:0:
425,255,180008,1,2,0:0:0:0:
447,241,180083,1,0,0:0:0:0:
481,239,180158,1,0,3:0:0:0:
512,268,180233,1,0,0:0:0:0:
511,319,180308,1,2,3:0:0:0:
469,362,180383,1,2,3:0:0:0:
401,376,180458,1,0,3:0:0:0:
329,345,180533,1,0,3:0:0:0:
282,272,180608,1,0,3:0:0:0:
264,187,180683,1,0,3:0:0:0:
274,92,180758,1,0,3:0:0:0:
316,3,180833,1,0,3:0:0:0:
389,18,180908,6,0,P|380:42|353:64,1,34.4999989471436,0|0,3:0|0:0,0:0:0:0:
241,21,181058,5,4,1:0:0:0:
28,86,181208,1,2,0:0:0:0:
337,152,181358,1,8,0:1:0:0:
108,231,181508,5,0,0:0:0:0:
264,187,181658,1,0,0:0:0:0:
177,275,181808,1,0,3:0:0:0:
375,346,181958,6,0,B|268:319|316:387|194:345,1,172.5,8|0,0:1|0:0,0:0:0:0:
140,372,182258,1,0,3:0:0:0:
93,308,182408,1,0,0:0:0:0:
80,221,182558,1,8,0:1:0:0:
145,121,182708,1,0,3:0:0:0:
260,68,182858,6,0,P|323:83|362:158,1,115,0|2,1:0|0:0,0:0:0:0:
69,135,183158,1,8,0:1:0:0:
250,164,183308,1,0,1:0:0:0:
336,326,183458,5,0,3:0:0:0:
497,302,183608,1,0,0:0:0:0:
395,273,183758,1,8,0:1:0:0:
460,231,183908,6,0,P|469:165|487:106,1,115,2|0,0:0|0:0,0:0:0:0:
195,26,184208,5,0,1:0:0:0:
260,68,184358,2,0,P|269:134|287:193,1,115,8|0,0:1|0:0,0:0:0:0:
71,359,184658,5,0,1:0:0:0:
202,322,184808,1,0,0:0:0:0:
99,230,184958,1,8,0:1:0:0:
125,301,185108,1,2,0:0:0:0:
88,215,185258,5,0,3:0:0:0:
59,368,185408,1,2,0:0:0:0:
296,243,185558,1,8,0:1:0:0:
323,345,185708,1,0,1:0:0:0:
224,210,185858,5,4,1:3:0:0:
434,304,186008,1,0,0:0:0:0:
287,156,186158,1,8,0:1:0:0:
434,156,186308,1,2,0:0:0:0:
343,21,186458,6,0,P|278:39|256:105,1,115,0|2,0:0|0:0,0:0:0:0:
22,68,186758,1,8,0:1:0:0:
99,230,186908,2,0,L|86:105,1,115,0|2,0:0|1:2,0:0:0:0:
256,77,187208,5,0,0:0:0:0:
195,25,187358,1,8,0:1:0:0:
178,224,187508,1,0,0:0:0:0:
121,47,187658,1,2,0:0:0:0:
6,149,187808,5,0,0:0:0:0:
257,237,187958,1,8,0:1:0:0:
37,283,188108,1,0,0:0:0:0:
164,364,188258,5,0,1:0:0:0:
92,339,188408,1,2,0:0:0:0:
178,224,188558,6,0,P|139:159|77:161,1,115,8|0,0:1|0:0,0:0:0:0:
390,280,188858,2,0,P|414:208|373:162,1,115,0|0,3:0|3:0,0:0:0:0:
268,4,189158,1,8,0:1:0:0:
256,77,189308,2,0,L|248:146,1,57.5,2|0,0:0|0:0,0:0:0:0:
247,148,189458,5,4,1:3:0:0:
300,207,189608,1,0,0:0:0:0:
54,210,189758,1,8,0:1:0:0:
202,214,189908,6,0,L|234:353,1,115,2|0,0:0|3:0,0:0:0:0:
126,250,190208,2,0,L|117:320,1,57.5,0|0,3:0|0:0,0:0:0:0:
45,285,190358,5,8,0:1:0:0:
256,135,190508,1,2,0:0:0:0:
467,285,190658,5,4,1:0:0:0:
264,222,190808,1,2,0:0:0:0:
497,206,190958,1,8,0:1:0:0:
296,297,191108,5,0,0:0:0:0:
498,357,191258,1,0,0:0:0:0:
275,370,191408,1,0,3:0:0:0:
349,121,191558,6,0,L|341:244,1,115,8|0,0:1|1:0,0:0:0:0:
57,83,191858,1,0,3:0:0:0:
70,153,192008,1,0,0:0:0:0:
83,222,192158,5,8,0:1:0:0:
296,55,192308,1,0,3:0:0:0:
239,109,192458,6,0,P|165:85|150:38,1,115,0|2,1:0|0:0,0:0:0:0:
366,0,192758,1,8,0:1:0:0:
419,190,192908,1,0,1:0:0:0:
458,50,193058,5,0,3:0:0:0:
388,78,193208,1,0,0:0:0:0:
464,64,193358,1,8,0:1:0:0:
341,235,193508,6,0,L|209:216,1,115,2|0,0:0|0:0,0:0:0:0:
26,347,193808,1,0,1:0:0:0:
68,184,193958,1,8,0:1:0:0:
110,21,194108,5,2,0:0:0:0:
183,8,194258,2,0,P|200:80|162:137,1,115,0|0,1:0|0:0,0:0:0:0:
34,254,194558,5,8,0:1:0:0:
108,260,194708,1,2,0:0:0:0:
139,332,194858,1,0,3:0:0:0:
271,264,195008,5,2,0:0:0:0:
341,235,195158,2,0,P|332:161|277:120,1,115,8|0,0:1|1:0,0:0:0:0:
34,51,195458,6,0,L|23:125,2,61.3333333333333,4|0|0,1:2|0:0|0:0,0:0:0:0:
227,148,196058,2,0,L|218:88,1,61.3333333333333
458,2,196508,5,4,1:0:0:0:
386,27,196658,1,0,0:0:0:0:
463,14,196808,5,8,0:0:0:0:
430,189,196958,1,0,0:0:0:0:
310,16,197108,6,0,P|306:61|364:121,1,86.2500032901765,8|0,0:1|0:0,0:0:0:0:
502,149,197258,1,2,0:0:0:0:
214,156,197408,6,0,P|239:193|322:201,1,86.2500032901765,0|0,3:0|0:0,0:0:0:0:
512,76,197558,1,2,0:0:0:0:
283,290,197708,6,0,P|241:301|201:289,2,86.2500032901765,0|0|2,1:0|0:0|0:0,0:0:0:0:
283,290,198158,5,0,1:0:0:0:
358,9,198308,1,8,0:0:0:0:
347,245,198458,5,2,0:0:0:0:
292,47,198608,1,8,0:0:0:0:
396,160,198758,5,0,3:0:0:0:
311,149,198908,1,8,0:0:0:0:
227,134,199058,1,0,1:0:0:0:
378,318,199208,1,8,0:0:0:0:
292,47,199358,1,0,3:0:0:0:
127,334,199508,6,0,P|85:342|57:373,1,86.2500032901765,4|0,1:2|0:0,0:0:0:0:
360,10,199808,2,0,P|379:62|513:68,1,172.500006580353,4|0,1:2|0:0,0:0:0:0:
74,237,200108,2,0,P|46:269|5:277,1,86.2500032901765,4|0,1:2|0:0,0:0:0:0:
74,237,200558,6,0,B|143:200|195:228|183:264|238:308|318:257,1,258.75000987053,8|0,0:1|0:0,0:0:0:0:
370,201,200858,1,0,1:0:0:0:
311,261,201008,1,0,1:0:0:0:
482,369,201158,2,0,P|474:319|466:267,1,86.2500032901765,8|0,0:1|0:0,0:0:0:0:
421,138,201308,2,0,P|382:118|331:131,1,86.2500032901765
297,6,201458,6,0,P|234:81|244:183,1,172.500006580353,0|0,1:0|0:0,0:0:0:0:
364,324,201758,1,8,0:1:0:0:
311,261,201908,1,2,0:0:0:0:
283,341,202058,1,0,3:0:0:0:
421,138,202208,5,2,0:0:0:0:
311,261,202358,2,0,P|225:258|153:184,1,172.5,8|0,0:1|0:0,0:0:0:0:
63,87,202658,6,0,P|84:59|104:137,1,172.500006580353,4|0,1:3|0:0,0:0:0:0:
117,134,202958,6,0,P|81:174|83:229,1,86.2500032901765,8|0,0:1|0:0,0:0:0:0:
6,253,203108,2,0,P|46:288|101:286,1,86.2500032901765,2|0,0:0|0:0,0:0:0:0:
299,171,203258,1,0,0:0:0:0:
77,292,203408,1,2,0:0:0:0:
244,363,203558,6,0,P|231:319|218:266,1,86.2500032901765,8|0,0:1|0:0,0:0:0:0:
355,88,203708,2,0,P|341:163|325:297,1,172.500006580353,0|2,0:0|1:2,0:0:0:0:
328,258,204008,5,0,0:0:0:0:
256,16,204158,1,8,0:1:0:0:
190,59,204308,1,0,0:0:0:0:
255,94,204458,1,0,3:0:0:0:
328,258,204608,6,0,L|454:279,1,86.2500032901765
114,84,204758,2,0,L|-12:105,1,86.2500032901765,8|0,0:1|0:0,0:0:0:0:
154,272,204908,6,0,B|133:247|133:247|149:185,1,86.2500032901765
28,98,205058,2,0,B|149:116|149:116|120:116|94:140,1,172.500006580353,0|0,1:0|0:0,0:0:0:0:
248,239,205358,1,8,0:1:0:0:
328,258,205508,1,2,0:0:0:0:
268,316,205658,1,0,3:0:0:0:
105,381,205808,6,0,P|66:334|75:293,1,86.2500032901765,0|0,3:0|0:0,0:0:0:0:
7,248,205958,2,0,P|54:209|94:217,1,86.2500032901765,8|0,0:1|0:0,0:0:0:0:
28,98,206108,2,0,B|99:68|162:107|150:182|150:182|135:135|73:126,1,258.75000987053,2|0,0:0|0:0,0:0:0:0:
102,133,206408,5,0,0:0:0:0:
274,319,206558,1,8,0:1:0:0:
341,364,206708,1,2,0:0:0:0:
419,349,206858,1,0,3:0:0:0:
474,158,207008,1,0,3:0:0:0:
445,179,207158,1,8,0:1:0:0:
441,200,207308,1,2,0:0:0:0:
185,334,207458,6,0,B|239:343|281:306|240:296|279:245|341:251,2,172.500006580353,4|0|8,1:0|0:0|0:1,0:0:0:0:
117,254,207833,1,0,0:0:0:0:
115,247,207908,2,0,B|95:149|-12:138|-12:138|17:231,1,258.75000987053
32,370,208208,2,0,P|85:353|104:316,1,86.2500032901765,0|0,3:0|0:0,0:0:0:0:
204,69,208358,2,0,P|151:86|132:123,1,86.2500032901765,8|0,0:1|0:0,0:0:0:0:
209,230,208508,6,0,L|328:252,1,115,0|0,1:0|3:0,0:0:0:0:
209,230,208808,5,0,0:0:0:0:
428,133,208958,2,0,P|407:91|354:73,1,86.2500032901765,8|0,0:1|0:0,0:0:0:0:
323,361,209108,2,0,P|389:319|425:326,1,86.2500032901765
512,59,209258,2,0,P|474:38|457:0,1,86.2500032901765,0|0,1:0|0:0,0:0:0:0:
134,218,209408,2,0,L|36:204,1,86.2500032901765
479,364,209558,2,0,P|409:254|432:125,1,258.75000987053,8|0,0:1|0:0,0:0:0:0:
315,21,209858,6,0,P|289:61|374:71,1,172.5,0|0,3:0|0:0,0:0:0:0:
457,0,210158,1,8,0:1:0:0:
373,72,210308,1,0,0:0:0:0:
427,132,210458,1,0,1:0:0:0:
512,290,210608,6,0,P|482:255|437:247,1,86.2500032901765,0|0,1:0|0:0,0:0:0:0:
288,113,210758,2,0,P|258:148|213:156,1,86.2500032901765,8|0,0:1|0:0,0:0:0:0:
122,349,210908,2,0,P|21:334|147:280,1,345.000013160706,2|0,0:0|0:0,0:0:0:0:
141,264,211358,6,0,L|118:368,1,86.2500032901765,8|0,0:1|0:0,0:0:0:0:
334,185,211508,2,0,L|291:-2,1,172.500006580353,2|0,0:0|3:0,0:0:0:0:
144,149,211808,5,2,0:0:0:0:
353,260,211958,1,8,0:1:0:0:
25,357,212108,1,0,1:0:0:0:
159,57,212258,5,4,1:2:0:0:
92,28,212408,2,0,P|48:59|25:143,1,137.999995788574
141,264,212858,5,0,0:0:0:0:
95,321,213008,2,0,P|50:299|35:262,1,86.2500032901765
57,34,213308,5,4,1:2:0:0:
75,77,213458,1,0,0:0:0:0:
158,128,213608,1,0,0:0:0:0:
303,155,213758,1,0,0:0:0:0:
495,59,213908,6,0,P|471:24|432:12,1,68.9999978942872,8|0,0:1|0:0,0:0:0:0:
244,108,214058,1,2,0:0:0:0:
225,147,214133,1,2,0:0:0:0:
230,184,214208,2,0,P|254:219|293:231,1,68.9999978942872,0|0,1:0|0:0,0:0:0:0:
512,346,214358,1,8,0:1:0:0:
466,340,214433,1,8,0:1:0:0:
418,332,214508,2,0,P|424:288|431:227,1,68.9999978942872,8|8,0:1|0:1,0:0:0:0:
229,23,214658,6,0,P|317:65|319:139,2,172.500006580353,4|0|8,1:0|0:0|0:1,0:0:0:0:
61,143,215033,1,0,0:0:0:0:
74,140,215108,2,0,L|266:105,1,172.500006580353,2|0,0:0|0:0,0:0:0:0:
243,109,215408,6,0,P|251:152|261:208,1,86.2500032901765,0|0,1:0|0:0,0:0:0:0:
444,159,215558,2,0,P|436:202|425:258,1,86.2500032901765,8|0,0:1|0:0,0:0:0:0:
359,380,215708,6,0,P|343:349|359:287,1,86.2500032901765,2|0,0:0|0:0,0:0:0:0:
427,243,215858,2,0,P|475:257|493:289,1,86.2500032901765,0|0,1:0|0:0,0:0:0:0:
260,364,216008,1,0,3:0:0:0:
444,159,216158,5,8,0:1:0:0:
243,109,216308,1,2,0:0:0:0:
332,197,216458,1,0,0:0:0:0:
444,159,216608,5,0,1:0:0:0:
437,68,216758,1,8,0:1:0:0:
365,119,216908,1,0,0:0:0:0:
350,299,217058,6,0,P|302:224|191:217,2,172.500006580353,0|0|8,1:0|0:0|0:1,0:0:0:0:
475,374,217433,1,0,0:0:0:0:
468,370,217508,2,0,P|436:336|436:288,1,86.2500032901765
444,159,217658,2,0,P|468:119|514:106,1,86.2500032901765,2|0,3:2|0:0,0:0:0:0:
350,299,217808,5,0,0:0:0:0:
167,273,217958,1,8,0:1:0:0:
365,119,218108,1,2,0:0:0:0:
104,11,218258,6,0,P|117:69|135:150,1,115,0|0,1:0|3:0,0:0:0:0:
167,273,218558,1,8,0:1:0:0:
112,332,218708,1,2,0:0:0:0:
373,207,218858,6,0,P|316:219|260:232,1,115,0|0,1:0|0:0,0:0:0:0:
37,291,219158,1,8,0:1:0:0:
260,231,219308,1,0,0:0:0:0:
22,111,219458,6,0,P|121:143|142:218,2,172.500006580353,0|0|8,1:0|0:0|0:1,0:0:0:0:
165,1,219833,1,0,0:0:0:0:
163,7,219908,2,0,P|163:52|200:85,1,86.2500032901765,0|0,1:0|0:0,0:0:0:0:
216,152,220058,2,0,P|254:129|265:80,1,86.2500032901765
422,121,220208,2,0,P|379:39|264:39,2,172.500006580353,0|8|0,3:0|0:1|0:0,0:0:0:0:
171,334,220658,6,0,P|156:267|142:200,1,137.999995788574,0|2,1:0|0:0,0:0:0:0:
0,29,220958,1,8,0:1:0:0:
216,152,221108,1,0,3:0:0:0:
12,372,221258,6,0,P|31:311|105:280,1,115,0|0,1:0|3:0,0:0:0:0:
267,350,221558,1,8,0:1:0:0:
171,334,221708,1,2,0:0:0:0:
106,59,221858,6,0,P|204:94|215:156,2,172.500006580353,0|0|8,1:0|3:0|0:1,0:0:0:0:
3,29,222233,1,0,0:0:0:0:
6,37,222308,2,0,P|19:79|38:143,1,86.2500032901765
198,250,222458,2,0,P|185:292|166:356,1,86.2500032901765,0|0,3:0|0:0,0:0:0:0:
51,193,222608,5,0,3:0:0:0:
215,151,222758,1,8,0:1:0:0:
289,83,222908,1,2,0:0:0:0:
284,3,223058,6,0,P|217:42|211:82,1,115,0|0,1:0|3:0,0:0:0:0:
210,73,223358,2,0,P|183:109|135:120,1,86.2500032901765,8|0,0:1|0:0,0:0:0:0:
0,255,223508,2,0,P|16:213|60:190,1,86.2500032901765,2|0,0:0|0:0,0:0:0:0:
284,3,223658,5,0,3:0:0:0:
144,120,223808,1,0,3:0:0:0:
0,17,223958,1,8,0:1:0:0:
47,106,224108,1,2,0:0:0:0:
289,83,224258,6,0,P|317:163|233:259,2,172.500006580353,4|0|8,1:0|3:0|0:1,0:0:0:0:
217,293,224633,1,0,0:0:0:0:
223,298,224708,2,0,P|254:322|305:312,1,86.2500032901765
384,384,224858,2,0,P|408:353|398:302,1,86.2500032901765
289,83,225008,5,0,1:0:0:0:
380,227,225158,1,8,0:1:0:0:
505,259,225308,1,2,0:0:0:0:
313,1,225458,2,0,P|243:12|207:113,1,172.500006580353,0|0,1:0|3:0,0:0:0:0:
203,97,225758,5,8,0:1:0:0:
459,157,225908,1,2,0:0:0:0:
251,245,226058,1,0,0:0:0:0:
316,312,226208,1,0,1:0:0:0:
296,342,226358,1,8,0:1:0:0:
301,356,226508,1,2,0:0:0:0:
276,170,226658,6,0,B|218:161|180:188|205:192|174:241|112:227,2,172.500006580353,0|0|8,1:0|0:0|0:1,0:0:0:0:
418,312,227033,1,0,0:0:0:0:
401,306,227108,2,0,P|387:258|369:207,1,86.2500032901765
352,131,227258,2,0,P|327:93|266:90,1,86.2500032901765,2|0,3:2|0:0,0:0:0:0:
50,155,227408,2,0,P|76:242|105:347,2,172.500006580353,0|8|2,0:0|0:1|0:0,0:0:0:0:
420,47,227858,6,0,P|379:35|357:0,1,86.2500032901765,0|0,1:0|0:0,0:0:0:0:
276,170,228008,1,0,3:0:0:0:
441,184,228158,2,0,P|452:143|488:121,1,86.2500032901765,8|0,0:1|0:0,0:0:0:0:
195,158,228308,1,2,0:0:0:0:
459,300,228458,5,0,1:0:0:0:
324,255,228608,1,0,0:0:0:0:
276,170,228758,1,8,0:1:0:0:
301,100,228908,1,2,0:0:0:0:
116,25,229058,6,0,P|124:70|136:131,2,86.2500032901765,0|2|2,1:0|0:0|0:0,0:0:0:0:
194,0,229508,1,0,0:0:0:0:
194,0,229658,2,0,P|202:45|214:106,2,86.2500032901765,2|2|0,0:0|0:0|3:0,0:0:0:0:
52,208,230108,6,0,L|132:185,1,57.5,4|0,1:3|0:0,0:0:0:0:
252,211,230258,2,0,B|197:206|169:234|184:240|153:283|91:270,1,172.5
288,130,230558,6,0,P|355:164|361:205,1,115,0|8,3:0|0:0,0:0:0:0:
332,318,230783,1,0,0:0:0:0:
332,318,230858,2,0,L|313:259,1,43.1250016450883,2|2,3:0|3:0,0:0:0:0:
450,174,231008,1,2,3:0:0:0:
455,153,231083,1,2,3:0:0:0:
461,132,231158,1,0,3:0:0:0:
466,111,231233,1,0,3:0:0:0:
471,90,231308,2,0,L|486:29,1,43.1250016450883,0|0,3:0|3:0,0:0:0:0:
508,249,231458,6,0,P|460:263|404:279,1,92,4|0,1:0|0:0,0:0:0:0:
207,307,231908,6,0,B|298:266|330:303|337:323|337:323|344:342|377:384|473:347,1,275.999991577149
508,249,232658,6,0,P|493:180|451:156,1,115
453,78,233108,2,0,P|394:100|397:211,1,184
436,375,233858,6,0,P|457:336|366:333,1,184
366,332,235058,6,0,P|348:372|299:371,1,92,2|0,0:0|0:0,0:0:0:0:
257,308,235508,1,0,0:0:0:0:
350,168,235658,1,2,0:0:0:0:
361,252,235808,2,0,P|403:235|447:220,1,92
350,168,236258,6,0,P|304:171|280:95,1,137.999995788574,2|0,0:0|0:0,0:0:0:0:
279,95,237458,6,0,L|290:43,1,46,2|0,0:0|0:0,0:0:0:0:
213,42,237908,2,0,L|207:69,1,23
118,159,238208,2,0,P|165:152|219:144,1,92,2|0,0:0|0:0,0:0:0:0:
256,192,238658,12,2,240908,0:0:0:0:
374,48,241058,6,0,P|419:28|424:130,1,184,2|0,0:0|0:0,0:0:0:0:
438,124,242258,6,0,P|442:167|448:220,1,92,2|0,0:0|0:0,0:0:0:0:
361,120,242708,2,0,L|355:69,1,46,2|0,0:0|0:0,0:0:0:0:
462,291,243458,6,0,P|409:289|374:219,1,137.999995788574,2|0,0:0|0:0,0:0:0:0:
373,219,244658,2,0,P|382:166|391:108,2,103.499996841431,2|2|0,0:0|0:0|0:0,0:0:0:0:
220,359,245858,6,0,P|186:325|95:340,1,137.999995788574,2|0,0:0|0:0,0:0:0:0:
139,199,246908,2,0,P|173:233|264:218,1,137.999995788574,2|0,0:0|0:0,0:0:0:0:
