osu file format v14

[General]
AudioFilename: Ether.mp3
AudioLeadIn: 0
PreviewTime: 50750
Countdown: 0
SampleSet: Soft
StackLeniency: 0.2
Mode: 0
LetterboxInBreaks: 0
EpilepsyWarning: 1
WidescreenStoryboard: 1

[Editor]
DistanceSpacing: 2.4
BeatDivisor: 4
GridSize: 32
TimelineZoom: 2.4

[Metadata]
Title:Ether
TitleUnicode:エーテル
Artist:Feryquitous feat. Aitsuki Nakuru
ArtistUnicode:Feryquitous feat. 藍月なくる
Creator:Acyl
Version:Moecho's Empyrean Quintessence
Source:
Tags:『JelLaboratory』 c95 female vocal japanese doujin pop artcore -tochi j1_ how2miss otosaka-yu necho reincarnation suzuki_1112 moecho neilperry sing toybot kalibe lit120 lami lmt firika fanzhen0019 skystar yusomi amamiya yuko _epreus bbj0920 len fast kawashiro heilia cococolaco 藍月なくる aitsuki nakuru _todestrieb coco
BeatmapID:2117380
BeatmapSetID:902425

[Difficulty]
HPDrainRate:5.5
CircleSize:4.7
OverallDifficulty:9
ApproachRate:9.5
SliderMultiplier:2
SliderTickRate:0.5

[Events]
//Background and Video events
0,0,"background.jpg",0,0
//Break Periods
//Storyboard Layer 0 (Background)
Sprite,Background,Centre,"background.jpg",320,240 F,0,0,,0
Sprite,Background,Centre,"sb\blank.jpg",0,0 F,0,-4025,-3682,0,1 F,0,-3682,-253,1 F,0,-253,3,1,0 M,0,3,,320,240 S,0,3,,0.6493149
Sprite,Background,Centre,"sb\tochi.png",320,240 S,0,-3532,,0.6 F,0,-3532,-3187,0,1 F,0,-3187,-596,1,0.9893727 F,0,-596,-253,0.9893727,0
Sprite,Background,Centre,"sb\bgblurbw.jpg",0,0 F,2,1058,10658,0,0.6487671 M,0,1058,50258,320,-18.8055,320,240 S,0,1058,50258,0.9298632,0.5160549 F,0,10658,49058,0.6487671 F,0,49058,50258,0.6487671,0
Sprite,Background,Centre,"sb\bgblur.jpg",320,240 S,0,51458,,0.5160547 F,0,51458,70658,1 F,0,70658,70958,1,0
Sprite,Background,Centre,"sb\blank.jpg",320,240 S,0,49058,,0.537096 F,0,49058,50258,0,1 F,0,50258,51458,1 F,0,51458,51758,1,0
Sprite,Background,Centre,"sb\blank.jpg",320,240 S,0,70658,,0.5230685 F,0,70658,70958,0,1 F,0,70958,80258,1,0.9966667 F,0,80258,80408,0.9966667,0
Sprite,Background,Centre,"sb\bgblurbw.jpg",320,240 S,0,80258,,0.5300821 F,0,80258,80408,0,1 F,0,80408,118658,1,0.9866667 F,0,118658,119258,0.9866667,0.2384657 F,0,119258,121058,0.2384657,0.2459477 F,0,121058,121358,0.2459477,0
Sprite,Background,Centre,"sb\bgblur.jpg",320,240 F,0,121058,137858,1 S,0,121058,137858,0.5160547,0.5230685 F,0,137858,138158,1,0
Sprite,Background,Centre,"background.jpg",320,240 S,0,137858,,0.5230684 F,0,137858,138158,0,1 F,0,138158,156758,1,0.9866667 F,0,156758,157358,0.9866667,0
Sprite,Background,Centre,"sb\bgblur.jpg",320,240 S,0,181058,,0.5160547 F,0,181058,214658,1 F,0,214658,214958,1,0
Sprite,Background,Centre,"sb\bgblurbw.jpg",0,0 S,0,156758,,0.6493151 P,0,156758,,V F,0,156758,157358,0,1 M,0,156758,179858,200.0658,240,384.526,240 F,0,157358,175058,1 F,0,175058,176258,1,0.2565479 F,0,176258,181058,0.2565479
Sprite,Background,Centre,"background.jpg",320,240 S,0,214658,,0.5160549 F,0,214658,214958,0,1 F,0,214958,231458,1 F,0,231458,232658,1,0
Sprite,Background,Centre,"sb\bgblurbw.jpg",0,0 P,0,231458,,H F,0,231458,232658,0,1 M,2,231458,255458,457.4685,148.8219,-109.9397,549.3041 S,0,231458,255458,0.6984109,1.140274 R,0,231458,255458,-0.01402771,-0.2665204 F,0,232658,249308,1 F,0,249308,255458,1,0
Sprite,Background,Centre,"sb\blank.jpg",0,0 F,0,51308,51458,0,0.5 M,0,51458,,320,240 F,0,51458,51758,0.5,0.1 V,1,51458,51758,0.42,0.51,0.4,0.05 R,0,51458,70658,0.08416412,-0.1402744 P,0,51758,,A F,0,51758,70658,0.1 F,0,70658,70958,0.1,0
Sprite,Background,Centre,"sb\blank.jpg",0,0 F,0,120608,120758,0,0.5 M,0,120758,,320,240 F,0,120758,121058,0.5,0.1 V,1,120758,121058,0.42,0.51,0.4,0.05 R,0,120758,157058,-0.1402744,0.08416412 P,0,121058,,A F,0,121058,157058,0.1 F,0,157058,157358,0.1,0
Sprite,Background,Centre,"sb\blank.jpg",0,0 F,0,180458,180608,0,0.5 M,0,180608,,320,240 F,0,180608,180908,0.5,0.1 V,1,180608,180908,0.42,0.51,0.4,0.05 R,0,180608,231458,0.08416412,-0.1402744 P,0,180908,,A F,0,180908,231458,0.1 F,0,231458,231758,0.1,0
Sprite,Background,Centre,"sb\ring.png",0,0 M,0,51458,,544,314 C,0,51458,,255,255,255 F,1,51458,53533,0.9,0 S,1,51458,53533,0.25,0.5
Sprite,Background,Centre,"sb\ring.png",0,0 M,0,51608,,456,118 C,0,51608,,255,255,255 F,1,51608,53758,0.9,0 S,1,51608,53758,0.25,0.5
Sprite,Background,Centre,"sb\ring.png",0,0 M,0,51908,,380,108 C,0,51908,,255,255,255 F,1,51908,53908,0.9,0 S,1,51908,53908,0.25,0.5
Sprite,Background,Centre,"sb\ring.png",0,0 M,0,52058,,174,272 C,0,52058,,255,255,255 F,1,52058,54133,0.9,0 S,1,52058,54133,0.25,0.5
Sprite,Background,Centre,"sb\ring.png",0,0 M,0,52208,,370,184 C,0,52208,,255,255,255 F,1,52208,54358,0.9,0 S,1,52208,54358,0.25,0.5
Sprite,Background,Centre,"sb\ring.png",0,0 M,0,52508,,380,108 C,0,52508,,255,255,255 F,1,52508,54508,0.9,0 S,1,52508,54508,0.25,0.5
Sprite,Background,Centre,"sb\ring.png",0,0 M,0,52658,,443,242 C,0,52658,,255,255,255 F,1,52658,54658,0.9,0 S,1,52658,54658,0.25,0.5
Sprite,Background,Centre,"sb\ring.png",0,0 M,0,52808,,284,331 C,0,52808,,255,255,255 F,1,52808,54808,0.9,0 S,1,52808,54808,0.25,0.5
Sprite,Background,Centre,"sb\ring.png",0,0 M,0,52958,,456,118 C,0,52958,,255,255,255 F,1,52958,54958,0.9,0 S,1,52958,54958,0.25,0.5
Sprite,Background,Centre,"sb\ring.png",0,0 M,0,53108,,432,327 C,0,53108,,255,255,255 F,1,53108,55108,0.9,0 S,1,53108,55108,0.25,0.5
Sprite,Background,Centre,"sb\ring.png",0,0 M,0,53258,,174,272 C,0,53258,,255,255,255 F,1,53258,55258,0.9,0 S,1,53258,55258,0.25,0.5
Sprite,Background,Centre,"sb\ring.png",0,0 M,0,53408,,359,364 C,0,53408,,255,255,255 F,1,53408,55408,0.9,0 S,1,53408,55408,0.25,0.5
Sprite,Background,Centre,"sb\ring.png",0,0 M,0,53558,,66,317 C,0,53558,,255,255,255 F,1,53558,55558,0.9,0 S,1,53558,55558,0.25,0.5
Sprite,Background,Centre,"sb\ring.png",0,0 M,0,53708,,274,234 C,0,53708,,255,255,255 F,1,53708,55708,0.9,0 S,1,53708,55708,0.25,0.5
Sprite,Background,Centre,"sb\ring.png",0,0 M,0,53858,,91,186 C,0,53858,,255,255,255 F,1,53858,55933,0.9,0 S,1,53858,55933,0.25,0.5
Sprite,Background,Centre,"sb\ring.png",0,0 M,0,54008,,72,286 C,0,54008,,255,255,255 F,1,54008,56083,0.9,0 S,1,54008,56083,0.25,0.5
Sprite,Background,Centre,"sb\ring.png",0,0 M,0,54158,,83,108 C,0,54158,,255,255,255 F,1,54158,56233,0.9,0 S,1,54158,56233,0.25,0.5
Sprite,Background,Centre,"sb\ring.png",0,0 M,0,54308,,269,80 C,0,54308,,255,255,255 F,1,54308,56383,0.9,0 S,1,54308,56383,0.25,0.5
Sprite,Background,Centre,"sb\ring.png",0,0 M,0,54458,,274,234 C,0,54458,,255,255,255 F,1,54458,56533,0.9,0 S,1,54458,56533,0.25,0.5
Sprite,Background,Centre,"sb\ring.png",0,0 M,0,54608,,173,254 C,0,54608,,255,255,255 F,1,54608,56683,0.9,0 S,1,54608,56683,0.25,0.5
Sprite,Background,Centre,"sb\ring.png",0,0 M,0,54758,,350,217 C,0,54758,,255,255,255 F,1,54758,56758,0.9,0 S,1,54758,56758,0.25,0.5
Sprite,Background,Centre,"sb\ring.png",0,0 M,0,54908,,222,314 C,0,54908,,255,255,255 F,1,54908,56908,0.9,0 S,1,54908,56908,0.25,0.5
Sprite,Background,Centre,"sb\ring.png",0,0 M,0,55058,,350,217 C,0,55058,,255,255,255 F,1,55058,57208,0.9,0 S,1,55058,57208,0.25,0.5
Sprite,Background,Centre,"sb\ring.png",0,0 M,0,55358,,567,56 C,0,55358,,255,255,255 F,1,55358,57433,0.9,0 S,1,55358,57433,0.25,0.5
Sprite,Background,Centre,"sb\ring.png",0,0 M,0,55508,,547,157 C,0,55508,,255,255,255 F,1,55508,57583,0.9,0 S,1,55508,57583,0.25,0.5
Sprite,Background,Centre,"sb\ring.png",0,0 M,0,55658,,576,348 C,0,55658,,255,255,255 F,1,55658,57733,0.9,0 S,1,55658,57733,0.25,0.5
Sprite,Background,Centre,"sb\ring.png",0,0 M,0,55808,,416,379 C,0,55808,,255,255,255 F,1,55808,57883,0.9,0 S,1,55808,57883,0.25,0.5
Sprite,Background,Centre,"sb\ring.png",0,0 M,0,55958,,350,217 C,0,55958,,255,255,255 F,1,55958,58033,0.9,0 S,1,55958,58033,0.25,0.5
Sprite,Background,Centre,"sb\ring.png",0,0 M,0,56108,,446,102 C,0,56108,,255,255,255 F,1,56108,58183,0.9,0 S,1,56108,58183,0.25,0.5
Sprite,Background,Centre,"sb\ring.png",0,0 M,0,56258,,505,266 C,0,56258,,255,255,255 F,1,56258,58333,0.9,0 S,1,56258,58333,0.25,0.5
Sprite,Background,Centre,"sb\ring.png",0,0 M,0,56408,,277,199 C,0,56408,,255,255,255 F,1,56408,58558,0.9,0 S,1,56408,58558,0.25,0.5
Sprite,Background,Centre,"sb\ring.png",0,0 M,0,56708,,576,254 C,0,56708,,255,255,255 F,1,56708,58708,0.9,0 S,1,56708,58708,0.25,0.5
Sprite,Background,Centre,"sb\ring.png",0,0 M,0,56858,,319,342 C,0,56858,,255,255,255 F,1,56858,58933,0.9,0 S,1,56858,58933,0.25,0.5
Sprite,Background,Centre,"sb\ring.png",0,0 M,0,57008,,472,176 C,0,57008,,255,255,255 F,1,57008,59158,0.9,0 S,1,57008,59158,0.25,0.5
Sprite,Background,Centre,"sb\ring.png",0,0 M,0,57308,,307,413 C,0,57308,,255,255,255 F,1,57308,59308,0.9,0 S,1,57308,59308,0.25,0.5
Sprite,Background,Centre,"sb\ring.png",0,0 M,0,57458,,277,199 C,0,57458,,255,255,255 F,1,57458,59458,0.9,0 S,1,57458,59458,0.25,0.5
Sprite,Background,Centre,"sb\ring.png",0,0 M,0,57608,,441,351 C,0,57608,,255,255,255 F,1,57608,59608,0.9,0 S,1,57608,59608,0.25,0.5
Sprite,Background,Centre,"sb\ring.png",0,0 M,0,57758,,250,367 C,0,57758,,255,255,255 F,1,57758,59758,0.9,0 S,1,57758,59758,0.25,0.5
Sprite,Background,Centre,"sb\ring.png",0,0 M,0,57908,,387,253 C,0,57908,,255,255,255 F,1,57908,59908,0.9,0 S,1,57908,59908,0.25,0.5
Sprite,Background,Centre,"sb\ring.png",0,0 M,0,58058,,269,123 C,0,58058,,255,255,255 F,1,58058,60133,0.9,0 S,1,58058,60133,0.25,0.5
Sprite,Background,Centre,"sb\ring.png",0,0 M,0,58208,,383,138 C,0,58208,,255,255,255 F,1,58208,60283,0.9,0 S,1,58208,60283,0.25,0.5
Sprite,Background,Centre,"sb\ring.png",0,0 M,0,58358,,257,292 C,0,58358,,255,255,255 F,1,58358,60433,0.9,0 S,1,58358,60433,0.25,0.5
Sprite,Background,Centre,"sb\ring.png",0,0 M,0,58508,,319,342 C,0,58508,,255,255,255 F,1,58508,60508,0.9,0 S,1,58508,60508,0.25,0.5
Sprite,Background,Centre,"sb\ring.png",0,0 M,0,58658,,112,334 C,0,58658,,255,255,255 F,1,58658,60733,0.9,0 S,1,58658,60733,0.25,0.5
Sprite,Background,Centre,"sb\ring.png",0,0 M,0,58808,,131,234 C,0,58808,,255,255,255 F,1,58808,60883,0.9,0 S,1,58808,60883,0.25,0.5
Sprite,Background,Centre,"sb\ring.png",0,0 M,0,58958,,100,408 C,0,58958,,255,255,255 F,1,58958,61033,0.9,0 S,1,58958,61033,0.25,0.5
Sprite,Background,Centre,"sb\ring.png",0,0 M,0,59108,,261,440 C,0,59108,,255,255,255 F,1,59108,61183,0.9,0 S,1,59108,61183,0.25,0.5
Sprite,Background,Centre,"sb\ring.png",0,0 M,0,59258,,338,259 C,0,59258,,255,255,255 F,1,59258,61333,0.9,0 S,1,59258,61333,0.25,0.5
Sprite,Background,Centre,"sb\ring.png",0,0 M,0,59408,,238,278 C,0,59408,,255,255,255 F,1,59408,61483,0.9,0 S,1,59408,61483,0.25,0.5
Sprite,Background,Centre,"sb\ring.png",0,0 M,0,59558,,411,248 C,0,59558,,255,255,255 F,1,59558,61558,0.9,0 S,1,59558,61558,0.25,0.5
Sprite,Background,Centre,"sb\ring.png",0,0 M,0,59708,,251,147 C,0,59708,,255,255,255 F,1,59708,61783,0.9,0 S,1,59708,61783,0.25,0.5
Sprite,Background,Centre,"sb\ring.png",0,0 M,0,59858,,452,308 C,0,59858,,255,255,255 F,1,59858,62008,0.9,0 S,1,59858,62008,0.25,0.5
Sprite,Background,Centre,"sb\ring.png",0,0 M,0,60158,,557,406 C,0,60158,,255,255,255 F,1,60158,62233,0.9,0 S,1,60158,62233,0.25,0.5
Sprite,Background,Centre,"sb\ring.png",0,0 M,0,60308,,456,386 C,0,60308,,255,255,255 F,1,60308,62383,0.9,0 S,1,60308,62383,0.25,0.5
Sprite,Background,Centre,"sb\ring.png",0,0 M,0,60458,,310,440 C,0,60458,,255,255,255 F,1,60458,62533,0.9,0 S,1,60458,62533,0.25,0.5
Sprite,Background,Centre,"sb\ring.png",0,0 M,0,60608,,199,316 C,0,60608,,255,255,255 F,1,60608,62683,0.9,0 S,1,60608,62683,0.25,0.5
Sprite,Background,Centre,"sb\ring.png",0,0 M,0,60758,,325,174 C,0,60758,,255,255,255 F,1,60758,62833,0.9,0 S,1,60758,62833,0.25,0.5
Sprite,Background,Centre,"sb\ring.png",0,0 M,0,60908,,471,209 C,0,60908,,255,255,255 F,1,60908,62983,0.9,0 S,1,60908,62983,0.25,0.5
Sprite,Background,Centre,"sb\ring.png",0,0 M,0,61058,,346,378 C,0,61058,,255,255,255 F,1,61058,63133,0.9,0 S,1,61058,63133,0.25,0.5
Sprite,Background,Centre,"sb\ring.png",0,0 M,0,61208,,149,207 C,0,61208,,255,255,255 F,1,61208,63358,0.9,0 S,1,61208,63358,0.25,0.5
Sprite,Background,Centre,"sb\ring.png",0,0 M,0,61508,,390,314 C,0,61508,,255,255,255 F,1,61508,63508,0.9,0 S,1,61508,63508,0.25,0.5
Sprite,Background,Centre,"sb\ring.png",0,0 M,0,61658,,122,333 C,0,61658,,255,255,255 F,1,61658,63733,0.9,0 S,1,61658,63733,0.25,0.5
Sprite,Background,Centre,"sb\ring.png",0,0 M,0,61808,,325,174 C,0,61808,,255,255,255 F,1,61808,63958,0.9,0 S,1,61808,63958,0.25,0.5
Sprite,Background,Centre,"sb\ring.png",0,0 M,0,62108,,170,389 C,0,62108,,255,255,255 F,1,62108,64108,0.9,0 S,1,62108,64108,0.25,0.5
Sprite,Background,Centre,"sb\ring.png",0,0 M,0,62258,,74,233 C,0,62258,,255,255,255 F,1,62258,64258,0.9,0 S,1,62258,64258,0.25,0.5
Sprite,Background,Centre,"sb\ring.png",0,0 M,0,62408,,238,277 C,0,62408,,255,255,255 F,1,62408,64408,0.9,0 S,1,62408,64408,0.25,0.5
Sprite,Background,Centre,"sb\ring.png",0,0 M,0,62558,,85,400 C,0,62558,,255,255,255 F,1,62558,64558,0.9,0 S,1,62558,64558,0.25,0.5
Sprite,Background,Centre,"sb\ring.png",0,0 M,0,62708,,149,207 C,0,62708,,255,255,255 F,1,62708,64708,0.9,0 S,1,62708,64708,0.25,0.5
Sprite,Background,Centre,"sb\ring.png",0,0 M,0,62858,,297,387 C,0,62858,,255,255,255 F,1,62858,64858,0.9,0 S,1,62858,64858,0.25,0.5
Sprite,Background,Centre,"sb\ring.png",0,0 M,0,63008,,122,333 C,0,63008,,255,255,255 F,1,63008,65008,0.9,0 S,1,63008,65008,0.25,0.5
Sprite,Background,Centre,"sb\ring.png",0,0 M,0,63158,,272,117 C,0,63158,,255,255,255 F,1,63158,65158,0.9,0 S,1,63158,65158,0.25,0.5
Sprite,Background,Centre,"sb\ring.png",0,0 M,0,63308,,233,350 C,0,63308,,255,255,255 F,1,63308,65308,0.9,0 S,1,63308,65308,0.25,0.5
Sprite,Background,Centre,"sb\ring.png",0,0 M,0,63458,,172,136 C,0,63458,,255,255,255 F,1,63458,65533,0.9,0 S,1,63458,65533,0.25,0.5
Sprite,Background,Centre,"sb\ring.png",0,0 M,0,63608,,272,117 C,0,63608,,255,255,255 F,1,63608,65683,0.9,0 S,1,63608,65683,0.25,0.5
Sprite,Background,Centre,"sb\ring.png",0,0 M,0,63758,,102,101 C,0,63758,,255,255,255 F,1,63758,65833,0.9,0 S,1,63758,65833,0.25,0.5
Sprite,Background,Centre,"sb\ring.png",0,0 M,0,63908,,88,307 C,0,63908,,255,255,255 F,1,63908,65983,0.9,0 S,1,63908,65983,0.25,0.5
Sprite,Background,Centre,"sb\ring.png",0,0 M,0,64058,,233,350 C,0,64058,,255,255,255 F,1,64058,66133,0.9,0 S,1,64058,66133,0.25,0.5
Sprite,Background,Centre,"sb\ring.png",0,0 M,0,64208,,252,250 C,0,64208,,255,255,255 F,1,64208,66283,0.9,0 S,1,64208,66283,0.25,0.5
Sprite,Background,Centre,"sb\ring.png",0,0 M,0,64358,,312,302 C,0,64358,,255,255,255 F,1,64358,66358,0.9,0 S,1,64358,66358,0.25,0.5
Sprite,Background,Centre,"sb\ring.png",0,0 M,0,64508,,172,136 C,0,64508,,255,255,255 F,1,64508,66508,0.9,0 S,1,64508,66508,0.25,0.5
Sprite,Background,Centre,"sb\ring.png",0,0 M,0,64658,,393,68 C,0,64658,,255,255,255 F,1,64658,66808,0.9,0 S,1,64658,66808,0.25,0.5
Sprite,Background,Centre,"sb\ring.png",0,0 M,0,64958,,538,310 C,0,64958,,255,255,255 F,1,64958,67033,0.9,0 S,1,64958,67033,0.25,0.5
Sprite,Background,Centre,"sb\ring.png",0,0 M,0,65108,,564,196 C,0,65108,,255,255,255 F,1,65108,67183,0.9,0 S,1,65108,67183,0.25,0.5
Sprite,Background,Centre,"sb\ring.png",0,0 M,0,65258,,547,391 C,0,65258,,255,255,255 F,1,65258,67333,0.9,0 S,1,65258,67333,0.25,0.5
Sprite,Background,Centre,"sb\ring.png",0,0 M,0,65408,,320,434 C,0,65408,,255,255,255 F,1,65408,67483,0.9,0 S,1,65408,67483,0.25,0.5
Sprite,Background,Centre,"sb\ring.png",0,0 M,0,65558,,252,250 C,0,65558,,255,255,255 F,1,65558,67633,0.9,0 S,1,65558,67633,0.25,0.5
Sprite,Background,Centre,"sb\ring.png",0,0 M,0,65708,,374,166 C,0,65708,,255,255,255 F,1,65708,67783,0.9,0 S,1,65708,67783,0.25,0.5
Sprite,Background,Centre,"sb\ring.png",0,0 M,0,65858,,538,310 C,0,65858,,255,255,255 F,1,65858,67858,0.9,0 S,1,65858,67858,0.25,0.5
Sprite,Background,Centre,"sb\ring.png",0,0 M,0,66058,,229,428 C,0,66058,,255,255,255 F,1,66058,68058,0.9,0 S,1,66058,68058,0.25,0.5
Sprite,Background,Centre,"sb\ring.png",0,0 M,0,66258,,229,428 C,0,66258,,255,255,255 F,1,66258,68258,0.9,0 S,1,66258,68258,0.25,0.5
Sprite,Background,Centre,"sb\ring.png",0,0 M,0,66458,,90,206 C,0,66458,,255,255,255 F,1,66458,68458,0.9,0 S,1,66458,68458,0.25,0.5
Sprite,Background,Centre,"sb\ring.png",0,0 M,0,66658,,443,305 C,0,66658,,255,255,255 F,1,66658,68658,0.9,0 S,1,66658,68658,0.25,0.5
Sprite,Background,Centre,"sb\ring.png",0,0 M,0,66858,,90,206 C,0,66858,,255,255,255 F,1,66858,68858,0.9,0 S,1,66858,68858,0.25,0.5
Sprite,Background,Centre,"sb\ring.png",0,0 M,0,67058,,229,428 C,0,67058,,255,255,255 F,1,67058,69058,0.9,0 S,1,67058,69058,0.25,0.5
Sprite,Background,Centre,"sb\ring.png",0,0 M,0,67208,,368,356 C,0,67208,,255,255,255 F,1,67208,69358,0.9,0 S,1,67208,69358,0.25,0.5
Sprite,Background,Centre,"sb\ring.png",0,0 M,0,67508,,551,72 C,0,67508,,255,255,255 F,1,67508,69658,0.9,0 S,1,67508,69658,0.25,0.5
Sprite,Background,Centre,"sb\ring.png",0,0 M,0,67808,,161,251 C,0,67808,,255,255,255 F,1,67808,69958,0.9,0 S,1,67808,69958,0.25,0.5
Sprite,Background,Centre,"sb\ring.png",0,0 M,0,68108,,575,395 C,0,68108,,255,255,255 F,1,68108,71308,0.9,0 S,1,68108,71308,0.25,0.5
Sprite,Background,Centre,"sb\ring.png",0,0 M,0,121058,,96,314 C,0,121058,,255,255,255 F,1,121058,123133,0.9,0 S,1,121058,123133,0.25,0.5
Sprite,Background,Centre,"sb\ring.png",0,0 M,0,121208,,184,118 C,0,121208,,255,255,255 F,1,121208,123358,0.9,0 S,1,121208,123358,0.25,0.5
Sprite,Background,Centre,"sb\ring.png",0,0 M,0,121508,,260,108 C,0,121508,,255,255,255 F,1,121508,123508,0.9,0 S,1,121508,123508,0.25,0.5
Sprite,Background,Centre,"sb\ring.png",0,0 M,0,121658,,466,272 C,0,121658,,255,255,255 F,1,121658,123733,0.9,0 S,1,121658,123733,0.25,0.5
Sprite,Background,Centre,"sb\ring.png",0,0 M,0,121808,,270,184 C,0,121808,,255,255,255 F,1,121808,123958,0.9,0 S,1,121808,123958,0.25,0.5
Sprite,Background,Centre,"sb\ring.png",0,0 M,0,122108,,260,108 C,0,122108,,255,255,255 F,1,122108,124108,0.9,0 S,1,122108,124108,0.25,0.5
Sprite,Background,Centre,"sb\ring.png",0,0 M,0,122258,,197,242 C,0,122258,,255,255,255 F,1,122258,124258,0.9,0 S,1,122258,124258,0.25,0.5
Sprite,Background,Centre,"sb\ring.png",0,0 M,0,122408,,356,331 C,0,122408,,255,255,255 F,1,122408,124408,0.9,0 S,1,122408,124408,0.25,0.5
Sprite,Background,Centre,"sb\ring.png",0,0 M,0,122558,,184,118 C,0,122558,,255,255,255 F,1,122558,124558,0.9,0 S,1,122558,124558,0.25,0.5
Sprite,Background,Centre,"sb\ring.png",0,0 M,0,122708,,208,327 C,0,122708,,255,255,255 F,1,122708,124708,0.9,0 S,1,122708,124708,0.25,0.5
Sprite,Background,Centre,"sb\ring.png",0,0 M,0,122858,,466,272 C,0,122858,,255,255,255 F,1,122858,124858,0.9,0 S,1,122858,124858,0.25,0.5
Sprite,Background,Centre,"sb\ring.png",0,0 M,0,123008,,281,364 C,0,123008,,255,255,255 F,1,123008,125008,0.9,0 S,1,123008,125008,0.25,0.5
Sprite,Background,Centre,"sb\ring.png",0,0 M,0,123158,,574,317 C,0,123158,,255,255,255 F,1,123158,125158,0.9,0 S,1,123158,125158,0.25,0.5
Sprite,Background,Centre,"sb\ring.png",0,0 M,0,123308,,366,234 C,0,123308,,255,255,255 F,1,123308,125308,0.9,0 S,1,123308,125308,0.25,0.5
Sprite,Background,Centre,"sb\ring.png",0,0 M,0,123458,,549,186 C,0,123458,,255,255,255 F,1,123458,125533,0.9,0 S,1,123458,125533,0.25,0.5
Sprite,Background,Centre,"sb\ring.png",0,0 M,0,123608,,568,286 C,0,123608,,255,255,255 F,1,123608,125683,0.9,0 S,1,123608,125683,0.25,0.5
Sprite,Background,Centre,"sb\ring.png",0,0 M,0,123758,,557,108 C,0,123758,,255,255,255 F,1,123758,125833,0.9,0 S,1,123758,125833,0.25,0.5
Sprite,Background,Centre,"sb\ring.png",0,0 M,0,123908,,371,80 C,0,123908,,255,255,255 F,1,123908,125983,0.9,0 S,1,123908,125983,0.25,0.5
Sprite,Background,Centre,"sb\ring.png",0,0 M,0,124058,,366,234 C,0,124058,,255,255,255 F,1,124058,126133,0.9,0 S,1,124058,126133,0.25,0.5
Sprite,Background,Centre,"sb\ring.png",0,0 M,0,124208,,467,254 C,0,124208,,255,255,255 F,1,124208,126283,0.9,0 S,1,124208,126283,0.25,0.5
Sprite,Background,Centre,"sb\ring.png",0,0 M,0,124358,,290,217 C,0,124358,,255,255,255 F,1,124358,126358,0.9,0 S,1,124358,126358,0.25,0.5
Sprite,Background,Centre,"sb\ring.png",0,0 M,0,124508,,418,314 C,0,124508,,255,255,255 F,1,124508,126508,0.9,0 S,1,124508,126508,0.25,0.5
Sprite,Background,Centre,"sb\ring.png",0,0 M,0,124658,,290,217 C,0,124658,,255,255,255 F,1,124658,126808,0.9,0 S,1,124658,126808,0.25,0.5
Sprite,Background,Centre,"sb\ring.png",0,0 M,0,124958,,73,56 C,0,124958,,255,255,255 F,1,124958,127033,0.9,0 S,1,124958,127033,0.25,0.5
Sprite,Background,Centre,"sb\ring.png",0,0 M,0,125108,,93,157 C,0,125108,,255,255,255 F,1,125108,127183,0.9,0 S,1,125108,127183,0.25,0.5
Sprite,Background,Centre,"sb\ring.png",0,0 M,0,125258,,64,348 C,0,125258,,255,255,255 F,1,125258,127333,0.9,0 S,1,125258,127333,0.25,0.5
Sprite,Background,Centre,"sb\ring.png",0,0 M,0,125408,,224,379 C,0,125408,,255,255,255 F,1,125408,127483,0.9,0 S,1,125408,127483,0.25,0.5
Sprite,Background,Centre,"sb\ring.png",0,0 M,0,125558,,290,217 C,0,125558,,255,255,255 F,1,125558,127633,0.9,0 S,1,125558,127633,0.25,0.5
Sprite,Background,Centre,"sb\ring.png",0,0 M,0,125708,,194,102 C,0,125708,,255,255,255 F,1,125708,127783,0.9,0 S,1,125708,127783,0.25,0.5
Sprite,Background,Centre,"sb\ring.png",0,0 M,0,125858,,135,266 C,0,125858,,255,255,255 F,1,125858,127933,0.9,0 S,1,125858,127933,0.25,0.5
Sprite,Background,Centre,"sb\ring.png",0,0 M,0,126008,,363,199 C,0,126008,,255,255,255 F,1,126008,128158,0.9,0 S,1,126008,128158,0.25,0.5
Sprite,Background,Centre,"sb\ring.png",0,0 M,0,126308,,64,254 C,0,126308,,255,255,255 F,1,126308,128308,0.9,0 S,1,126308,128308,0.25,0.5
Sprite,Background,Centre,"sb\ring.png",0,0 M,0,126458,,321,342 C,0,126458,,255,255,255 F,1,126458,128533,0.9,0 S,1,126458,128533,0.25,0.5
Sprite,Background,Centre,"sb\ring.png",0,0 M,0,126608,,168,176 C,0,126608,,255,255,255 F,1,126608,128758,0.9,0 S,1,126608,128758,0.25,0.5
Sprite,Background,Centre,"sb\ring.png",0,0 M,0,126908,,333,413 C,0,126908,,255,255,255 F,1,126908,128908,0.9,0 S,1,126908,128908,0.25,0.5
Sprite,Background,Centre,"sb\ring.png",0,0 M,0,127058,,363,199 C,0,127058,,255,255,255 F,1,127058,129058,0.9,0 S,1,127058,129058,0.25,0.5
Sprite,Background,Centre,"sb\ring.png",0,0 M,0,127208,,199,351 C,0,127208,,255,255,255 F,1,127208,129208,0.9,0 S,1,127208,129208,0.25,0.5
Sprite,Background,Centre,"sb\ring.png",0,0 M,0,127358,,390,367 C,0,127358,,255,255,255 F,1,127358,129358,0.9,0 S,1,127358,129358,0.25,0.5
Sprite,Background,Centre,"sb\ring.png",0,0 M,0,127508,,253,253 C,0,127508,,255,255,255 F,1,127508,129508,0.9,0 S,1,127508,129508,0.25,0.5
Sprite,Background,Centre,"sb\ring.png",0,0 M,0,127658,,371,123 C,0,127658,,255,255,255 F,1,127658,129733,0.9,0 S,1,127658,129733,0.25,0.5
Sprite,Background,Centre,"sb\ring.png",0,0 M,0,127808,,257,138 C,0,127808,,255,255,255 F,1,127808,129883,0.9,0 S,1,127808,129883,0.25,0.5
Sprite,Background,Centre,"sb\ring.png",0,0 M,0,127958,,383,292 C,0,127958,,255,255,255 F,1,127958,130033,0.9,0 S,1,127958,130033,0.25,0.5
Sprite,Background,Centre,"sb\ring.png",0,0 M,0,128108,,321,342 C,0,128108,,255,255,255 F,1,128108,130108,0.9,0 S,1,128108,130108,0.25,0.5
Sprite,Background,Centre,"sb\ring.png",0,0 M,0,128258,,528,334 C,0,128258,,255,255,255 F,1,128258,130333,0.9,0 S,1,128258,130333,0.25,0.5
Sprite,Background,Centre,"sb\ring.png",0,0 M,0,128408,,509,234 C,0,128408,,255,255,255 F,1,128408,130483,0.9,0 S,1,128408,130483,0.25,0.5
Sprite,Background,Centre,"sb\ring.png",0,0 M,0,128558,,540,408 C,0,128558,,255,255,255 F,1,128558,130633,0.9,0 S,1,128558,130633,0.25,0.5
Sprite,Background,Centre,"sb\ring.png",0,0 M,0,128708,,379,440 C,0,128708,,255,255,255 F,1,128708,130783,0.9,0 S,1,128708,130783,0.25,0.5
Sprite,Background,Centre,"sb\ring.png",0,0 M,0,128858,,302,259 C,0,128858,,255,255,255 F,1,128858,130933,0.9,0 S,1,128858,130933,0.25,0.5
Sprite,Background,Centre,"sb\ring.png",0,0 M,0,129008,,402,278 C,0,129008,,255,255,255 F,1,129008,131083,0.9,0 S,1,129008,131083,0.25,0.5
Sprite,Background,Centre,"sb\ring.png",0,0 M,0,129158,,229,248 C,0,129158,,255,255,255 F,1,129158,131158,0.9,0 S,1,129158,131158,0.25,0.5
Sprite,Background,Centre,"sb\ring.png",0,0 M,0,129308,,389,147 C,0,129308,,255,255,255 F,1,129308,131383,0.9,0 S,1,129308,131383,0.25,0.5
Sprite,Background,Centre,"sb\ring.png",0,0 M,0,129458,,188,308 C,0,129458,,255,255,255 F,1,129458,131608,0.9,0 S,1,129458,131608,0.25,0.5
Sprite,Background,Centre,"sb\ring.png",0,0 M,0,129758,,83,406 C,0,129758,,255,255,255 F,1,129758,131833,0.9,0 S,1,129758,131833,0.25,0.5
Sprite,Background,Centre,"sb\ring.png",0,0 M,0,129908,,184,386 C,0,129908,,255,255,255 F,1,129908,131983,0.9,0 S,1,129908,131983,0.25,0.5
Sprite,Background,Centre,"sb\ring.png",0,0 M,0,130058,,330,440 C,0,130058,,255,255,255 F,1,130058,132133,0.9,0 S,1,130058,132133,0.25,0.5
Sprite,Background,Centre,"sb\ring.png",0,0 M,0,130208,,441,316 C,0,130208,,255,255,255 F,1,130208,132283,0.9,0 S,1,130208,132283,0.25,0.5
Sprite,Background,Centre,"sb\ring.png",0,0 M,0,130358,,315,174 C,0,130358,,255,255,255 F,1,130358,132433,0.9,0 S,1,130358,132433,0.25,0.5
Sprite,Background,Centre,"sb\ring.png",0,0 M,0,130508,,169,209 C,0,130508,,255,255,255 F,1,130508,132583,0.9,0 S,1,130508,132583,0.25,0.5
Sprite,Background,Centre,"sb\ring.png",0,0 M,0,130658,,294,378 C,0,130658,,255,255,255 F,1,130658,132733,0.9,0 S,1,130658,132733,0.25,0.5
Sprite,Background,Centre,"sb\ring.png",0,0 M,0,130808,,491,207 C,0,130808,,255,255,255 F,1,130808,132958,0.9,0 S,1,130808,132958,0.25,0.5
Sprite,Background,Centre,"sb\ring.png",0,0 M,0,131108,,250,314 C,0,131108,,255,255,255 F,1,131108,133108,0.9,0 S,1,131108,133108,0.25,0.5
Sprite,Background,Centre,"sb\ring.png",0,0 M,0,131258,,518,333 C,0,131258,,255,255,255 F,1,131258,133333,0.9,0 S,1,131258,133333,0.25,0.5
Sprite,Background,Centre,"sb\ring.png",0,0 M,0,131408,,315,174 C,0,131408,,255,255,255 F,1,131408,133558,0.9,0 S,1,131408,133558,0.25,0.5
Sprite,Background,Centre,"sb\ring.png",0,0 M,0,131708,,470,389 C,0,131708,,255,255,255 F,1,131708,133708,0.9,0 S,1,131708,133708,0.25,0.5
Sprite,Background,Centre,"sb\ring.png",0,0 M,0,131858,,566,233 C,0,131858,,255,255,255 F,1,131858,133858,0.9,0 S,1,131858,133858,0.25,0.5
Sprite,Background,Centre,"sb\ring.png",0,0 M,0,132008,,402,277 C,0,132008,,255,255,255 F,1,132008,134008,0.9,0 S,1,132008,134008,0.25,0.5
Sprite,Background,Centre,"sb\ring.png",0,0 M,0,132158,,555,400 C,0,132158,,255,255,255 F,1,132158,134158,0.9,0 S,1,132158,134158,0.25,0.5
Sprite,Background,Centre,"sb\ring.png",0,0 M,0,132308,,491,207 C,0,132308,,255,255,255 F,1,132308,134308,0.9,0 S,1,132308,134308,0.25,0.5
Sprite,Background,Centre,"sb\ring.png",0,0 M,0,132458,,343,387 C,0,132458,,255,255,255 F,1,132458,134458,0.9,0 S,1,132458,134458,0.25,0.5
Sprite,Background,Centre,"sb\ring.png",0,0 M,0,132608,,518,333 C,0,132608,,255,255,255 F,1,132608,134608,0.9,0 S,1,132608,134608,0.25,0.5
Sprite,Background,Centre,"sb\ring.png",0,0 M,0,132758,,368,117 C,0,132758,,255,255,255 F,1,132758,134758,0.9,0 S,1,132758,134758,0.25,0.5
Sprite,Background,Centre,"sb\ring.png",0,0 M,0,132908,,407,350 C,0,132908,,255,255,255 F,1,132908,134908,0.9,0 S,1,132908,134908,0.25,0.5
Sprite,Background,Centre,"sb\ring.png",0,0 M,0,133058,,468,136 C,0,133058,,255,255,255 F,1,133058,135133,0.9,0 S,1,133058,135133,0.25,0.5
Sprite,Background,Centre,"sb\ring.png",0,0 M,0,133208,,368,117 C,0,133208,,255,255,255 F,1,133208,135283,0.9,0 S,1,133208,135283,0.25,0.5
Sprite,Background,Centre,"sb\ring.png",0,0 M,0,133358,,538,101 C,0,133358,,255,255,255 F,1,133358,135433,0.9,0 S,1,133358,135433,0.25,0.5
Sprite,Background,Centre,"sb\ring.png",0,0 M,0,133508,,552,307 C,0,133508,,255,255,255 F,1,133508,135583,0.9,0 S,1,133508,135583,0.25,0.5
Sprite,Background,Centre,"sb\ring.png",0,0 M,0,133658,,407,350 C,0,133658,,255,255,255 F,1,133658,135733,0.9,0 S,1,133658,135733,0.25,0.5
Sprite,Background,Centre,"sb\ring.png",0,0 M,0,133808,,388,250 C,0,133808,,255,255,255 F,1,133808,135883,0.9,0 S,1,133808,135883,0.25,0.5
Sprite,Background,Centre,"sb\ring.png",0,0 M,0,133958,,328,302 C,0,133958,,255,255,255 F,1,133958,135958,0.9,0 S,1,133958,135958,0.25,0.5
Sprite,Background,Centre,"sb\ring.png",0,0 M,0,134108,,468,136 C,0,134108,,255,255,255 F,1,134108,136108,0.9,0 S,1,134108,136108,0.25,0.5
Sprite,Background,Centre,"sb\ring.png",0,0 M,0,134258,,247,68 C,0,134258,,255,255,255 F,1,134258,136408,0.9,0 S,1,134258,136408,0.25,0.5
Sprite,Background,Centre,"sb\ring.png",0,0 M,0,134558,,102,310 C,0,134558,,255,255,255 F,1,134558,136633,0.9,0 S,1,134558,136633,0.25,0.5
Sprite,Background,Centre,"sb\ring.png",0,0 M,0,134708,,76,196 C,0,134708,,255,255,255 F,1,134708,136783,0.9,0 S,1,134708,136783,0.25,0.5
Sprite,Background,Centre,"sb\ring.png",0,0 M,0,134858,,93,391 C,0,134858,,255,255,255 F,1,134858,136933,0.9,0 S,1,134858,136933,0.25,0.5
Sprite,Background,Centre,"sb\ring.png",0,0 M,0,135008,,320,434 C,0,135008,,255,255,255 F,1,135008,137083,0.9,0 S,1,135008,137083,0.25,0.5
Sprite,Background,Centre,"sb\ring.png",0,0 M,0,135158,,388,250 C,0,135158,,255,255,255 F,1,135158,137233,0.9,0 S,1,135158,137233,0.25,0.5
Sprite,Background,Centre,"sb\ring.png",0,0 M,0,135308,,266,166 C,0,135308,,255,255,255 F,1,135308,137383,0.9,0 S,1,135308,137383,0.25,0.5
Sprite,Background,Centre,"sb\ring.png",0,0 M,0,135458,,146,378 C,0,135458,,255,255,255 F,1,135458,137458,0.9,0 S,1,135458,137458,0.25,0.5
Sprite,Background,Centre,"sb\ring.png",0,0 M,0,135658,,218,362 C,0,135658,,255,255,255 F,1,135658,137658,0.9,0 S,1,135658,137658,0.25,0.5
Sprite,Background,Centre,"sb\ring.png",0,0 M,0,135858,,254,296 C,0,135858,,255,255,255 F,1,135858,137858,0.9,0 S,1,135858,137858,0.25,0.5
Sprite,Background,Centre,"sb\ring.png",0,0 M,0,136058,,223,172 C,0,136058,,255,255,255 F,1,136058,138058,0.9,0 S,1,136058,138058,0.25,0.5
Sprite,Background,Centre,"sb\ring.png",0,0 M,0,136258,,186,176 C,0,136258,,255,255,255 F,1,136258,138258,0.9,0 S,1,136258,138258,0.25,0.5
Sprite,Background,Centre,"sb\ring.png",0,0 M,0,136508,,473,71 C,0,136508,,255,255,255 F,1,136508,138733,0.9,0 S,1,136508,138733,0.25,0.5
Sprite,Background,Centre,"sb\ring.png",0,0 M,0,136808,,459,294 C,0,136808,,255,255,255 F,1,136808,138958,0.9,0 S,1,136808,138958,0.25,0.5
Sprite,Background,Centre,"sb\ring.png",0,0 M,0,137108,,105,261 C,0,137108,,255,255,255 F,1,137108,139183,0.9,0 S,1,137108,139183,0.25,0.5
Sprite,Background,Centre,"sb\ring.png",0,0 M,0,137408,,316,237 C,0,137408,,255,255,255 F,1,137408,139483,0.9,0 S,1,137408,139483,0.25,0.5
Sprite,Background,Centre,"sb\ring.png",0,0 M,0,137708,,527,213 C,0,137708,,255,255,255 F,1,137708,139783,0.9,0 S,1,137708,139783,0.25,0.5
Sprite,Background,Centre,"sb\ring.png",0,0 M,0,137858,,408,114 C,0,137858,,255,255,255 F,1,137858,139858,0.9,0 S,1,137858,139858,0.25,0.5
Sprite,Background,Centre,"sb\ring.png",0,0 M,0,138008,,384,302 C,0,138008,,255,255,255 F,1,138008,140008,0.9,0 S,1,138008,140008,0.25,0.5
Sprite,Background,Centre,"sb\ring.png",0,0 M,0,138158,,408,114 C,0,138158,,255,255,255 F,1,138158,140158,0.9,0 S,1,138158,140158,0.25,0.5
Sprite,Background,Centre,"sb\ring.png",0,0 M,0,138308,,384,302 C,0,138308,,255,255,255 F,1,138308,140308,0.9,0 S,1,138308,140308,0.25,0.5
Sprite,Background,Centre,"sb\ring.png",0,0 M,0,138458,,408,114 C,0,138458,,255,255,255 F,1,138458,140458,0.9,0 S,1,138458,140458,0.25,0.5
Sprite,Background,Centre,"sb\ring.png",0,0 M,0,138608,,384,302 C,0,138608,,255,255,255 F,1,138608,140608,0.9,0 S,1,138608,140608,0.25,0.5
Sprite,Background,Centre,"sb\ring.png",0,0 M,0,138758,,455,56 C,0,138758,,255,255,255 F,1,138758,140908,0.9,0 S,1,138758,140908,0.25,0.5
Sprite,Background,Centre,"sb\ring.png",0,0 M,0,139058,,199,252 C,0,139058,,255,255,255 F,1,139058,141058,0.9,0 S,1,139058,141058,0.25,0.5
Sprite,Background,Centre,"sb\ring.png",0,0 M,0,139208,,341,234 C,0,139208,,255,255,255 F,1,139208,141208,0.9,0 S,1,139208,141208,0.25,0.5
Sprite,Background,Centre,"sb\ring.png",0,0 M,0,139358,,199,252 C,0,139358,,255,255,255 F,1,139358,141358,0.9,0 S,1,139358,141358,0.25,0.5
Sprite,Background,Centre,"sb\ring.png",0,0 M,0,139508,,341,234 C,0,139508,,255,255,255 F,1,139508,141508,0.9,0 S,1,139508,141508,0.25,0.5
Sprite,Background,Centre,"sb\ring.png",0,0 M,0,139658,,199,252 C,0,139658,,255,255,255 F,1,139658,141658,0.9,0 S,1,139658,141658,0.25,0.5
Sprite,Background,Centre,"sb\ring.png",0,0 M,0,139808,,341,234 C,0,139808,,255,255,255 F,1,139808,141808,0.9,0 S,1,139808,141808,0.25,0.5
Sprite,Background,Centre,"sb\ring.png",0,0 M,0,139958,,116,206 C,0,139958,,255,255,255 F,1,139958,141958,0.9,0 S,1,139958,141958,0.25,0.5
Sprite,Background,Centre,"sb\ring.png",0,0 M,0,140108,,273,314 C,0,140108,,255,255,255 F,1,140108,142108,0.9,0 S,1,140108,142108,0.25,0.5
Sprite,Background,Centre,"sb\ring.png",0,0 M,0,140183,,276,302 C,0,140183,,255,255,255 F,1,140183,142183,0.9,0 S,1,140183,142183,0.25,0.5
Sprite,Background,Centre,"sb\ring.png",0,0 M,0,140258,,279,290 C,0,140258,,255,255,255 F,1,140258,142258,0.9,0 S,1,140258,142258,0.25,0.5
Sprite,Background,Centre,"sb\ring.png",0,0 M,0,140408,,160,387 C,0,140408,,255,255,255 F,1,140408,142408,0.9,0 S,1,140408,142408,0.25,0.5
Sprite,Background,Centre,"sb\ring.png",0,0 M,0,140558,,234,379 C,0,140558,,255,255,255 F,1,140558,142558,0.9,0 S,1,140558,142558,0.25,0.5
Sprite,Background,Centre,"sb\ring.png",0,0 M,0,140708,,302,408 C,0,140708,,255,255,255 F,1,140708,142708,0.9,0 S,1,140708,142708,0.25,0.5
Sprite,Background,Centre,"sb\ring.png",0,0 M,0,140858,,376,419 C,0,140858,,255,255,255 F,1,140858,142858,0.9,0 S,1,140858,142858,0.25,0.5
Sprite,Background,Centre,"sb\ring.png",0,0 M,0,141008,,445,390 C,0,141008,,255,255,255 F,1,141008,143008,0.9,0 S,1,141008,143008,0.25,0.5
Sprite,Background,Centre,"sb\ring.png",0,0 M,0,141158,,422,230 C,0,141158,,255,255,255 F,1,141158,143158,0.9,0 S,1,141158,143158,0.25,0.5
Sprite,Background,Centre,"sb\ring.png",0,0 M,0,141308,,279,290 C,0,141308,,255,255,255 F,1,141308,143308,0.9,0 S,1,141308,143308,0.25,0.5
Sprite,Background,Centre,"sb\ring.png",0,0 M,0,141383,,276,302 C,0,141383,,255,255,255 F,1,141383,143383,0.9,0 S,1,141383,143383,0.25,0.5
Sprite,Background,Centre,"sb\ring.png",0,0 M,0,141458,,273,314 C,0,141458,,255,255,255 F,1,141458,143458,0.9,0 S,1,141458,143458,0.25,0.5
Sprite,Background,Centre,"sb\ring.png",0,0 M,0,141608,,190,148 C,0,141608,,255,255,255 F,1,141608,143608,0.9,0 S,1,141608,143608,0.25,0.5
Sprite,Background,Centre,"sb\ring.png",0,0 M,0,141758,,259,176 C,0,141758,,255,255,255 F,1,141758,143758,0.9,0 S,1,141758,143758,0.25,0.5
Sprite,Background,Centre,"sb\ring.png",0,0 M,0,141908,,337,170 C,0,141908,,255,255,255 F,1,141908,143908,0.9,0 S,1,141908,143908,0.25,0.5
Sprite,Background,Centre,"sb\ring.png",0,0 M,0,141983,,341,174 C,0,141983,,255,255,255 F,1,141983,143983,0.9,0 S,1,141983,143983,0.25,0.5
Sprite,Background,Centre,"sb\ring.png",0,0 M,0,142058,,345,177 C,0,142058,,255,255,255 F,1,142058,144208,0.9,0 S,1,142058,144208,0.25,0.5
Sprite,Background,Centre,"sb\ring.png",0,0 M,0,142283,,544,169 C,0,142283,,255,255,255 F,1,142283,144283,0.9,0 S,1,142283,144283,0.25,0.5
Sprite,Background,Centre,"sb\ring.png",0,0 M,0,142358,,548,174 C,0,142358,,255,255,255 F,1,142358,144508,0.9,0 S,1,142358,144508,0.25,0.5
Sprite,Background,Centre,"sb\ring.png",0,0 M,0,142658,,324,372 C,0,142658,,255,255,255 F,1,142658,144658,0.9,0 S,1,142658,144658,0.25,0.5
Sprite,Background,Centre,"sb\ring.png",0,0 M,0,142808,,344,247 C,0,142808,,255,255,255 F,1,142808,144808,0.9,0 S,1,142808,144808,0.25,0.5
Sprite,Background,Centre,"sb\ring.png",0,0 M,0,142958,,523,397 C,0,142958,,255,255,255 F,1,142958,144958,0.9,0 S,1,142958,144958,0.25,0.5
Sprite,Background,Centre,"sb\ring.png",0,0 M,0,143108,,285,438 C,0,143108,,255,255,255 F,1,143108,145258,0.9,0 S,1,143108,145258,0.25,0.5
Sprite,Background,Centre,"sb\ring.png",0,0 M,0,143408,,367,104 C,0,143408,,255,255,255 F,1,143408,145408,0.9,0 S,1,143408,145408,0.25,0.5
Sprite,Background,Centre,"sb\ring.png",0,0 M,0,143558,,444,257 C,0,143558,,255,255,255 F,1,143558,145708,0.9,0 S,1,143558,145708,0.25,0.5
Sprite,Background,Centre,"sb\ring.png",0,0 M,0,143858,,68,180 C,0,143858,,255,255,255 F,1,143858,145858,0.9,0 S,1,143858,145858,0.25,0.5
Sprite,Background,Centre,"sb\ring.png",0,0 M,0,144008,,290,121 C,0,144008,,255,255,255 F,1,144008,146008,0.9,0 S,1,144008,146008,0.25,0.5
Sprite,Background,Centre,"sb\ring.png",0,0 M,0,144158,,176,173 C,0,144158,,255,255,255 F,1,144158,146158,0.9,0 S,1,144158,146158,0.25,0.5
Sprite,Background,Centre,"sb\ring.png",0,0 M,0,144233,,179,161 C,0,144233,,255,255,255 F,1,144233,146233,0.9,0 S,1,144233,146233,0.25,0.5
Sprite,Background,Centre,"sb\ring.png",0,0 M,0,144308,,182,149 C,0,144308,,255,255,255 F,1,144308,146308,0.9,0 S,1,144308,146308,0.25,0.5
Sprite,Background,Centre,"sb\ring.png",0,0 M,0,144458,,105,92 C,0,144458,,255,255,255 F,1,144458,146458,0.9,0 S,1,144458,146458,0.25,0.5
Sprite,Background,Centre,"sb\ring.png",0,0 M,0,144608,,259,206 C,0,144608,,255,255,255 F,1,144608,146608,0.9,0 S,1,144608,146608,0.25,0.5
Sprite,Background,Centre,"sb\ring.png",0,0 M,0,144758,,211,56 C,0,144758,,255,255,255 F,1,144758,146758,0.9,0 S,1,144758,146758,0.25,0.5
Sprite,Background,Centre,"sb\ring.png",0,0 M,0,144908,,150,261 C,0,144908,,255,255,255 F,1,144908,146908,0.9,0 S,1,144908,146908,0.25,0.5
Sprite,Background,Centre,"sb\ring.png",0,0 M,0,145058,,401,177 C,0,145058,,255,255,255 F,1,145058,147058,0.9,0 S,1,145058,147058,0.25,0.5
Sprite,Background,Centre,"sb\ring.png",0,0 M,0,145208,,290,121 C,0,145208,,255,255,255 F,1,145208,147208,0.9,0 S,1,145208,147208,0.25,0.5
Sprite,Background,Centre,"sb\ring.png",0,0 M,0,145358,,333,263 C,0,145358,,255,255,255 F,1,145358,147358,0.9,0 S,1,145358,147358,0.25,0.5
Sprite,Background,Centre,"sb\ring.png",0,0 M,0,145508,,290,121 C,0,145508,,255,255,255 F,1,145508,147508,0.9,0 S,1,145508,147508,0.25,0.5
Sprite,Background,Centre,"sb\ring.png",0,0 M,0,145658,,511,144 C,0,145658,,255,255,255 F,1,145658,147658,0.9,0 S,1,145658,147658,0.25,0.5
Sprite,Background,Centre,"sb\ring.png",0,0 M,0,145808,,352,70 C,0,145808,,255,255,255 F,1,145808,147808,0.9,0 S,1,145808,147808,0.25,0.5
Sprite,Background,Centre,"sb\ring.png",0,0 M,0,145958,,511,144 C,0,145958,,255,255,255 F,1,145958,147958,0.9,0 S,1,145958,147958,0.25,0.5
Sprite,Background,Centre,"sb\ring.png",0,0 M,0,146108,,352,70 C,0,146108,,255,255,255 F,1,146108,148108,0.9,0 S,1,146108,148108,0.25,0.5
Sprite,Background,Centre,"sb\ring.png",0,0 M,0,146258,,394,346 C,0,146258,,255,255,255 F,1,146258,148258,0.9,0 S,1,146258,148258,0.25,0.5
Sprite,Background,Centre,"sb\ring.png",0,0 M,0,146408,,428,264 C,0,146408,,255,255,255 F,1,146408,148408,0.9,0 S,1,146408,148408,0.25,0.5
Sprite,Background,Centre,"sb\ring.png",0,0 M,0,146558,,360,428 C,0,146558,,255,255,255 F,1,146558,148558,0.9,0 S,1,146558,148558,0.25,0.5
Sprite,Background,Centre,"sb\ring.png",0,0 M,0,146708,,94,360 C,0,146708,,255,255,255 F,1,146708,148708,0.9,0 S,1,146708,148708,0.25,0.5
Sprite,Background,Centre,"sb\ring.png",0,0 M,0,146858,,227,394 C,0,146858,,255,255,255 F,1,146858,148858,0.9,0 S,1,146858,148858,0.25,0.5
Sprite,Background,Centre,"sb\ring.png",0,0 M,0,147008,,94,360 C,0,147008,,255,255,255 F,1,147008,149008,0.9,0 S,1,147008,149008,0.25,0.5
Sprite,Background,Centre,"sb\ring.png",0,0 M,0,147158,,227,394 C,0,147158,,255,255,255 F,1,147158,149233,0.9,0 S,1,147158,149233,0.25,0.5
Sprite,Background,Centre,"sb\ring.png",0,0 M,0,147308,,202,259 C,0,147308,,255,255,255 F,1,147308,149383,0.9,0 S,1,147308,149383,0.25,0.5
Sprite,Background,Centre,"sb\ring.png",0,0 M,0,147458,,170,89 C,0,147458,,255,255,255 F,1,147458,149458,0.9,0 S,1,147458,149458,0.25,0.5
Sprite,Background,Centre,"sb\ring.png",0,0 M,0,147608,,384,132 C,0,147608,,255,255,255 F,1,147608,149608,0.9,0 S,1,147608,149608,0.25,0.5
Sprite,Background,Centre,"sb\ring.png",0,0 M,0,147758,,170,89 C,0,147758,,255,255,255 F,1,147758,149758,0.9,0 S,1,147758,149758,0.25,0.5
Sprite,Background,Centre,"sb\ring.png",0,0 M,0,147908,,384,132 C,0,147908,,255,255,255 F,1,147908,149908,0.9,0 S,1,147908,149908,0.25,0.5
Sprite,Background,Centre,"sb\ring.png",0,0 M,0,148058,,170,89 C,0,148058,,255,255,255 F,1,148058,150058,0.9,0 S,1,148058,150058,0.25,0.5
Sprite,Background,Centre,"sb\ring.png",0,0 M,0,148208,,384,132 C,0,148208,,255,255,255 F,1,148208,150208,0.9,0 S,1,148208,150208,0.25,0.5
Sprite,Background,Centre,"sb\ring.png",0,0 M,0,148358,,170,89 C,0,148358,,255,255,255 F,1,148358,150358,0.9,0 S,1,148358,150358,0.25,0.5
Sprite,Background,Centre,"sb\ring.png",0,0 M,0,148508,,384,132 C,0,148508,,255,255,255 F,1,148508,150508,0.9,0 S,1,148508,150508,0.25,0.5
Sprite,Background,Centre,"sb\ring.png",0,0 M,0,148658,,172,326 C,0,148658,,255,255,255 F,1,148658,150658,0.9,0 S,1,148658,150658,0.25,0.5
Sprite,Background,Centre,"sb\ring.png",0,0 M,0,148808,,241,61 C,0,148808,,255,255,255 F,1,148808,150808,0.9,0 S,1,148808,150808,0.25,0.5
Sprite,Background,Centre,"sb\ring.png",0,0 M,0,148958,,172,326 C,0,148958,,255,255,255 F,1,148958,150958,0.9,0 S,1,148958,150958,0.25,0.5
Sprite,Background,Centre,"sb\ring.png",0,0 M,0,149108,,241,61 C,0,149108,,255,255,255 F,1,149108,151108,0.9,0 S,1,149108,151108,0.25,0.5
Sprite,Background,Centre,"sb\ring.png",0,0 M,0,149258,,172,326 C,0,149258,,255,255,255 F,1,149258,151258,0.9,0 S,1,149258,151258,0.25,0.5
Sprite,Background,Centre,"sb\ring.png",0,0 M,0,149408,,241,61 C,0,149408,,255,255,255 F,1,149408,151408,0.9,0 S,1,149408,151408,0.25,0.5
Sprite,Background,Centre,"sb\ring.png",0,0 M,0,149558,,172,326 C,0,149558,,255,255,255 F,1,149558,151558,0.9,0 S,1,149558,151558,0.25,0.5
Sprite,Background,Centre,"sb\ring.png",0,0 M,0,149708,,241,61 C,0,149708,,255,255,255 F,1,149708,151708,0.9,0 S,1,149708,151708,0.25,0.5
Sprite,Background,Centre,"sb\ring.png",0,0 M,0,149858,,94,360 C,0,149858,,255,255,255 F,1,149858,151858,0.9,0 S,1,149858,151858,0.25,0.5
Sprite,Background,Centre,"sb\ring.png",0,0 M,0,150008,,389,438 C,0,150008,,255,255,255 F,1,150008,152008,0.9,0 S,1,150008,152008,0.25,0.5
Sprite,Background,Centre,"sb\ring.png",0,0 M,0,150158,,94,360 C,0,150158,,255,255,255 F,1,150158,152158,0.9,0 S,1,150158,152158,0.25,0.5
Sprite,Background,Centre,"sb\ring.png",0,0 M,0,150308,,389,438 C,0,150308,,255,255,255 F,1,150308,152308,0.9,0 S,1,150308,152308,0.25,0.5
Sprite,Background,Centre,"sb\ring.png",0,0 M,0,150458,,94,360 C,0,150458,,255,255,255 F,1,150458,152458,0.9,0 S,1,150458,152458,0.25,0.5
Sprite,Background,Centre,"sb\ring.png",0,0 M,0,150608,,389,438 C,0,150608,,255,255,255 F,1,150608,152608,0.9,0 S,1,150608,152608,0.25,0.5
Sprite,Background,Centre,"sb\ring.png",0,0 M,0,150758,,94,360 C,0,150758,,255,255,255 F,1,150758,152758,0.9,0 S,1,150758,152758,0.25,0.5
Sprite,Background,Centre,"sb\ring.png",0,0 M,0,150908,,389,438 C,0,150908,,255,255,255 F,1,150908,152908,0.9,0 S,1,150908,152908,0.25,0.5
Sprite,Background,Centre,"sb\ring.png",0,0 M,0,151058,,94,360 C,0,151058,,255,255,255 F,1,151058,153058,0.9,0 S,1,151058,153058,0.25,0.5
Sprite,Background,Centre,"sb\ring.png",0,0 M,0,151208,,389,438 C,0,151208,,255,255,255 F,1,151208,153358,0.9,0 S,1,151208,153358,0.25,0.5
Sprite,Background,Centre,"sb\ring.png",0,0 M,0,151508,,274,62 C,0,151508,,255,255,255 F,1,151508,153658,0.9,0 S,1,151508,153658,0.25,0.5
Sprite,Background,Centre,"sb\ring.png",0,0 M,0,151808,,390,364 C,0,151808,,255,255,255 F,1,151808,153883,0.9,0 S,1,151808,153883,0.25,0.5
Sprite,Background,Centre,"sb\ring.png",0,0 M,0,151958,,192,80 C,0,151958,,255,255,255 F,1,151958,154033,0.9,0 S,1,151958,154033,0.25,0.5
Sprite,Background,Centre,"sb\ring.png",0,0 M,0,152108,,399,289 C,0,152108,,255,255,255 F,1,152108,154108,0.9,0 S,1,152108,154108,0.25,0.5
Sprite,Background,Centre,"sb\ring.png",0,0 M,0,152183,,419,285 C,0,152183,,255,255,255 F,1,152183,154183,0.9,0 S,1,152183,154183,0.25,0.5
Sprite,Background,Centre,"sb\ring.png",0,0 M,0,152258,,439,281 C,0,152258,,255,255,255 F,1,152258,154258,0.9,0 S,1,152258,154258,0.25,0.5
Sprite,Background,Centre,"sb\ring.png",0,0 M,0,152458,,107,109 C,0,152458,,255,255,255 F,1,152458,154458,0.9,0 S,1,152458,154458,0.25,0.5
Sprite,Background,Centre,"sb\ring.png",0,0 M,0,152658,,107,109 C,0,152658,,255,255,255 F,1,152658,154658,0.9,0 S,1,152658,154658,0.25,0.5
Sprite,Background,Centre,"sb\ring.png",0,0 M,0,152858,,400,211 C,0,152858,,255,255,255 F,1,152858,154858,0.9,0 S,1,152858,154858,0.25,0.5
Sprite,Background,Centre,"sb\ring.png",0,0 M,0,153058,,165,413 C,0,153058,,255,255,255 F,1,153058,155058,0.9,0 S,1,153058,155058,0.25,0.5
Sprite,Background,Centre,"sb\ring.png",0,0 M,0,153258,,400,211 C,0,153258,,255,255,255 F,1,153258,155258,0.9,0 S,1,153258,155258,0.25,0.5
Sprite,Background,Centre,"sb\ring.png",0,0 M,0,153458,,132,247 C,0,153458,,255,255,255 F,1,153458,155458,0.9,0 S,1,153458,155458,0.25,0.5
Sprite,Background,Centre,"sb\ring.png",0,0 M,0,153608,,272,354 C,0,153608,,255,255,255 F,1,153608,155758,0.9,0 S,1,153608,155758,0.25,0.5
Sprite,Background,Centre,"sb\ring.png",0,0 M,0,153908,,499,75 C,0,153908,,255,255,255 F,1,153908,156058,0.9,0 S,1,153908,156058,0.25,0.5
Sprite,Background,Centre,"sb\ring.png",0,0 M,0,154208,,165,413 C,0,154208,,255,255,255 F,1,154208,156358,0.9,0 S,1,154208,156358,0.25,0.5
Sprite,Background,Centre,"sb\ring.png",0,0 M,0,154508,,107,109 C,0,154508,,255,255,255 F,1,154508,157708,0.9,0 S,1,154508,157708,0.25,0.5
Sprite,Background,Centre,"sb\ring.png",0,0 M,0,155858,,84,308 C,0,155858,,255,255,255 F,1,155858,158158,0.9,0 S,1,155858,158158,0.25,0.5
Sprite,Background,Centre,"sb\ring.png",0,0 M,0,156233,,111,223 C,0,156233,,255,255,255 F,1,156233,158233,0.9,0 S,1,156233,158233,0.25,0.5
Sprite,Background,Centre,"sb\ring.png",0,0 M,0,156308,,105,216 C,0,156308,,255,255,255 F,1,156308,158383,0.9,0 S,1,156308,158383,0.25,0.5
Sprite,Background,Centre,"sb\ring.png",0,0 M,0,156458,,194,158 C,0,156458,,255,255,255 F,1,156458,158908,0.9,0 S,1,156458,158908,0.25,0.5
Sprite,Background,Centre,"sb\ring.png",0,0 M,0,181058,,187,162 C,0,181058,,255,255,255 F,1,181058,183133,0.9,0 S,1,181058,183133,0.25,0.5
Sprite,Background,Centre,"sb\ring.png",0,0 M,0,181208,,122,356 C,0,181208,,255,255,255 F,1,181208,183358,0.9,0 S,1,181208,183358,0.25,0.5
Sprite,Background,Centre,"sb\ring.png",0,0 M,0,181508,,142,95 C,0,181508,,255,255,255 F,1,181508,183508,0.9,0 S,1,181508,183508,0.25,0.5
Sprite,Background,Centre,"sb\ring.png",0,0 M,0,181658,,455,188 C,0,181658,,255,255,255 F,1,181658,183733,0.9,0 S,1,181658,183733,0.25,0.5
Sprite,Background,Centre,"sb\ring.png",0,0 M,0,181808,,261,253 C,0,181808,,255,255,255 F,1,181808,183958,0.9,0 S,1,181808,183958,0.25,0.5
Sprite,Background,Centre,"sb\ring.png",0,0 M,0,182108,,522,233 C,0,182108,,255,255,255 F,1,182108,184108,0.9,0 S,1,182108,184108,0.25,0.5
Sprite,Background,Centre,"sb\ring.png",0,0 M,0,182258,,359,210 C,0,182258,,255,255,255 F,1,182258,184258,0.9,0 S,1,182258,184258,0.25,0.5
Sprite,Background,Centre,"sb\ring.png",0,0 M,0,182408,,542,129 C,0,182408,,255,255,255 F,1,182408,184408,0.9,0 S,1,182408,184408,0.25,0.5
Sprite,Background,Centre,"sb\ring.png",0,0 M,0,182483,,539,144 C,0,182483,,255,255,255 F,1,182483,184483,0.9,0 S,1,182483,184483,0.25,0.5
Sprite,Background,Centre,"sb\ring.png",0,0 M,0,182558,,536,159 C,0,182558,,255,255,255 F,1,182558,184558,0.9,0 S,1,182558,184558,0.25,0.5
Sprite,Background,Centre,"sb\ring.png",0,0 M,0,182708,,419,109 C,0,182708,,255,255,255 F,1,182708,184708,0.9,0 S,1,182708,184708,0.25,0.5
Sprite,Background,Centre,"sb\ring.png",0,0 M,0,182858,,556,56 C,0,182858,,255,255,255 F,1,182858,184858,0.9,0 S,1,182858,184858,0.25,0.5
Sprite,Background,Centre,"sb\ring.png",0,0 M,0,183008,,349,136 C,0,183008,,255,255,255 F,1,183008,185008,0.9,0 S,1,183008,185008,0.25,0.5
Sprite,Background,Centre,"sb\ring.png",0,0 M,0,183158,,504,355 C,0,183158,,255,255,255 F,1,183158,185158,0.9,0 S,1,183158,185158,0.25,0.5
Sprite,Background,Centre,"sb\ring.png",0,0 M,0,183308,,455,188 C,0,183308,,255,255,255 F,1,183308,185308,0.9,0 S,1,183308,185308,0.25,0.5
Sprite,Background,Centre,"sb\ring.png",0,0 M,0,183458,,393,376 C,0,183458,,255,255,255 F,1,183458,185533,0.9,0 S,1,183458,185533,0.25,0.5
Sprite,Background,Centre,"sb\ring.png",0,0 M,0,183608,,504,355 C,0,183608,,255,255,255 F,1,183608,185683,0.9,0 S,1,183608,185683,0.25,0.5
Sprite,Background,Centre,"sb\ring.png",0,0 M,0,183758,,322,416 C,0,183758,,255,255,255 F,1,183758,185833,0.9,0 S,1,183758,185833,0.25,0.5
Sprite,Background,Centre,"sb\ring.png",0,0 M,0,183908,,140,419 C,0,183908,,255,255,255 F,1,183908,185983,0.9,0 S,1,183908,185983,0.25,0.5
Sprite,Background,Centre,"sb\ring.png",0,0 M,0,184058,,187,252 C,0,184058,,255,255,255 F,1,184058,186133,0.9,0 S,1,184058,186133,0.25,0.5
Sprite,Background,Centre,"sb\ring.png",0,0 M,0,184208,,208,141 C,0,184208,,255,255,255 F,1,184208,186283,0.9,0 S,1,184208,186283,0.25,0.5
Sprite,Background,Centre,"sb\ring.png",0,0 M,0,184358,,271,194 C,0,184358,,255,255,255 F,1,184358,186358,0.9,0 S,1,184358,186358,0.25,0.5
Sprite,Background,Centre,"sb\ring.png",0,0 M,0,184508,,69,196 C,0,184508,,255,255,255 F,1,184508,186583,0.9,0 S,1,184508,186583,0.25,0.5
Sprite,Background,Centre,"sb\ring.png",0,0 M,0,184658,,255,282 C,0,184658,,255,255,255 F,1,184658,186808,0.9,0 S,1,184658,186808,0.25,0.5
Sprite,Background,Centre,"sb\ring.png",0,0 M,0,184958,,393,376 C,0,184958,,255,255,255 F,1,184958,187033,0.9,0 S,1,184958,187033,0.25,0.5
Sprite,Background,Centre,"sb\ring.png",0,0 M,0,185108,,414,265 C,0,185108,,255,255,255 F,1,185108,187183,0.9,0 S,1,185108,187183,0.25,0.5
Sprite,Background,Centre,"sb\ring.png",0,0 M,0,185258,,526,94 C,0,185258,,255,255,255 F,1,185258,187333,0.9,0 S,1,185258,187333,0.25,0.5
Sprite,Background,Centre,"sb\ring.png",0,0 M,0,185408,,336,86 C,0,185408,,255,255,255 F,1,185408,187483,0.9,0 S,1,185408,187483,0.25,0.5
Sprite,Background,Centre,"sb\ring.png",0,0 M,0,185558,,255,282 C,0,185558,,255,255,255 F,1,185558,187633,0.9,0 S,1,185558,187633,0.25,0.5
Sprite,Background,Centre,"sb\ring.png",0,0 M,0,185708,,393,376 C,0,185708,,255,255,255 F,1,185708,187783,0.9,0 S,1,185708,187783,0.25,0.5
Sprite,Background,Centre,"sb\ring.png",0,0 M,0,185858,,555,203 C,0,185858,,255,255,255 F,1,185858,187933,0.9,0 S,1,185858,187933,0.25,0.5
Sprite,Background,Centre,"sb\ring.png",0,0 M,0,186008,,393,376 C,0,186008,,255,255,255 F,1,186008,188158,0.9,0 S,1,186008,188158,0.25,0.5
Sprite,Background,Centre,"sb\ring.png",0,0 M,0,186308,,420,228 C,0,186308,,255,255,255 F,1,186308,188308,0.9,0 S,1,186308,188308,0.25,0.5
Sprite,Background,Centre,"sb\ring.png",0,0 M,0,186458,,445,93 C,0,186458,,255,255,255 F,1,186458,188533,0.9,0 S,1,186458,188533,0.25,0.5
Sprite,Background,Centre,"sb\ring.png",0,0 M,0,186608,,272,255 C,0,186608,,255,255,255 F,1,186608,188758,0.9,0 S,1,186608,188758,0.25,0.5
Sprite,Background,Centre,"sb\ring.png",0,0 M,0,186908,,420,228 C,0,186908,,255,255,255 F,1,186908,188908,0.9,0 S,1,186908,188908,0.25,0.5
Sprite,Background,Centre,"sb\ring.png",0,0 M,0,187058,,306,58 C,0,187058,,255,255,255 F,1,187058,189058,0.9,0 S,1,187058,189058,0.25,0.5
Sprite,Background,Centre,"sb\ring.png",0,0 M,0,187208,,208,183 C,0,187208,,255,255,255 F,1,187208,189208,0.9,0 S,1,187208,189208,0.25,0.5
Sprite,Background,Centre,"sb\ring.png",0,0 M,0,187283,,193,186 C,0,187283,,255,255,255 F,1,187283,189283,0.9,0 S,1,187283,189283,0.25,0.5
Sprite,Background,Centre,"sb\ring.png",0,0 M,0,187358,,178,189 C,0,187358,,255,255,255 F,1,187358,189358,0.9,0 S,1,187358,189358,0.25,0.5
Sprite,Background,Centre,"sb\ring.png",0,0 M,0,187508,,348,244 C,0,187508,,255,255,255 F,1,187508,189508,0.9,0 S,1,187508,189508,0.25,0.5
Sprite,Background,Centre,"sb\ring.png",0,0 M,0,187658,,114,234 C,0,187658,,255,255,255 F,1,187658,189733,0.9,0 S,1,187658,189733,0.25,0.5
Sprite,Background,Centre,"sb\ring.png",0,0 M,0,187808,,68,116 C,0,187808,,255,255,255 F,1,187808,189883,0.9,0 S,1,187808,189883,0.25,0.5
Sprite,Background,Centre,"sb\ring.png",0,0 M,0,187958,,282,193 C,0,187958,,255,255,255 F,1,187958,190033,0.9,0 S,1,187958,190033,0.25,0.5
Sprite,Background,Centre,"sb\ring.png",0,0 M,0,188108,,180,112 C,0,188108,,255,255,255 F,1,188108,190108,0.9,0 S,1,188108,190108,0.25,0.5
Sprite,Background,Centre,"sb\ring.png",0,0 M,0,188258,,247,376 C,0,188258,,255,255,255 F,1,188258,190333,0.9,0 S,1,188258,190333,0.25,0.5
Sprite,Background,Centre,"sb\ring.png",0,0 M,0,188408,,136,355 C,0,188408,,255,255,255 F,1,188408,190483,0.9,0 S,1,188408,190483,0.25,0.5
Sprite,Background,Centre,"sb\ring.png",0,0 M,0,188558,,318,416 C,0,188558,,255,255,255 F,1,188558,190633,0.9,0 S,1,188558,190633,0.25,0.5
Sprite,Background,Centre,"sb\ring.png",0,0 M,0,188708,,500,419 C,0,188708,,255,255,255 F,1,188708,190783,0.9,0 S,1,188708,190783,0.25,0.5
Sprite,Background,Centre,"sb\ring.png",0,0 M,0,188858,,453,252 C,0,188858,,255,255,255 F,1,188858,190933,0.9,0 S,1,188858,190933,0.25,0.5
Sprite,Background,Centre,"sb\ring.png",0,0 M,0,189008,,432,141 C,0,189008,,255,255,255 F,1,189008,191083,0.9,0 S,1,189008,191083,0.25,0.5
Sprite,Background,Centre,"sb\ring.png",0,0 M,0,189158,,369,194 C,0,189158,,255,255,255 F,1,189158,191158,0.9,0 S,1,189158,191158,0.25,0.5
Sprite,Background,Centre,"sb\ring.png",0,0 M,0,189308,,561,190 C,0,189308,,255,255,255 F,1,189308,191383,0.9,0 S,1,189308,191383,0.25,0.5
Sprite,Background,Centre,"sb\ring.png",0,0 M,0,189458,,397,291 C,0,189458,,255,255,255 F,1,189458,191608,0.9,0 S,1,189458,191608,0.25,0.5
Sprite,Background,Centre,"sb\ring.png",0,0 M,0,189758,,247,376 C,0,189758,,255,255,255 F,1,189758,191833,0.9,0 S,1,189758,191833,0.25,0.5
Sprite,Background,Centre,"sb\ring.png",0,0 M,0,189908,,226,265 C,0,189908,,255,255,255 F,1,189908,191983,0.9,0 S,1,189908,191983,0.25,0.5
Sprite,Background,Centre,"sb\ring.png",0,0 M,0,190058,,102,81 C,0,190058,,255,255,255 F,1,190058,192133,0.9,0 S,1,190058,192133,0.25,0.5
Sprite,Background,Centre,"sb\ring.png",0,0 M,0,190208,,328,56 C,0,190208,,255,255,255 F,1,190208,192283,0.9,0 S,1,190208,192283,0.25,0.5
Sprite,Background,Centre,"sb\ring.png",0,0 M,0,190358,,429,255 C,0,190358,,255,255,255 F,1,190358,192433,0.9,0 S,1,190358,192433,0.25,0.5
Sprite,Background,Centre,"sb\ring.png",0,0 M,0,190508,,247,376 C,0,190508,,255,255,255 F,1,190508,192583,0.9,0 S,1,190508,192583,0.25,0.5
Sprite,Background,Centre,"sb\ring.png",0,0 M,0,190658,,85,203 C,0,190658,,255,255,255 F,1,190658,192733,0.9,0 S,1,190658,192733,0.25,0.5
Sprite,Background,Centre,"sb\ring.png",0,0 M,0,190808,,247,376 C,0,190808,,255,255,255 F,1,190808,192958,0.9,0 S,1,190808,192958,0.25,0.5
Sprite,Background,Centre,"sb\ring.png",0,0 M,0,191108,,325,389 C,0,191108,,255,255,255 F,1,191108,193108,0.9,0 S,1,191108,193108,0.25,0.5
Sprite,Background,Centre,"sb\ring.png",0,0 M,0,191258,,349,113 C,0,191258,,255,255,255 F,1,191258,193333,0.9,0 S,1,191258,193333,0.25,0.5
Sprite,Background,Centre,"sb\ring.png",0,0 M,0,191408,,522,275 C,0,191408,,255,255,255 F,1,191408,193558,0.9,0 S,1,191408,193558,0.25,0.5
Sprite,Background,Centre,"sb\ring.png",0,0 M,0,191708,,535,353 C,0,191708,,255,255,255 F,1,191708,193708,0.9,0 S,1,191708,193708,0.25,0.5
Sprite,Background,Centre,"sb\ring.png",0,0 M,0,191858,,488,76 C,0,191858,,255,255,255 F,1,191858,193858,0.9,0 S,1,191858,193858,0.25,0.5
Sprite,Background,Centre,"sb\ring.png",0,0 M,0,192008,,389,181 C,0,192008,,255,255,255 F,1,192008,194008,0.9,0 S,1,192008,194008,0.25,0.5
Sprite,Background,Centre,"sb\ring.png",0,0 M,0,192083,,374,178 C,0,192083,,255,255,255 F,1,192083,194083,0.9,0 S,1,192083,194083,0.25,0.5
Sprite,Background,Centre,"sb\ring.png",0,0 M,0,192158,,359,175 C,0,192158,,255,255,255 F,1,192158,194158,0.9,0 S,1,192158,194158,0.25,0.5
Sprite,Background,Centre,"sb\ring.png",0,0 M,0,192308,,522,275 C,0,192308,,255,255,255 F,1,192308,194308,0.9,0 S,1,192308,194308,0.25,0.5
Sprite,Background,Centre,"sb\ring.png",0,0 M,0,192458,,288,159 C,0,192458,,255,255,255 F,1,192458,194458,0.9,0 S,1,192458,194458,0.25,0.5
Sprite,Background,Centre,"sb\ring.png",0,0 M,0,192608,,488,76 C,0,192608,,255,255,255 F,1,192608,194608,0.9,0 S,1,192608,194608,0.25,0.5
Sprite,Background,Centre,"sb\ring.png",0,0 M,0,192758,,311,230 C,0,192758,,255,255,255 F,1,192758,194758,0.9,0 S,1,192758,194758,0.25,0.5
Sprite,Background,Centre,"sb\ring.png",0,0 M,0,192908,,258,56 C,0,192908,,255,255,255 F,1,192908,194908,0.9,0 S,1,192908,194908,0.25,0.5
Sprite,Background,Centre,"sb\ring.png",0,0 M,0,193058,,200,209 C,0,193058,,255,255,255 F,1,193058,195133,0.9,0 S,1,193058,195133,0.25,0.5
Sprite,Background,Centre,"sb\ring.png",0,0 M,0,193208,,311,230 C,0,193208,,255,255,255 F,1,193208,195283,0.9,0 S,1,193208,195283,0.25,0.5
Sprite,Background,Centre,"sb\ring.png",0,0 M,0,193358,,119,199 C,0,193358,,255,255,255 F,1,193358,195433,0.9,0 S,1,193358,195433,0.25,0.5
Sprite,Background,Centre,"sb\ring.png",0,0 M,0,193508,,111,380 C,0,193508,,255,255,255 F,1,193508,195583,0.9,0 S,1,193508,195583,0.25,0.5
Sprite,Background,Centre,"sb\ring.png",0,0 M,0,193658,,332,341 C,0,193658,,255,255,255 F,1,193658,195733,0.9,0 S,1,193658,195733,0.25,0.5
Sprite,Background,Centre,"sb\ring.png",0,0 M,0,193808,,311,230 C,0,193808,,255,255,255 F,1,193808,195883,0.9,0 S,1,193808,195883,0.25,0.5
Sprite,Background,Centre,"sb\ring.png",0,0 M,0,193958,,415,256 C,0,193958,,255,255,255 F,1,193958,195958,0.9,0 S,1,193958,195958,0.25,0.5
Sprite,Background,Centre,"sb\ring.png",0,0 M,0,194108,,169,138 C,0,194108,,255,255,255 F,1,194108,196108,0.9,0 S,1,194108,196108,0.25,0.5
Sprite,Background,Centre,"sb\ring.png",0,0 M,0,194258,,221,362 C,0,194258,,255,255,255 F,1,194258,196333,0.9,0 S,1,194258,196333,0.25,0.5
Sprite,Background,Centre,"sb\ring.png",0,0 M,0,194408,,332,341 C,0,194408,,255,255,255 F,1,194408,196483,0.9,0 S,1,194408,196483,0.25,0.5
Sprite,Background,Centre,"sb\ring.png",0,0 M,0,194558,,404,180 C,0,194558,,255,255,255 F,1,194558,196633,0.9,0 S,1,194558,196633,0.25,0.5
Sprite,Background,Centre,"sb\ring.png",0,0 M,0,194708,,527,207 C,0,194708,,255,255,255 F,1,194708,196783,0.9,0 S,1,194708,196783,0.25,0.5
Sprite,Background,Centre,"sb\ring.png",0,0 M,0,194858,,417,68 C,0,194858,,255,255,255 F,1,194858,196933,0.9,0 S,1,194858,196933,0.25,0.5
Sprite,Background,Centre,"sb\ring.png",0,0 M,0,195008,,192,56 C,0,195008,,255,255,255 F,1,195008,197083,0.9,0 S,1,195008,197083,0.25,0.5
Sprite,Background,Centre,"sb\ring.png",0,0 M,0,195158,,130,247 C,0,195158,,255,255,255 F,1,195158,197233,0.9,0 S,1,195158,197233,0.25,0.5
Sprite,Background,Centre,"sb\ring.png",0,0 M,0,195308,,284,350 C,0,195308,,255,255,255 F,1,195308,197383,0.9,0 S,1,195308,197383,0.25,0.5
Sprite,Background,Centre,"sb\ring.png",0,0 M,0,195458,,510,377 C,0,195458,,255,255,255 F,1,195458,197458,0.9,0 S,1,195458,197458,0.25,0.5
Sprite,Background,Centre,"sb\ring.png",0,0 M,0,195658,,494,305 C,0,195658,,255,255,255 F,1,195658,197658,0.9,0 S,1,195658,197658,0.25,0.5
Sprite,Background,Centre,"sb\ring.png",0,0 M,0,195858,,428,269 C,0,195858,,255,255,255 F,1,195858,197858,0.9,0 S,1,195858,197858,0.25,0.5
Sprite,Background,Centre,"sb\ring.png",0,0 M,0,196058,,326,305 C,0,196058,,255,255,255 F,1,196058,198058,0.9,0 S,1,196058,198058,0.25,0.5
Sprite,Background,Centre,"sb\ring.png",0,0 M,0,196258,,332,341 C,0,196258,,255,255,255 F,1,196258,198258,0.9,0 S,1,196258,198258,0.25,0.5
Sprite,Background,Centre,"sb\ring.png",0,0 M,0,196508,,104,178 C,0,196508,,255,255,255 F,1,196508,198658,0.9,0 S,1,196508,198658,0.25,0.5
Sprite,Background,Centre,"sb\ring.png",0,0 M,0,196808,,121,253 C,0,196808,,255,255,255 F,1,196808,198808,0.9,0 S,1,196808,198808,0.25,0.5
Sprite,Background,Centre,"sb\ring.png",0,0 M,0,196958,,172,101 C,0,196958,,255,255,255 F,1,196958,198958,0.9,0 S,1,196958,198958,0.25,0.5
Sprite,Background,Centre,"sb\ring.png",0,0 M,0,197108,,79,391 C,0,197108,,255,255,255 F,1,197108,199183,0.9,0 S,1,197108,199183,0.25,0.5
Sprite,Background,Centre,"sb\ring.png",0,0 M,0,197258,,143,379 C,0,197258,,255,255,255 F,1,197258,199258,0.9,0 S,1,197258,199258,0.25,0.5
Sprite,Background,Centre,"sb\ring.png",0,0 M,0,197408,,255,358 C,0,197408,,255,255,255 F,1,197408,199483,0.9,0 S,1,197408,199483,0.25,0.5
Sprite,Background,Centre,"sb\ring.png",0,0 M,0,197558,,332,341 C,0,197558,,255,255,255 F,1,197558,199633,0.9,0 S,1,197558,199633,0.25,0.5
Sprite,Background,Centre,"sb\ring.png",0,0 M,0,197708,,457,315 C,0,197708,,255,255,255 F,1,197708,199783,0.9,0 S,1,197708,199783,0.25,0.5
Sprite,Background,Centre,"sb\ring.png",0,0 M,0,197858,,543,298 C,0,197858,,255,255,255 F,1,197858,200083,0.9,0 S,1,197858,200083,0.25,0.5
Sprite,Background,Centre,"sb\ring.png",0,0 M,0,198158,,362,183 C,0,198158,,255,255,255 F,1,198158,200233,0.9,0 S,1,198158,200233,0.25,0.5
Sprite,Background,Centre,"sb\ring.png",0,0 M,0,198308,,457,153 C,0,198308,,255,255,255 F,1,198308,200383,0.9,0 S,1,198308,200383,0.25,0.5
Sprite,Background,Centre,"sb\ring.png",0,0 M,0,198458,,554,158 C,0,198458,,255,255,255 F,1,198458,200533,0.9,0 S,1,198458,200533,0.25,0.5
Sprite,Background,Centre,"sb\ring.png",0,0 M,0,198608,,228,253 C,0,198608,,255,255,255 F,1,198608,200683,0.9,0 S,1,198608,200683,0.25,0.5
Sprite,Background,Centre,"sb\ring.png",0,0 M,0,198758,,248,167 C,0,198758,,255,255,255 F,1,198758,200833,0.9,0 S,1,198758,200833,0.25,0.5
Sprite,Background,Centre,"sb\ring.png",0,0 M,0,198908,,297,96 C,0,198908,,255,255,255 F,1,198908,200983,0.9,0 S,1,198908,200983,0.25,0.5
Sprite,Background,Centre,"sb\ring.png",0,0 M,0,199058,,215,387 C,0,199058,,255,255,255 F,1,199058,201133,0.9,0 S,1,199058,201133,0.25,0.5
Sprite,Background,Centre,"sb\ring.png",0,0 M,0,199208,,153,331 C,0,199208,,255,255,255 F,1,199208,201283,0.9,0 S,1,199208,201283,0.25,0.5
Sprite,Background,Centre,"sb\ring.png",0,0 M,0,199358,,129,259 C,0,199358,,255,255,255 F,1,199358,201433,0.9,0 S,1,199358,201433,0.25,0.5
Sprite,Background,Centre,"sb\ring.png",0,0 M,0,199508,,392,397 C,0,199508,,255,255,255 F,1,199508,201658,0.9,0 S,1,199508,201658,0.25,0.5
Sprite,Background,Centre,"sb\ring.png",0,0 M,0,199808,,544,294 C,0,199808,,255,255,255 F,1,199808,201958,0.9,0 S,1,199808,201958,0.25,0.5
Sprite,Background,Centre,"sb\ring.png",0,0 M,0,200108,,338,219 C,0,200108,,255,255,255 F,1,200108,202258,0.9,0 S,1,200108,202258,0.25,0.5
Sprite,Background,Centre,"sb\ring.png",0,0 M,0,200558,,215,387 C,0,200558,,255,255,255 F,1,200558,202708,0.9,0 S,1,200558,202708,0.25,0.5
Sprite,Background,Centre,"sb\ring.png",0,0 M,0,200783,,293,367 C,0,200783,,255,255,255 F,1,200783,202783,0.9,0 S,1,200783,202783,0.25,0.5
Sprite,Background,Centre,"sb\ring.png",0,0 M,0,200858,,293,367 C,0,200858,,255,255,255 F,1,200858,202933,0.9,0 S,1,200858,202933,0.25,0.5
Sprite,Background,Centre,"sb\ring.png",0,0 M,0,201008,,425,403 C,0,201008,,255,255,255 F,1,201008,203083,0.9,0 S,1,201008,203083,0.25,0.5
Sprite,Background,Centre,"sb\ring.png",0,0 M,0,201158,,469,133 C,0,201158,,255,255,255 F,1,201158,203158,0.9,0 S,1,201158,203158,0.25,0.5
Sprite,Background,Centre,"sb\ring.png",0,0 M,0,201308,,509,245 C,0,201308,,255,255,255 F,1,201308,203383,0.9,0 S,1,201308,203383,0.25,0.5
Sprite,Background,Centre,"sb\ring.png",0,0 M,0,201458,,238,303 C,0,201458,,255,255,255 F,1,201458,203608,0.9,0 S,1,201458,203608,0.25,0.5
Sprite,Background,Centre,"sb\ring.png",0,0 M,0,201758,,64,90 C,0,201758,,255,255,255 F,1,201758,203833,0.9,0 S,1,201758,203833,0.25,0.5
Sprite,Background,Centre,"sb\ring.png",0,0 M,0,201908,,175,69 C,0,201908,,255,255,255 F,1,201908,203983,0.9,0 S,1,201908,203983,0.25,0.5
Sprite,Background,Centre,"sb\ring.png",0,0 M,0,202058,,469,133 C,0,202058,,255,255,255 F,1,202058,204133,0.9,0 S,1,202058,204133,0.25,0.5
Sprite,Background,Centre,"sb\ring.png",0,0 M,0,202208,,279,122 C,0,202208,,255,255,255 F,1,202208,204283,0.9,0 S,1,202208,204283,0.25,0.5
Sprite,Background,Centre,"sb\ring.png",0,0 M,0,202358,,238,303 C,0,202358,,255,255,255 F,1,202358,204433,0.9,0 S,1,202358,204433,0.25,0.5
Sprite,Background,Centre,"sb\ring.png",0,0 M,0,202508,,376,401 C,0,202508,,255,255,255 F,1,202508,204583,0.9,0 S,1,202508,204583,0.25,0.5
Sprite,Background,Centre,"sb\ring.png",0,0 M,0,202658,,564,198 C,0,202658,,255,255,255 F,1,202658,204733,0.9,0 S,1,202658,204733,0.25,0.5
Sprite,Background,Centre,"sb\ring.png",0,0 M,0,202808,,496,359 C,0,202808,,255,255,255 F,1,202808,204883,0.9,0 S,1,202808,204883,0.25,0.5
Sprite,Background,Centre,"sb\ring.png",0,0 M,0,202958,,569,191 C,0,202958,,255,255,255 F,1,202958,205033,0.9,0 S,1,202958,205033,0.25,0.5
Sprite,Background,Centre,"sb\ring.png",0,0 M,0,203108,,491,366 C,0,203108,,255,255,255 F,1,203108,205183,0.9,0 S,1,203108,205183,0.25,0.5
Sprite,Background,Centre,"sb\ring.png",0,0 M,0,203258,,419,81 C,0,203258,,255,255,255 F,1,203258,205333,0.9,0 S,1,203258,205333,0.25,0.5
Sprite,Background,Centre,"sb\ring.png",0,0 M,0,203408,,258,245 C,0,203408,,255,255,255 F,1,203408,205558,0.9,0 S,1,203408,205558,0.25,0.5
Sprite,Background,Centre,"sb\ring.png",0,0 M,0,203708,,394,215 C,0,203708,,255,255,255 F,1,203708,205708,0.9,0 S,1,203708,205708,0.25,0.5
Sprite,Background,Centre,"sb\ring.png",0,0 M,0,203858,,235,322 C,0,203858,,255,255,255 F,1,203858,205858,0.9,0 S,1,203858,205858,0.25,0.5
Sprite,Background,Centre,"sb\ring.png",0,0 M,0,204008,,380,383 C,0,204008,,255,255,255 F,1,204008,206008,0.9,0 S,1,204008,206008,0.25,0.5
Sprite,Background,Centre,"sb\ring.png",0,0 M,0,204083,,377,368 C,0,204083,,255,255,255 F,1,204083,206083,0.9,0 S,1,204083,206083,0.25,0.5
Sprite,Background,Centre,"sb\ring.png",0,0 M,0,204158,,374,353 C,0,204158,,255,255,255 F,1,204158,206158,0.9,0 S,1,204158,206158,0.25,0.5
Sprite,Background,Centre,"sb\ring.png",0,0 M,0,204308,,253,440 C,0,204308,,255,255,255 F,1,204308,206308,0.9,0 S,1,204308,206308,0.25,0.5
Sprite,Background,Centre,"sb\ring.png",0,0 M,0,204458,,456,376 C,0,204458,,255,255,255 F,1,204458,206533,0.9,0 S,1,204458,206533,0.25,0.5
Sprite,Background,Centre,"sb\ring.png",0,0 M,0,204608,,441,229 C,0,204608,,255,255,255 F,1,204608,206683,0.9,0 S,1,204608,206683,0.25,0.5
Sprite,Background,Centre,"sb\ring.png",0,0 M,0,204758,,297,312 C,0,204758,,255,255,255 F,1,204758,206833,0.9,0 S,1,204758,206833,0.25,0.5
Sprite,Background,Centre,"sb\ring.png",0,0 M,0,204908,,160,341 C,0,204908,,255,255,255 F,1,204908,206983,0.9,0 S,1,204908,206983,0.25,0.5
Sprite,Background,Centre,"sb\ring.png",0,0 M,0,205058,,297,312 C,0,205058,,255,255,255 F,1,205058,207133,0.9,0 S,1,205058,207133,0.25,0.5
Sprite,Background,Centre,"sb\ring.png",0,0 M,0,205208,,318,201 C,0,205208,,255,255,255 F,1,205208,207283,0.9,0 S,1,205208,207283,0.25,0.5
Sprite,Background,Centre,"sb\ring.png",0,0 M,0,205358,,333,393 C,0,205358,,255,255,255 F,1,205358,207433,0.9,0 S,1,205358,207433,0.25,0.5
Sprite,Background,Centre,"sb\ring.png",0,0 M,0,205508,,516,425 C,0,205508,,255,255,255 F,1,205508,207583,0.9,0 S,1,205508,207583,0.25,0.5
Sprite,Background,Centre,"sb\ring.png",0,0 M,0,205658,,507,283 C,0,205658,,255,255,255 F,1,205658,207733,0.9,0 S,1,205658,207733,0.25,0.5
Sprite,Background,Centre,"sb\ring.png",0,0 M,0,205808,,527,172 C,0,205808,,255,255,255 F,1,205808,207883,0.9,0 S,1,205808,207883,0.25,0.5
Sprite,Background,Centre,"sb\ring.png",0,0 M,0,205958,,548,62 C,0,205958,,255,255,255 F,1,205958,207958,0.9,0 S,1,205958,207958,0.25,0.5
Sprite,Background,Centre,"sb\ring.png",0,0 M,0,206108,,452,200 C,0,206108,,255,255,255 F,1,206108,208183,0.9,0 S,1,206108,208183,0.25,0.5
Sprite,Background,Centre,"sb\ring.png",0,0 M,0,206258,,189,154 C,0,206258,,255,255,255 F,1,206258,208408,0.9,0 S,1,206258,208408,0.25,0.5
Sprite,Background,Centre,"sb\ring.png",0,0 M,0,206558,,64,257 C,0,206558,,255,255,255 F,1,206558,208633,0.9,0 S,1,206558,208633,0.25,0.5
Sprite,Background,Centre,"sb\ring.png",0,0 M,0,206708,,175,236 C,0,206708,,255,255,255 F,1,206708,208783,0.9,0 S,1,206708,208783,0.25,0.5
Sprite,Background,Centre,"sb\ring.png",0,0 M,0,206858,,411,80 C,0,206858,,255,255,255 F,1,206858,208933,0.9,0 S,1,206858,208933,0.25,0.5
Sprite,Background,Centre,"sb\ring.png",0,0 M,0,207008,,417,317 C,0,207008,,255,255,255 F,1,207008,209083,0.9,0 S,1,207008,209083,0.25,0.5
Sprite,Background,Centre,"sb\ring.png",0,0 M,0,207158,,198,400 C,0,207158,,255,255,255 F,1,207158,209233,0.9,0 S,1,207158,209233,0.25,0.5
Sprite,Background,Centre,"sb\ring.png",0,0 M,0,207308,,64,257 C,0,207308,,255,255,255 F,1,207308,209383,0.9,0 S,1,207308,209383,0.25,0.5
Sprite,Background,Centre,"sb\ring.png",0,0 M,0,207458,,209,63 C,0,207458,,255,255,255 F,1,207458,209533,0.9,0 S,1,207458,209533,0.25,0.5
Sprite,Background,Centre,"sb\ring.png",0,0 M,0,207608,,281,235 C,0,207608,,255,255,255 F,1,207608,209683,0.9,0 S,1,207608,209683,0.25,0.5
Sprite,Background,Centre,"sb\ring.png",0,0 M,0,207758,,204,56 C,0,207758,,255,255,255 F,1,207758,209833,0.9,0 S,1,207758,209833,0.25,0.5
Sprite,Background,Centre,"sb\ring.png",0,0 M,0,207908,,286,242 C,0,207908,,255,255,255 F,1,207908,209983,0.9,0 S,1,207908,209983,0.25,0.5
Sprite,Background,Centre,"sb\ring.png",0,0 M,0,208058,,407,255 C,0,208058,,255,255,255 F,1,208058,210133,0.9,0 S,1,208058,210133,0.25,0.5
Sprite,Background,Centre,"sb\ring.png",0,0 M,0,208208,,263,440 C,0,208208,,255,255,255 F,1,208208,210358,0.9,0 S,1,208208,210358,0.25,0.5
Sprite,Background,Centre,"sb\ring.png",0,0 M,0,208508,,432,389 C,0,208508,,255,255,255 F,1,208508,210508,0.9,0 S,1,208508,210508,0.25,0.5
Sprite,Background,Centre,"sb\ring.png",0,0 M,0,208658,,391,183 C,0,208658,,255,255,255 F,1,208658,210658,0.9,0 S,1,208658,210658,0.25,0.5
Sprite,Background,Centre,"sb\ring.png",0,0 M,0,208808,,485,281 C,0,208808,,255,255,255 F,1,208808,210808,0.9,0 S,1,208808,210808,0.25,0.5
Sprite,Background,Centre,"sb\ring.png",0,0 M,0,208883,,500,284 C,0,208883,,255,255,255 F,1,208883,210883,0.9,0 S,1,208883,210883,0.25,0.5
Sprite,Background,Centre,"sb\ring.png",0,0 M,0,208958,,515,287 C,0,208958,,255,255,255 F,1,208958,210958,0.9,0 S,1,208958,210958,0.25,0.5
Sprite,Background,Centre,"sb\ring.png",0,0 M,0,209108,,348,414 C,0,209108,,255,255,255 F,1,209108,211108,0.9,0 S,1,209108,211108,0.25,0.5
Sprite,Background,Centre,"sb\ring.png",0,0 M,0,209258,,576,408 C,0,209258,,255,255,255 F,1,209258,211258,0.9,0 S,1,209258,211258,0.25,0.5
Sprite,Background,Centre,"sb\ring.png",0,0 M,0,209408,,334,338 C,0,209408,,255,255,255 F,1,209408,211408,0.9,0 S,1,209408,211408,0.25,0.5
Sprite,Background,Centre,"sb\ring.png",0,0 M,0,209558,,465,197 C,0,209558,,255,255,255 F,1,209558,211558,0.9,0 S,1,209558,211558,0.25,0.5
Sprite,Background,Centre,"sb\ring.png",0,0 M,0,209708,,507,393 C,0,209708,,255,255,255 F,1,209708,211708,0.9,0 S,1,209708,211708,0.25,0.5
Sprite,Background,Centre,"sb\ring.png",0,0 M,0,209858,,354,176 C,0,209858,,255,255,255 F,1,209858,211933,0.9,0 S,1,209858,211933,0.25,0.5
Sprite,Background,Centre,"sb\ring.png",0,0 M,0,210008,,465,197 C,0,210008,,255,255,255 F,1,210008,212083,0.9,0 S,1,210008,212083,0.25,0.5
Sprite,Background,Centre,"sb\ring.png",0,0 M,0,210158,,278,163 C,0,210158,,255,255,255 F,1,210158,212233,0.9,0 S,1,210158,212233,0.25,0.5
Sprite,Background,Centre,"sb\ring.png",0,0 M,0,210308,,92,152 C,0,210308,,255,255,255 F,1,210308,212383,0.9,0 S,1,210308,212383,0.25,0.5
Sprite,Background,Centre,"sb\ring.png",0,0 M,0,210458,,175,293 C,0,210458,,255,255,255 F,1,210458,212533,0.9,0 S,1,210458,212533,0.25,0.5
Sprite,Background,Centre,"sb\ring.png",0,0 M,0,210608,,196,404 C,0,210608,,255,255,255 F,1,210608,212683,0.9,0 S,1,210608,212683,0.25,0.5
Sprite,Background,Centre,"sb\ring.png",0,0 M,0,210758,,122,378 C,0,210758,,255,255,255 F,1,210758,212758,0.9,0 S,1,210758,212758,0.25,0.5
Sprite,Background,Centre,"sb\ring.png",0,0 M,0,210908,,310,327 C,0,210908,,255,255,255 F,1,210908,212983,0.9,0 S,1,210908,212983,0.25,0.5
Sprite,Background,Centre,"sb\ring.png",0,0 M,0,211058,,133,233 C,0,211058,,255,255,255 F,1,211058,213208,0.9,0 S,1,211058,213208,0.25,0.5
Sprite,Background,Centre,"sb\ring.png",0,0 M,0,211358,,393,384 C,0,211358,,255,255,255 F,1,211358,213433,0.9,0 S,1,211358,213433,0.25,0.5
Sprite,Background,Centre,"sb\ring.png",0,0 M,0,211508,,372,273 C,0,211508,,255,255,255 F,1,211508,213583,0.9,0 S,1,211508,213583,0.25,0.5
Sprite,Background,Centre,"sb\ring.png",0,0 M,0,211658,,448,111 C,0,211658,,255,255,255 F,1,211658,213733,0.9,0 S,1,211658,213733,0.25,0.5
Sprite,Background,Centre,"sb\ring.png",0,0 M,0,211808,,252,116 C,0,211808,,255,255,255 F,1,211808,213883,0.9,0 S,1,211808,213883,0.25,0.5
Sprite,Background,Centre,"sb\ring.png",0,0 M,0,211958,,223,316 C,0,211958,,255,255,255 F,1,211958,214033,0.9,0 S,1,211958,214033,0.25,0.5
Sprite,Background,Centre,"sb\ring.png",0,0 M,0,212108,,393,384 C,0,212108,,255,255,255 F,1,212108,214183,0.9,0 S,1,212108,214183,0.25,0.5
Sprite,Background,Centre,"sb\ring.png",0,0 M,0,212258,,571,75 C,0,212258,,255,255,255 F,1,212258,214258,0.9,0 S,1,212258,214258,0.25,0.5
Sprite,Background,Centre,"sb\ring.png",0,0 M,0,212458,,547,183 C,0,212458,,255,255,255 F,1,212458,214458,0.9,0 S,1,212458,214458,0.25,0.5
Sprite,Background,Centre,"sb\ring.png",0,0 M,0,212658,,448,237 C,0,212658,,255,255,255 F,1,212658,214658,0.9,0 S,1,212658,214658,0.25,0.5
Sprite,Background,Centre,"sb\ring.png",0,0 M,0,212858,,307,203 C,0,212858,,255,255,255 F,1,212858,214858,0.9,0 S,1,212858,214858,0.25,0.5
Sprite,Background,Centre,"sb\ring.png",0,0 M,0,213058,,320,132 C,0,213058,,255,255,255 F,1,213058,215258,0.9,0 S,1,213058,215258,0.25,0.5
Sprite,Background,Centre,"sb\ring.png",0,0 M,0,213308,,236,215 C,0,213308,,255,255,255 F,1,213308,215383,0.9,0 S,1,213308,215383,0.25,0.5
Sprite,Background,Centre,"sb\ring.png",0,0 M,0,213458,,64,246 C,0,213458,,255,255,255 F,1,213458,215458,0.9,0 S,1,213458,215458,0.25,0.5
Sprite,Background,Centre,"sb\ring.png",0,0 M,0,213608,,130,281 C,0,213608,,255,255,255 F,1,213608,215608,0.9,0 S,1,213608,215608,0.25,0.5
Sprite,Background,Centre,"sb\ring.png",0,0 M,0,213758,,168,344 C,0,213758,,255,255,255 F,1,213758,215758,0.9,0 S,1,213758,215758,0.25,0.5
Sprite,Background,Centre,"sb\ring.png",0,0 M,0,213908,,201,144 C,0,213908,,255,255,255 F,1,213908,215983,0.9,0 S,1,213908,215983,0.25,0.5
Sprite,Background,Centre,"sb\ring.png",0,0 M,0,214058,,245,332 C,0,214058,,255,255,255 F,1,214058,216058,0.9,0 S,1,214058,216058,0.25,0.5
Sprite,Background,Centre,"sb\ring.png",0,0 M,0,214133,,285,326 C,0,214133,,255,255,255 F,1,214133,216133,0.9,0 S,1,214133,216133,0.25,0.5
Sprite,Background,Centre,"sb\ring.png",0,0 M,0,214208,,325,320 C,0,214208,,255,255,255 F,1,214208,216283,0.9,0 S,1,214208,216283,0.25,0.5
Sprite,Background,Centre,"sb\ring.png",0,0 M,0,214358,,381,178 C,0,214358,,255,255,255 F,1,214358,216358,0.9,0 S,1,214358,216358,0.25,0.5
Sprite,Background,Centre,"sb\ring.png",0,0 M,0,214433,,441,169 C,0,214433,,255,255,255 F,1,214433,216433,0.9,0 S,1,214433,216433,0.25,0.5
Sprite,Background,Centre,"sb\ring.png",0,0 M,0,214508,,501,160 C,0,214508,,255,255,255 F,1,214508,216583,0.9,0 S,1,214508,216583,0.25,0.5
Sprite,Background,Centre,"sb\ring.png",0,0 M,0,214658,,514,382 C,0,214658,,255,255,255 F,1,214658,216658,0.9,0 S,1,214658,216658,0.25,0.5
Sprite,Background,Centre,"sb\ring.png",0,0 M,0,214808,,252,423 C,0,214808,,255,255,255 F,1,214808,216808,0.9,0 S,1,214808,216808,0.25,0.5
Sprite,Background,Centre,"sb\ring.png",0,0 M,0,214958,,293,161 C,0,214958,,255,255,255 F,1,214958,216958,0.9,0 S,1,214958,216958,0.25,0.5
Sprite,Background,Centre,"sb\ring.png",0,0 M,0,215108,,514,382 C,0,215108,,255,255,255 F,1,215108,217108,0.9,0 S,1,215108,217108,0.25,0.5
Sprite,Background,Centre,"sb\ring.png",0,0 M,0,215258,,252,423 C,0,215258,,255,255,255 F,1,215258,217258,0.9,0 S,1,215258,217258,0.25,0.5
Sprite,Background,Centre,"sb\ring.png",0,0 M,0,215408,,293,161 C,0,215408,,255,255,255 F,1,215408,217408,0.9,0 S,1,215408,217408,0.25,0.5
Sprite,Background,Centre,"sb\ring.png",0,0 M,0,215558,,514,382 C,0,215558,,255,255,255 F,1,215558,217558,0.9,0 S,1,215558,217558,0.25,0.5
Sprite,Background,Centre,"sb\ring.png",0,0 M,0,215708,,252,423 C,0,215708,,255,255,255 F,1,215708,217708,0.9,0 S,1,215708,217708,0.25,0.5
Sprite,Background,Centre,"sb\ring.png",0,0 M,0,215858,,293,161 C,0,215858,,255,255,255 F,1,215858,217858,0.9,0 S,1,215858,217858,0.25,0.5
Sprite,Background,Centre,"sb\ring.png",0,0 M,0,216008,,514,382 C,0,216008,,255,255,255 F,1,216008,218008,0.9,0 S,1,216008,218008,0.25,0.5
Sprite,Background,Centre,"sb\ring.png",0,0 M,0,216158,,252,423 C,0,216158,,255,255,255 F,1,216158,218158,0.9,0 S,1,216158,218158,0.25,0.5
Sprite,Background,Centre,"sb\ring.png",0,0 M,0,216308,,293,161 C,0,216308,,255,255,255 F,1,216308,218308,0.9,0 S,1,216308,218308,0.25,0.5
Sprite,Background,Centre,"sb\ring.png",0,0 M,0,216458,,544,305 C,0,216458,,255,255,255 F,1,216458,218458,0.9,0 S,1,216458,218458,0.25,0.5
Sprite,Background,Centre,"sb\ring.png",0,0 M,0,216608,,347,335 C,0,216608,,255,255,255 F,1,216608,218608,0.9,0 S,1,216608,218608,0.25,0.5
Sprite,Background,Centre,"sb\ring.png",0,0 M,0,216758,,423,240 C,0,216758,,255,255,255 F,1,216758,218758,0.9,0 S,1,216758,218758,0.25,0.5
Sprite,Background,Centre,"sb\ring.png",0,0 M,0,216908,,400,387 C,0,216908,,255,255,255 F,1,216908,218908,0.9,0 S,1,216908,218908,0.25,0.5
Sprite,Background,Centre,"sb\ring.png",0,0 M,0,217058,,149,137 C,0,217058,,255,255,255 F,1,217058,219058,0.9,0 S,1,217058,219058,0.25,0.5
Sprite,Background,Centre,"sb\ring.png",0,0 M,0,217208,,384,100 C,0,217208,,255,255,255 F,1,217208,219208,0.9,0 S,1,217208,219208,0.25,0.5
Sprite,Background,Centre,"sb\ring.png",0,0 M,0,217358,,347,335 C,0,217358,,255,255,255 F,1,217358,219358,0.9,0 S,1,217358,219358,0.25,0.5
Sprite,Background,Centre,"sb\ring.png",0,0 M,0,217508,,149,137 C,0,217508,,255,255,255 F,1,217508,219508,0.9,0 S,1,217508,219508,0.25,0.5
Sprite,Background,Centre,"sb\ring.png",0,0 M,0,217658,,384,100 C,0,217658,,255,255,255 F,1,217658,219658,0.9,0 S,1,217658,219658,0.25,0.5
Sprite,Background,Centre,"sb\ring.png",0,0 M,0,217808,,347,335 C,0,217808,,255,255,255 F,1,217808,219808,0.9,0 S,1,217808,219808,0.25,0.5
Sprite,Background,Centre,"sb\ring.png",0,0 M,0,217958,,149,137 C,0,217958,,255,255,255 F,1,217958,219958,0.9,0 S,1,217958,219958,0.25,0.5
Sprite,Background,Centre,"sb\ring.png",0,0 M,0,218108,,384,100 C,0,218108,,255,255,255 F,1,218108,220108,0.9,0 S,1,218108,220108,0.25,0.5
Sprite,Background,Centre,"sb\ring.png",0,0 M,0,218258,,347,335 C,0,218258,,255,255,255 F,1,218258,220258,0.9,0 S,1,218258,220258,0.25,0.5
Sprite,Background,Centre,"sb\ring.png",0,0 M,0,218408,,149,137 C,0,218408,,255,255,255 F,1,218408,220408,0.9,0 S,1,218408,220408,0.25,0.5
Sprite,Background,Centre,"sb\ring.png",0,0 M,0,218558,,384,100 C,0,218558,,255,255,255 F,1,218558,220558,0.9,0 S,1,218558,220558,0.25,0.5
Sprite,Background,Centre,"sb\ring.png",0,0 M,0,218708,,347,335 C,0,218708,,255,255,255 F,1,218708,220708,0.9,0 S,1,218708,220708,0.25,0.5
Sprite,Background,Centre,"sb\ring.png",0,0 M,0,218858,,71,219 C,0,218858,,255,255,255 F,1,218858,220858,0.9,0 S,1,218858,220858,0.25,0.5
Sprite,Background,Centre,"sb\ring.png",0,0 M,0,219008,,366,174 C,0,219008,,255,255,255 F,1,219008,221008,0.9,0 S,1,219008,221008,0.25,0.5
Sprite,Background,Centre,"sb\ring.png",0,0 M,0,219158,,190,380 C,0,219158,,255,255,255 F,1,219158,221158,0.9,0 S,1,219158,221158,0.25,0.5
Sprite,Background,Centre,"sb\ring.png",0,0 M,0,219308,,218,196 C,0,219308,,255,255,255 F,1,219308,221308,0.9,0 S,1,219308,221308,0.25,0.5
Sprite,Background,Centre,"sb\ring.png",0,0 M,0,219458,,416,394 C,0,219458,,255,255,255 F,1,219458,221458,0.9,0 S,1,219458,221458,0.25,0.5
Sprite,Background,Centre,"sb\ring.png",0,0 M,0,219608,,453,159 C,0,219608,,255,255,255 F,1,219608,221608,0.9,0 S,1,219608,221608,0.25,0.5
Sprite,Background,Centre,"sb\ring.png",0,0 M,0,219758,,218,196 C,0,219758,,255,255,255 F,1,219758,221758,0.9,0 S,1,219758,221758,0.25,0.5
Sprite,Background,Centre,"sb\ring.png",0,0 M,0,219908,,416,394 C,0,219908,,255,255,255 F,1,219908,221908,0.9,0 S,1,219908,221908,0.25,0.5
Sprite,Background,Centre,"sb\ring.png",0,0 M,0,220058,,453,159 C,0,220058,,255,255,255 F,1,220058,222058,0.9,0 S,1,220058,222058,0.25,0.5
Sprite,Background,Centre,"sb\ring.png",0,0 M,0,220208,,218,196 C,0,220208,,255,255,255 F,1,220208,222208,0.9,0 S,1,220208,222208,0.25,0.5
Sprite,Background,Centre,"sb\ring.png",0,0 M,0,220358,,416,394 C,0,220358,,255,255,255 F,1,220358,222358,0.9,0 S,1,220358,222358,0.25,0.5
Sprite,Background,Centre,"sb\ring.png",0,0 M,0,220508,,453,159 C,0,220508,,255,255,255 F,1,220508,222508,0.9,0 S,1,220508,222508,0.25,0.5
Sprite,Background,Centre,"sb\ring.png",0,0 M,0,220658,,218,196 C,0,220658,,255,255,255 F,1,220658,222658,0.9,0 S,1,220658,222658,0.25,0.5
Sprite,Background,Centre,"sb\ring.png",0,0 M,0,220808,,416,394 C,0,220808,,255,255,255 F,1,220808,222808,0.9,0 S,1,220808,222808,0.25,0.5
Sprite,Background,Centre,"sb\ring.png",0,0 M,0,220958,,453,159 C,0,220958,,255,255,255 F,1,220958,222958,0.9,0 S,1,220958,222958,0.25,0.5
Sprite,Background,Centre,"sb\ring.png",0,0 M,0,221108,,218,196 C,0,221108,,255,255,255 F,1,221108,223108,0.9,0 S,1,221108,223108,0.25,0.5
Sprite,Background,Centre,"sb\ring.png",0,0 M,0,221258,,340,382 C,0,221258,,255,255,255 F,1,221258,223258,0.9,0 S,1,221258,223258,0.25,0.5
Sprite,Background,Centre,"sb\ring.png",0,0 M,0,221408,,314,204 C,0,221408,,255,255,255 F,1,221408,223408,0.9,0 S,1,221408,223408,0.25,0.5
Sprite,Background,Centre,"sb\ring.png",0,0 M,0,221558,,238,304 C,0,221558,,255,255,255 F,1,221558,223558,0.9,0 S,1,221558,223558,0.25,0.5
Sprite,Background,Centre,"sb\ring.png",0,0 M,0,221708,,370,283 C,0,221708,,255,255,255 F,1,221708,223708,0.9,0 S,1,221708,223708,0.25,0.5
Sprite,Background,Centre,"sb\ring.png",0,0 M,0,221858,,172,85 C,0,221858,,255,255,255 F,1,221858,223858,0.9,0 S,1,221858,223858,0.25,0.5
Sprite,Background,Centre,"sb\ring.png",0,0 M,0,222008,,135,320 C,0,222008,,255,255,255 F,1,222008,224008,0.9,0 S,1,222008,224008,0.25,0.5
Sprite,Background,Centre,"sb\ring.png",0,0 M,0,222158,,370,283 C,0,222158,,255,255,255 F,1,222158,224158,0.9,0 S,1,222158,224158,0.25,0.5
Sprite,Background,Centre,"sb\ring.png",0,0 M,0,222308,,172,85 C,0,222308,,255,255,255 F,1,222308,224308,0.9,0 S,1,222308,224308,0.25,0.5
Sprite,Background,Centre,"sb\ring.png",0,0 M,0,222458,,135,320 C,0,222458,,255,255,255 F,1,222458,224458,0.9,0 S,1,222458,224458,0.25,0.5
Sprite,Background,Centre,"sb\ring.png",0,0 M,0,222608,,370,283 C,0,222608,,255,255,255 F,1,222608,224608,0.9,0 S,1,222608,224608,0.25,0.5
Sprite,Background,Centre,"sb\ring.png",0,0 M,0,222758,,172,85 C,0,222758,,255,255,255 F,1,222758,224758,0.9,0 S,1,222758,224758,0.25,0.5
Sprite,Background,Centre,"sb\ring.png",0,0 M,0,222908,,135,320 C,0,222908,,255,255,255 F,1,222908,224908,0.9,0 S,1,222908,224908,0.25,0.5
Sprite,Background,Centre,"sb\ring.png",0,0 M,0,223058,,370,283 C,0,223058,,255,255,255 F,1,223058,225058,0.9,0 S,1,223058,225058,0.25,0.5
Sprite,Background,Centre,"sb\ring.png",0,0 M,0,223208,,172,85 C,0,223208,,255,255,255 F,1,223208,225208,0.9,0 S,1,223208,225208,0.25,0.5
Sprite,Background,Centre,"sb\ring.png",0,0 M,0,223358,,135,320 C,0,223358,,255,255,255 F,1,223358,225358,0.9,0 S,1,223358,225358,0.25,0.5
Sprite,Background,Centre,"sb\ring.png",0,0 M,0,223508,,370,283 C,0,223508,,255,255,255 F,1,223508,225508,0.9,0 S,1,223508,225508,0.25,0.5
Sprite,Background,Centre,"sb\ring.png",0,0 M,0,223658,,332,85 C,0,223658,,255,255,255 F,1,223658,225658,0.9,0 S,1,223658,225658,0.25,0.5
Sprite,Background,Centre,"sb\ring.png",0,0 M,0,223808,,287,380 C,0,223808,,255,255,255 F,1,223808,225808,0.9,0 S,1,223808,225808,0.25,0.5
Sprite,Background,Centre,"sb\ring.png",0,0 M,0,223958,,101,210 C,0,223958,,255,255,255 F,1,223958,226033,0.9,0 S,1,223958,226033,0.25,0.5
Sprite,Background,Centre,"sb\ring.png",0,0 M,0,224108,,248,229 C,0,224108,,255,255,255 F,1,224108,226183,0.9,0 S,1,224108,226183,0.25,0.5
Sprite,Background,Centre,"sb\ring.png",0,0 M,0,224258,,523,267 C,0,224258,,255,255,255 F,1,224258,226258,0.9,0 S,1,224258,226258,0.25,0.5
Sprite,Background,Centre,"sb\ring.png",0,0 M,0,224408,,365,206 C,0,224408,,255,255,255 F,1,224408,226408,0.9,0 S,1,224408,226408,0.25,0.5
Sprite,Background,Centre,"sb\ring.png",0,0 M,0,224558,,209,333 C,0,224558,,255,255,255 F,1,224558,226633,0.9,0 S,1,224558,226633,0.25,0.5
Sprite,Background,Centre,"sb\ring.png",0,0 M,0,224708,,523,267 C,0,224708,,255,255,255 F,1,224708,226708,0.9,0 S,1,224708,226708,0.25,0.5
Sprite,Background,Centre,"sb\ring.png",0,0 M,0,224858,,365,206 C,0,224858,,255,255,255 F,1,224858,226858,0.9,0 S,1,224858,226858,0.25,0.5
Sprite,Background,Centre,"sb\ring.png",0,0 M,0,225008,,209,333 C,0,225008,,255,255,255 F,1,225008,227083,0.9,0 S,1,225008,227083,0.25,0.5
Sprite,Background,Centre,"sb\ring.png",0,0 M,0,225158,,223,430 C,0,225158,,255,255,255 F,1,225158,227158,0.9,0 S,1,225158,227158,0.25,0.5
Sprite,Background,Centre,"sb\ring.png",0,0 M,0,225308,,365,206 C,0,225308,,255,255,255 F,1,225308,227308,0.9,0 S,1,225308,227308,0.25,0.5
Sprite,Background,Centre,"sb\ring.png",0,0 M,0,225458,,209,333 C,0,225458,,255,255,255 F,1,225458,227533,0.9,0 S,1,225458,227533,0.25,0.5
Sprite,Background,Centre,"sb\ring.png",0,0 M,0,225608,,223,430 C,0,225608,,255,255,255 F,1,225608,227608,0.9,0 S,1,225608,227608,0.25,0.5
Sprite,Background,Centre,"sb\ring.png",0,0 M,0,225758,,365,206 C,0,225758,,255,255,255 F,1,225758,227758,0.9,0 S,1,225758,227758,0.25,0.5
Sprite,Background,Centre,"sb\ring.png",0,0 M,0,225908,,209,333 C,0,225908,,255,255,255 F,1,225908,227983,0.9,0 S,1,225908,227983,0.25,0.5
Sprite,Background,Centre,"sb\ring.png",0,0 M,0,226058,,64,276 C,0,226058,,255,255,255 F,1,226058,228133,0.9,0 S,1,226058,228133,0.25,0.5
Sprite,Background,Centre,"sb\ring.png",0,0 M,0,226208,,209,219 C,0,226208,,255,255,255 F,1,226208,228283,0.9,0 S,1,226208,228283,0.25,0.5
Sprite,Background,Centre,"sb\ring.png",0,0 M,0,226358,,332,292 C,0,226358,,255,255,255 F,1,226358,228433,0.9,0 S,1,226358,228433,0.25,0.5
Sprite,Background,Centre,"sb\ring.png",0,0 M,0,226508,,341,416 C,0,226508,,255,255,255 F,1,226508,228583,0.9,0 S,1,226508,228583,0.25,0.5
Sprite,Background,Centre,"sb\ring.png",0,0 M,0,226658,,81,190 C,0,226658,,255,255,255 F,1,226658,228658,0.9,0 S,1,226658,228658,0.25,0.5
Sprite,Background,Centre,"sb\ring.png",0,0 M,0,226808,,192,139 C,0,226808,,255,255,255 F,1,226808,228808,0.9,0 S,1,226808,228808,0.25,0.5
Sprite,Background,Centre,"sb\ring.png",0,0 M,0,226958,,348,193 C,0,226958,,255,255,255 F,1,226958,229033,0.9,0 S,1,226958,229033,0.25,0.5
Sprite,Background,Centre,"sb\ring.png",0,0 M,0,227108,,81,190 C,0,227108,,255,255,255 F,1,227108,229108,0.9,0 S,1,227108,229108,0.25,0.5
Sprite,Background,Centre,"sb\ring.png",0,0 M,0,227258,,192,139 C,0,227258,,255,255,255 F,1,227258,229258,0.9,0 S,1,227258,229258,0.25,0.5
Sprite,Background,Centre,"sb\ring.png",0,0 M,0,227408,,348,193 C,0,227408,,255,255,255 F,1,227408,229483,0.9,0 S,1,227408,229483,0.25,0.5
Sprite,Background,Centre,"sb\ring.png",0,0 M,0,227558,,332,292 C,0,227558,,255,255,255 F,1,227558,229558,0.9,0 S,1,227558,229558,0.25,0.5
Sprite,Background,Centre,"sb\ring.png",0,0 M,0,227708,,192,139 C,0,227708,,255,255,255 F,1,227708,229708,0.9,0 S,1,227708,229708,0.25,0.5
Sprite,Background,Centre,"sb\ring.png",0,0 M,0,227858,,348,193 C,0,227858,,255,255,255 F,1,227858,229933,0.9,0 S,1,227858,229933,0.25,0.5
Sprite,Background,Centre,"sb\ring.png",0,0 M,0,228008,,332,292 C,0,228008,,255,255,255 F,1,228008,230008,0.9,0 S,1,228008,230008,0.25,0.5
Sprite,Background,Centre,"sb\ring.png",0,0 M,0,228158,,192,139 C,0,228158,,255,255,255 F,1,228158,230158,0.9,0 S,1,228158,230158,0.25,0.5
Sprite,Background,Centre,"sb\ring.png",0,0 M,0,228308,,348,193 C,0,228308,,255,255,255 F,1,228308,230383,0.9,0 S,1,228308,230383,0.25,0.5
Sprite,Background,Centre,"sb\ring.png",0,0 M,0,228458,,532,118 C,0,228458,,255,255,255 F,1,228458,230533,0.9,0 S,1,228458,230533,0.25,0.5
Sprite,Background,Centre,"sb\ring.png",0,0 M,0,228608,,324,100 C,0,228608,,255,255,255 F,1,228608,230683,0.9,0 S,1,228608,230683,0.25,0.5
Sprite,Background,Centre,"sb\ring.png",0,0 M,0,228758,,217,256 C,0,228758,,255,255,255 F,1,228758,230833,0.9,0 S,1,228758,230833,0.25,0.5
Sprite,Background,Centre,"sb\ring.png",0,0 M,0,228908,,269,416 C,0,228908,,255,255,255 F,1,228908,230983,0.9,0 S,1,228908,230983,0.25,0.5
Sprite,Background,Centre,"sb\ring.png",0,0 M,0,229058,,546,410 C,0,229058,,255,255,255 F,1,229058,231058,0.9,0 S,1,229058,231058,0.25,0.5
Sprite,Background,Centre,"sb\ring.png",0,0 M,0,229208,,483,382 C,0,229208,,255,255,255 F,1,229208,231208,0.9,0 S,1,229208,231208,0.25,0.5
Sprite,Background,Centre,"sb\ring.png",0,0 M,0,229358,,399,411 C,0,229358,,255,255,255 F,1,229358,231433,0.9,0 S,1,229358,231433,0.25,0.5
Sprite,Background,Centre,"sb\ring.png",0,0 M,0,229508,,546,410 C,0,229508,,255,255,255 F,1,229508,231508,0.9,0 S,1,229508,231508,0.25,0.5
Sprite,Background,Centre,"sb\ring.png",0,0 M,0,229658,,483,382 C,0,229658,,255,255,255 F,1,229658,231658,0.9,0 S,1,229658,231658,0.25,0.5
Sprite,Background,Centre,"sb\ring.png",0,0 M,0,229808,,399,411 C,0,229808,,255,255,255 F,1,229808,231883,0.9,0 S,1,229808,231883,0.25,0.5
Sprite,Background,Centre,"sb\ring.png",0,0 M,0,229958,,546,410 C,0,229958,,255,255,255 F,1,229958,231958,0.9,0 S,1,229958,231958,0.25,0.5
Sprite,Background,Centre,"sb\ring.png",0,0 M,0,230108,,478,161 C,0,230108,,255,255,255 F,1,230108,232108,0.9,0 S,1,230108,232108,0.25,0.5
Sprite,Background,Centre,"sb\ring.png",0,0 M,0,230258,,405,248 C,0,230258,,255,255,255 F,1,230258,232333,0.9,0 S,1,230258,232333,0.25,0.5
Sprite,Background,Centre,"sb\ring.png",0,0 M,0,230408,,420,338 C,0,230408,,255,255,255 F,1,230408,232408,0.9,0 S,1,230408,232408,0.25,0.5
Sprite,Background,Centre,"sb\ring.png",0,0 M,0,230558,,478,161 C,0,230558,,255,255,255 F,1,230558,232558,0.9,0 S,1,230558,232558,0.25,0.5
Sprite,Background,Centre,"sb\ring.png",0,0 M,0,230708,,328,232 C,0,230708,,255,255,255 F,1,230708,232783,0.9,0 S,1,230708,232783,0.25,0.5
Sprite,Background,Centre,"sb\ring.png",0,0 M,0,230858,,196,186 C,0,230858,,255,255,255 F,1,230858,232858,0.9,0 S,1,230858,232858,0.25,0.5
Sprite,Background,Centre,"sb\ring.png",0,0 M,0,230933,,192,161 C,0,230933,,255,255,255 F,1,230933,232933,0.9,0 S,1,230933,232933,0.25,0.5
Sprite,Background,Centre,"sb\ring.png",0,0 M,0,231008,,188,136 C,0,231008,,255,255,255 F,1,231008,233083,0.9,0 S,1,231008,233083,0.25,0.5
Sprite,Background,Centre,"sb\ring.png",0,0 M,0,231158,,268,298 C,0,231158,,255,255,255 F,1,231158,233158,0.9,0 S,1,231158,233158,0.25,0.5
Sprite,Background,Centre,"sb\ring.png",0,0 M,0,231233,,243,302 C,0,231233,,255,255,255 F,1,231233,233233,0.9,0 S,1,231233,233233,0.25,0.5
Sprite,Background,Centre,"sb\ring.png",0,0 M,0,231308,,218,306 C,0,231308,,255,255,255 F,1,231308,233383,0.9,0 S,1,231308,233383,0.25,0.5
//Storyboard Layer 1 (Fail)
//Storyboard Layer 2 (Pass)
//Storyboard Layer 3 (Foreground)
//Storyboard Layer 4 (Overlay)
//Storyboard Sound Samples

[TimingPoints]
1058,300,4,2,51,10,1,0
1233,-66.6666666666667,4,2,51,10,0,0
1308,-66.6666666666667,4,2,51,5,0,0
2283,-100,4,2,51,10,0,0
2383,-100,4,2,51,5,0,0
3308,-133.333333333333,4,2,51,10,0,0
3408,-133.333333333333,4,2,51,5,0,0
3458,-133.333333333333,4,2,51,10,0,0
4358,-50,4,2,51,10,0,0
4433,-50,4,2,51,5,0,0
4658,-50,4,2,51,10,0,0
5383,-66.6666666666667,4,2,51,10,0,0
5458,-66.6666666666667,4,2,51,5,0,0
5858,-40,4,2,51,15,0,0
5933,-40,4,2,51,5,0,0
6420,-66.6666666666667,4,2,51,15,0,0
6533,-66.6666666666667,4,2,51,5,0,0
6645,-40,4,2,51,15,0,0
6720,-40,4,2,51,5,0,0
7433,-66.6666666666667,4,2,51,15,0,0
7533,-100,4,2,51,5,0,0
8258,-100,4,2,51,20,0,0
8483,-66.6666666666667,4,2,51,20,0,0
8633,-66.6666666666667,4,2,51,5,0,0
8708,-66.6666666666667,4,2,51,20,0,0
9508,-266.666666666667,4,2,51,20,0,0
9983,-266.666666666667,4,2,51,5,0,0
10533,-100,4,2,51,20,0,0
10583,-100,4,2,51,5,0,0
10608,-33.3333333333333,4,2,51,20,0,0
10633,-33.3333333333333,4,2,51,5,0,0
10658,-33.3333333333333,4,2,51,20,0,0
10958,-100,4,2,51,40,0,0
11258,-100,4,2,51,5,0,0
11558,-400,4,2,51,30,0,0
11783,-400,4,2,51,5,0,0
11858,-400,4,2,51,30,0,0
12083,-400,4,2,51,5,0,0
12158,-800,4,2,51,30,0,0
12383,-800,4,2,51,5,0,0
12458,-400,4,2,51,30,0,0
12683,-400,4,2,51,5,0,0
12758,-266.666666666667,4,2,51,30,0,0
12983,-266.666666666667,4,2,51,5,0,0
13058,-200,4,2,51,30,0,0
13283,-200,4,2,51,5,0,0
13358,-400,4,2,51,30,0,0
13583,-400,4,2,51,5,0,0
13658,-133.333333333333,4,2,51,45,0,0
13883,-133.333333333333,4,2,51,5,0,0
13958,-800,4,2,51,30,0,0
14183,-800,4,2,51,5,0,0
14258,-266.666666666667,4,2,51,30,0,0
14633,-266.666666666667,4,2,51,5,0,0
14708,-400,4,2,51,30,0,0
15083,-400,4,2,51,5,0,0
15158,-400,4,2,51,30,0,0
15383,-400,4,2,51,5,0,0
15458,-160,4,2,51,30,0,0
17108,-160,4,2,51,5,0,0
17208,-266.666666666667,4,2,51,20,0,0
17708,-400,4,2,51,15,0,0
17858,-200,4,2,51,20,0,0
17933,-200,4,2,51,5,0,0
18158,-266.666666666667,4,2,51,25,0,0
18233,-266.666666666667,4,2,51,24,0,0
18308,-307.692307692308,4,2,51,23,0,0
18383,-307.692307692308,4,2,51,22,0,0
18458,-400,4,2,51,20,0,0
18533,-400,4,2,51,5,0,0
18758,-266.666666666667,4,2,51,35,0,0
18983,-266.666666666667,4,2,51,5,0,0
19058,-133.333333333333,4,2,51,50,0,0
19283,-133.333333333333,4,2,51,5,0,0
19358,-266.666666666667,4,2,51,35,0,0
19583,-266.666666666667,4,2,51,5,0,0
19658,-200,4,2,51,35,0,0
19883,-200,4,2,51,5,0,0
19958,-160,4,2,51,35,0,0
20183,-160,4,2,51,5,0,0
20258,-200,4,2,51,35,0,0
20858,-1000,4,2,51,35,0,0
21083,-1000,4,2,51,5,0,0
21158,-266.666666666667,4,2,51,35,0,0
21383,-266.666666666667,4,2,51,5,0,0
21458,-200,4,2,51,35,0,0
21683,-200,4,2,51,5,0,0
21758,-100,4,2,51,60,0,0
21833,-100,4,2,51,5,0,0
21908,-133.333333333333,4,2,51,35,0,0
22058,-200,4,2,51,35,0,0
22283,-200,4,2,51,5,0,0
22358,-160,4,2,51,35,0,0
22658,-200,4,2,51,35,0,0
22883,-200,4,2,51,5,0,0
22958,-266.666666666667,4,2,51,35,0,0
23558,-160,4,2,51,40,0,0
23783,-160,4,2,51,5,0,0
23858,-133.333333333333,4,2,51,40,0,0
24083,-133.333333333333,4,2,51,5,0,0
24158,-100,4,2,51,80,0,0
24233,-100,4,2,51,5,0,0
24308,-114.285714285714,4,2,51,40,0,0
24683,-114.285714285714,4,2,51,5,0,0
24758,-114.285714285714,4,2,51,40,0,0
24983,-114.285714285714,4,2,51,5,0,0
25058,-200,4,2,51,40,0,0
25283,-200,4,2,51,5,0,0
25358,-100,4,2,51,60,0,0
25583,-100,4,2,51,5,0,0
25658,-400,4,2,51,35,0,0
25883,-400,4,2,51,5,0,0
25958,-100,4,2,51,60,0,0
26258,-100,4,2,51,5,0,0
26483,-66.6666666666667,4,2,51,35,0,0
26533,-66.6666666666667,4,2,51,5,0,0
26558,-100,4,2,51,60,0,0
26633,-100,4,2,51,5,0,0
26858,-100,4,2,51,35,0,0
27383,-100,4,2,51,5,0,0
27458,-80,4,2,51,40,0,0
27683,-80,4,2,51,5,0,0
27758,-160,4,2,51,40,0,0
27983,-160,4,2,51,5,0,0
28058,-80,4,2,51,55,0,0
28283,-80,4,2,51,5,0,0
28358,-400,4,2,51,25,0,0
28433,-400,4,2,51,5,0,0
28958,-100,4,2,51,50,0,0
29033,-100,4,2,51,5,0,0
29258,-200,4,2,51,30,0,0
29333,-200,4,2,51,5,0,0
29558,-133.333333333333,4,2,51,35,0,0
29633,-133.333333333333,4,2,51,5,0,0
29858,-100,4,2,51,40,0,0
30158,-200,4,2,51,60,0,0
30308,-200,4,2,51,40,0,0
31358,-100,4,2,51,60,0,0
31583,-100,4,2,51,5,0,0
31658,-100,4,2,51,40,0,0
31958,-400,4,2,51,40,0,0
32108,-400,4,2,51,45,0,0
32258,-100,4,2,51,40,0,0
32558,-66.6666666666667,4,2,51,60,0,0
32633,-66.6666666666667,4,2,51,5,0,0
32708,-100,4,2,51,30,0,0
32783,-100,4,2,51,5,0,0
32858,-266.666666666667,4,2,51,25,0,0
33008,-266.666666666667,4,2,51,5,0,0
33158,-266.666666666667,4,2,51,30,0,0
33308,-200,4,2,51,35,0,0
33458,-200,4,2,51,5,0,0
33608,-200,4,2,51,30,0,0
33758,-100,4,2,51,60,0,0
33908,-100,4,2,51,5,0,0
34058,-100,4,2,51,35,0,0
34508,-400,4,2,51,40,0,0
34583,-400,4,2,51,30,0,0
34658,-100,4,2,51,40,0,0
34958,-100,4,2,51,60,0,0
35033,-100,4,2,51,5,0,0
35108,-80,4,2,51,40,0,0
35333,-80,4,2,51,5,0,0
35408,-80,4,2,51,40,0,0
35558,-133.333333333333,4,2,51,40,0,0
35708,-133.333333333333,4,2,51,5,0,0
35858,-133.333333333333,4,2,51,60,0,0
36158,-66.6666666666667,4,2,51,40,0,0
36383,-66.6666666666667,4,2,51,5,0,0
36458,-100,4,2,51,40,0,0
36758,-133.333333333333,4,2,51,45,0,0
36908,-133.333333333333,4,2,51,50,0,0
37058,-200,4,2,51,35,0,0
37133,-200,4,2,51,5,0,0
37208,-100,4,2,51,40,0,0
37283,-100,4,2,51,5,0,0
37358,-133.333333333333,4,2,51,45,0,0
37508,-133.333333333333,4,2,51,5,0,0
37658,-400,4,2,51,30,0,0
37808,-400,4,2,51,40,0,0
37883,-400,4,2,51,5,0,0
37958,-200,4,2,51,30,0,0
38108,-200,4,2,51,45,0,0
38183,-200,4,2,51,5,0,0
38258,-133.333333333333,4,2,51,40,0,0
38408,-133.333333333333,4,2,51,40,0,0
38483,-133.333333333333,4,2,51,5,0,0
38558,-66.6666666666667,4,2,51,60,0,0
38670,-66.6666666666667,4,2,51,5,0,0
38708,-133.333333333333,4,2,51,35,0,0
38783,-133.333333333333,4,2,51,5,0,0
38858,-133.333333333333,4,2,51,30,0,0
39083,-133.333333333333,4,2,51,5,0,0
39158,-100,4,2,51,30,0,0
39383,-200,4,2,51,5,0,0
39458,-100,4,2,51,30,0,0
39558,-160,4,2,51,50,0,0
39683,-160,4,2,51,5,0,0
39758,-266.666666666667,4,2,51,60,0,0
39833,-266.666666666667,4,2,51,30,0,0
39908,-100,4,2,51,35,0,0
40208,-100,4,2,51,5,0,0
40358,-200,4,2,51,30,0,0
40508,-200,4,2,51,40,0,0
40658,-200,4,2,51,5,0,0
40808,-100,4,2,51,30,0,0
40958,-100,4,2,51,50,0,0
41183,-100,4,2,51,5,0,0
41258,-200,4,2,51,30,0,0
41408,-200,4,2,51,35,0,0
41558,-200,4,2,51,5,0,0
41708,-200,4,2,51,35,0,0
41858,-200,4,2,51,40,0,0
42758,-200,4,2,51,40,0,0
42908,-200,4,2,51,45,0,0
43058,-200,4,2,51,5,0,0
43208,-100,4,2,51,40,0,0
43358,-100,4,2,51,50,0,0
43508,-100,4,2,51,5,0,0
43658,-100,4,2,51,35,0,0
43808,-100,4,2,51,40,0,0
43958,-100,4,2,51,45,0,0
44108,-100,4,2,51,5,0,0
44183,-100,4,2,51,35,0,0
44258,-200,4,2,51,45,0,0
45608,-133.333333333333,4,2,51,35,0,0
45683,-133.333333333333,4,2,51,5,0,0
45758,-66.6666666666667,4,2,51,50,0,0
46058,-200,4,2,51,30,0,0
46283,-200,4,2,51,5,0,0
46358,-100,4,2,51,60,0,0
46508,-100,4,2,51,35,0,0
46658,-200,4,2,51,50,0,0
48983,-200,4,2,51,5,0,0
49058,-666.666666666667,4,2,59,50,0,0
49076,-666.666666666667,4,2,59,10,0,0
50558,-666.666666666667,4,2,50,5,0,0
50858,-200,4,2,50,10,0,0
50933,-200,4,2,50,5,0,0
51008,-200,4,2,50,10,0,0
51158,-200,4,2,50,5,0,0
51308,-200,4,2,50,20,0,0
51383,-200,4,2,50,5,0,0
51458,-100,4,2,50,65,0,1
51533,-100,4,2,50,5,0,1
51608,-100,4,2,50,65,0,1
51908,-100,4,2,51,75,0,1
52058,-100,4,2,50,65,0,1
52133,-100,4,2,50,5,0,1
52208,-100,4,2,50,65,0,1
53108,-100,4,2,51,75,0,1
53258,-100,4,2,50,65,0,1
53858,-160,4,2,50,65,0,1
53933,-160,4,2,50,5,0,1
54008,-160,4,2,50,65,0,1
54083,-160,4,2,50,5,0,1
54158,-114.285714285714,4,2,50,65,0,1
54233,-114.285714285714,4,2,50,5,0,1
54308,-114.285714285714,4,2,51,75,0,1
54383,-114.285714285714,4,2,50,5,0,1
54458,-160,4,2,50,65,0,1
54533,-160,4,2,50,5,0,1
54608,-160,4,2,50,65,0,1
54683,-160,4,2,50,5,0,1
54758,-100,4,2,50,65,0,1
55358,-160,4,2,50,65,0,1
55433,-160,4,2,50,5,0,1
55508,-160,4,2,51,75,0,1
55583,-160,4,2,50,5,0,1
55658,-88.8888888888889,4,2,50,65,0,1
55733,-88.8888888888889,4,2,50,5,0,1
55808,-88.8888888888889,4,2,50,65,0,1
55883,-88.8888888888889,4,2,50,5,0,1
55958,-114.285714285714,4,2,50,65,0,1
56033,-114.285714285714,4,2,50,5,0,1
56108,-114.285714285714,4,2,50,65,0,1
56183,-114.285714285714,4,2,50,5,0,1
56258,-100,4,2,50,65,0,1
56333,-100,4,2,50,5,0,1
56408,-100,4,2,50,65,0,1
56708,-100,4,2,51,75,0,1
56858,-100,4,2,50,65,0,1
56933,-100,4,2,50,5,0,1
57008,-100,4,2,50,65,0,1
57908,-100,4,2,51,75,0,1
58058,-114.285714285714,4,2,50,65,0,1
58133,-114.285714285714,4,2,50,5,0,1
58208,-114.285714285714,4,2,50,65,0,1
58283,-114.285714285714,4,2,50,5,0,1
58358,-100,4,2,50,65,0,1
58433,-100,4,2,50,5,0,1
58508,-100,4,2,50,65,0,1
58658,-160,4,2,50,65,0,1
58733,-160,4,2,50,5,0,1
58808,-160,4,2,50,65,0,1
58883,-160,4,2,50,5,0,1
58958,-114.285714285714,4,2,50,65,0,1
59033,-114.285714285714,4,2,50,5,0,1
59108,-114.285714285714,4,2,51,75,0,1
59183,-114.285714285714,4,2,50,5,0,1
59258,-160,4,2,50,65,0,1
59333,-160,4,2,50,5,0,1
59408,-160,4,2,50,65,0,1
59483,-160,4,2,50,5,0,1
59558,-100,4,2,50,65,0,1
59708,-80,4,2,50,65,0,1
59783,-80,4,2,50,5,0,1
59858,-100,4,2,50,65,0,1
60158,-160,4,2,50,65,0,1
60233,-160,4,2,50,5,0,1
60308,-160,4,2,51,75,0,1
60383,-160,4,2,50,5,0,1
60458,-88.8888888888889,4,2,50,65,0,1
60533,-88.8888888888889,4,2,50,5,0,1
60608,-88.8888888888889,4,2,50,65,0,1
60683,-88.8888888888889,4,2,50,5,0,1
60758,-114.285714285714,4,2,50,65,0,1
60833,-114.285714285714,4,2,50,5,0,1
60908,-114.285714285714,4,2,50,65,0,1
60983,-114.285714285714,4,2,50,5,0,1
61058,-100,4,2,50,65,0,1
61133,-100,4,2,50,5,0,1
61208,-100,4,2,50,65,0,1
61508,-100,4,2,51,75,0,1
61658,-100,4,2,50,65,0,1
61733,-100,4,2,50,5,0,1
61808,-100,4,2,50,65,0,1
62708,-100,4,2,51,75,0,1
62858,-100,4,2,50,65,0,1
63458,-160,4,2,50,65,0,1
63533,-160,4,2,50,5,0,1
63608,-160,4,2,50,65,0,1
63683,-160,4,2,50,5,0,1
63758,-114.285714285714,4,2,50,65,0,1
63833,-114.285714285714,4,2,50,5,0,1
63908,-114.285714285714,4,2,51,75,0,1
63983,-114.285714285714,4,2,50,5,0,1
64058,-160,4,2,50,65,0,1
64133,-160,4,2,50,5,0,1
64208,-160,4,2,50,65,0,1
64283,-160,4,2,50,5,0,1
64358,-100,4,2,50,65,0,1
64958,-114.285714285714,4,2,50,65,0,1
65033,-114.285714285714,4,2,50,5,0,1
65108,-114.285714285714,4,2,51,75,0,1
65183,-114.285714285714,4,2,50,5,0,1
65258,-88.8888888888889,4,2,50,65,0,1
65333,-88.8888888888889,4,2,50,5,0,1
65408,-88.8888888888889,4,2,50,65,0,1
65483,-88.8888888888889,4,2,50,5,0,1
65558,-114.285714285714,4,2,50,65,0,1
65633,-114.285714285714,4,2,50,5,0,1
65708,-114.285714285714,4,2,50,65,0,1
65783,-114.285714285714,4,2,50,5,0,1
65858,-100,4,2,50,65,0,0
67058,-66.6666666666667,4,2,50,65,0,1
67508,-66.6666666666667,4,2,58,80,0,1
67658,-66.6666666666667,4,2,50,37,0,1
67808,-66.6666666666667,4,2,58,80,0,1
67958,-66.6666666666667,4,2,50,37,0,1
68108,-100,4,2,50,65,0,0
69308,-100,4,2,50,5,0,0
69458,-200,4,2,52,30,0,0
70658,-133.333333333333,4,2,50,65,0,1
70733,-133.333333333333,4,2,50,5,0,1
70808,-133.333333333333,4,2,50,65,0,1
70883,-133.333333333333,4,2,50,5,0,1
70958,-133.333333333333,4,2,50,65,0,1
71033,-133.333333333333,4,2,50,5,0,1
71108,-266.666666666667,4,2,50,65,0,0
71258,-266.666666666667,4,2,50,5,0,0
71558,-266.666666666667,4,2,50,65,0,0
71858,-266.666666666667,4,2,50,5,0,0
72008,-266.666666666667,4,2,50,35,0,0
72158,-266.666666666667,4,2,50,40,0,0
72308,-266.666666666667,4,2,50,45,0,0
72458,-266.666666666667,4,2,50,50,0,0
72608,-266.666666666667,4,2,50,55,0,0
72758,-266.666666666667,4,2,50,60,0,0
72908,-266.666666666667,4,2,50,65,0,0
73058,-133.333333333333,4,2,50,65,0,1
73133,-133.333333333333,4,2,50,5,0,1
73208,-133.333333333333,4,2,50,65,0,1
73283,-133.333333333333,4,2,50,5,0,1
73358,-133.333333333333,4,2,50,65,0,1
73433,-133.333333333333,4,2,50,5,0,1
73508,-133.333333333333,4,2,50,65,0,1
73583,-133.333333333333,4,2,50,5,0,1
73658,-133.333333333333,4,2,50,65,0,1
73733,-133.333333333333,4,2,50,5,0,1
73808,-133.333333333333,4,2,50,65,0,1
73883,-133.333333333333,4,2,50,5,0,1
73958,-266.666666666667,4,2,50,65,0,0
74258,-66.6666666666667,4,2,50,5,0,0
74408,-200,4,2,52,35,0,0
74483,-200,4,2,50,17,0,0
74558,-200,4,2,52,35,0,0
74633,-200,4,2,50,17,0,0
74708,-200,4,2,52,35,0,0
74783,-200,4,2,50,17,0,0
74858,-133.333333333333,4,2,58,80,0,0
75083,-133.333333333333,4,2,50,5,0,0
75158,-66.6666666666667,4,2,50,65,0,0
75383,-66.6666666666667,4,2,50,5,0,0
75458,-133.333333333333,4,2,50,65,0,1
75533,-133.333333333333,4,2,50,5,0,1
75608,-133.333333333333,4,2,50,65,0,1
75683,-133.333333333333,4,2,50,5,0,1
75758,-133.333333333333,4,2,50,65,0,1
75833,-133.333333333333,4,2,50,5,0,1
75908,-266.666666666667,4,2,50,65,0,0
76058,-266.666666666667,4,2,50,5,0,0
76358,-66.6666666666667,4,2,50,65,0,0
76508,-66.6666666666667,4,2,51,32,0,0
76808,-66.6666666666667,4,2,51,65,0,0
76958,-66.6666666666667,4,2,51,25,0,0
77258,-66.6666666666667,4,2,51,65,0,0
77408,-66.6666666666667,4,2,51,25,0,0
77708,-66.6666666666667,4,2,51,65,0,0
77858,-133.333333333333,4,2,50,65,0,1
77933,-133.333333333333,4,2,50,5,0,1
78008,-133.333333333333,4,2,50,65,0,1
78083,-133.333333333333,4,2,50,5,0,1
78158,-133.333333333333,4,2,50,65,0,1
78233,-133.333333333333,4,2,50,5,0,1
78308,-133.333333333333,4,2,50,65,0,1
78383,-133.333333333333,4,2,50,5,0,1
78458,-133.333333333333,4,2,50,65,0,1
78533,-133.333333333333,4,2,50,5,0,1
78608,-133.333333333333,4,2,50,65,0,1
78683,-133.333333333333,4,2,50,5,0,1
78758,-266.666666666667,4,2,50,65,0,0
78908,-266.666666666667,4,2,51,50,0,0
79208,-266.666666666667,4,2,51,65,0,0
79658,-266.666666666667,4,2,52,32,0,0
79808,-66.6666666666667,4,2,51,65,0,0
79883,-66.6666666666667,4,2,50,5,0,0
79958,-66.6666666666667,4,2,52,40,0,0
80108,-200,4,2,51,50,0,0
80183,-200,4,2,50,5,0,0
80258,-100,4,2,50,65,0,1
80333,-100,4,2,50,5,0,1
80408,-100,4,2,50,65,0,1
81008,-133.333333333333,4,2,50,65,0,1
81083,-133.333333333333,4,2,50,5,0,1
81158,-133.333333333333,4,2,50,65,0,1
81308,-100,4,2,50,65,0,1
81458,-100,4,2,51,100,0,1
81608,-100,4,2,50,65,0,1
83033,-100,4,2,50,5,0,1
83108,-100,4,2,50,65,0,1
83183,-100,4,2,50,5,0,1
83258,-100,4,2,50,65,0,1
83858,-100,4,2,51,100,0,1
84008,-100,4,2,50,65,0,1
85433,-100,4,2,50,5,0,1
85508,-100,4,2,50,65,0,1
86258,-100,4,2,51,60,0,1
86408,-100,4,2,50,65,0,1
87383,-100,4,2,50,5,0,1
87458,-100,4,2,50,65,0,1
87833,-100,4,2,50,5,0,1
87908,-100,4,2,50,65,0,1
87983,-100,4,2,50,5,0,1
88058,-100,4,2,50,65,0,1
88658,-100,4,2,51,100,0,1
88808,-100,4,2,50,65,0,1
90233,-100,4,2,50,5,0,1
90308,-100,4,2,50,65,0,1
91058,-100,4,2,51,100,0,1
91208,-100,4,2,50,65,0,1
91358,-100,4,2,58,65,0,1
91508,-100,4,2,50,65,0,1
91658,-125,4,2,58,65,0,1
91808,-125,4,2,50,65,0,1
91958,-100,4,2,50,65,0,1
92183,-100,4,2,50,5,0,1
92258,-100,4,2,50,65,0,1
92633,-100,4,2,50,5,0,1
92708,-100,4,2,50,65,0,1
92783,-100,4,2,50,5,0,1
92858,-100,4,2,50,65,0,1
93458,-100,4,2,51,75,0,1
93608,-100,4,2,50,65,0,1
93758,-100,4,2,58,65,0,1
93908,-100,4,2,50,65,0,1
94058,-100,4,2,50,65,0,1
95858,-100,4,2,51,100,0,1
96008,-100,4,2,50,65,0,1
97433,-100,4,2,50,5,0,1
97508,-100,4,2,50,65,0,1
97583,-100,4,2,50,5,0,1
97658,-100,4,2,50,65,0,1
98258,-100,4,2,51,100,0,1
98408,-100,4,2,50,65,0,1
99458,-133.333333333333,4,2,50,50,0,0
100058,-266.666666666667,4,2,50,50,0,0
100508,-266.666666666667,4,2,52,35,0,0
100808,-200,4,2,50,50,0,0
100958,-200,4,2,51,70,0,0
101108,-200,4,2,50,50,0,0
101258,-100,4,2,50,50,0,0
101333,-100,4,2,50,5,0,0
101408,-200,4,2,50,50,0,0
101708,-200,4,2,52,35,0,0
101858,-133.333333333333,4,2,50,50,0,0
102458,-266.666666666667,4,2,50,50,0,0
102908,-266.666666666667,4,2,52,35,0,0
103058,-266.666666666667,4,2,50,50,0,0
103208,-200,4,2,50,50,0,0
103658,-100,4,2,50,50,0,0
103733,-100,4,2,50,5,0,0
103808,-200,4,2,50,50,0,0
104108,-200,4,2,52,25,0,0
104258,-133.333333333333,4,2,50,50,0,0
104858,-266.666666666667,4,2,50,50,0,0
105308,-266.666666666667,4,2,52,35,0,0
105458,-266.666666666667,4,2,50,50,0,0
105608,-200,4,2,50,50,0,0
105758,-200,4,2,51,50,0,0
105908,-200,4,2,50,50,0,0
106058,-100,4,2,50,50,0,0
106133,-100,4,2,50,5,0,0
106208,-200,4,2,50,50,0,0
106358,-200,4,2,51,50,0,0
106508,-200,4,2,52,75,0,0
106658,-133.333333333333,4,2,50,50,0,0
107258,-266.666666666667,4,2,50,50,0,0
107708,-266.666666666667,4,2,52,35,0,0
107858,-266.666666666667,4,2,50,50,0,0
108008,-200,4,2,50,50,0,0
108158,-200,4,2,51,50,0,0
108308,-200,4,2,50,50,0,0
108458,-100,4,2,50,50,0,0
108533,-100,4,2,50,5,0,0
108608,-200,4,2,50,50,0,0
108908,-200,4,2,52,35,0,0
109058,-133.333333333333,4,2,50,50,0,0
109658,-266.666666666667,4,2,50,50,0,0
110108,-266.666666666667,4,2,52,35,0,0
110258,-266.666666666667,4,2,50,50,0,0
110408,-200,4,2,50,50,0,0
110558,-200,4,2,51,50,0,0
110708,-200,4,2,50,50,0,0
110858,-100,4,2,50,50,0,0
110933,-100,4,2,50,5,0,0
111008,-200,4,2,50,50,0,0
111308,-200,4,2,52,35,0,0
111458,-133.333333333333,4,2,50,50,0,0
112058,-266.666666666667,4,2,50,50,0,0
112508,-266.666666666667,4,2,52,35,0,0
112658,-266.666666666667,4,2,50,50,0,0
112808,-200,4,2,50,50,0,0
112958,-200,4,2,51,50,0,0
113108,-200,4,2,50,50,0,0
113258,-100,4,2,50,50,0,0
113333,-100,4,2,50,5,0,0
113408,-200,4,2,50,50,0,0
113708,-200,4,2,52,35,0,0
113858,-133.333333333333,4,2,50,50,0,0
114458,-266.666666666667,4,2,50,50,0,0
114758,-266.666666666667,4,2,50,35,0,0
114908,-266.666666666667,4,2,52,35,0,0
115058,-266.666666666667,4,2,50,50,0,0
115208,-200,4,2,50,50,0,0
115358,-200,4,2,51,50,0,0
115508,-200,4,2,50,50,0,0
115658,-100,4,2,50,50,0,0
115733,-100,4,2,50,5,0,0
115808,-200,4,2,50,50,0,0
115958,-200,4,2,51,50,0,0
116108,-200,4,2,52,25,0,0
116258,-133.333333333333,4,2,51,50,0,0
116276,-133.333333333333,4,2,50,35,0,0
118583,-133.333333333333,4,2,50,5,0,0
118658,-500,4,2,59,75,0,0
118676,-500,4,2,59,20,0,0
119933,-500,4,2,50,5,0,0
120008,-400,4,2,50,50,0,0
120158,-400,4,2,51,50,0,0
120233,-400,4,2,50,50,0,0
120308,-400,4,2,51,25,0,0
120383,-400,4,2,50,50,0,0
120458,-266.666666666667,4,2,50,50,0,0
120758,-200,4,2,50,50,0,0
121058,-100,4,2,50,65,0,1
121133,-100,4,2,50,5,0,1
121208,-100,4,2,50,65,0,1
121508,-100,4,2,51,75,0,1
121658,-100,4,2,50,65,0,1
121733,-100,4,2,50,5,0,1
121808,-100,4,2,50,65,0,1
122708,-100,4,2,51,75,0,1
122858,-100,4,2,50,65,0,1
123458,-160,4,2,50,65,0,1
123533,-160,4,2,50,5,0,1
123608,-160,4,2,50,65,0,1
123683,-160,4,2,50,5,0,1
123758,-114.285714285714,4,2,50,65,0,1
123833,-114.285714285714,4,2,50,5,0,1
123908,-114.285714285714,4,2,51,75,0,1
123983,-114.285714285714,4,2,50,5,0,1
124058,-160,4,2,50,65,0,1
124133,-160,4,2,50,5,0,1
124208,-160,4,2,50,65,0,1
124283,-160,4,2,50,5,0,1
124358,-100,4,2,50,65,0,1
124658,-100,4,2,50,65,0,1
124958,-160,4,2,50,65,0,1
125033,-160,4,2,50,5,0,1
125108,-160,4,2,51,75,0,1
125183,-160,4,2,50,5,0,1
125258,-88.8888888888889,4,2,50,65,0,1
125333,-88.8888888888889,4,2,50,5,0,1
125408,-88.8888888888889,4,2,50,65,0,1
125483,-88.8888888888889,4,2,50,5,0,1
125558,-114.285714285714,4,2,50,65,0,1
125633,-114.285714285714,4,2,50,5,0,1
125708,-114.285714285714,4,2,50,65,0,1
125783,-114.285714285714,4,2,50,5,0,1
125858,-100,4,2,50,65,0,1
125933,-100,4,2,50,5,0,1
126008,-100,4,2,50,65,0,1
126308,-100,4,2,51,75,0,1
126458,-100,4,2,50,65,0,1
126533,-100,4,2,50,5,0,1
126608,-100,4,2,50,65,0,1
127508,-100,4,2,51,65,0,1
127658,-114.285714285714,4,2,50,65,0,1
127733,-114.285714285714,4,2,50,5,0,1
127808,-114.285714285714,4,2,50,65,0,1
127883,-114.285714285714,4,2,50,5,0,1
127958,-100,4,2,50,65,0,1
128033,-100,4,2,50,5,0,1
128108,-100,4,2,50,65,0,1
128258,-160,4,2,50,65,0,1
128333,-160,4,2,50,5,0,1
128408,-160,4,2,50,65,0,1
128483,-160,4,2,50,5,0,1
128558,-114.285714285714,4,2,50,65,0,1
128633,-114.285714285714,4,2,50,5,0,1
128708,-114.285714285714,4,2,51,75,0,1
128783,-114.285714285714,4,2,50,5,0,1
128858,-160,4,2,50,65,0,1
128933,-160,4,2,50,5,0,1
129008,-160,4,2,50,65,0,1
129083,-160,4,2,50,5,0,1
129158,-100,4,2,50,65,0,1
129308,-80,4,2,50,65,0,1
129383,-80,4,2,50,5,0,1
129458,-100,4,2,50,65,0,1
129758,-160,4,2,50,65,0,1
129833,-160,4,2,50,5,0,1
129908,-160,4,2,51,75,0,1
129983,-160,4,2,50,5,0,1
130058,-88.8888888888889,4,2,50,65,0,1
130133,-88.8888888888889,4,2,50,5,0,1
130208,-88.8888888888889,4,2,50,65,0,1
130283,-88.8888888888889,4,2,50,5,0,1
130358,-114.285714285714,4,2,50,65,0,1
130433,-114.285714285714,4,2,50,5,0,1
130508,-114.285714285714,4,2,50,65,0,1
130583,-114.285714285714,4,2,50,5,0,1
130658,-100,4,2,50,65,0,1
130733,-100,4,2,50,5,0,1
130808,-100,4,2,50,65,0,1
131108,-100,4,2,51,75,0,1
131258,-100,4,2,50,65,0,1
131333,-100,4,2,50,5,0,1
131408,-100,4,2,50,65,0,1
132308,-100,4,2,51,75,0,1
132458,-100,4,2,50,65,0,1
133058,-160,4,2,50,65,0,1
133133,-160,4,2,50,5,0,1
133208,-160,4,2,50,65,0,1
133283,-160,4,2,50,5,0,1
133358,-114.285714285714,4,2,50,65,0,1
133433,-114.285714285714,4,2,50,5,0,1
133508,-114.285714285714,4,2,51,75,0,1
133583,-114.285714285714,4,2,50,5,0,1
133658,-160,4,2,50,65,0,1
133733,-160,4,2,50,5,0,1
133808,-160,4,2,50,65,0,1
133883,-160,4,2,50,5,0,1
133958,-100,4,2,50,65,0,1
134558,-114.285714285714,4,2,50,65,0,1
134633,-114.285714285714,4,2,50,5,0,1
134708,-114.285714285714,4,2,51,75,0,1
134783,-114.285714285714,4,2,50,5,0,1
134858,-88.8888888888889,4,2,50,65,0,1
134933,-88.8888888888889,4,2,50,5,0,1
135008,-88.8888888888889,4,2,50,65,0,1
135083,-88.8888888888889,4,2,50,5,0,1
135158,-114.285714285714,4,2,50,65,0,1
135233,-114.285714285714,4,2,50,5,0,1
135308,-114.285714285714,4,2,50,65,0,1
135383,-114.285714285714,4,2,50,5,0,1
135458,-133.333333333333,4,2,50,65,0,0
136508,-100,4,2,50,65,0,0
136733,-100,4,2,50,5,0,0
136808,-133.333333333333,4,2,50,65,0,0
136958,-133.333333333333,4,2,50,5,0,0
137108,-133.333333333333,4,2,50,65,0,0
137183,-133.333333333333,4,2,50,5,0,0
137408,-133.333333333333,4,2,50,65,0,0
137483,-133.333333333333,4,2,50,5,0,0
137708,-133.333333333333,4,2,50,65,0,0
137783,-133.333333333333,4,2,50,5,0,0
137858,-80,4,2,50,65,0,1
139058,-80,4,2,51,80,0,1
139208,-80,4,2,50,65,0,1
140258,-80,4,2,51,80,0,1
140408,-80,4,2,50,65,0,1
141458,-80,4,2,51,80,0,1
141608,-80,4,2,50,65,0,1
142058,-100,4,2,50,65,0,1
142358,-66.6666666666667,4,2,50,65,0,1
142658,-80,4,2,50,65,0,1
143408,-100,4,2,50,65,0,1
143858,-80,4,2,51,80,0,1
144008,-80,4,2,50,65,0,1
146258,-80,4,2,51,80,0,1
146408,-80,4,2,50,65,0,1
147158,-100,4,2,50,65,0,1
147233,-100,4,2,50,5,0,1
147308,-100,4,2,50,65,0,1
147383,-100,4,2,50,5,0,1
147458,-80,4,2,50,65,0,1
151058,-80,4,2,51,80,0,1
151208,-80,4,2,50,65,0,1
151508,-66.6666666666667,4,2,50,65,0,1
151808,-50,4,2,50,65,0,1
151883,-50,4,2,50,5,0,1
151958,-57.1428571428571,4,2,50,65,0,1
152033,-57.1428571428571,4,2,50,5,0,1
152108,-66.6666666666667,4,2,50,65,0,1
152258,-100,4,2,50,65,0,0
153458,-80,4,2,50,65,0,1
153908,-100,4,2,50,65,0,1
154208,-133.333333333333,4,2,50,65,0,1
154508,-200,4,2,50,60,0,0
156383,-200,4,2,50,5,0,0
156458,-400,4,2,51,60,0,0
156983,-400,4,2,50,5,0,0
157058,-1000,4,2,50,10,0,0
157358,-1000,4,2,50,5,0,0
157508,-1000,4,2,50,10,0,0
158108,-1000,4,2,50,5,0,0
158258,-1000,4,2,50,10,0,0
158558,-1000,4,2,50,5,0,0
158708,-1000,4,2,50,10,0,0
159308,-1000,4,2,50,5,0,0
159458,-1000,4,2,50,10,0,0
159476,-1000,4,2,50,12,0,0
160508,-1000,4,2,50,5,0,0
160658,-1000,4,2,50,10,0,0
160958,-1000,4,2,50,5,0,0
161108,-1000,4,2,50,10,0,0
161708,-1000,4,2,50,5,0,0
161858,-1000,4,2,50,10,0,0
161876,-1000,4,2,50,12,0,0
162908,-1000,4,2,50,5,0,0
163058,-1000,4,2,50,10,0,0
163358,-1000,4,2,50,5,0,0
163508,-1000,4,2,50,10,0,0
163658,-1000,4,2,50,5,0,0
163808,-1000,4,2,50,10,0,0
164108,-1000,4,2,50,5,0,0
164258,-666.666666666667,4,2,50,15,0,0
164858,-666.666666666667,4,2,50,5,0,0
165008,-666.666666666667,4,2,50,15,0,0
165308,-666.666666666667,4,2,50,5,0,0
165458,-500,4,2,50,20,0,0
165908,-500,4,2,50,5,0,0
166058,-500,4,2,50,20,0,0
166508,-500,4,2,50,5,0,0
166658,-400,4,2,50,30,0,0
166676,-400,4,2,50,25,0,0
167708,-400,4,2,50,5,0,0
167858,-500,4,2,50,25,0,0
168158,-500,4,2,50,5,0,0
168308,-500,4,2,50,25,0,0
168908,-500,4,2,50,5,0,0
169058,-666.666666666667,4,2,50,20,0,0
169076,-666.666666666667,4,2,50,25,0,0
170108,-666.666666666667,4,2,50,5,0,0
170258,-1000,4,2,50,20,0,0
170558,-1000,4,2,50,5,0,0
170708,-1000,4,2,50,20,0,0
171233,-1000,4,2,50,20,0,0
171458,-1000,4,2,50,20,0,0
171758,-1000,4,2,50,5,0,0
171908,-200,4,2,51,60,0,0
172508,-200,4,2,50,5,0,0
172658,-1000,4,2,50,20,0,0
172958,-1000,4,2,50,5,0,0
173108,-1000,4,2,50,20,0,0
173558,-1000,4,2,50,5,0,0
173708,-1000,4,2,50,15,0,0
174308,-1000,4,2,50,5,0,0
174458,-400,4,2,51,50,0,0
174476,-400,4,2,51,12,0,0
176108,-400,4,2,50,5,0,0
176258,-1000,4,2,59,80,0,0
176276,-1000,4,2,59,10,0,0
179933,-1000,4,2,50,5,0,0
180008,-400,4,2,50,50,0,0
180158,-400,4,2,51,50,0,0
180233,-400,4,2,50,50,0,0
180308,-400,4,2,51,25,0,0
180383,-400,4,2,50,50,0,0
180458,-266.666666666667,4,2,50,50,0,0
180758,-200,4,2,50,55,0,0
181058,-80,4,2,50,65,0,1
181133,-80,4,2,50,5,0,1
181208,-80,4,2,50,65,0,1
181508,-80,4,2,51,75,0,1
181658,-80,4,2,50,65,0,1
181733,-80,4,2,50,5,0,1
181808,-80,4,2,50,65,0,1
182708,-80,4,2,51,75,0,1
182858,-80,4,2,50,65,0,1
183458,-133.333333333333,4,2,50,65,0,1
183533,-133.333333333333,4,2,50,5,0,1
183608,-133.333333333333,4,2,50,65,0,1
183683,-133.333333333333,4,2,50,5,0,1
183758,-100,4,2,50,65,0,1
183833,-100,4,2,50,5,0,1
183908,-100,4,2,51,75,0,1
183983,-100,4,2,50,5,0,1
184058,-133.333333333333,4,2,50,65,0,1
184133,-133.333333333333,4,2,50,5,0,1
184208,-133.333333333333,4,2,50,65,0,1
184283,-133.333333333333,4,2,50,5,0,1
184358,-80,4,2,50,65,0,1
184508,-66.6666666666667,4,2,50,65,0,1
184583,-66.6666666666667,4,2,50,5,0,1
184658,-80,4,2,50,65,0,1
184958,-133.333333333333,4,2,50,65,0,1
185033,-133.333333333333,4,2,50,5,0,1
185108,-133.333333333333,4,2,51,75,0,1
185183,-133.333333333333,4,2,50,5,0,1
185258,-80,4,2,50,65,0,1
185333,-80,4,2,50,5,0,1
185408,-80,4,2,50,65,0,1
185483,-80,4,2,50,5,0,1
185558,-100,4,2,50,65,0,1
185633,-100,4,2,50,5,0,1
185708,-100,4,2,50,65,0,1
185783,-100,4,2,50,5,0,1
185858,-80,4,2,50,65,0,1
185933,-80,4,2,50,5,0,1
186008,-80,4,2,50,65,0,1
186308,-80,4,2,51,75,0,1
186458,-80,4,2,50,65,0,1
186533,-80,4,2,50,5,0,1
186608,-80,4,2,50,65,0,1
187508,-80,4,2,51,75,0,1
187658,-100,4,2,50,65,0,1
187733,-100,4,2,50,5,0,1
187808,-100,4,2,50,65,0,1
187883,-100,4,2,50,5,0,1
187958,-80,4,2,50,65,0,1
188033,-80,4,2,50,5,0,1
188108,-80,4,2,50,65,0,1
188258,-133.333333333333,4,2,50,65,0,1
188333,-133.333333333333,4,2,50,5,0,1
188408,-133.333333333333,4,2,50,65,0,1
188483,-133.333333333333,4,2,50,5,0,1
188558,-100,4,2,50,65,0,1
188633,-100,4,2,50,5,0,1
188708,-100,4,2,51,75,0,1
188783,-100,4,2,50,5,0,1
188858,-133.333333333333,4,2,50,65,0,1
188933,-133.333333333333,4,2,50,5,0,1
189008,-133.333333333333,4,2,50,65,0,1
189083,-133.333333333333,4,2,50,5,0,1
189158,-80,4,2,50,65,0,1
189383,-80,4,2,50,5,0,1
189458,-100,4,2,50,65,0,1
189758,-133.333333333333,4,2,50,65,0,1
189833,-133.333333333333,4,2,50,5,0,1
189908,-133.333333333333,4,2,51,75,0,1
189983,-133.333333333333,4,2,50,5,0,1
190058,-80,4,2,50,65,0,1
190133,-80,4,2,50,5,0,1
190208,-80,4,2,50,65,0,1
190283,-80,4,2,50,5,0,1
190358,-100,4,2,50,65,0,1
190433,-100,4,2,50,5,0,1
190508,-100,4,2,50,65,0,1
190583,-100,4,2,50,5,0,1
190658,-80,4,2,50,65,0,1
190733,-80,4,2,50,5,0,1
190808,-80,4,2,50,65,0,1
191108,-80,4,2,51,75,0,1
191258,-80,4,2,50,65,0,1
191333,-80,4,2,50,5,0,1
191408,-80,4,2,50,65,0,1
192308,-80,4,2,51,75,0,1
192458,-80,4,2,50,65,0,1
193058,-133.333333333333,4,2,50,65,0,1
193133,-133.333333333333,4,2,50,5,0,1
193208,-133.333333333333,4,2,50,65,0,1
193283,-133.333333333333,4,2,50,5,0,1
193358,-100,4,2,50,65,0,1
193433,-100,4,2,50,5,0,1
193508,-100,4,2,51,75,0,1
193583,-100,4,2,50,5,0,1
193658,-133.333333333333,4,2,50,65,0,1
193733,-133.333333333333,4,2,50,5,0,1
193808,-133.333333333333,4,2,50,65,0,1
193883,-133.333333333333,4,2,50,5,0,1
193958,-80,4,2,50,65,0,1
194258,-133.333333333333,4,2,50,65,0,1
194333,-133.333333333333,4,2,50,5,0,1
194408,-133.333333333333,4,2,50,65,0,1
194483,-133.333333333333,4,2,50,5,0,1
194558,-100,4,2,50,65,0,1
194633,-100,4,2,50,5,0,1
194708,-100,4,2,51,75,0,1
194783,-100,4,2,50,5,0,1
194858,-80,4,2,50,65,0,1
194933,-80,4,2,50,5,0,1
195008,-80,4,2,50,65,0,1
195083,-80,4,2,50,5,0,1
195158,-100,4,2,50,65,0,1
195233,-100,4,2,50,5,0,1
195308,-100,4,2,50,65,0,1
195383,-100,4,2,50,5,0,1
195458,-100,4,2,50,65,0,0
196508,-80,4,2,50,65,0,0
196658,-100,4,2,50,65,0,0
197183,-100,4,2,50,5,0,0
197258,-100,4,2,50,65,0,0
197483,-100,4,2,50,5,0,0
197558,-200,4,2,58,100,0,0
197633,-200,4,2,50,5,0,0
197708,-100,4,2,50,65,0,0
197783,-100,4,2,50,5,0,0
197858,-400,4,2,50,65,0,0
198083,-400,4,2,50,5,0,0
198158,-66.6666666666667,4,2,50,80,0,1
198233,-66.6666666666667,4,2,50,5,0,1
198308,-100,4,2,50,80,0,1
198383,-100,4,2,50,5,0,1
198458,-133.333333333333,4,2,50,80,0,1
198533,-133.333333333333,4,2,50,5,0,1
198608,-80,4,2,50,80,0,1
198683,-80,4,2,50,5,0,1
198758,-133.333333333333,4,2,50,80,0,1
198833,-133.333333333333,4,2,50,5,0,1
198908,-200,4,2,50,80,0,1
198983,-200,4,2,50,5,0,1
199058,-100,4,2,50,80,0,1
199133,-100,4,2,50,5,0,1
199208,-200,4,2,50,80,0,1
199283,-200,4,2,50,5,0,1
199358,-400,4,2,50,80,0,1
199433,-400,4,2,50,5,0,1
199508,-66.6666666666667,4,2,50,65,0,0
199658,-66.6666666666667,4,2,50,5,0,0
199808,-50,4,2,50,65,0,0
199958,-50,4,2,50,5,0,0
200108,-40,4,2,50,65,0,0
200258,-40,4,2,50,5,0,0
200558,-80,4,2,50,65,0,1
200708,-80,4,2,51,75,0,1
200783,-80,4,2,50,65,0,1
200933,-80,4,2,50,5,0,1
201008,-80,4,2,50,65,0,1
201083,-80,4,2,50,5,0,1
201158,-80,4,2,50,65,0,1
201383,-80,4,2,50,5,0,1
201458,-80,4,2,50,65,0,1
201758,-133.333333333333,4,2,50,65,0,1
201833,-133.333333333333,4,2,50,5,0,1
201908,-133.333333333333,4,2,51,75,0,1
201983,-133.333333333333,4,2,50,5,0,1
202058,-80,4,2,50,65,0,1
202133,-80,4,2,50,5,0,1
202208,-80,4,2,50,65,0,1
202283,-80,4,2,50,5,0,1
202358,-100,4,2,50,65,0,1
202433,-100,4,2,50,5,0,1
202508,-100,4,2,50,65,0,1
202583,-100,4,2,50,5,0,1
202658,-80,4,2,50,65,0,1
202733,-80,4,2,50,5,0,1
202808,-80,4,2,50,65,0,1
202883,-80,4,2,50,5,0,1
202958,-66.6666666666667,4,2,50,65,0,1
203033,-66.6666666666667,4,2,50,5,0,1
203108,-66.6666666666667,4,2,51,75,0,1
203183,-66.6666666666667,4,2,50,5,0,1
203258,-80,4,2,50,65,0,1
203333,-80,4,2,50,5,0,1
203408,-80,4,2,50,65,0,1
204308,-80,4,2,51,75,0,1
204458,-100,4,2,50,65,0,1
204533,-100,4,2,50,5,0,1
204608,-100,4,2,50,65,0,1
204683,-100,4,2,50,5,0,1
204758,-80,4,2,50,65,0,1
204833,-80,4,2,50,5,0,1
204908,-80,4,2,50,65,0,1
204983,-80,4,2,50,5,0,1
205058,-133.333333333333,4,2,50,65,0,1
205133,-133.333333333333,4,2,50,5,0,1
205208,-133.333333333333,4,2,50,65,0,1
205283,-133.333333333333,4,2,50,5,0,1
205358,-100,4,2,50,65,0,1
205433,-100,4,2,50,5,0,1
205508,-100,4,2,51,75,0,1
205583,-100,4,2,50,5,0,1
205658,-133.333333333333,4,2,50,65,0,1
205733,-133.333333333333,4,2,50,5,0,1
205808,-133.333333333333,4,2,50,65,0,1
205883,-133.333333333333,4,2,50,5,0,1
205958,-80,4,2,50,65,0,1
206183,-80,4,2,50,5,0,1
206258,-100,4,2,50,65,0,1
206558,-133.333333333333,4,2,50,65,0,1
206633,-133.333333333333,4,2,50,5,0,1
206708,-133.333333333333,4,2,51,75,0,1
206783,-133.333333333333,4,2,50,5,0,1
206858,-80,4,2,50,65,0,1
206933,-80,4,2,50,5,0,1
207008,-80,4,2,50,65,0,1
207083,-80,4,2,50,5,0,1
207158,-100,4,2,50,65,0,1
207233,-100,4,2,50,5,0,1
207308,-100,4,2,50,65,0,1
207383,-100,4,2,50,5,0,1
207458,-80,4,2,50,65,0,1
207533,-80,4,2,50,5,0,1
207608,-80,4,2,50,65,0,1
207683,-80,4,2,50,5,0,1
207758,-66.6666666666667,4,2,50,65,0,1
207833,-66.6666666666667,4,2,50,5,0,1
207908,-66.6666666666667,4,2,51,75,0,1
207983,-66.6666666666667,4,2,50,5,0,1
208058,-80,4,2,50,65,0,1
208133,-80,4,2,50,5,0,1
208208,-80,4,2,50,65,0,1
209108,-80,4,2,51,75,0,1
209258,-80,4,2,50,65,0,1
209858,-133.333333333333,4,2,50,65,0,1
209933,-133.333333333333,4,2,50,5,0,1
210008,-133.333333333333,4,2,50,65,0,1
210083,-133.333333333333,4,2,50,5,0,1
210158,-100,4,2,50,65,0,1
210233,-100,4,2,50,5,0,1
210308,-100,4,2,51,75,0,1
210383,-100,4,2,50,5,0,1
210458,-133.333333333333,4,2,50,65,0,1
210533,-133.333333333333,4,2,50,5,0,1
210608,-133.333333333333,4,2,50,65,0,1
210683,-133.333333333333,4,2,50,5,0,1
210758,-80,4,2,50,65,0,1
210983,-80,4,2,50,5,0,1
211058,-100,4,2,50,65,0,1
211358,-133.333333333333,4,2,50,65,0,1
211433,-133.333333333333,4,2,50,5,0,1
211508,-133.333333333333,4,2,51,75,0,1
211583,-133.333333333333,4,2,50,5,0,1
211658,-80,4,2,50,65,0,1
211733,-80,4,2,50,5,0,1
211808,-80,4,2,50,65,0,1
211883,-80,4,2,50,5,0,1
211958,-100,4,2,50,65,0,1
212033,-100,4,2,50,5,0,1
212108,-100,4,2,50,65,0,1
212183,-100,4,2,50,5,0,1
212258,-80,4,2,50,50,0,0
213058,-200,4,2,50,65,0,0
213258,-200,4,2,50,65,0,0
213308,-80,4,2,50,50,0,0
213383,-80,4,2,50,5,0,0
213458,-200,4,2,50,50,0,0
213608,-200,4,2,50,65,0,0
213908,-100,4,2,50,65,0,0
213983,-100,4,2,50,5,0,0
214058,-100,4,2,50,65,0,0
214283,-100,4,2,50,5,0,0
214358,-100,4,2,50,65,0,0
214583,-100,4,2,50,5,0,0
214658,-80,4,2,50,65,0,1
215858,-80,4,2,51,80,0,1
216008,-80,4,2,50,65,0,1
218258,-80,4,2,51,80,0,1
218408,-80,4,2,50,65,0,1
220658,-80,4,2,51,80,0,1
220808,-80,4,2,50,65,0,1
223058,-80,4,2,51,80,0,1
223208,-80,4,2,50,65,0,1
223508,-80,4,2,50,65,0,0
223958,-100,4,2,50,65,0,0
224033,-100,4,2,50,5,0,0
224108,-100,4,2,50,65,0,0
224183,-100,4,2,50,5,0,0
224258,-200,4,2,50,65,0,1
224633,-200,4,2,50,5,0,1
224708,-200,4,2,50,65,0,1
225083,-200,4,2,50,5,0,1
225158,-200,4,2,50,65,0,1
225458,-200,4,2,51,80,0,1
225533,-200,4,2,50,5,0,1
225608,-200,4,2,50,65,0,1
225983,-200,4,2,50,5,0,1
226058,-66.6666666666667,4,2,50,65,0,1
226133,-66.6666666666667,4,2,50,5,0,1
226208,-80,4,2,50,65,0,1
226283,-80,4,2,50,5,0,1
226358,-100,4,2,50,65,0,1
226433,-100,4,2,50,5,0,1
226508,-133.333333333333,4,2,50,65,0,1
226583,-133.333333333333,4,2,50,5,0,1
226658,-200,4,2,50,65,0,1
227033,-200,4,2,50,5,0,1
227108,-200,4,2,50,65,0,1
227483,-200,4,2,50,5,0,1
227558,-200,4,2,50,65,0,1
227858,-200,4,2,51,80,0,1
227933,-200,4,2,50,5,0,1
228008,-200,4,2,50,65,0,1
228383,-200,4,2,50,5,0,1
228458,-50,4,2,50,65,0,1
228533,-50,4,2,50,5,0,1
228608,-57.1428571428571,4,2,50,65,0,1
228683,-57.1428571428571,4,2,50,5,0,1
228758,-66.6666666666667,4,2,50,65,0,1
228833,-66.6666666666667,4,2,50,5,0,1
228908,-80,4,2,50,65,0,1
228983,-80,4,2,50,5,0,1
229058,-266.666666666667,4,2,50,65,0,0
229433,-266.666666666667,4,2,50,5,0,0
229508,-266.666666666667,4,2,50,65,0,0
229883,-266.666666666667,4,2,50,5,0,0
229958,-266.666666666667,4,2,50,65,0,0
230333,-266.666666666667,4,2,50,5,0,0
230408,-266.666666666667,4,2,50,65,0,0
230708,-100,4,2,50,65,0,0
230783,-100,4,2,50,5,0,0
230858,-100,4,2,50,65,0,0
231083,-100,4,2,50,5,0,0
231158,-100,4,2,50,65,0,0
231383,-100,4,2,50,5,0,0
231458,-200,4,2,50,45,0,1
231476,-200,4,2,50,30,0,0
231758,-200,4,2,51,5,0,0
231908,-266.666666666667,4,2,50,30,0,0
232508,-266.666666666667,4,2,51,5,0,0
232658,-200,4,2,50,30,0,0
232958,-200,4,2,51,5,0,0
233108,-266.666666666667,4,2,50,25,0,0
233708,-266.666666666667,4,2,51,5,0,0
233858,-400,4,2,50,20,0,0
234908,-400,4,2,51,5,0,0
235058,-266.666666666667,4,2,50,20,0,0
235358,-266.666666666667,4,2,51,5,0,0
235508,-266.666666666667,4,2,50,15,0,0
236108,-266.666666666667,4,2,51,5,0,0
236258,-400,4,2,50,15,0,0
236276,-400,4,2,50,10,0,0
237308,-400,4,2,51,5,0,0
237458,-307.692307692308,4,2,50,15,0,0
237758,-307.692307692308,4,2,51,5,0,0
237908,-307.692307692308,4,2,50,15,0,0
238058,-307.692307692308,4,2,51,5,0,0
238208,-307.692307692308,4,2,50,15,0,0
238508,-307.692307692308,4,2,51,5,0,0
238658,-307.692307692308,4,2,50,20,0,0
238808,-307.692307692308,4,2,51,5,0,0
238958,-307.692307692308,4,2,50,15,0,0
239258,-307.692307692308,4,2,51,5,0,0
239408,-307.692307692308,4,2,50,15,0,0
239708,-307.692307692308,4,2,51,5,0,0
239858,-307.692307692308,4,2,50,20,0,0
240308,-307.692307692308,4,2,51,5,0,0
240458,-307.692307692308,4,2,50,15,0,0
240908,-307.692307692308,4,2,51,5,0,0
241058,-307.692307692308,4,2,50,15,0,0
241076,-307.692307692308,4,2,50,10,0,0
241958,-307.692307692308,4,2,51,5,0,0
242258,-363.636363636364,4,2,50,15,0,0
242558,-363.636363636364,4,2,51,5,0,0
242708,-363.636363636364,4,2,50,10,0,0
243308,-363.636363636364,4,2,51,5,0,0
243458,-400,4,2,50,15,0,0
243476,-400,4,2,50,10,0,0
244508,-400,4,2,51,5,0,0
244658,-363.636363636364,4,2,50,15,0,0
244958,-363.636363636364,4,2,51,5,0,0
245108,-363.636363636364,4,2,50,10,0,0
245708,-363.636363636364,4,2,51,5,0,0
245858,-363.636363636364,4,2,50,15,0,0
245876,-363.636363636364,4,2,50,10,0,0
246758,-363.636363636364,4,2,51,5,0,0
246908,-400,4,2,50,10,0,0
246926,-400,4,2,50,12,0,0
248258,-400,4,2,51,5,0,0
248743,526.315789473684,4,2,50,10,1,0
248743,-66.6666666666667,4,2,50,10,0,0
248874,555.555555555556,4,2,50,10,1,0
249012,659.340659340659,4,2,50,7,1,0
249012,-100,4,2,50,7,0,0
249176,615.384615384615,4,2,50,7,1,0
249252,300,4,2,50,5,1,0
249252,-666.666666666667,4,2,50,5,0,0
255477,-666.666666666667,4,2,50,5,0,0

[Colours]
Combo1 : 195,195,195
Combo2 : 205,165,250
Combo3 : 135,85,150
Combo4 : 102,179,185
Combo5 : 0,141,166
Combo6 : 255,255,125
Combo7 : 255,125,65
Combo8 : 255,60,60

[HitObjects]
412,281,1233,38,0,B|413:293|402:308|408:318|408:318|416:310|410:293|412:280,1,75.0000028610231
202,322,2283,6,0,B|199:332|211:346|204:354|204:354|194:349|205:332|201:321,1,66.6666666666667
423,176,3308,102,0,B|424:183|414:193|420:201|420:201|428:194|421:183|423:177,1,50.0000019073487
427,151,3458,101,2,0:1:0:0:
52,246,4358,22,0,B|51:268|71:283|60:295|60:295|46:287|59:267|50:246,1,100
35,175,4658,69,2,0:1:0:0:
311,239,5383,22,0,B|310:260|297:267|306:277|306:277|316:270|304:259|313:239,2,75.0000028610231
130,158,5858,22,0,B|131:192|164:204|141:209|142:218|142:218|141:209|115:213|141:191|130:164,1,125,2|0,0:1|0:0,0:0:0:0:
389,125,6420,102,0,B|389:158|366:167|378:180|378:180|394:173|379:156|391:126,1,112.500004291535
404,57,6645,102,0,P|421:17|414:60,1,125,2|0,0:0|0:0,0:0:0:0:
189,279,7433,6,0,B|187:306|209:318|197:328|197:328|181:323|198:305|189:283,1,100.000003814697
58,17,8258,85,2,0:1:0:0:
76,105,8483,6,0,B|86:142|64:170|85:178|85:178|102:167|73:143|77:106,1,150.000005722046
73,88,8708,1,2,0:0:0:0:
486,103,9508,6,0,B|486:134|462:148|476:162|476:162|493:153|476:132|486:107,1,118.750004529953
196,109,10533,102,0,B|194:115|200:125|200:125|203:115|200:110,1,33.3333333333333
175,41,10608,22,0,B|181:32|180:16|180:16|185:32|193:37,2,50.0000019073487,0|0|2,0:0|0:0|0:1,0:0:0:0:
252,356,10958,86,0,B|369:375|308:296|440:322,1,200,2|0,0:0|0:0,0:0:0:0:
87,368,11558,86,0,L|92:330,1,37.5
104,259,11858,2,0,L|109:221,1,37.5
167,312,12158,2,0,P|175:315|185:316,1,18.75
37,288,12458,102,0,L|0:293,1,37.5
72,152,12758,2,0,L|136:142,1,56.2500021457673
186,242,13058,6,0,P|222:250|249:275,1,75,2|0,0:1|0:0,0:0:0:0:
316,321,13358,2,0,P|322:338|324:357,1,37.5
500,286,13658,22,0,B|436:295|462:254|394:259,1,112.500004291535,2|0,0:0|0:0,0:0:0:0:
402,350,13958,86,0,L|404:331,1,18.75
373,187,14258,2,0,L|385:94,1,93.7500035762788,2|0,0:1|0:0,0:0:0:0:
512,167,14708,102,0,L|450:175,1,62.5
373,187,15158,2,0,L|335:191,1,37.5
249,275,15458,6,0,B|137:246|173:323|50:310|50:310|54:302|54:302|50:310|50:310|146:342|190:421|340:288|232:162|232:162|211:197|166:201,1,687.5,2|0,0:1|0:0,0:0:0:0:
87,177,17208,22,0,B|81:198|97:219|97:219|106:193|95:178,1,87.5000033378603,2|0,0:0|0:0,0:0:0:0:
81,83,17708,22,0,L|79:70,1,12.5
143,122,17858,70,0,L|167:125,3,25,2|0|0|0,0:1|0:0|0:0|0:0,0:0:0:0:
256,206,18158,86,0,P|264:202|271:196,1,18.7500007152558
277,206,18308,2,0,P|282:199|284:191,1,16.2499992561341
346,156,18458,2,0,L|344:143,3,12.5
343,18,18758,22,0,L|335:73,1,56.2500021457673
440,101,19058,6,0,B|376:110|402:69|334:74,1,112.500004291535,2|0,0:0|0:0,0:0:0:0:
240,80,19358,86,0,L|232:135,1,56.2500021457673
45,195,19658,102,0,L|54:120,1,75
170,53,19958,2,0,L|158:145,1,93.75
101,239,20258,6,0,P|52:231|9:254,1,100,2|0,0:1|0:0,0:0:0:0:
144,381,20708,1,0,0:0:0:0:
68,372,20858,2,0,L|49:369,1,15,8|0,0:1|0:0,0:0:0:0:
187,316,21158,6,0,L|179:260,1,56.2500021457673
167,184,21458,2,0,L|157:109,1,75
274,54,21758,38,0,B|277:29|277:29|262:48,1,50,8|0,0:0|0:0,0:0:0:0:
233,117,21908,37,0,0:0:0:0:
167,184,22058,54,0,L|241:193,1,75
358,311,22358,2,0,L|296:302,1,62.5
187,316,22583,1,0,0:0:0:0:
177,318,22658,70,0,P|212:329|235:358,1,75,2|0,0:1|0:0,0:0:0:0:
296,302,22958,2,0,L|293:283,2,18.7500007152558
467,326,23258,1,0,0:0:0:0:
485,199,23558,6,0,P|443:219|398:212,1,93.75
227,235,23858,2,0,P|273:205|328:210,1,112.500004291535
433,143,24158,38,0,B|436:118|436:118|421:137,1,50,8|0,0:0|0:0,0:0:0:0:
398,212,24308,86,0,L|174:181,1,218.750002086163
261,88,24758,2,0,L|130:105,1,131.250001251698
98,262,25058,86,0,L|114:188,1,75,2|0,0:1|0:0,0:0:0:0:
39,205,25358,22,0,B|120:223|96:161|181:182,1,150,2|0,0:0|0:0,0:0:0:0:
211,297,25658,102,0,L|219:333,1,37.5
335,363,25958,6,0,B|217:386|276:309|141:335,1,200,2|0,0:0|0:0,0:0:0:0:
308,117,26483,6,0,B|307:125|320:138|320:138|321:123|314:114,1,50.0000019073487
283,50,26558,6,0,B|284:24|284:24|296:45,1,50,8|0,0:0|0:0,0:0:0:0:
179,136,26858,37,0,0:0:0:0:
384,114,27158,6,0,P|325:158|252:155,1,150
119,93,27458,6,0,B|82:53|112:8|112:8|172:8|185:55,1,187.5,2|0,0:1|0:0,0:0:0:0:
179,136,27758,2,0,B|159:133|134:131|115:137|87:162,1,93.75
1,168,28058,6,0,B|114:190|82:121|178:136,1,187.5,2|0,0:0|0:0,0:0:0:0:
286,93,28358,70,0,L|289:73,7,12.5
460,133,28958,70,0,L|452:83,3,50,8|0|0|0,0:0|0:0|0:0|0:0,0:0:0:0:
362,20,29258,38,0,L|337:23,3,25
281,192,29558,2,0,L|243:186,3,37.5000014305115
101,228,29858,5,2,0:1:0:0:
92,158,30008,1,0,0:0:0:0:
261,261,30158,2,0,L|268:310,1,50,8|0,0:1|0:0,0:0:0:0:
279,379,30458,1,0,0:0:0:0:
293,383,30758,5,0,0:0:0:0:
402,376,30908,2,0,P|382:360|358:353,1,50
210,356,31208,1,0,0:0:0:0:
0,355,31358,6,0,B|81:373|57:311|142:332,1,150,10|0,0:0|0:0,0:0:0:0:
210,356,31658,85,0,0:0:0:0:
118,250,31808,1,0,0:0:0:0:
24,282,31958,2,0,L|28:257,1,25
149,169,32183,1,0,0:0:0:0:
147,177,32258,5,2,0:1:0:0:
67,186,32408,1,0,0:0:0:0:
243,290,32558,38,0,L|231:215,1,75.0000028610231,8|0,0:1|0:0,0:0:0:0:
236,203,32708,2,0,L|228:153,1,50
233,144,32858,2,0,L|227:106,1,37.5000014305115
95,113,33158,53,0,0:0:0:0:
156,6,33308,2,0,L|149:55,1,50
44,53,33608,5,0,0:0:0:0:
149,169,33758,38,0,P|197:181|232:217,1,100,8|0,0:0|0:0,0:0:0:0:
380,165,34058,37,0,0:0:0:0:
375,138,34208,1,0,0:0:0:0:
303,166,34358,1,0,0:0:0:0:
304,158,34508,2,0,L|301:175,1,12.5
450,100,34658,5,2,0:1:0:0:
458,179,34808,1,0,0:0:0:0:
317,85,34958,2,0,L|324:36,1,50,8|0,0:1|0:0,0:0:0:0:
227,163,35108,22,0,B|116:187|158:113|23:151,1,187.5,2|0,0:0|0:0,0:0:0:0:
52,155,35408,101,0,0:0:0:0:
141,5,35558,2,0,L|151:79,1,75.0000028610231
314,240,35858,101,0,0:0:0:0:
327,166,36008,1,0,0:0:0:0:
178,272,36158,22,0,B|313:305|258:212|391:243,1,225.000008583069,10|0,0:0|0:0,0:0:0:0:
385,251,36458,69,0,0:0:0:0:
228,31,36758,6,0,L|239:110,1,75.0000028610231
206,171,36983,1,0,0:0:0:0:
196,170,37058,54,0,L|172:167,1,25,2|0,0:1|0:0,0:0:0:0:
145,171,37208,2,0,L|95:163,1,50
74,171,37358,2,0,L|-1:159,1,75.0000028610231,8|0,0:1|0:0,0:0:0:0:
139,59,37658,37,0,0:0:0:0:
136,85,37808,2,0,L|137:72,1,12.5
16,87,37958,5,0,0:0:0:0:
10,43,38108,2,0,L|13:67,1,25
135,245,38258,5,0,0:0:0:0:
145,171,38408,2,0,L|139:214,1,37.5000014305115
0,310,38558,38,0,P|54:319|95:357,1,112.500004291535,8|0,0:0|0:0,0:0:0:0:
156,314,38708,38,0,P|173:308|187:295,1,37.5000014305115
194,118,38858,6,0,L|82:135,1,112.500004291535
211,229,39158,2,0,L|359:206,1,150
452,216,39458,5,2,0:1:0:0:
486,152,39558,6,0,B|481:143|484:127|484:127|477:142|464:147,1,52.0833333333333
429,284,39758,70,0,L|431:302,1,18.7500007152558,8|0,0:1|0:0,0:0:0:0:
499,325,39908,38,0,B|380:350|422:276|306:309,1,200,2|0,0:0|0:0,0:0:0:0:
103,345,40358,85,0,0:0:0:0:
117,264,40508,2,0,L|109:313,1,50,8|0,0:1|0:0,0:0:0:0:
223,187,40808,5,0,0:0:0:0:
41,278,40958,38,0,P|115:275|180:310,1,150,8|0,0:0|0:0,0:0:0:0:
237,264,41258,69,0,0:0:0:0:
223,187,41408,2,0,L|231:236,1,50
88,64,41708,101,0,0:0:0:0:
90,73,41783,1,0,0:0:0:0:
93,85,41858,1,2,0:1:0:0:
161,34,42008,1,0,0:0:0:0:
28,5,42158,1,8,0:1:0:0:
80,160,42308,2,0,L|129:152,1,50
291,129,42683,1,0,0:0:0:0:
302,127,42758,5,0,0:0:0:0:
238,27,42908,2,0,L|230:76,1,50,8|0,0:1|0:0,0:0:0:0:
129,152,43208,101,0,0:0:0:0:
316,37,43358,54,0,P|267:44|230:77,1,100,8|0,0:0|0:0,0:0:0:0:
82,80,43658,53,0,0:0:0:0:
182,222,43808,1,0,0:0:0:0:
255,193,43958,2,0,P|303:199|340:232,1,100
411,193,44183,1,0,0:0:0:0:
408,181,44258,5,2,0:1:0:0:
340,232,44408,1,0,0:0:0:0:
473,261,44558,1,8,0:1:0:0:
421,106,44708,2,0,L|372:114,1,50
296,118,44933,1,0,0:0:0:0:
299,106,45008,101,0,0:0:0:0:
173,56,45158,1,0,0:0:0:0:
255,193,45308,1,8,0:1:0:0:
267,190,45383,1,0,0:0:0:0:
279,187,45458,1,0,0:0:0:0:
314,32,45608,6,0,L|276:38,1,37.5000014305115
77,78,45758,38,0,P|149:88|200:142,1,150.000005722046,8|0,0:0|0:0,0:0:0:0:
58,252,46058,5,0,1:0:0:0:
149,239,46158,2,0,L|191:233,1,41.6666666666667,2|0,1:0|0:0,0:0:0:0:
264,286,46358,102,0,L|279:187,1,100,8|0,0:1|0:0,0:0:0:0:
400,19,46658,86,0,B|385:80|378:199|487:242|440:337|393:371|323:380|275:352|260:286|260:286|268:285|268:285|260:286|260:286|250:190|314:157|378:199|403:111|401:82,1,775,2|0,0:3|0:0,0:0:0:0:
285,27,49058,6,0,P|260:86|325:95,1,149.999995422363,2|0,0:0|3:0,0:0:0:0:
193,23,50858,54,0,P|188:34|184:46,1,25,0|0,1:0|0:0,0:0:0:0:
120,76,51008,2,0,P|123:100|135:122,1,50,0|0,1:0|0:0,0:0:0:0:
140,195,51308,2,0,P|152:194|164:191,1,25,0|0,1:0|0:0,0:0:0:0:
480,258,51458,38,0,L|432:249,1,50,6|0,1:0|0:0,0:0:0:0:
392,62,51608,2,0,L|491:78,1,100,0|8,0:0|1:2,0:0:0:0:
316,52,51908,1,2,1:3:0:0:
110,216,52058,6,0,L|119:168,1,50
306,128,52208,2,0,L|290:227,1,100,0|8,1:0|1:2,0:0:0:0:
316,52,52508,1,0,0:0:0:0:
379,186,52658,69,2,0:0:0:0:
220,275,52808,1,0,1:0:0:0:
392,62,52958,5,8,1:2:0:0:
368,271,53108,1,2,1:3:0:0:
110,216,53258,101,2,0:0:0:0:
295,308,53408,1,0,1:0:0:0:
2,261,53558,5,8,1:2:0:0:
210,178,53708,1,0,0:0:0:0:
27,130,53858,6,0,L|22:160,1,31.25,2|0,1:2|0:0,0:0:0:0:
8,230,54008,2,0,L|2:261,1,31.25
19,52,54158,6,0,P|41:51|62:58,1,43.7500004172325,8|0,1:2|0:0,0:0:0:0:
205,24,54308,2,0,P|217:42|221:63,1,43.7500004172325,2|0,1:3|0:0,0:0:0:0:
210,178,54458,102,0,L|180:183,1,31.25
109,198,54608,2,0,L|79:203,1,31.25,0|0,1:0|0:0,0:0:0:0:
286,161,54758,85,8,1:2:0:0:
158,258,54908,1,0,0:0:0:0:
286,161,55058,54,0,L|305:62,1,100,2|0,0:0|1:0,0:0:0:0:
503,0,55358,86,0,L|498:30,1,31.25,8|0,1:2|0:0,0:0:0:0:
483,101,55508,2,0,L|478:131,1,31.25,2|0,1:3|0:0,0:0:0:0:
512,292,55658,54,0,P|485:291|460:279,1,56.2500021457673,2|0,0:0|0:0,0:0:0:0:
352,323,55808,2,0,P|339:298|337:270,1,56.2500021457673,0|0,1:0|0:0,0:0:0:0:
286,161,55958,102,0,P|296:142|312:127,1,43.7500004172325,8|0,1:2|0:0,0:0:0:0:
382,46,56108,2,0,P|403:45|424:51,1,43.7500004172325
441,210,56258,70,0,L|393:219,1,50,2|0,1:2|0:0,0:0:0:0:
213,143,56408,2,0,L|312:127,1,100,0|8,0:0|1:2,0:0:0:0:
512,198,56708,1,2,1:3:0:0:
255,286,56858,6,0,L|265:236,1,50
408,120,57008,2,0,L|392:219,1,100,0|8,1:0|1:2,0:0:0:0:
243,357,57308,1,0,0:0:0:0:
213,143,57458,69,2,0:0:0:0:
377,295,57608,1,0,1:0:0:0:
186,311,57758,5,8,1:2:0:0:
323,197,57908,1,2,1:3:0:0:
205,67,58058,6,0,P|226:67|247:75,1,43.7500004172325,2|0,0:0|0:0,0:0:0:0:
319,82,58208,2,0,P|330:100|334:122,1,43.7500004172325,0|0,1:0|0:0,0:0:0:0:
193,236,58358,6,0,L|144:228,1,50,8|0,1:2|0:0,0:0:0:0:
255,286,58508,1,0,0:0:0:0:
48,278,58658,102,0,L|53:248,1,31.25,2|0,1:2|0:0,0:0:0:0:
67,178,58808,2,0,L|73:147,1,31.25
36,352,58958,6,0,P|58:353|79:346,1,43.7500004172325,8|0,1:2|0:0,0:0:0:0:
197,384,59108,2,0,P|209:366|213:345,1,43.7500004172325,2|0,1:3|0:0,0:0:0:0:
274,203,59258,102,0,L|244:208,1,31.25
174,222,59408,2,0,L|143:228,1,31.25,0|0,1:0|0:0,0:0:0:0:
347,192,59558,85,8,1:2:0:0:
187,91,59708,6,0,P|183:121|193:151,1,62.5
388,252,59858,38,0,L|407:153,1,100,2|0,0:0|1:0,0:0:0:0:
493,350,60158,86,0,L|463:345,1,31.25,8|0,1:2|0:0,0:0:0:0:
392,330,60308,2,0,L|362:325,1,31.25,2|0,1:3|0:0,0:0:0:0:
246,384,60458,54,0,P|234:359|233:331,1,56.2500021457673
135,260,60608,2,0,P|151:236|174:221,1,56.2500021457673,0|0,1:0|0:0,0:0:0:0:
261,118,60758,86,0,P|283:118|304:125,1,43.7500004172325,8|0,1:2|0:0,0:0:0:0:
407,153,60908,2,0,P|418:172|422:193,1,43.7500004172325,8|0,1:2|0:0,0:0:0:0:
282,322,61058,86,0,L|234:331,1,50,6|0,1:2|0:0,0:0:0:0:
85,151,61208,2,0,L|184:135,1,100,0|8,0:0|1:2,0:0:0:0:
326,258,61508,1,2,1:3:0:0:
58,277,61658,6,0,L|68:227,1,50
261,118,61808,2,0,L|245:217,1,100,0|8,1:0|1:2,0:0:0:0:
106,333,62108,1,0,0:0:0:0:
10,177,62258,69,2,0:0:0:0:
174,221,62408,1,0,1:0:0:0:
21,344,62558,5,8,1:2:0:0:
85,151,62708,1,2,1:3:0:0:
233,331,62858,101,2,0:0:0:0:
58,277,63008,1,0,1:0:0:0:
208,61,63158,5,8,1:2:0:0:
169,294,63308,1,0,0:0:0:0:
108,80,63458,6,0,L|138:75,1,31.25,2|0,1:2|0:0,0:0:0:0:
208,61,63608,2,0,L|239:55,1,31.25
38,45,63758,6,0,P|31:66|32:88,1,43.7500004172325,8|0,1:2|0:0,0:0:0:0:
24,251,63908,2,0,P|39:267|58:277,1,43.7500004172325,2|0,1:3|0:0,0:0:0:0:
169,294,64058,102,0,L|174:264,1,31.25
188,194,64208,2,0,L|194:163,1,31.25,0|0,1:0|0:0,0:0:0:0:
248,246,64358,85,8,1:2:0:0:
108,80,64508,1,0,0:0:0:0:
329,12,64658,54,0,L|310:111,1,100,2|0,0:0|1:0,0:0:0:0:
474,254,64958,86,0,L|483:211,1,43.7500004172325,8|0,1:2|0:0,0:0:0:0:
500,140,65108,2,0,L|509:97,1,43.7500004172325,2|0,1:3|0:0,0:0:0:0:
483,335,65258,54,0,P|455:334|429:322,1,56.2500021457673,2|0,0:0|0:0,0:0:0:0:
256,378,65408,2,0,P|242:353|240:325,1,56.2500021457673,0|0,1:0|0:0,0:0:0:0:
188,194,65558,102,0,P|198:174|214:160,1,43.7500004172325,8|0,1:2|0:0,0:0:0:0:
310,110,65708,2,0,P|331:109|352:116,1,43.7500004172325
474,254,65858,101,12,1:2:0:0:
165,372,66058,69,0,1:0:0:0:
165,372,66258,101,0,1:0:0:0:
26,150,66458,53,8,1:2:0:0:
379,249,66658,69,0,1:0:0:0:
26,150,66858,37,8,1:2:0:0:
165,372,67058,5,4,1:2:0:0:
304,300,67208,2,0,P|377:286|446:315,1,150.000005722046,8|0,1:2|0:0,0:0:0:0:
487,16,67508,102,0,B|421:28|421:28|414:39|414:39|345:51,1,150.000005722046,2|0,1:2|0:0,0:0:0:0:
97,195,67808,2,0,B|109:126|109:126|120:119|120:119|132:53,1,150.000005722046,2|0,1:2|0:0,0:0:0:0:
511,339,68108,38,0,B|426:256|314:249|258:334|184:388|104:363|104:363|167:303|258:334|348:392|446:314,1,800,4|0,1:1|0:0,0:0:0:0:
430,195,69458,5,2,0:0:0:0:
408,199,69608,1,0,0:0:0:0:
335,213,69758,5,2,0:0:0:0:
313,217,69908,1,0,0:0:0:0:
240,231,70058,101,2,0:0:0:0:
218,235,70208,1,0,0:0:0:0:
145,249,70358,5,2,0:0:0:0:
8,197,70508,85,2,0:0:0:0:
270,13,70658,86,0,L|265:50,1,37.5000014305115,0|0,1:0|0:0,0:0:0:0:
255,122,70808,2,0,L|250:159,1,37.5000014305115,0|0,1:0|0:0,0:0:0:0:
228,310,70958,2,0,L|223:347,1,37.5000014305115,0|0,1:0|0:0,0:0:0:0:
78,184,71108,22,0,L|115:178,1,37.5000014305115,0|0,1:0|0:0,0:0:0:0:
481,304,71558,70,0,P|443:304|412:323,1,75.0000028610231,0|0,1:0|0:0,0:0:0:0:
371,383,72008,85,0,0:0:0:0:
361,379,72083,1,0,0:0:0:0:
346,377,72158,1,0,0:0:0:0:
327,377,72233,1,0,0:0:0:0:
307,383,72308,2,0,L|304:364,1,18.7500007152558
283,281,72458,5,0,0:0:0:0:
271,291,72533,2,0,L|289:293,2,18.7500007152558,0|0|0,1:0|0:0|0:0,0:0:0:0:
193,301,72758,101,0,1:0:0:0:
174,295,72833,1,0,1:0:0:0:
146,298,72908,2,0,L|144:316,1,18.7500007152558,0|0,1:0|0:0,0:0:0:0:
41,381,73058,38,0,L|46:344,1,37.5000014305115,0|0,1:0|0:0,0:0:0:0:
56,272,73208,2,0,L|61:235,1,37.5000014305115,0|0,1:0|0:0,0:0:0:0:
83,84,73358,2,0,L|88:47,1,37.5000014305115,0|0,1:0|0:0,0:0:0:0:
367,118,73508,6,0,L|330:123,1,37.5000014305115,0|0,1:0|0:0,0:0:0:0:
185,144,73658,2,0,L|148:149,1,37.5000014305115,0|0,1:0|0:0,0:0:0:0:
70,160,73808,2,0,L|33:165,1,37.5000014305115,0|0,1:0|0:0,0:0:0:0:
249,210,73958,6,0,L|259:135,1,75.0000028610231,0|0,1:0|0:0,0:0:0:0:
221,51,74408,6,0,L|217:75,1,25,2|0,0:0|0:0,0:0:0:0:
325,196,74558,2,0,L|349:192,1,25,2|0,0:0|0:0,0:0:0:0:
456,104,74708,2,0,L|480:100,1,25,2|0,0:0|0:0,0:0:0:0:
412,275,74858,102,0,B|352:270|352:270|345:273|345:273|300:268,1,112.500004291535,2|0,1:2|0:0,0:0:0:0:
112,358,75158,6,0,B|130:270|225:282|225:282|235:320|275:334,1,225.000008583069,8|0,1:2|0:0,0:0:0:0:
427,384,75458,70,0,L|422:347,1,37.5000014305115,0|0,1:0|0:0,0:0:0:0:
412,275,75608,2,0,L|407:238,1,37.5000014305115,0|0,1:0|0:0,0:0:0:0:
385,87,75758,2,0,L|380:50,1,37.5000014305115,0|0,1:0|0:0,0:0:0:0:
213,204,75908,22,0,L|250:209,1,37.5000014305115,0|0,1:0|0:0,0:0:0:0:
0,384,76358,37,0,1:0:0:0:
119,239,76508,1,8,0:1:0:0:
108,313,76658,1,8,0:1:0:0:
66,175,76808,5,8,0:0:0:0:
182,285,76958,1,8,0:1:0:0:
219,278,77108,1,8,0:1:0:0:
167,362,77258,101,8,0:0:0:0:
296,269,77408,1,8,0:1:0:0:
293,287,77558,1,8,0:1:0:0:
250,209,77708,5,8,0:0:0:0:
471,3,77858,22,0,L|466:40,1,37.5000014305115,0|0,1:0|0:0,0:0:0:0:
456,112,78008,2,0,L|451:149,1,37.5000014305115,0|0,1:0|0:0,0:0:0:0:
429,300,78158,2,0,L|424:337,1,37.5000014305115,0|0,1:0|0:0,0:0:0:0:
56,111,78308,6,0,L|93:106,1,37.5000014305115,0|0,1:0|0:0,0:0:0:0:
238,85,78458,2,0,L|275:80,1,37.5000014305115,0|0,1:0|0:0,0:0:0:0:
353,69,78608,2,0,L|390:64,1,37.5000014305115,0|0,1:0|0:0,0:0:0:0:
48,214,78758,53,0,1:0:0:0:
167,69,78908,1,8,0:1:0:0:
156,143,79058,1,8,0:1:0:0:
20,15,79208,70,0,P|57:13|90:29,1,75.0000028610231
156,143,79658,1,2,0:0:0:0:
37,310,79808,70,0,L|27:385,1,75.0000028610231,8|0,0:0|0:0,0:0:0:0:
41,290,79958,1,2,0:0:0:0:
145,220,80108,38,0,L|169:216,1,25,2|0,0:3|0:0,0:0:0:0:
482,299,80258,6,0,P|457:303|437:317,1,50,4|0,1:2|0:0,0:0:0:0:
392,373,80408,1,0,0:0:0:0:
352,180,80558,1,8,1:2:0:0:
317,259,80708,6,0,L|415:242,1,100
265,120,81008,2,0,L|271:83,1,37.5000014305115,0|0,1:0|0:0,0:0:0:0:
285,12,81158,1,8,1:2:0:0:
499,182,81308,6,0,P|463:147|415:141,1,100,0|2,0:0|0:0,0:0:0:0:
253,194,81608,1,0,1:0:0:0:
114,53,81758,2,0,L|212:36,1,100,8|0,1:2|1:0,0:0:0:0:
41,17,82058,5,0,0:0:0:0:
184,118,82208,1,0,1:0:0:0:
29,194,82358,2,0,L|45:95,1,100,8|0,1:2|0:0,0:0:0:0:
166,197,82658,69,0,1:0:0:0:
16,268,82808,1,0,0:0:0:0:
103,384,82958,6,0,P|82:370|69:348,1,50,8|0,1:2|0:0,0:0:0:0:
90,280,83108,2,0,P|91:255|103:233,1,50
243,178,83258,5,0,0:0:0:0:
113,144,83408,1,0,1:0:0:0:
222,324,83558,1,8,1:2:0:0:
165,283,83708,6,0,L|263:266,1,100,0|2,0:0|0:0,0:0:0:0:
332,207,84008,1,0,1:0:0:0:
505,377,84158,2,0,P|456:370|421:336,1,100,8|0,1:2|1:0,0:0:0:0:
343,298,84458,69,0,0:0:0:0:
474,183,84608,1,0,1:0:0:0:
316,108,84758,2,0,L|332:206,1,100,8|0,1:2|0:0,0:0:0:0:
291,366,85058,5,0,1:0:0:0:
397,238,85208,1,0,0:0:0:0:
240,68,85358,6,0,P|254:48|276:36,1,50,8|0,1:2|0:0,0:0:0:0:
352,36,85508,1,0,0:0:0:0:
474,183,85658,5,0,0:0:0:0:
512,92,85808,2,0,L|414:108,1,100,0|8,1:0|1:2,0:0:0:0:
166,225,86108,70,0,P|202:190|250:184,1,100,0|2,0:0|0:0,0:0:0:0:
397,238,86408,1,0,1:0:0:0:
219,361,86558,2,0,L|236:263,1,100,8|0,1:2|1:0,0:0:0:0:
172,125,86858,5,0,0:0:0:0:
315,241,87008,1,0,1:0:0:0:
121,384,87158,5,8,1:2:0:0:
294,362,87308,2,0,L|302:312,1,50
250,184,87458,5,0,1:0:0:0:
380,296,87608,1,0,0:0:0:0:
442,122,87758,22,0,P|428:101|406:88,1,50,8|0,1:2|0:0,0:0:0:0:
338,109,87908,2,0,P|313:110|291:122,1,50
236,263,88058,5,0,0:0:0:0:
393,221,88208,1,0,1:0:0:0:
176,52,88358,1,8,1:2:0:0:
234,11,88508,54,0,L|217:109,1,100,0|2,0:0|0:0,0:0:0:0:
202,190,88808,1,0,1:0:0:0:
1,71,88958,2,0,P|36:36|85:29,1,100,8|0,1:2|1:0,0:0:0:0:
176,52,89258,5,0,0:0:0:0:
287,167,89408,1,0,1:0:0:0:
91,230,89558,2,0,L|107:132,1,100,8|0,1:2|0:0,0:0:0:0:
277,71,89858,69,0,1:0:0:0:
264,248,90008,1,0,0:0:0:0:
53,292,90158,6,0,P|33:278|21:256,1,50,8|0,1:2|0:0,0:0:0:0:
31,182,90308,1,0,0:0:0:0:
159,280,90458,5,0,0:0:0:0:
121,371,90608,2,0,L|219:355,1,100,0|8,1:0|1:2,0:0:0:0:
495,261,90908,6,0,P|459:296|411:302,1,100,0|2,0:0|0:0,0:0:0:0:
264,248,91208,1,0,1:0:0:0:
357,65,91358,6,0,B|404:73|404:73|408:77|408:77|454:84,1,100,10|0,1:2|1:0,0:0:0:0:
202,191,91658,2,0,B|163:197|163:197|160:201|160:201|124:206,1,80,2|0,0:0|1:0,0:0:0:0:
339,286,91958,53,8,1:2:0:0:
179,323,92108,2,0,L|187:273,1,50
272,150,92258,5,0,1:0:0:0:
413,304,92408,1,0,0:0:0:0:
232,382,92558,54,0,P|246:361|268:348,1,50,8|0,1:2|0:0,0:0:0:0:
336,369,92708,2,0,P|361:370|383:382,1,50
494,235,92858,5,0,0:0:0:0:
339,286,93008,1,0,1:0:0:0:
216,108,93158,1,8,1:2:0:0:
174,167,93308,22,0,L|272:150,1,100,0|2,0:0|0:0,0:0:0:0:
351,134,93608,1,0,1:0:0:0:
81,211,93758,54,0,B|89:164|89:164|93:160|93:160|100:114,1,100,10|0,1:2|1:0,0:0:0:0:
32,57,94058,69,0,0:0:0:0:
174,167,94208,1,0,1:0:0:0:
0,240,94358,2,0,L|16:142,1,100,8|0,1:2|0:0,0:0:0:0:
90,358,94658,53,0,1:0:0:0:
272,284,94808,1,0,0:0:0:0:
90,358,94958,101,8,1:2:0:0:
272,284,95108,1,0,0:0:0:0:
90,358,95258,5,0,0:0:0:0:
272,284,95408,1,0,1:0:0:0:
90,358,95558,101,8,1:2:0:0:
272,284,95708,1,0,0:0:0:0:
90,358,95858,5,2,0:0:0:0:
272,284,96008,1,0,1:0:0:0:
100,114,96158,37,8,1:2:0:0:
24,154,96308,2,0,P|59:189|108:196,1,100,0|0,1:0|0:0,0:0:0:0:
251,167,96608,1,0,1:0:0:0:
83,16,96758,2,0,L|100:114,1,100,8|0,1:2|0:0,0:0:0:0:
196,289,97058,5,0,1:0:0:0:
326,177,97208,1,0,0:0:0:0:
388,351,97358,54,0,P|374:372|352:385,1,50,8|0,1:2|0:0,0:0:0:0:
284,364,97508,2,0,P|259:363|237:351,1,50
182,210,97658,5,0,0:0:0:0:
324,278,97808,1,0,1:0:0:0:
448,99,97958,1,8,1:2:0:0:
487,155,98108,54,0,L|389:138,1,100,0|2,0:0|0:0,0:0:0:0:
251,163,98408,5,0,1:0:0:0:
11,288,98558,85,8,1:2:0:0:
21,239,98708,1,0,1:0:0:0:
114,273,98858,101,0,0:0:0:0:
101,234,99008,1,0,1:0:0:0:
205,230,99158,101,8,1:2:0:0:
182,210,99308,1,0,0:0:0:0:
251,163,99458,38,0,P|288:164|321:147,1,75.0000028610231,2|0,1:0|0:0,0:0:0:0:
367,13,99758,2,0,P|347:44|345:81,1,75.0000028610231,0|0,1:0|0:0,0:0:0:0:
503,149,100058,2,0,L|390:138,1,112.500004291535,8|2,1:2|0:0,0:0:0:0:
242,267,100808,70,0,P|220:254|195:251,1,50,0|8,1:0|0:0,0:0:0:0:
61,358,101108,1,0,1:0:0:0:
203,373,101258,2,0,L|198:323,1,50,8|0,1:2|0:0,0:0:0:0:
135,286,101408,2,0,P|88:302|61:343,1,100,0|2,1:0|0:0,0:0:0:0:
260,167,101858,38,0,P|223:168|190:151,1,75.0000028610231,2|0,1:0|0:0,0:0:0:0:
294,51,102158,2,0,P|313:82|315:119,1,75.0000028610231,0|0,1:0|0:0,0:0:0:0:
124,194,102458,2,0,L|117:119,1,75.0000028610231,10|0,1:2|0:0,0:0:0:0:
22,76,102908,2,0,L|59:79,1,37.5000014305115,2|2,0:0|0:0,0:0:0:0:
163,300,103208,70,0,P|141:312|116:315,1,50,0|0,1:0|0:0,0:0:0:0:
11,241,103508,1,0,1:0:0:0:
124,194,103658,2,0,L|119:243,1,50,8|0,1:2|0:0,0:0:0:0:
53,346,103808,2,0,P|31:333|16:313,1,50,0|2,1:0|0:0,0:0:0:0:
18,230,104108,1,2,0:0:0:0:
193,236,104258,38,0,P|230:234|263:251,1,75.0000028610231,2|0,1:0|0:0,0:0:0:0:
334,238,104558,2,0,P|353:269|355:306,1,75.0000028610231,0|0,1:0|0:0,0:0:0:0:
157,375,104858,2,0,L|163:300,1,75.0000028610231,8|0,1:2|0:0,0:0:0:0:
263,251,105308,2,0,L|225:255,1,37.5000014305115,2|0,0:0|0:0,0:0:0:0:
117,119,105608,70,0,P|138:131|163:134,1,50,0|8,1:0|0:0,0:0:0:0:
296,64,105908,1,0,1:0:0:0:
157,15,106058,2,0,L|161:64,1,50,8|0,1:2|0:0,0:0:0:0:
231,162,106208,2,0,P|251:149|267:129,1,50,0|8,1:0|0:1,0:0:0:0:
299,52,106508,1,2,0:0:0:0:
411,147,106658,38,0,P|373:145|340:162,1,75.0000028610231,2|0,1:0|0:0,0:0:0:0:
440,268,106958,2,0,P|459:236|461:199,1,75.0000028610231,0|0,1:0|0:0,0:0:0:0:
268,129,107258,2,0,L|274:203,1,75.0000028610231,8|0,1:2|0:0,0:0:0:0:
367,257,107708,2,0,L|329:253,1,37.5000014305115
255,353,108008,70,0,P|230:356|208:368,1,50,0|8,1:0|0:0,0:0:0:0:
115,272,108308,1,0,1:0:0:0:
139,384,108458,2,0,L|143:334,1,50,10|0,1:2|0:0,0:0:0:0:
13,249,108608,2,0,P|61:240|105:262,1,100,0|2,1:0|0:0,0:0:0:0:
219,34,109058,38,0,P|235:67|234:104,1,75.0000028610231,2|0,1:0|0:0,0:0:0:0:
278,162,109358,2,0,P|257:192|224:210,1,75.0000028610231,0|0,1:0|0:0,0:0:0:0:
90,80,109658,2,0,L|164:86,1,75.0000028610231,8|0,1:2|0:0,0:0:0:0:
30,153,110108,2,0,L|26:115,1,37.5000014305115,2|0,0:0|0:0,0:0:0:0:
104,303,110408,70,0,P|126:290|151:287,1,50,0|8,1:0|0:0,0:0:0:0:
208,330,110708,1,0,1:0:0:0:
224,210,110858,2,0,L|220:260,1,50,8|0,1:2|0:0,0:0:0:0:
306,356,111008,2,0,P|258:365|214:343,1,100,0|2,1:0|0:0,0:0:0:0:
453,60,111458,38,0,P|454:97|438:130,1,75.0000028610231,2|0,1:0|0:0,0:0:0:0:
503,224,111758,2,0,P|465:221|434:201,1,75.0000028610231,0|0,1:0|0:0,0:0:0:0:
299,168,112058,2,0,L|373:162,1,75.0000028610231,8|0,1:2|0:0,0:0:0:0:
224,210,112508,2,0,L|228:172,1,37.5000014305115,2|0,0:0|0:0,0:0:0:0:
90,80,112808,70,0,P|112:67|137:64,1,50,0|8,1:0|0:0,0:0:0:0:
263,94,113108,1,0,1:0:0:0:
131,184,113258,2,0,L|135:134,1,50,8|0,1:2|0:0,0:0:0:0:
193,23,113408,2,0,P|239:39|266:80,1,100,0|2,1:0|0:0,0:0:0:0:
383,269,113858,38,0,P|346:270|313:254,1,75.0000028610231,2|0,1:0|0:0,0:0:0:0:
247,278,114158,2,0,P|227:246|224:209,1,75.0000028610231,0|0,1:0|0:0,0:0:0:0:
402,123,114458,2,0,L|396:197,1,75.0000028610231,8|2,1:2|0:0,0:0:0:0:
487,247,114908,2,0,L|449:250,1,37.5000014305115,2|0,0:0|0:0,0:0:0:0:
248,344,115208,70,0,P|224:348|203:361,1,50,0|8,1:0|0:0,0:0:0:0:
141,254,115508,1,0,1:0:0:0:
131,374,115658,2,0,L|135:325,1,50,8|0,1:2|0:0,0:0:0:0:
76,242,115808,2,0,P|100:238|124:245,1,50,0|0,1:0|0:0,0:0:0:0:
209,278,116108,1,2,0:0:0:0:
351,156,116258,6,0,B|405:109|481:112|481:112|251:-76|24:81|24:81|186:52|122:131|296:97|296:97|226:111|192:177|192:177|231:226|296:193,1,1162.50004434586,2|0,0:3|0:0,0:0:0:0:
442,283,118658,38,0,B|431:312|439:331|474:370|423:405|386:349|428:329|441:315|441:283,1,170,2|0,0:0|0:0,0:0:0:0:
378,229,120008,54,0,L|365:230,1,12.5,0|0,1:0|0:0,0:0:0:0:
316,284,120158,2,0,L|303:286,3,12.5,2|0|8|0,1:3|0:0|0:1|0:0,0:0:0:0:
141,298,120458,86,0,L|144:280,1,18.7500007152558,0|0,1:0|0:0,0:0:0:0:
204,236,120608,2,0,L|207:218,1,18.7500007152558,0|0,1:0|0:0,0:0:0:0:
38,150,120758,5,0,1:0:0:0:
40,163,120833,1,0,1:0:0:0:
43,175,120908,1,0,1:0:0:0:
45,186,120983,1,0,1:0:0:0:
32,258,121058,54,0,L|80:249,1,50,6|0,1:0|0:0,0:0:0:0:
120,62,121208,2,0,L|21:78,1,100,0|8,0:0|1:2,0:0:0:0:
196,52,121508,1,2,1:3:0:0:
402,216,121658,6,0,L|393:168,1,50
206,128,121808,2,0,L|222:227,1,100,0|8,1:0|1:2,0:0:0:0:
196,52,122108,1,0,0:0:0:0:
133,186,122258,69,2,0:0:0:0:
292,275,122408,1,0,1:0:0:0:
120,62,122558,5,8,1:2:0:0:
144,271,122708,1,2,1:3:0:0:
402,216,122858,101,2,0:0:0:0:
217,308,123008,1,0,1:0:0:0:
510,261,123158,5,8,1:2:0:0:
302,178,123308,1,0,0:0:0:0:
485,130,123458,6,0,L|490:160,1,31.25,2|0,1:2|0:0,0:0:0:0:
504,230,123608,2,0,L|510:261,1,31.25
493,52,123758,6,0,P|471:51|450:58,1,43.7500004172325,8|0,1:2|0:0,0:0:0:0:
307,24,123908,2,0,P|295:42|291:63,1,43.7500004172325,2|0,1:3|0:0,0:0:0:0:
302,178,124058,102,0,L|332:183,1,31.25
403,198,124208,2,0,L|433:203,1,31.25,0|0,1:0|0:0,0:0:0:0:
226,161,124358,85,8,1:2:0:0:
354,258,124508,1,0,0:0:0:0:
226,161,124658,54,0,L|207:62,1,100,2|0,0:0|1:0,0:0:0:0:
9,0,124958,86,0,L|14:30,1,31.25,8|0,1:2|0:0,0:0:0:0:
29,101,125108,2,0,L|34:131,1,31.25,2|0,1:3|0:0,0:0:0:0:
0,292,125258,54,0,P|27:291|52:279,1,56.2500021457673,2|0,0:0|0:0,0:0:0:0:
160,323,125408,2,0,P|173:298|175:270,1,56.2500021457673,0|0,1:0|0:0,0:0:0:0:
226,161,125558,102,0,P|216:142|200:127,1,43.7500004172325,8|0,1:2|0:0,0:0:0:0:
130,46,125708,2,0,P|109:45|88:51,1,43.7500004172325
71,210,125858,70,0,L|119:219,1,50,2|0,1:2|0:0,0:0:0:0:
299,143,126008,2,0,L|200:127,1,100,0|8,0:0|1:2,0:0:0:0:
0,198,126308,1,2,1:3:0:0:
257,286,126458,6,0,L|247:236,1,50
104,120,126608,2,0,L|120:219,1,100,0|8,1:0|1:2,0:0:0:0:
269,357,126908,1,0,0:0:0:0:
299,143,127058,69,2,0:0:0:0:
135,295,127208,1,0,1:0:0:0:
326,311,127358,5,8,1:2:0:0:
189,197,127508,1,2,1:3:0:0:
307,67,127658,6,0,P|286:67|265:75,1,43.7500004172325,2|0,0:0|0:0,0:0:0:0:
193,82,127808,2,0,P|182:100|178:122,1,43.7500004172325,0|0,1:0|0:0,0:0:0:0:
319,236,127958,6,0,L|368:228,1,50,8|0,1:2|0:0,0:0:0:0:
257,286,128108,1,0,0:0:0:0:
464,278,128258,102,0,L|459:248,1,31.25,2|0,1:2|0:0,0:0:0:0:
445,178,128408,2,0,L|439:147,1,31.25
476,352,128558,6,0,P|454:353|433:346,1,43.7500004172325,8|0,1:2|0:0,0:0:0:0:
315,384,128708,2,0,P|303:366|299:345,1,43.7500004172325,2|0,1:3|0:0,0:0:0:0:
238,203,128858,102,0,L|268:208,1,31.25
338,222,129008,2,0,L|369:228,1,31.25,0|0,1:0|0:0,0:0:0:0:
165,192,129158,85,8,1:2:0:0:
325,91,129308,6,0,P|329:121|319:151,1,62.5
124,252,129458,38,0,L|105:153,1,100,2|0,0:0|1:0,0:0:0:0:
19,350,129758,86,0,L|49:345,1,31.25,8|0,1:2|0:0,0:0:0:0:
120,330,129908,2,0,L|150:325,1,31.25,2|0,1:3|0:0,0:0:0:0:
266,384,130058,54,0,P|278:359|279:331,1,56.2500021457673
377,260,130208,2,0,P|361:236|338:221,1,56.2500021457673,0|0,1:0|0:0,0:0:0:0:
251,118,130358,86,0,P|229:118|208:125,1,43.7500004172325,8|0,1:2|0:0,0:0:0:0:
105,153,130508,2,0,P|94:172|90:193,1,43.7500004172325,8|0,1:2|0:0,0:0:0:0:
230,322,130658,86,0,L|278:331,1,50,6|0,1:2|0:0,0:0:0:0:
427,151,130808,2,0,L|328:135,1,100,0|8,0:0|1:2,0:0:0:0:
186,258,131108,1,2,1:3:0:0:
454,277,131258,6,0,L|444:227,1,50
251,118,131408,2,0,L|267:217,1,100,0|8,1:0|1:2,0:0:0:0:
406,333,131708,1,0,0:0:0:0:
502,177,131858,69,2,0:0:0:0:
338,221,132008,1,0,1:0:0:0:
491,344,132158,5,8,1:2:0:0:
427,151,132308,1,2,1:3:0:0:
279,331,132458,101,2,0:0:0:0:
454,277,132608,1,0,1:0:0:0:
304,61,132758,5,8,1:2:0:0:
343,294,132908,1,0,0:0:0:0:
404,80,133058,6,0,L|374:75,1,31.25,2|0,1:2|0:0,0:0:0:0:
304,61,133208,2,0,L|273:55,1,31.25
474,45,133358,6,0,P|481:66|480:88,1,43.7500004172325,8|0,1:2|0:0,0:0:0:0:
488,251,133508,2,0,P|473:267|454:277,1,43.7500004172325,2|0,1:3|0:0,0:0:0:0:
343,294,133658,102,0,L|338:264,1,31.25
324,194,133808,2,0,L|318:163,1,31.25,0|0,1:0|0:0,0:0:0:0:
264,246,133958,85,8,1:2:0:0:
404,80,134108,1,0,0:0:0:0:
183,12,134258,54,0,L|202:111,1,100,2|0,0:0|1:0,0:0:0:0:
38,254,134558,86,0,L|29:211,1,43.7500004172325,8|0,1:2|0:0,0:0:0:0:
12,140,134708,2,0,L|3:97,1,43.7500004172325,2|0,1:3|0:0,0:0:0:0:
29,335,134858,54,0,P|56:334|82:322,1,56.2500021457673,2|0,0:0|0:0,0:0:0:0:
256,378,135008,2,0,P|269:353|271:325,1,56.2500021457673,0|0,1:0|0:0,0:0:0:0:
324,194,135158,102,0,P|313:174|297:160,1,43.7500004172325,8|0,1:2|0:0,0:0:0:0:
202,110,135308,2,0,P|180:109|159:116,1,43.7500004172325
82,322,135458,69,4,1:2:0:0:
154,306,135658,5,0,0:0:0:0:
190,240,135858,53,0,0:0:0:0:
159,116,136058,53,0,0:0:0:0:
122,120,136258,101,0,0:0:0:0:
409,15,136508,38,0,L|391:164,1,150.000005722046,4|0,1:2|0:0,0:0:0:0:
395,238,136808,2,0,L|320:246,1,75.0000028610231
41,205,137108,22,0,L|78:201,1,37.5000014305115,8|0,1:2|0:0,0:0:0:0:
252,181,137408,2,0,L|289:177,1,37.5000014305115,8|0,1:2|0:0,0:0:0:0:
463,157,137708,2,0,L|500:153,1,37.5000014305115,8|0,1:2|0:0,0:0:0:0:
344,58,137858,85,4,1:0:0:0:
320,246,138008,1,0,0:0:0:0:
344,58,138158,101,8,1:2:0:0:
320,246,138308,1,0,0:0:0:0:
344,58,138458,5,0,0:0:0:0:
320,246,138608,1,0,1:0:0:0:
391,0,138758,38,0,P|340:34|279:28,1,125,8|0,1:2|0:0,0:0:0:0:
135,196,139058,69,2,0:0:0:0:
277,178,139208,1,0,1:0:0:0:
135,196,139358,101,8,1:2:0:0:
277,178,139508,1,0,1:0:0:0:
135,196,139658,5,0,0:0:0:0:
277,178,139808,1,0,1:0:0:0:
52,150,139958,69,8,1:2:0:0:
209,258,140108,1,0,0:0:0:0:
212,246,140183,1,0,0:0:0:0:
215,234,140258,1,2,1:3:0:0:
96,331,140408,5,0,0:0:0:0:
170,323,140558,1,8,1:2:0:0:
238,352,140708,1,0,0:0:0:0:
312,363,140858,1,0,0:0:0:0:
381,334,141008,1,0,1:0:0:0:
358,174,141158,101,8,1:2:0:0:
215,234,141308,1,0,0:0:0:0:
212,246,141383,1,0,0:0:0:0:
209,258,141458,1,2,0:0:0:0:
126,92,141608,5,0,1:0:0:0:
195,120,141758,1,8,1:2:0:0:
273,114,141908,1,0,1:0:0:0:
277,118,141983,1,0,0:0:0:0:
281,121,142058,6,0,P|316:88|365:81,1,100,0|0,0:0|1:0,0:0:0:0:
480,113,142283,1,0,0:0:0:0:
484,118,142358,6,0,L|469:267,1,150.000005722046,8|0,1:2|0:0,0:0:0:0:
260,316,142658,69,4,1:2:0:0:
280,191,142808,1,0,0:0:0:0:
459,341,142958,5,8,1:2:0:0:
221,382,143108,2,0,L|208:257,1,125
303,48,143408,101,0,1:0:0:0:
380,201,143558,2,0,L|280:191,1,100,8|0,1:2|0:0,0:0:0:0:
4,124,143858,37,2,0:0:0:0:
226,65,144008,1,0,1:0:0:0:
112,117,144158,1,8,1:2:0:0:
115,105,144233,1,0,0:0:0:0:
118,93,144308,1,0,1:0:0:0:
41,36,144458,69,0,0:0:0:0:
195,150,144608,1,0,1:0:0:0:
147,0,144758,5,8,1:2:0:0:
86,205,144908,1,0,0:0:0:0:
337,121,145058,5,4,1:2:0:0:
226,65,145208,85,0,0:0:0:0:
269,207,145358,1,8,1:2:0:0:
226,65,145508,5,0,0:0:0:0:
447,88,145658,101,0,0:0:0:0:
288,14,145808,1,0,1:0:0:0:
447,88,145958,5,8,1:2:0:0:
288,14,146108,1,0,0:0:0:0:
330,290,146258,101,2,0:0:0:0:
364,208,146408,1,0,1:0:0:0:
296,372,146558,21,8,1:2:0:0:
30,304,146708,85,0,1:0:0:0:
163,338,146858,1,0,0:0:0:0:
30,304,147008,21,0,1:0:0:0:
163,338,147158,6,0,L|155:289,1,50,8|0,1:2|0:0,0:0:0:0:
138,203,147308,2,0,L|130:154,1,50,8|0,1:2|0:0,0:0:0:0:
106,33,147458,69,4,1:0:0:0:
320,76,147608,1,0,0:0:0:0:
106,33,147758,21,8,1:2:0:0:
320,76,147908,1,0,0:0:0:0:
106,33,148058,85,0,0:0:0:0:
320,76,148208,1,0,1:0:0:0:
106,33,148358,21,8,1:2:0:0:
320,76,148508,1,0,0:0:0:0:
108,270,148658,85,4,1:0:0:0:
177,5,148808,1,0,0:0:0:0:
108,270,148958,37,8,1:2:0:0:
177,5,149108,1,0,0:0:0:0:
108,270,149258,69,0,0:0:0:0:
177,5,149408,1,0,1:0:0:0:
108,270,149558,37,8,1:2:0:0:
177,5,149708,1,0,0:0:0:0:
30,304,149858,69,4,1:0:0:0:
325,382,150008,1,0,0:0:0:0:
30,304,150158,53,8,1:2:0:0:
325,382,150308,1,0,0:0:0:0:
30,304,150458,53,0,0:0:0:0:
325,382,150608,1,0,1:0:0:0:
30,304,150758,53,8,1:2:0:0:
325,382,150908,1,0,0:0:0:0:
30,304,151058,53,2,0:0:0:0:
325,382,151208,2,0,L|448:361,1,125,0|8,1:0|1:2,0:0:0:0:
210,6,151508,22,0,L|185:154,1,150.000005722046,0|0,1:0|0:0,0:0:0:0:
326,308,151808,6,0,L|424:291,1,100,0|0,1:0|0:0,0:0:0:0:
128,24,151958,2,0,L|113:110,1,87.500000834465,8|0,1:2|0:0,0:0:0:0:
335,233,152108,21,0,0:0:0:0:
355,229,152183,1,0,0:0:0:0:
375,225,152258,69,12,1:2:0:0:
43,53,152458,69,0,1:0:0:0:
43,53,152658,101,0,1:0:0:0:
336,155,152858,53,8,1:2:0:0:
101,357,153058,69,0,1:0:0:0:
336,155,153258,37,8,1:2:0:0:
68,191,153458,5,4,1:2:0:0:
208,298,153608,2,0,P|268:285|325:308,1,125,8|0,1:2|0:0,0:0:0:0:
435,19,153908,38,0,L|417:117,1,100,0|0,1:0|0:0,0:0:0:0:
101,357,154208,6,0,L|86:271,1,75.0000028610231,0|0,1:0|0:0,0:0:0:0:
43,53,154508,6,0,B|173:124|129:27|248:90|248:90|237:99|237:99|255:179|255:179|244:188|244:188|171:176,1,400,4|0,1:0|0:0,0:0:0:0:
20,252,155858,22,0,P|69:249|102:213,1,100,2|0,0:0|0:0,0:0:0:0:
47,167,156233,1,0,0:0:0:0:
41,160,156308,86,0,L|43:135,1,25
130,102,156458,6,0,B|125:63|125:63|127:61|127:61|123:27,1,75,2|0,0:3|0:0,0:0:0:0:
114,6,157058,54,0,L|133:8,1,20,2|0,0:0|0:0,0:0:0:0:
208,0,157508,2,0,L|247:5,1,40,2|0,0:0|0:0,0:0:0:0:
303,193,158258,6,0,L|300:173,1,20,2|0,0:0|0:0,0:0:0:0:
309,99,158708,2,0,L|303:59,1,40,2|0,0:0|0:0,0:0:0:0:
208,260,159458,102,0,L|277:271,1,70,2|0,0:0|0:0,0:0:0:0:
462,229,160658,6,0,L|442:231,1,20,2|0,0:0|0:0,0:0:0:0:
376,262,161108,1,2,0:0:0:0:
349,293,161258,1,2,0:0:0:0:
342,311,161408,2,0,L|344:330,1,20,2|0,0:0|0:0,0:0:0:0:
200,384,161858,102,0,L|131:373,1,70,2|0,0:0|0:0,0:0:0:0:
57,297,163058,6,0,L|53:277,1,20,2|0,0:0|0:0,0:0:0:0:
79,207,163508,2,0,L|77:194,1,10,2|0,0:0|0:0,0:0:0:0:
29,143,163808,2,0,L|25:123,1,20,2|0,0:0|0:0,0:0:0:0:
117,10,164258,102,0,P|140:27|169:36,1,59.9999981689454,2|0,0:0|0:0,0:0:0:0:
236,69,165008,2,0,P|249:62|261:53,1,29.9999990844727,2|0,0:0|0:0,0:0:0:0:
502,113,165458,6,0,P|472:115|444:104,1,60,2|0,0:0|0:0,0:0:0:0:
375,127,166058,2,0,P|357:102|354:73,1,60,2|0,0:0|0:0,0:0:0:0:
196,271,166658,6,0,P|259:212|283:129,1,175,2|0,0:0|0:0,0:0:0:0:
236,69,167858,86,0,L|196:75,1,40,2|0,0:0|0:0,0:0:0:0:
166,143,168308,2,0,L|86:155,1,80,2|0,0:0|0:0,0:0:0:0:
7,196,169058,6,0,L|23:92,1,104.999996795654,2|0,0:0|0:0,0:0:0:0:
1,23,170258,102,0,L|20:19,1,20,2|0,0:0|0:0,0:0:0:0:
96,42,170708,2,0,L|131:36,1,35,2|0,0:0|0:0,0:0:0:0:
215,148,171458,6,0,L|211:168,1,20,2|0,0:0|0:0,0:0:0:0:
87,226,171908,22,0,B|206:253|165:171|281:205,1,200,2|0,0:0|0:0,0:0:0:0:
364,348,172658,70,0,L|367:327,1,20,2|0,0:0|0:0,0:0:0:0:
410,266,173108,2,0,L|414:236,1,30,2|0,0:0|0:0,0:0:0:0:
375,134,173708,6,0,L|335:140,1,40,2|0,0:0|0:0,0:0:0:0:
254,235,174458,22,0,B|141:268|182:186|61:212|61:212|99:249|100:276,1,275,2|0,0:0|0:0,0:0:0:0:
331,266,176258,6,0,B|323:305|332:328|209:349|293:430|407:395|309:325|323:305|335:265,1,245,2|0,0:0|0:0,0:0:0:0:
397,230,180008,54,0,L|396:217,1,12.5,0|0,1:0|0:0,0:0:0:0:
346,165,180158,2,0,L|344:152,3,12.5,2|0|8|0,1:3|0:0|0:0|0:0,0:0:0:0:
208,109,180458,86,0,L|211:127,1,18.7500007152558,0|0,1:0|0:0,0:0:0:0:
271,171,180608,2,0,L|274:189,1,18.7500007152558,0|0,1:0|0:0,0:0:0:0:
97,217,180758,5,0,1:0:0:0:
100,205,180833,1,0,1:0:0:0:
103,193,180908,1,0,1:0:0:0:
106,182,180983,1,0,1:0:0:0:
123,106,181058,54,0,L|61:116,1,62.5,6|0,1:0|0:0,0:0:0:0:
58,300,181208,2,0,L|181:279,1,125,0|8,0:0|1:2,0:0:0:0:
78,39,181508,1,2,1:3:0:0:
391,132,181658,6,0,L|380:193,1,62.5
197,197,181808,2,0,L|217:73,1,125,0|8,1:0|1:2,0:0:0:0:
458,177,182108,1,0,0:0:0:0:
295,154,182258,5,2,0:0:0:0:
478,73,182408,1,0,1:0:0:0:
475,88,182483,1,0,0:0:0:0:
472,103,182558,1,8,1:2:0:0:
355,53,182708,1,2,1:3:0:0:
492,0,182858,53,2,0:0:0:0:
285,80,183008,1,0,1:0:0:0:
440,299,183158,5,8,1:2:0:0:
391,132,183308,1,0,0:0:0:0:
329,320,183458,6,0,L|366:313,1,37.5000014305115,2|0,1:2|0:0,0:0:0:0:
440,299,183608,2,0,L|477:292,1,37.5000014305115
258,360,183758,6,0,P|233:360|210:350,1,50,8|0,1:2|0:0,0:0:0:0:
76,363,183908,2,0,P|63:341|60:316,1,50,2|0,1:3|0:0,0:0:0:0:
123,196,184058,102,0,L|129:158,1,37.5000014305115
144,85,184208,2,0,L|150:47,1,37.5000014305115,0|0,1:0|0:0,0:0:0:0:
207,138,184358,85,8,1:2:0:0:
5,140,184508,6,0,P|32:115|69:111,1,75.0000028610231
191,226,184658,38,0,L|67:246,1,125,2|0,0:0|1:0,0:0:0:0:
329,320,184958,86,0,L|335:282,1,37.5000014305115,8|0,1:2|0:0,0:0:0:0:
350,209,185108,2,0,L|356:171,1,37.5000014305115,2|0,1:3|0:0,0:0:0:0:
462,38,185258,54,0,P|430:37|401:48,1,62.5,2|0,0:0|0:0,0:0:0:0:
272,30,185408,2,0,P|256:56|251:87,1,62.5,0|0,1:0|0:0,0:0:0:0:
191,226,185558,102,0,P|203:247|223:262,1,50,8|0,1:2|0:0,0:0:0:0:
329,320,185708,2,0,P|352:321|376:312,1,50
491,147,185858,70,0,L|429:157,1,62.5,6|0,1:2|0:0,0:0:0:0:
329,320,186008,2,0,L|452:299,1,125,0|8,0:0|1:2,0:0:0:0:
356,172,186308,1,2,1:3:0:0:
381,37,186458,6,0,L|371:99,1,62.5
208,199,186608,2,0,L|229:76,1,125,0|8,1:0|1:2,0:0:0:0:
356,172,186908,1,0,0:0:0:0:
242,2,187058,5,2,0:0:0:0:
144,127,187208,1,0,1:0:0:0:
129,130,187283,1,0,0:0:0:0:
114,133,187358,1,8,1:2:0:0:
284,188,187508,1,2,1:3:0:0:
50,178,187658,86,0,P|39:155|38:131,1,50,2|0,0:0|0:0,0:0:0:0:
4,60,187808,2,0,P|18:39|39:25,1,50,0|0,1:0|0:0,0:0:0:0:
218,137,187958,6,0,L|208:199,1,62.5,8|0,1:2|0:0,0:0:0:0:
116,56,188108,1,0,0:0:0:0:
183,320,188258,102,0,L|146:313,1,37.5000014305115,2|0,1:2|0:0,0:0:0:0:
72,299,188408,2,0,L|35:292,1,37.5000014305115
254,360,188558,6,0,P|279:360|302:350,1,50,8|0,1:2|0:0,0:0:0:0:
436,363,188708,2,0,P|449:341|452:316,1,50,2|0,1:3|0:0,0:0:0:0:
389,196,188858,102,0,L|383:158,1,37.5000014305115
368,85,189008,2,0,L|362:47,1,37.5000014305115,0|0,1:0|0:0,0:0:0:0:
305,138,189158,85,8,1:2:0:0:
497,134,189308,6,0,P|473:114|443:110,1,62.5
333,235,189458,38,0,L|431:250,1,100,2|0,0:0|1:0,0:0:0:0:
183,320,189758,86,0,L|177:282,1,37.5000014305115,8|0,1:2|0:0,0:0:0:0:
162,209,189908,2,0,L|156:171,1,37.5000014305115,2|0,1:3|0:0,0:0:0:0:
38,25,190058,54,0,P|70:24|99:35,1,62.5
264,0,190208,2,0,P|280:26|285:57,1,62.5,0|0,1:0|0:0,0:0:0:0:
365,199,190358,86,0,P|353:220|333:235,1,50,8|0,1:2|0:0,0:0:0:0:
183,320,190508,2,0,P|160:321|136:312,1,50,8|0,1:2|0:0,0:0:0:0:
21,147,190658,86,0,L|83:157,1,62.5,6|0,1:0|0:0,0:0:0:0:
183,320,190808,2,0,L|60:299,1,125,0|8,0:0|1:2,0:0:0:0:
261,333,191108,1,2,1:3:0:0:
285,57,191258,6,0,L|295:119,1,62.5
458,219,191408,2,0,L|437:96,1,125,0|8,1:0|1:2,0:0:0:0:
471,297,191708,1,0,0:0:0:0:
424,20,191858,5,2,0:0:0:0:
325,125,192008,1,0,1:0:0:0:
310,122,192083,1,0,0:0:0:0:
295,119,192158,1,8,1:2:0:0:
458,219,192308,1,2,1:3:0:0:
224,103,192458,53,2,0:0:0:0:
424,20,192608,1,0,1:0:0:0:
247,174,192758,5,8,1:2:0:0:
194,0,192908,1,0,0:0:0:0:
136,153,193058,6,0,L|173:160,1,37.5000014305115,2|0,1:2|0:0,0:0:0:0:
247,174,193208,2,0,L|284:181,1,37.5000014305115
55,143,193358,6,0,P|55:167|65:190,1,50,8|0,1:2|0:0,0:0:0:0:
47,324,193508,2,0,P|69:337|94:340,1,50,2|0,1:3|0:0,0:0:0:0:
268,285,193658,102,0,L|261:248,1,37.5000014305115
247,174,193808,2,0,L|240:137,1,37.5000014305115,0|0,1:0|0:0,0:0:0:0:
351,200,193958,85,8,1:2:0:0:
105,82,194108,1,0,0:0:0:0:
157,306,194258,22,0,L|194:299,1,37.5000014305115,2|0,0:0|0:0,0:0:0:0:
268,285,194408,2,0,L|305:278,1,37.5000014305115,0|0,1:0|0:0,0:0:0:0:
340,124,194558,6,0,L|389:133,1,50,8|0,1:2|0:0,0:0:0:0:
463,151,194708,2,0,L|512:160,1,50,2|0,1:3|0:0,0:0:0:0:
353,12,194858,38,0,P|321:11|292:22,1,62.5,2|0,0:0|0:0,0:0:0:0:
128,0,195008,2,0,P|112:26|107:57,1,62.5,0|0,1:0|0:0,0:0:0:0:
66,191,195158,102,0,P|78:212|98:227,1,50,8|0,1:2|0:0,0:0:0:0:
220,294,195308,2,0,P|243:295|267:286,1,50
446,321,195458,69,4,1:2:0:0:
430,249,195658,5,0,0:0:0:0:
364,213,195858,53,0,0:0:0:0:
262,249,196058,53,0,0:0:0:0:
268,285,196258,101,0,0:0:0:0:
40,122,196508,38,0,L|16:0,1,125,4|0,1:2|0:0,0:0:0:0:
57,197,196808,5,0,0:0:0:0:
108,45,196958,1,0,0:0:0:0:
15,335,197108,86,0,L|64:325,1,50,8|0,1:2|0:0,0:0:0:0:
79,323,197258,37,0,1:0:0:0:
191,302,197408,70,0,L|240:292,1,50,8|0,1:2|0:0,0:0:0:0:
268,285,197558,22,0,L|292:280,1,25,8|0,1:0|0:0,0:0:0:0:
393,259,197708,86,0,L|442:249,1,50,8|0,1:2|0:0,0:0:0:0:
479,242,197858,6,0,L|435:250,1,37.5,8|0,1:2|0:0,0:0:0:0:
298,127,198158,70,0,P|298:164|315:198,1,75.0000028610231,14|0,1:2|0:0,0:0:0:0:
393,97,198308,6,0,P|385:121|386:146,1,50,0|0,1:0|0:0,0:0:0:0:
490,102,198458,54,0,P|478:116|470:133,1,37.5000014305115,0|0,1:0|0:0,0:0:0:0:
164,197,198608,38,0,P|190:213|221:218,1,62.5,10|0,1:2|0:0,0:0:0:0:
184,111,198758,6,0,P|196:125|211:136,1,37.5000014305115,0|0,1:0|0:0,0:0:0:0:
233,40,198908,54,0,P|236:51|242:63,1,25,0|0,1:0|0:0,0:0:0:0:
151,331,199058,38,0,P|173:319|191:302,1,50,10|0,1:2|3:0,3:0:0:0:
89,275,199208,6,0,P|101:273|113:269,1,25,0|0,1:0|0:0,0:0:0:0:
65,203,199358,54,0,P|71:204|77:205,1,12.5,0|0,1:0|0:0,0:0:0:0:
328,341,199508,70,0,B|305:311|346:277|346:277|400:284|399:326,1,150.000005722046,10|0,1:2|0:0,0:0:0:0:
480,238,199808,6,0,B|521:198|478:150|478:150|408:154|416:220,1,200,10|0,1:2|0:0,0:0:0:0:
274,163,200108,6,0,B|219:105|277:55|277:55|358:58|346:143,1,250,10|0,1:2|3:0,0:0:0:0:
151,331,200558,38,0,P|104:366|29:355,1,125,12|2,1:0|1:3,0:0:0:0:
229,311,200783,1,0,0:0:0:0:
229,311,200858,2,0,L|290:300,1,62.5
361,347,201008,2,0,L|371:285,1,62.5,0|0,1:0|0:0,0:0:0:0:
405,77,201158,1,8,1:2:0:0:
445,189,201308,102,0,L|383:199,1,62.5
174,247,201458,54,0,L|194:123,1,125,2|0,0:0|1:0,0:0:0:0:
0,34,201758,86,0,L|38:28,1,37.5000014305115,8|0,1:2|0:0,0:0:0:0:
111,13,201908,2,0,L|149:7,1,37.5000014305115,2|0,1:3|0:0,0:0:0:0:
405,77,202058,54,0,P|373:76|344:87,1,62.5,2|0,0:0|0:0,0:0:0:0:
215,66,202208,2,0,P|199:92|194:123,1,62.5,0|0,1:0|0:0,0:0:0:0:
174,247,202358,102,0,P|186:268|206:283,1,50,8|0,1:2|0:0,0:0:0:0:
312,345,202508,2,0,P|335:346|359:337,1,50
500,142,202658,70,0,L|438:152,1,62.5,6|0,1:2|0:0,0:0:0:0:
432,303,202808,2,0,L|494:293,1,62.5
505,135,202958,22,0,L|430:146,1,75.0000028610231,8|0,1:2|0:0,0:0:0:0:
427,310,203108,2,0,L|501:298,1,75.0000028610231,2|0,1:3|0:0,0:0:0:0:
355,25,203258,102,0,L|345:87,1,62.5
194,189,203408,2,0,L|215:66,1,125,0|8,1:0|1:2,0:0:0:0:
330,159,203708,1,0,0:0:0:0:
171,266,203858,5,2,0:0:0:0:
316,327,204008,1,0,1:0:0:0:
313,312,204083,1,0,0:0:0:0:
310,297,204158,1,8,1:2:0:0:
189,384,204308,1,2,1:3:0:0:
392,320,204458,86,0,P|390:295|380:272,1,50,2|0,0:0|0:0,0:0:0:0:
377,173,204608,2,0,P|354:161|330:159,1,50,0|0,1:0|0:0,0:0:0:0:
233,256,204758,6,0,L|171:266,1,62.5,8|0,0:0|0:0,0:0:0:0:
96,285,204908,2,0,L|34:295,1,62.5
233,256,205058,102,0,L|240:219,1,37.5000014305115,2|0,1:2|0:0,0:0:0:0:
254,145,205208,2,0,L|261:108,1,37.5000014305115
269,337,205358,6,0,P|294:337|317:327,1,50,8|0,1:2|0:0,0:0:0:0:
452,369,205508,2,0,P|465:347|468:322,1,50,2|0,1:3|0:0,0:0:0:0:
443,227,205658,102,0,L|449:189,1,37.5000014305115
463,116,205808,2,0,L|469:78,1,37.5000014305115,0|0,1:0|0:0,0:0:0:0:
484,6,205958,85,8,1:2:0:0:
388,144,206108,6,0,P|360:159|329:159,1,62.5
125,98,206258,38,0,L|140:0,1,100,2|0,0:0|1:0,0:0:0:0:
0,201,206558,86,0,L|38:195,1,37.5000014305115,8|0,1:2|0:0,0:0:0:0:
111,180,206708,2,0,L|149:174,1,37.5000014305115,2|0,1:3|0:0,0:0:0:0:
347,24,206858,54,0,P|348:56|337:85,1,62.5
353,261,207008,2,0,P|327:277|296:282,1,62.5,0|0,1:0|0:0,0:0:0:0:
134,344,207158,86,0,P|113:332|98:312,1,50,8|0,1:2|0:0,0:0:0:0:
0,201,207308,2,0,P|-1:178|8:154,1,50,8|0,1:2|0:0,0:0:0:0:
145,7,207458,86,0,L|207:17,1,62.5,6|0,1:0|0:0,0:0:0:0:
217,179,207608,2,0,L|155:169,1,62.5
140,0,207758,22,0,L|215:11,1,75.0000028610231,8|0,1:2|0:0,0:0:0:0:
222,186,207908,2,0,L|148:174,1,75.0000028610231,2|0,1:3|0:0,0:0:0:0:
343,199,208058,102,0,L|353:261,1,62.5
199,384,208208,2,0,L|178:261,1,125,0|8,1:0|1:2,0:0:0:0:
368,333,208508,1,0,0:0:0:0:
327,127,208658,5,2,0:0:0:0:
421,225,208808,1,0,1:0:0:0:
436,228,208883,1,0,0:0:0:0:
451,231,208958,1,8,1:2:0:0:
284,358,209108,1,2,1:3:0:0:
512,352,209258,53,2,0:0:0:0:
270,282,209408,1,0,1:0:0:0:
401,141,209558,5,8,1:2:0:0:
443,337,209708,1,0,0:0:0:0:
290,120,209858,6,0,L|327:127,1,37.5000014305115,2|0,1:2|0:0,0:0:0:0:
401,141,210008,2,0,L|438:148,1,37.5000014305115
214,107,210158,6,0,P|190:107|167:117,1,50,8|0,1:2|0:0,0:0:0:0:
28,96,210308,2,0,P|15:118|12:143,1,50,2|0,1:3|0:0,0:0:0:0:
111,237,210458,102,0,L|118:274,1,37.5000014305115
132,348,210608,2,0,L|139:385,1,37.5000014305115,0|0,1:0|0:0,0:0:0:0:
58,322,210758,85,8,1:2:0:0:
246,271,210908,6,0,P|221:290|190:296,1,62.5
69,177,211058,38,0,L|167:192,1,100,2|0,0:0|1:0,0:0:0:0:
329,328,211358,86,0,L|323:290,1,37.5000014305115,8|0,1:2|0:0,0:0:0:0:
308,217,211508,2,0,L|302:179,1,37.5000014305115,0|0,1:0|0:0,0:0:0:0:
384,55,211658,54,0,P|352:54|323:65,1,62.5,2|0,0:0|0:0,0:0:0:0:
188,60,211808,2,0,P|172:86|167:117,1,62.5,0|0,1:0|0:0,0:0:0:0:
159,260,211958,102,0,P|171:281|191:296,1,50,8|0,1:2|0:0,0:0:0:0:
329,328,212108,2,0,P|352:329|376:320,1,50
507,19,212258,69,6,1:2:0:0:
483,127,212458,5,2,0:0:0:0:
384,181,212658,101,2,0:0:0:0:
243,147,212858,5,2,0:0:0:0:
256,76,213058,102,0,L|266:10,1,66.6666666666667,2|2,0:0|0:0,0:0:0:0:
172,159,213308,54,0,L|110:168,1,62.5,4|0,1:2|0:0,0:0:0:0:
0,190,213458,53,2,0:0:0:0:
66,225,213608,1,0,0:0:0:0:
104,288,213758,1,0,0:0:0:0:
137,88,213908,22,0,L|144:38,1,50,8|0,1:2|0:0,0:0:0:0:
181,276,214058,5,0,0:0:0:0:
221,270,214133,1,0,1:0:0:0:
261,264,214208,2,0,L|253:313,1,50,10|0,1:2|0:0,0:0:0:0:
317,122,214358,5,0,1:0:0:0:
377,113,214433,1,0,1:0:0:0:
437,104,214508,2,0,L|448:29,1,50,8|0,1:2|0:0,0:0:0:0:
450,326,214658,53,4,1:0:0:0:
188,367,214808,1,0,0:0:0:0:
229,105,214958,1,8,1:2:0:0:
450,326,215108,5,0,0:0:0:0:
188,367,215258,1,0,0:0:0:0:
229,105,215408,1,0,1:0:0:0:
450,326,215558,101,8,1:2:0:0:
188,367,215708,1,0,0:0:0:0:
229,105,215858,1,2,0:0:0:0:
450,326,216008,5,0,1:0:0:0:
188,367,216158,1,8,1:2:0:0:
229,105,216308,1,0,1:0:0:0:
480,249,216458,21,0,0:0:0:0:
283,279,216608,1,0,1:0:0:0:
359,184,216758,101,8,1:2:0:0:
336,331,216908,1,0,0:0:0:0:
85,81,217058,85,4,1:0:0:0:
320,44,217208,1,0,0:0:0:0:
283,279,217358,1,8,1:2:0:0:
85,81,217508,5,0,0:0:0:0:
320,44,217658,1,0,0:0:0:0:
283,279,217808,1,0,1:0:0:0:
85,81,217958,101,8,1:2:0:0:
320,44,218108,1,0,0:0:0:0:
283,279,218258,1,2,0:0:0:0:
85,81,218408,5,0,1:0:0:0:
320,44,218558,1,8,1:2:0:0:
283,279,218708,1,0,1:0:0:0:
7,163,218858,37,0,0:0:0:0:
302,118,219008,1,0,1:0:0:0:
126,324,219158,101,8,1:2:0:0:
154,140,219308,1,0,0:0:0:0:
352,338,219458,69,4,1:0:0:0:
389,103,219608,1,0,0:0:0:0:
154,140,219758,1,8,1:2:0:0:
352,338,219908,5,0,0:0:0:0:
389,103,220058,1,0,0:0:0:0:
154,140,220208,1,0,1:0:0:0:
352,338,220358,101,8,1:2:0:0:
389,103,220508,1,0,0:0:0:0:
154,140,220658,1,2,0:0:0:0:
352,338,220808,5,0,1:0:0:0:
389,103,220958,1,8,1:2:0:0:
154,140,221108,1,0,1:0:0:0:
276,326,221258,21,0,0:0:0:0:
250,148,221408,1,0,1:0:0:0:
174,248,221558,101,8,1:2:0:0:
306,227,221708,1,0,0:0:0:0:
108,29,221858,85,4,1:0:0:0:
71,264,222008,1,0,0:0:0:0:
306,227,222158,1,8,1:2:0:0:
108,29,222308,5,0,0:0:0:0:
71,264,222458,1,0,0:0:0:0:
306,227,222608,1,0,1:0:0:0:
108,29,222758,101,8,1:2:0:0:
71,264,222908,1,0,0:0:0:0:
306,227,223058,1,2,0:0:0:0:
108,29,223208,5,0,1:0:0:0:
71,264,223358,1,8,1:2:0:0:
306,227,223508,1,0,1:0:0:0:
268,29,223658,37,0,0:0:0:0:
223,324,223808,1,0,1:0:0:0:
37,154,223958,86,0,L|86:161,1,50,8|0,1:2|0:0,0:0:0:0:
184,173,224108,2,0,L|233:180,1,50,8|0,1:2|0:0,0:0:0:0:
459,211,224258,85,4,1:0:0:0:
301,150,224408,1,0,0:0:0:0:
145,277,224558,2,0,L|148:301,1,25,8|0,1:2|0:0,0:0:0:0:
459,211,224708,5,0,0:0:0:0:
301,150,224858,1,0,0:0:0:0:
145,277,225008,2,0,L|148:301,1,25,0|0,1:0|0:0,0:0:0:0:
159,374,225158,1,8,1:2:0:0:
301,150,225308,101,0,0:0:0:0:
145,277,225458,2,0,L|148:301,1,25,2|0,0:0|0:0,0:0:0:0:
159,374,225608,1,0,1:0:0:0:
301,150,225758,5,8,1:2:0:0:
145,277,225908,2,0,L|148:301,1,25,0|0,1:0|0:0,0:0:0:0:
0,220,226058,6,0,P|33:204|70:207,1,75.0000028610231
145,163,226208,2,0,P|171:179|187:205,1,62.5,0|0,1:0|0:0,0:0:0:0:
268,236,226358,2,0,P|267:260|259:284,1,50,8|0,1:2|0:0,0:0:0:0:
277,360,226508,2,0,P|261:370|243:375,1,37.5000014305115
17,134,226658,85,0,1:0:0:0:
128,83,226808,1,0,0:0:0:0:
284,137,226958,2,0,L|280:161,1,25,8|0,1:2|0:0,0:0:0:0:
17,134,227108,5,0,0:0:0:0:
128,83,227258,1,0,0:0:0:0:
284,137,227408,2,0,L|280:161,1,25,0|0,1:0|0:0,0:0:0:0:
268,236,227558,1,8,1:2:0:0:
128,83,227708,101,0,0:0:0:0:
284,137,227858,2,0,L|280:161,1,25,2|0,0:0|0:0,0:0:0:0:
268,236,228008,1,0,1:0:0:0:
128,83,228158,5,8,1:2:0:0:
284,137,228308,2,0,L|280:161,1,25,0|0,1:0|0:0,0:0:0:0:
468,62,228458,38,0,P|422:43|373:52,1,100
260,44,228608,2,0,P|225:69|206:108,1,87.500000834465,0|0,1:0|0:0,0:0:0:0:
153,200,228758,2,0,P|155:237|173:269,1,75.0000028610231,8|0,1:2|0:0,0:0:0:0:
205,360,228908,2,0,P|232:374|263:378,1,62.5
482,354,229058,53,0,1:0:0:0:
419,326,229208,1,0,0:0:0:0:
335,355,229358,2,0,L|338:374,1,18.7500007152558
482,354,229508,5,0,0:0:0:0:
419,326,229658,1,0,0:0:0:0:
335,355,229808,2,0,L|338:374,1,18.7500007152558
482,354,229958,5,0,0:0:0:0:
414,105,230108,1,0,1:0:0:0:
341,192,230258,86,0,L|344:210,1,18.7500007152558
356,282,230408,1,0,0:0:0:0:
414,105,230558,5,0,0:0:0:0:
264,176,230708,2,0,L|272:225,1,50,8|0,1:2|0:0,0:0:0:0:
132,130,230858,5,0,0:0:0:0:
128,105,230933,1,0,1:0:0:0:
124,80,231008,2,0,L|174:71,1,50,8|0,1:2|0:0,0:0:0:0:
204,242,231158,5,0,1:0:0:0:
179,246,231233,1,0,1:0:0:0:
154,250,231308,2,0,L|145:200,1,50,8|0,1:2|0:0,0:0:0:0:
328,63,231458,38,0,P|377:72|414:105,1,100,2|2,0:0|0:0,0:0:0:0:
257,71,231908,2,0,P|183:61|131:9,1,150.000005722046,2|2,0:0|0:3,0:0:0:0:
85,140,232658,6,0,P|36:148|0:181,1,100,2|2,0:0|0:0,0:0:0:0:
22,270,233108,2,0,P|95:260|147:208,1,150.000005722046,2|2,0:0|0:3,0:0:0:0:
233,294,233858,102,0,P|319:305|387:359,1,175,2|2,0:0|0:0,0:0:0:0:
487,270,235058,102,0,L|473:196,1,75.0000028610231,2|2,0:0|0:3,0:0:0:0:
332,123,235508,1,2,0:0:0:0:
458,20,235658,1,2,0:0:0:0:
396,72,235808,2,0,L|410:146,1,75.0000028610231,2|2,0:0|0:0,0:0:0:0:
238,186,236258,38,0,B|254:107|254:107|260:108|260:108|254:107|254:107|270:26,1,175,2|2,0:0|0:3,0:0:0:0:
165,131,237458,6,0,L|101:142,1,64.9999970245363,2|2,0:0|0:0,0:0:0:0:
29,123,237908,2,0,L|23:154,1,32.4999985122681,2|2,0:0|0:3,0:0:0:0:
141,214,238208,2,0,L|129:277,1,64.9999970245363,2|2,0:0|0:0,0:0:0:0:
149,350,238658,54,0,L|117:355,1,32.4999985122681,2|2,0:0|0:3,0:0:0:0:
8,378,238958,2,0,L|19:314,1,64.9999970245363,2|2,0:0|0:0,0:0:0:0:
0,240,239408,2,0,L|63:228,1,64.9999970245363,2|2,0:0|0:3,0:0:0:0:
207,295,239858,54,0,L|302:277,1,97.4999955368044,2|2,0:0|0:0,0:0:0:0:
462,309,240458,2,0,L|366:326,1,97.4999955368044,2|2,0:0|0:3,0:0:0:0:
321,201,241058,102,0,B|340:110|340:110|346:111|346:111|340:110|340:110|357:21,1,194.999991073609,2|2,0:0|0:0,0:0:0:0:
434,243,242258,70,0,L|379:252,1,55.0000016784668,2|2,0:0|0:3,0:0:0:0:
366,326,242708,2,0,L|257:345,1,110.000003356934,2|2,0:0|0:0,0:0:0:0:
212,192,243458,38,0,B|194:281|194:281|188:280|188:280|194:281|194:281|179:351,1,175,2|2,0:0|0:3,0:0:0:0:
82,213,244658,70,0,L|136:203,1,55.0000016784668,2|2,0:0|0:0,0:0:0:0:
225,113,245108,2,0,L|116:132,1,110.000003356934,2|2,0:0|0:3,0:0:0:0:
67,0,245858,38,0,B|57:46|57:46|52:45|52:45|57:46|57:46|49:87|49:87|55:88|55:88|49:87|49:87|36:149,1,165.000005035401,2|2,0:0|0:0,0:0:0:0:
82,213,246908,6,0,B|125:206|125:206|124:201|124:201|125:206|125:206|187:195|187:195|188:200|188:200|187:195|187:195|267:181|267:181|266:176|266:176|267:181|267:181|285:179,1,225,2|2,0:0|0:3,0:0:0:0:
483,77,248743,102,0,P|496:49|487:-3,1,75.0000028610231,2|2,0:0|0:0,0:0:0:0:
425,33,249012,2,0,P|409:15|367:4,1,50,2|2,0:0|0:0,0:0:0:0:
372,77,249252,6,0,B|284:107|275:184|278:241|310:299|310:379|186:443|90:384|91:301|112:199|210:227|261:227|275:177,1,622.499981002808,2|0,0:0|3:0,0:0:0:0:
