osu file format v14

[General]
AudioFilename: Ether.mp3
AudioLeadIn: 0
PreviewTime:50750
Countdown: 0
SampleSet: Soft
StackLeniency: 0.4
Mode: 0
LetterboxInBreaks: 0
EpilepsyWarning: 1
WidescreenStoryboard: 1

[Editor]
Bookmarks: 10658,80258,179858,249308,255458
DistanceSpacing: 0.9
BeatDivisor: 4
GridSize: 16
TimelineZoom: 2.1

[Metadata]
Title:Ether
TitleUnicode:エーテル
Artist:Feryquitous feat. Aitsuki Nakuru
ArtistUnicode:Feryquitous feat. 藍月なくる
Creator:Acyl
Version:Lami x lit120's Extra
Source:
Tags:『JelLaboratory』 c95 female vocal japanese doujin pop artcore -tochi j1_ how2miss otosaka-yu necho reincarnation suzuki_1112 moecho neilperry sing toybot kalibe lit120 lami lmt firika fanzhen0019 skystar yusomi amamiya yuko _epreus bbj0920 len fast kawashiro heilia cococolaco 藍月なくる aitsuki nakuru _todestrieb coco
BeatmapID:1947619
BeatmapSetID:902425

[Difficulty]
HPDrainRate:6
CircleSize:4
OverallDifficulty:9
ApproachRate:9.5
SliderMultiplier:1.8
SliderTickRate:1

[Events]
//Background and Video events
0,0,"background.jpg",0,0
//Break Periods
//Storyboard Layer 0 (Background)
Sprite,Background,Centre,"background.jpg",320,240 F,0,0,,0
Sprite,Background,Centre,"sb\blank.jpg",0,0 F,0,-4025,-3682,0,1 F,0,-3682,-253,1 F,0,-253,3,1,0 M,0,3,,320,240 S,0,3,,0.6493149
Sprite,Background,Centre,"sb\tochi.png",320,240 S,0,-3532,,0.6 F,0,-3532,-3187,0,1 F,0,-3187,-596,1,0.9893727 F,0,-596,-253,0.9893727,0
Sprite,Background,Centre,"sb\bgblurbw.jpg",0,0 F,2,1058,10658,0,0.6487671 M,0,1058,50258,320,-18.8055,320,240 S,0,1058,50258,0.9298632,0.5160549 F,0,10658,49058,0.6487671 F,0,49058,50258,0.6487671,0
Sprite,Background,Centre,"sb\bgblur.jpg",320,240 S,0,51458,,0.5160547 F,0,51458,70658,1 F,0,70658,70958,1,0
Sprite,Background,Centre,"sb\blank.jpg",320,240 S,0,49058,,0.537096 F,0,49058,50258,0,1 F,0,50258,51458,1 F,0,51458,51758,1,0
Sprite,Background,Centre,"sb\blank.jpg",320,240 S,0,70658,,0.5230685 F,0,70658,70958,0,1 F,0,70958,80258,1,0.9966667 F,0,80258,80408,0.9966667,0
Sprite,Background,Centre,"sb\bgblurbw.jpg",320,240 S,0,80258,,0.5300821 F,0,80258,80408,0,1 F,0,80408,118658,1,0.9866667 F,0,118658,119258,0.9866667,0.2384657 F,0,119258,121058,0.2384657,0.2459477 F,0,121058,121358,0.2459477,0
Sprite,Background,Centre,"sb\bgblur.jpg",320,240 F,0,121058,137858,1 S,0,121058,137858,0.5160547,0.5230685 F,0,137858,138158,1,0
Sprite,Background,Centre,"background.jpg",320,240 S,0,137858,,0.5230684 F,0,137858,138158,0,1 F,0,138158,156758,1,0.9866667 F,0,156758,157358,0.9866667,0
Sprite,Background,Centre,"sb\bgblur.jpg",320,240 S,0,181058,,0.5160547 F,0,181058,214658,1 F,0,214658,214958,1,0
Sprite,Background,Centre,"sb\bgblurbw.jpg",0,0 S,0,156758,,0.6493151 P,0,156758,,V F,0,156758,157358,0,1 M,0,156758,179858,200.0658,240,384.526,240 F,0,157358,175058,1 F,0,175058,176258,1,0.2565479 F,0,176258,181058,0.2565479
Sprite,Background,Centre,"background.jpg",320,240 S,0,214658,,0.5160549 F,0,214658,214958,0,1 F,0,214958,231458,1 F,0,231458,232658,1,0
Sprite,Background,Centre,"sb\bgblurbw.jpg",0,0 P,0,231458,,H F,0,231458,232658,0,1 M,2,231458,255458,457.4685,148.8219,-109.9397,549.3041 S,0,231458,255458,0.6984109,1.140274 R,0,231458,255458,-0.01402771,-0.2665204 F,0,232658,249308,1 F,0,249308,255458,1,0
Sprite,Background,Centre,"sb\blank.jpg",0,0 F,0,51308,51458,0,0.5 M,0,51458,,320,240 F,0,51458,51758,0.5,0.1 V,1,51458,51758,0.42,0.51,0.4,0.05 R,0,51458,70658,0.08416412,-0.1402744 P,0,51758,,A F,0,51758,70658,0.1 F,0,70658,70958,0.1,0
Sprite,Background,Centre,"sb\blank.jpg",0,0 F,0,120608,120758,0,0.5 M,0,120758,,320,240 F,0,120758,121058,0.5,0.1 V,1,120758,121058,0.42,0.51,0.4,0.05 R,0,120758,157058,-0.1402744,0.08416412 P,0,121058,,A F,0,121058,157058,0.1 F,0,157058,157358,0.1,0
Sprite,Background,Centre,"sb\blank.jpg",0,0 F,0,180458,180608,0,0.5 M,0,180608,,320,240 F,0,180608,180908,0.5,0.1 V,1,180608,180908,0.42,0.51,0.4,0.05 R,0,180608,231458,0.08416412,-0.1402744 P,0,180908,,A F,0,180908,231458,0.1 F,0,231458,231758,0.1,0
Sprite,Background,Centre,"sb\ring.png",0,0 M,0,51458,,376,259 C,0,51458,,255,255,255 F,1,51458,53758,0.9,0 S,1,51458,53758,0.25,0.5
Sprite,Background,Centre,"sb\ring.png",0,0 M,0,51908,,64,108 C,0,51908,,255,255,255 F,1,51908,54058,0.9,0 S,1,51908,54058,0.25,0.5
Sprite,Background,Centre,"sb\ring.png",0,0 M,0,52208,,201,293 C,0,52208,,255,255,255 F,1,52208,54208,0.9,0 S,1,52208,54208,0.25,0.5
Sprite,Background,Centre,"sb\ring.png",0,0 M,0,52358,,119,164 C,0,52358,,255,255,255 F,1,52358,54358,0.9,0 S,1,52358,54358,0.25,0.5
Sprite,Background,Centre,"sb\ring.png",0,0 M,0,52508,,94,408 C,0,52508,,255,255,255 F,1,52508,54808,0.9,0 S,1,52508,54808,0.25,0.5
Sprite,Background,Centre,"sb\ring.png",0,0 M,0,52958,,332,167 C,0,52958,,255,255,255 F,1,52958,55108,0.9,0 S,1,52958,55108,0.25,0.5
Sprite,Background,Centre,"sb\ring.png",0,0 M,0,53258,,414,422 C,0,53258,,255,255,255 F,1,53258,55258,0.9,0 S,1,53258,55258,0.25,0.5
Sprite,Background,Centre,"sb\ring.png",0,0 M,0,53408,,407,192 C,0,53408,,255,255,255 F,1,53408,55408,0.9,0 S,1,53408,55408,0.25,0.5
Sprite,Background,Centre,"sb\ring.png",0,0 M,0,53558,,261,340 C,0,53558,,255,255,255 F,1,53558,55558,0.9,0 S,1,53558,55558,0.25,0.5
Sprite,Background,Centre,"sb\ring.png",0,0 M,0,53708,,487,392 C,0,53708,,255,255,255 F,1,53708,55708,0.9,0 S,1,53708,55708,0.25,0.5
Sprite,Background,Centre,"sb\ring.png",0,0 M,0,53858,,576,239 C,0,53858,,255,255,255 F,1,53858,56158,0.9,0 S,1,53858,56158,0.25,0.5
Sprite,Background,Centre,"sb\ring.png",0,0 M,0,54308,,228,185 C,0,54308,,255,255,255 F,1,54308,56458,0.9,0 S,1,54308,56458,0.25,0.5
Sprite,Background,Centre,"sb\ring.png",0,0 M,0,54608,,376,334 C,0,54608,,255,255,255 F,1,54608,56608,0.9,0 S,1,54608,56608,0.25,0.5
Sprite,Background,Centre,"sb\ring.png",0,0 M,0,54758,,173,245 C,0,54758,,255,255,255 F,1,54758,56758,0.9,0 S,1,54758,56758,0.25,0.5
Sprite,Background,Centre,"sb\ring.png",0,0 M,0,54908,,372,67 C,0,54908,,255,255,255 F,1,54908,57208,0.9,0 S,1,54908,57208,0.25,0.5
Sprite,Background,Centre,"sb\ring.png",0,0 M,0,55358,,462,417 C,0,55358,,255,255,255 F,1,55358,57508,0.9,0 S,1,55358,57508,0.25,0.5
Sprite,Background,Centre,"sb\ring.png",0,0 M,0,55658,,559,133 C,0,55658,,255,255,255 F,1,55658,57808,0.9,0 S,1,55658,57808,0.25,0.5
Sprite,Background,Centre,"sb\ring.png",0,0 M,0,55958,,254,204 C,0,55958,,255,255,255 F,1,55958,58108,0.9,0 S,1,55958,58108,0.25,0.5
Sprite,Background,Centre,"sb\ring.png",0,0 M,0,56258,,570,388 C,0,56258,,255,255,255 F,1,56258,58558,0.9,0 S,1,56258,58558,0.25,0.5
Sprite,Background,Centre,"sb\ring.png",0,0 M,0,56708,,357,64 C,0,56708,,255,255,255 F,1,56708,59008,0.9,0 S,1,56708,59008,0.25,0.5
Sprite,Background,Centre,"sb\ring.png",0,0 M,0,57158,,348,341 C,0,57158,,255,255,255 F,1,57158,59158,0.9,0 S,1,57158,59158,0.25,0.5
Sprite,Background,Centre,"sb\ring.png",0,0 M,0,57308,,104,280 C,0,57308,,255,255,255 F,1,57308,59458,0.9,0 S,1,57308,59458,0.25,0.5
Sprite,Background,Centre,"sb\ring.png",0,0 M,0,57608,,305,414 C,0,57608,,255,255,255 F,1,57608,59608,0.9,0 S,1,57608,59608,0.25,0.5
Sprite,Background,Centre,"sb\ring.png",0,0 M,0,57758,,361,256 C,0,57758,,255,255,255 F,1,57758,59758,0.9,0 S,1,57758,59758,0.25,0.5
Sprite,Background,Centre,"sb\ring.png",0,0 M,0,57908,,193,432 C,0,57908,,255,255,255 F,1,57908,60058,0.9,0 S,1,57908,60058,0.25,0.5
Sprite,Background,Centre,"sb\ring.png",0,0 M,0,58208,,285,76 C,0,58208,,255,255,255 F,1,58208,60208,0.9,0 S,1,58208,60208,0.25,0.5
Sprite,Background,Centre,"sb\ring.png",0,0 M,0,58358,,98,190 C,0,58358,,255,255,255 F,1,58358,60358,0.9,0 S,1,58358,60358,0.25,0.5
Sprite,Background,Centre,"sb\ring.png",0,0 M,0,58508,,286,323 C,0,58508,,255,255,255 F,1,58508,60808,0.9,0 S,1,58508,60808,0.25,0.5
Sprite,Background,Centre,"sb\ring.png",0,0 M,0,58958,,441,116 C,0,58958,,255,255,255 F,1,58958,61108,0.9,0 S,1,58958,61108,0.25,0.5
Sprite,Background,Centre,"sb\ring.png",0,0 M,0,59258,,525,326 C,0,59258,,255,255,255 F,1,59258,61258,0.9,0 S,1,59258,61258,0.25,0.5
Sprite,Background,Centre,"sb\ring.png",0,0 M,0,59408,,520,87 C,0,59408,,255,255,255 F,1,59408,61408,0.9,0 S,1,59408,61408,0.25,0.5
Sprite,Background,Centre,"sb\ring.png",0,0 M,0,59558,,319,212 C,0,59558,,255,255,255 F,1,59558,61558,0.9,0 S,1,59558,61558,0.25,0.5
Sprite,Background,Centre,"sb\ring.png",0,0 M,0,59708,,564,251 C,0,59708,,255,255,255 F,1,59708,62008,0.9,0 S,1,59708,62008,0.25,0.5
Sprite,Background,Centre,"sb\ring.png",0,0 M,0,60158,,294,418 C,0,60158,,255,255,255 F,1,60158,62308,0.9,0 S,1,60158,62308,0.25,0.5
Sprite,Background,Centre,"sb\ring.png",0,0 M,0,60458,,133,160 C,0,60458,,255,255,255 F,1,60458,62608,0.9,0 S,1,60458,62608,0.25,0.5
Sprite,Background,Centre,"sb\ring.png",0,0 M,0,60758,,415,144 C,0,60758,,255,255,255 F,1,60758,62758,0.9,0 S,1,60758,62758,0.25,0.5
Sprite,Background,Centre,"sb\ring.png",0,0 M,0,60908,,200,80 C,0,60908,,255,255,255 F,1,60908,62908,0.9,0 S,1,60908,62908,0.25,0.5
Sprite,Background,Centre,"sb\ring.png",0,0 M,0,61058,,183,336 C,0,61058,,255,255,255 F,1,61058,63358,0.9,0 S,1,61058,63358,0.25,0.5
Sprite,Background,Centre,"sb\ring.png",0,0 M,0,61508,,510,72 C,0,61508,,255,255,255 F,1,61508,63658,0.9,0 S,1,61508,63658,0.25,0.5
Sprite,Background,Centre,"sb\ring.png",0,0 M,0,61808,,495,386 C,0,61808,,255,255,255 F,1,61808,63808,0.9,0 S,1,61808,63808,0.25,0.5
Sprite,Background,Centre,"sb\ring.png",0,0 M,0,61958,,317,211 C,0,61958,,255,255,255 F,1,61958,63958,0.9,0 S,1,61958,63958,0.25,0.5
Sprite,Background,Centre,"sb\ring.png",0,0 M,0,62108,,548,272 C,0,62108,,255,255,255 F,1,62108,64408,0.9,0 S,1,62108,64408,0.25,0.5
Sprite,Background,Centre,"sb\ring.png",0,0 M,0,62558,,191,190 C,0,62558,,255,255,255 F,1,62558,64558,0.9,0 S,1,62558,64558,0.25,0.5
Sprite,Background,Centre,"sb\ring.png",0,0 M,0,62708,,344,406 C,0,62708,,255,255,255 F,1,62708,64708,0.9,0 S,1,62708,64708,0.25,0.5
Sprite,Background,Centre,"sb\ring.png",0,0 M,0,62858,,335,133 C,0,62858,,255,255,255 F,1,62858,64858,0.9,0 S,1,62858,64858,0.25,0.5
Sprite,Background,Centre,"sb\ring.png",0,0 M,0,63008,,142,370 C,0,63008,,255,255,255 F,1,63008,65008,0.9,0 S,1,63008,65008,0.25,0.5
Sprite,Background,Centre,"sb\ring.png",0,0 M,0,63158,,442,428 C,0,63158,,255,255,255 F,1,63158,65308,0.9,0 S,1,63158,65308,0.25,0.5
Sprite,Background,Centre,"sb\ring.png",0,0 M,0,63458,,426,144 C,0,63458,,255,255,255 F,1,63458,65758,0.9,0 S,1,63458,65758,0.25,0.5
Sprite,Background,Centre,"sb\ring.png",0,0 M,0,63908,,561,298 C,0,63908,,255,255,255 F,1,63908,66058,0.9,0 S,1,63908,66058,0.25,0.5
Sprite,Background,Centre,"sb\ring.png",0,0 M,0,64208,,344,406 C,0,64208,,255,255,255 F,1,64208,66208,0.9,0 S,1,64208,66208,0.25,0.5
Sprite,Background,Centre,"sb\ring.png",0,0 M,0,64358,,474,256 C,0,64358,,255,255,255 F,1,64358,66358,0.9,0 S,1,64358,66358,0.25,0.5
Sprite,Background,Centre,"sb\ring.png",0,0 M,0,64508,,193,214 C,0,64508,,255,255,255 F,1,64508,66808,0.9,0 S,1,64508,66808,0.25,0.5
Sprite,Background,Centre,"sb\ring.png",0,0 M,0,64958,,70,280 C,0,64958,,255,255,255 F,1,64958,66958,0.9,0 S,1,64958,66958,0.25,0.5
Sprite,Background,Centre,"sb\ring.png",0,0 M,0,65108,,144,422 C,0,65108,,255,255,255 F,1,65108,67258,0.9,0 S,1,65108,67258,0.25,0.5
Sprite,Background,Centre,"sb\ring.png",0,0 M,0,65408,,71,101 C,0,65408,,255,255,255 F,1,65408,67408,0.9,0 S,1,65408,67408,0.25,0.5
Sprite,Background,Centre,"sb\ring.png",0,0 M,0,65558,,237,289 C,0,65558,,255,255,255 F,1,65558,67558,0.9,0 S,1,65558,67558,0.25,0.5
Sprite,Background,Centre,"sb\ring.png",0,0 M,0,65708,,342,66 C,0,65708,,255,255,255 F,1,65708,67708,0.9,0 S,1,65708,67708,0.25,0.5
Sprite,Background,Centre,"sb\ring.png",0,0 M,0,65858,,193,214 C,0,65858,,255,255,255 F,1,65858,67958,0.9,0 S,1,65858,67958,0.25,0.5
Sprite,Background,Centre,"sb\ring.png",0,0 M,0,66058,,360,357 C,0,66058,,255,255,255 F,1,66058,68158,0.9,0 S,1,66058,68158,0.25,0.5
Sprite,Background,Centre,"sb\ring.png",0,0 M,0,66258,,401,140 C,0,66258,,255,255,255 F,1,66258,68358,0.9,0 S,1,66258,68358,0.25,0.5
Sprite,Background,Centre,"sb\ring.png",0,0 M,0,66458,,138,279 C,0,66458,,255,255,255 F,1,66458,68558,0.9,0 S,1,66458,68558,0.25,0.5
Sprite,Background,Centre,"sb\ring.png",0,0 M,0,66658,,444,373 C,0,66658,,255,255,255 F,1,66658,68758,0.9,0 S,1,66658,68758,0.25,0.5
Sprite,Background,Centre,"sb\ring.png",0,0 M,0,66858,,372,61 C,0,66858,,255,255,255 F,1,66858,68958,0.9,0 S,1,66858,68958,0.25,0.5
Sprite,Background,Centre,"sb\ring.png",0,0 M,0,67058,,226,440 C,0,67058,,255,255,255 F,1,67058,69058,0.9,0 S,1,67058,69058,0.25,0.5
Sprite,Background,Centre,"sb\ring.png",0,0 M,0,67208,,502,206 C,0,67208,,255,255,255 F,1,67208,69208,0.9,0 S,1,67208,69208,0.25,0.5
Sprite,Background,Centre,"sb\ring.png",0,0 M,0,67358,,234,82 C,0,67358,,255,255,255 F,1,67358,69358,0.9,0 S,1,67358,69358,0.25,0.5
Sprite,Background,Centre,"sb\ring.png",0,0 M,0,67508,,444,373 C,0,67508,,255,255,255 F,1,67508,69508,0.9,0 S,1,67508,69508,0.25,0.5
Sprite,Background,Centre,"sb\ring.png",0,0 M,0,67658,,576,87 C,0,67658,,255,255,255 F,1,67658,69658,0.9,0 S,1,67658,69658,0.25,0.5
Sprite,Background,Centre,"sb\ring.png",0,0 M,0,67808,,293,310 C,0,67808,,255,255,255 F,1,67808,69808,0.9,0 S,1,67808,69808,0.25,0.5
Sprite,Background,Centre,"sb\ring.png",0,0 M,0,67958,,576,412 C,0,67958,,255,255,255 F,1,67958,69958,0.9,0 S,1,67958,69958,0.25,0.5
Sprite,Background,Centre,"sb\ring.png",0,0 M,0,68108,,350,164 C,0,68108,,255,255,255 F,1,68108,70108,0.9,0 S,1,68108,70108,0.25,0.5
Sprite,Background,Centre,"sb\ring.png",0,0 M,0,68183,,320,248 C,0,68183,,255,255,255 F,1,68183,72508,0.9,0 S,1,68183,72508,0.25,0.5
Sprite,Background,Centre,"sb\ring.png",0,0 M,0,121058,,329,411 C,0,121058,,255,255,255 F,1,121058,123357,0.9,0 S,1,121058,123357,0.25,0.5
Sprite,Background,Centre,"sb\ring.png",0,0 M,0,121508,,99,184 C,0,121508,,255,255,255 F,1,121508,123657,0.9,0 S,1,121508,123657,0.25,0.5
Sprite,Background,Centre,"sb\ring.png",0,0 M,0,121808,,414,266 C,0,121808,,255,255,255 F,1,121808,123808,0.9,0 S,1,121808,123808,0.25,0.5
Sprite,Background,Centre,"sb\ring.png",0,0 M,0,121958,,329,411 C,0,121958,,255,255,255 F,1,121958,123958,0.9,0 S,1,121958,123958,0.25,0.5
Sprite,Background,Centre,"sb\ring.png",0,0 M,0,122108,,247,230 C,0,122108,,255,255,255 F,1,122108,124108,0.9,0 S,1,122108,124108,0.25,0.5
Sprite,Background,Centre,"sb\ring.png",0,0 M,0,122258,,495,335 C,0,122258,,255,255,255 F,1,122258,124407,0.9,0 S,1,122258,124407,0.25,0.5
Sprite,Background,Centre,"sb\ring.png",0,0 M,0,122558,,371,62 C,0,122558,,255,255,255 F,1,122558,124707,0.9,0 S,1,122558,124707,0.25,0.5
Sprite,Background,Centre,"sb\ring.png",0,0 M,0,122858,,415,375 C,0,122858,,255,255,255 F,1,122858,124858,0.9,0 S,1,122858,124858,0.25,0.5
Sprite,Background,Centre,"sb\ring.png",0,0 M,0,123008,,322,267 C,0,123008,,255,255,255 F,1,123008,125008,0.9,0 S,1,123008,125008,0.25,0.5
Sprite,Background,Centre,"sb\ring.png",0,0 M,0,123158,,489,169 C,0,123158,,255,255,255 F,1,123158,125158,0.9,0 S,1,123158,125158,0.25,0.5
Sprite,Background,Centre,"sb\ring.png",0,0 M,0,123308,,301,281 C,0,123308,,255,255,255 F,1,123308,125308,0.9,0 S,1,123308,125308,0.25,0.5
Sprite,Background,Centre,"sb\ring.png",0,0 M,0,123458,,216,87 C,0,123458,,255,255,255 F,1,123458,125757,0.9,0 S,1,123458,125757,0.25,0.5
Sprite,Background,Centre,"sb\ring.png",0,0 M,0,123908,,137,322 C,0,123908,,255,255,255 F,1,123908,126057,0.9,0 S,1,123908,126057,0.25,0.5
Sprite,Background,Centre,"sb\ring.png",0,0 M,0,124208,,482,218 C,0,124208,,255,255,255 F,1,124208,126208,0.9,0 S,1,124208,126208,0.25,0.5
Sprite,Background,Centre,"sb\ring.png",0,0 M,0,124358,,287,376 C,0,124358,,255,255,255 F,1,124358,126358,0.9,0 S,1,124358,126358,0.25,0.5
Sprite,Background,Centre,"sb\ring.png",0,0 M,0,124508,,290,164 C,0,124508,,255,255,255 F,1,124508,126508,0.9,0 S,1,124508,126508,0.25,0.5
Sprite,Background,Centre,"sb\ring.png",0,0 M,0,124658,,461,347 C,0,124658,,255,255,255 F,1,124658,126807,0.9,0 S,1,124658,126807,0.25,0.5
Sprite,Background,Centre,"sb\ring.png",0,0 M,0,124958,,216,329 C,0,124958,,255,255,255 F,1,124958,127107,0.9,0 S,1,124958,127107,0.25,0.5
Sprite,Background,Centre,"sb\ring.png",0,0 M,0,125258,,495,136 C,0,125258,,255,255,255 F,1,125258,127258,0.9,0 S,1,125258,127258,0.25,0.5
Sprite,Background,Centre,"sb\ring.png",0,0 M,0,125408,,325,292 C,0,125408,,255,255,255 F,1,125408,127408,0.9,0 S,1,125408,127408,0.25,0.5
Sprite,Background,Centre,"sb\ring.png",0,0 M,0,125558,,397,103 C,0,125558,,255,255,255 F,1,125558,127558,0.9,0 S,1,125558,127558,0.25,0.5
Sprite,Background,Centre,"sb\ring.png",0,0 M,0,125708,,570,264 C,0,125708,,255,255,255 F,1,125708,127708,0.9,0 S,1,125708,127708,0.25,0.5
Sprite,Background,Centre,"sb\ring.png",0,0 M,0,125858,,338,391 C,0,125858,,255,255,255 F,1,125858,128157,0.9,0 S,1,125858,128157,0.25,0.5
Sprite,Background,Centre,"sb\ring.png",0,0 M,0,126308,,97,164 C,0,126308,,255,255,255 F,1,126308,128457,0.9,0 S,1,126308,128457,0.25,0.5
Sprite,Background,Centre,"sb\ring.png",0,0 M,0,126608,,412,274 C,0,126608,,255,255,255 F,1,126608,128608,0.9,0 S,1,126608,128608,0.25,0.5
Sprite,Background,Centre,"sb\ring.png",0,0 M,0,126758,,268,90 C,0,126758,,255,255,255 F,1,126758,128758,0.9,0 S,1,126758,128758,0.25,0.5
Sprite,Background,Centre,"sb\ring.png",0,0 M,0,126908,,166,263 C,0,126908,,255,255,255 F,1,126908,128908,0.9,0 S,1,126908,128908,0.25,0.5
Sprite,Background,Centre,"sb\ring.png",0,0 M,0,127058,,338,151 C,0,127058,,255,255,255 F,1,127058,129207,0.9,0 S,1,127058,129207,0.25,0.5
Sprite,Background,Centre,"sb\ring.png",0,0 M,0,127358,,241,425 C,0,127358,,255,255,255 F,1,127358,129507,0.9,0 S,1,127358,129507,0.25,0.5
Sprite,Background,Centre,"sb\ring.png",0,0 M,0,127658,,180,138 C,0,127658,,255,255,255 F,1,127658,129658,0.9,0 S,1,127658,129658,0.25,0.5
Sprite,Background,Centre,"sb\ring.png",0,0 M,0,127808,,331,246 C,0,127808,,255,255,255 F,1,127808,129808,0.9,0 S,1,127808,129808,0.25,0.5
Sprite,Background,Centre,"sb\ring.png",0,0 M,0,127958,,94,328 C,0,127958,,255,255,255 F,1,127958,129958,0.9,0 S,1,127958,129958,0.25,0.5
Sprite,Background,Centre,"sb\ring.png",0,0 M,0,128108,,169,102 C,0,128108,,255,255,255 F,1,128108,130108,0.9,0 S,1,128108,130108,0.25,0.5
Sprite,Background,Centre,"sb\ring.png",0,0 M,0,128258,,234,331 C,0,128258,,255,255,255 F,1,128258,130407,0.9,0 S,1,128258,130407,0.25,0.5
Sprite,Background,Centre,"sb\ring.png",0,0 M,0,128558,,428,136 C,0,128558,,255,255,255 F,1,128558,130707,0.9,0 S,1,128558,130707,0.25,0.5
Sprite,Background,Centre,"sb\ring.png",0,0 M,0,128858,,234,331 C,0,128858,,255,255,255 F,1,128858,130858,0.9,0 S,1,128858,130858,0.25,0.5
Sprite,Background,Centre,"sb\ring.png",0,0 M,0,129008,,337,154 C,0,129008,,255,255,255 F,1,129008,131008,0.9,0 S,1,129008,131008,0.25,0.5
Sprite,Background,Centre,"sb\ring.png",0,0 M,0,129158,,475,337 C,0,129158,,255,255,255 F,1,129158,131307,0.9,0 S,1,129158,131307,0.25,0.5
Sprite,Background,Centre,"sb\ring.png",0,0 M,0,129458,,319,250 C,0,129458,,255,255,255 F,1,129458,131458,0.9,0 S,1,129458,131458,0.25,0.5
Sprite,Background,Centre,"sb\ring.png",0,0 M,0,129608,,520,146 C,0,129608,,255,255,255 F,1,129608,131608,0.9,0 S,1,129608,131608,0.25,0.5
Sprite,Background,Centre,"sb\ring.png",0,0 M,0,129758,,396,381 C,0,129758,,255,255,255 F,1,129758,131758,0.9,0 S,1,129758,131758,0.25,0.5
Sprite,Background,Centre,"sb\ring.png",0,0 M,0,129908,,248,181 C,0,129908,,255,255,255 F,1,129908,131908,0.9,0 S,1,129908,131908,0.25,0.5
Sprite,Background,Centre,"sb\ring.png",0,0 M,0,130058,,517,254 C,0,130058,,255,255,255 F,1,130058,132058,0.9,0 S,1,130058,132058,0.25,0.5
Sprite,Background,Centre,"sb\ring.png",0,0 M,0,130208,,308,345 C,0,130208,,255,255,255 F,1,130208,132208,0.9,0 S,1,130208,132208,0.25,0.5
Sprite,Background,Centre,"sb\ring.png",0,0 M,0,130358,,547,244 C,0,130358,,255,255,255 F,1,130358,132358,0.9,0 S,1,130358,132358,0.25,0.5
Sprite,Background,Centre,"sb\ring.png",0,0 M,0,130508,,250,102 C,0,130508,,255,255,255 F,1,130508,132508,0.9,0 S,1,130508,132508,0.25,0.5
Sprite,Background,Centre,"sb\ring.png",0,0 M,0,130658,,319,250 C,0,130658,,255,255,255 F,1,130658,132957,0.9,0 S,1,130658,132957,0.25,0.5
Sprite,Background,Centre,"sb\ring.png",0,0 M,0,131108,,250,102 C,0,131108,,255,255,255 F,1,131108,133257,0.9,0 S,1,131108,133257,0.25,0.5
Sprite,Background,Centre,"sb\ring.png",0,0 M,0,131408,,308,345 C,0,131408,,255,255,255 F,1,131408,133408,0.9,0 S,1,131408,133408,0.25,0.5
Sprite,Background,Centre,"sb\ring.png",0,0 M,0,131558,,362,164 C,0,131558,,255,255,255 F,1,131558,133558,0.9,0 S,1,131558,133558,0.25,0.5
Sprite,Background,Centre,"sb\ring.png",0,0 M,0,131708,,486,329 C,0,131708,,255,255,255 F,1,131708,133708,0.9,0 S,1,131708,133708,0.25,0.5
Sprite,Background,Centre,"sb\ring.png",0,0 M,0,131858,,319,250 C,0,131858,,255,255,255 F,1,131858,134007,0.9,0 S,1,131858,134007,0.25,0.5
Sprite,Background,Centre,"sb\ring.png",0,0 M,0,132158,,141,409 C,0,132158,,255,255,255 F,1,132158,134307,0.9,0 S,1,132158,134307,0.25,0.5
Sprite,Background,Centre,"sb\ring.png",0,0 M,0,132458,,444,220 C,0,132458,,255,255,255 F,1,132458,134458,0.9,0 S,1,132458,134458,0.25,0.5
Sprite,Background,Centre,"sb\ring.png",0,0 M,0,132608,,308,345 C,0,132608,,255,255,255 F,1,132608,134608,0.9,0 S,1,132608,134608,0.25,0.5
Sprite,Background,Centre,"sb\ring.png",0,0 M,0,132758,,530,408 C,0,132758,,255,255,255 F,1,132758,134758,0.9,0 S,1,132758,134758,0.25,0.5
Sprite,Background,Centre,"sb\ring.png",0,0 M,0,132908,,308,345 C,0,132908,,255,255,255 F,1,132908,134908,0.9,0 S,1,132908,134908,0.25,0.5
Sprite,Background,Centre,"sb\ring.png",0,0 M,0,133058,,530,292 C,0,133058,,255,255,255 F,1,133058,135357,0.9,0 S,1,133058,135357,0.25,0.5
Sprite,Background,Centre,"sb\ring.png",0,0 M,0,133508,,252,223 C,0,133508,,255,255,255 F,1,133508,135657,0.9,0 S,1,133508,135657,0.25,0.5
Sprite,Background,Centre,"sb\ring.png",0,0 M,0,133808,,64,380 C,0,133808,,255,255,255 F,1,133808,135808,0.9,0 S,1,133808,135808,0.25,0.5
Sprite,Background,Centre,"sb\ring.png",0,0 M,0,133958,,158,175 C,0,133958,,255,255,255 F,1,133958,135958,0.9,0 S,1,133958,135958,0.25,0.5
Sprite,Background,Centre,"sb\ring.png",0,0 M,0,134108,,337,292 C,0,134108,,255,255,255 F,1,134108,136108,0.9,0 S,1,134108,136108,0.25,0.5
Sprite,Background,Centre,"sb\ring.png",0,0 M,0,134258,,398,90 C,0,134258,,255,255,255 F,1,134258,136407,0.9,0 S,1,134258,136407,0.25,0.5
Sprite,Background,Centre,"sb\ring.png",0,0 M,0,134558,,150,262 C,0,134558,,255,255,255 F,1,134558,136558,0.9,0 S,1,134558,136558,0.25,0.5
Sprite,Background,Centre,"sb\ring.png",0,0 M,0,134708,,325,177 C,0,134708,,255,255,255 F,1,134708,137007,0.9,0 S,1,134708,137007,0.25,0.5
Sprite,Background,Centre,"sb\ring.png",0,0 M,0,135158,,492,421 C,0,135158,,255,255,255 F,1,135158,137158,0.9,0 S,1,135158,137158,0.25,0.5
Sprite,Background,Centre,"sb\ring.png",0,0 M,0,135308,,406,248 C,0,135308,,255,255,255 F,1,135308,137308,0.9,0 S,1,135308,137308,0.25,0.5
Sprite,Background,Centre,"sb\ring.png",0,0 M,0,135458,,193,403 C,0,135458,,255,255,255 F,1,135458,137458,0.9,0 S,1,135458,137458,0.25,0.5
Sprite,Background,Centre,"sb\ring.png",0,0 M,0,136508,,246,106 C,0,136508,,255,255,255 F,1,136508,138508,0.9,0 S,1,136508,138508,0.25,0.5
Sprite,Background,Centre,"sb\ring.png",0,0 M,0,136958,,484,276 C,0,136958,,255,255,255 F,1,136958,139033,0.9,0 S,1,136958,139033,0.25,0.5
Sprite,Background,Centre,"sb\ring.png",0,0 M,0,137108,,489,196 C,0,137108,,255,255,255 F,1,137108,139258,0.9,0 S,1,137108,139258,0.25,0.5
Sprite,Background,Centre,"sb\ring.png",0,0 M,0,137408,,484,116 C,0,137408,,255,255,255 F,1,137408,139558,0.9,0 S,1,137408,139558,0.25,0.5
Sprite,Background,Centre,"sb\ring.png",0,0 M,0,137708,,337,285 C,0,137708,,255,255,255 F,1,137708,139708,0.9,0 S,1,137708,139708,0.25,0.5
Sprite,Background,Centre,"sb\ring.png",0,0 M,0,137858,,246,106 C,0,137858,,255,255,255 F,1,137858,140158,0.9,0 S,1,137858,140158,0.25,0.5
Sprite,Background,Centre,"sb\ring.png",0,0 M,0,138308,,248,292 C,0,138308,,255,255,255 F,1,138308,140458,0.9,0 S,1,138308,140458,0.25,0.5
Sprite,Background,Centre,"sb\ring.png",0,0 M,0,138608,,156,75 C,0,138608,,255,255,255 F,1,138608,140608,0.9,0 S,1,138608,140608,0.25,0.5
Sprite,Background,Centre,"sb\ring.png",0,0 M,0,138758,,352,174 C,0,138758,,255,255,255 F,1,138758,140758,0.9,0 S,1,138758,140758,0.25,0.5
Sprite,Background,Centre,"sb\ring.png",0,0 M,0,138908,,181,228 C,0,138908,,255,255,255 F,1,138908,140908,0.9,0 S,1,138908,140908,0.25,0.5
Sprite,Background,Centre,"sb\ring.png",0,0 M,0,139058,,391,346 C,0,139058,,255,255,255 F,1,139058,141208,0.9,0 S,1,139058,141208,0.25,0.5
Sprite,Background,Centre,"sb\ring.png",0,0 M,0,139358,,433,100 C,0,139358,,255,255,255 F,1,139358,141358,0.9,0 S,1,139358,141358,0.25,0.5
Sprite,Background,Centre,"sb\ring.png",0,0 M,0,139508,,268,199 C,0,139508,,255,255,255 F,1,139508,141658,0.9,0 S,1,139508,141658,0.25,0.5
Sprite,Background,Centre,"sb\ring.png",0,0 M,0,139808,,343,431 C,0,139808,,255,255,255 F,1,139808,141958,0.9,0 S,1,139808,141958,0.25,0.5
Sprite,Background,Centre,"sb\ring.png",0,0 M,0,140108,,104,379 C,0,140108,,255,255,255 F,1,140108,142108,0.9,0 S,1,140108,142108,0.25,0.5
Sprite,Background,Centre,"sb\ring.png",0,0 M,0,140258,,183,163 C,0,140258,,255,255,255 F,1,140258,142558,0.9,0 S,1,140258,142558,0.25,0.5
Sprite,Background,Centre,"sb\ring.png",0,0 M,0,140708,,468,331 C,0,140708,,255,255,255 F,1,140708,142708,0.9,0 S,1,140708,142708,0.25,0.5
Sprite,Background,Centre,"sb\ring.png",0,0 M,0,140858,,515,187 C,0,140858,,255,255,255 F,1,140858,142858,0.9,0 S,1,140858,142858,0.25,0.5
Sprite,Background,Centre,"sb\ring.png",0,0 M,0,141008,,342,300 C,0,141008,,255,255,255 F,1,141008,143158,0.9,0 S,1,141008,143158,0.25,0.5
Sprite,Background,Centre,"sb\ring.png",0,0 M,0,141308,,99,274 C,0,141308,,255,255,255 F,1,141308,143308,0.9,0 S,1,141308,143308,0.25,0.5
Sprite,Background,Centre,"sb\ring.png",0,0 M,0,141458,,234,423 C,0,141458,,255,255,255 F,1,141458,143758,0.9,0 S,1,141458,143758,0.25,0.5
Sprite,Background,Centre,"sb\ring.png",0,0 M,0,141908,,515,187 C,0,141908,,255,255,255 F,1,141908,143908,0.9,0 S,1,141908,143908,0.25,0.5
Sprite,Background,Centre,"sb\ring.png",0,0 M,0,142057,,342,300 C,0,142057,,255,255,255 F,1,142057,144282,0.9,0 S,1,142057,144282,0.25,0.5
Sprite,Background,Centre,"sb\ring.png",0,0 M,0,142358,,357,165 C,0,142358,,255,255,255 F,1,142358,144583,0.9,0 S,1,142358,144583,0.25,0.5
Sprite,Background,Centre,"sb\ring.png",0,0 M,0,142658,,515,187 C,0,142658,,255,255,255 F,1,142658,144658,0.9,0 S,1,142658,144658,0.25,0.5
Sprite,Background,Centre,"sb\ring.png",0,0 M,0,142808,,427,365 C,0,142808,,255,255,255 F,1,142808,144808,0.9,0 S,1,142808,144808,0.25,0.5
Sprite,Background,Centre,"sb\ring.png",0,0 M,0,142958,,297,228 C,0,142958,,255,255,255 F,1,142958,144958,0.9,0 S,1,142958,144958,0.25,0.5
Sprite,Background,Centre,"sb\ring.png",0,0 M,0,143108,,234,423 C,0,143108,,255,255,255 F,1,143108,145258,0.9,0 S,1,143108,145258,0.25,0.5
Sprite,Background,Centre,"sb\ring.png",0,0 M,0,143408,,259,156 C,0,143408,,255,255,255 F,1,143408,145408,0.9,0 S,1,143408,145408,0.25,0.5
Sprite,Background,Centre,"sb\ring.png",0,0 M,0,143558,,338,296 C,0,143558,,255,255,255 F,1,143558,145708,0.9,0 S,1,143558,145708,0.25,0.5
Sprite,Background,Centre,"sb\ring.png",0,0 M,0,143858,,194,88 C,0,143858,,255,255,255 F,1,143858,145858,0.9,0 S,1,143858,145858,0.25,0.5
Sprite,Background,Centre,"sb\ring.png",0,0 M,0,144008,,115,228 C,0,144008,,255,255,255 F,1,144008,146158,0.9,0 S,1,144008,146158,0.25,0.5
Sprite,Background,Centre,"sb\ring.png",0,0 M,0,144308,,337,127 C,0,144308,,255,255,255 F,1,144308,146308,0.9,0 S,1,144308,146308,0.25,0.5
Sprite,Background,Centre,"sb\ring.png",0,0 M,0,144458,,193,286 C,0,144458,,255,255,255 F,1,144458,146458,0.9,0 S,1,144458,146458,0.25,0.5
Sprite,Background,Centre,"sb\ring.png",0,0 M,0,144608,,259,156 C,0,144608,,255,255,255 F,1,144608,146608,0.9,0 S,1,144608,146608,0.25,0.5
Sprite,Background,Centre,"sb\ring.png",0,0 M,0,144758,,421,323 C,0,144758,,255,255,255 F,1,144758,146758,0.9,0 S,1,144758,146758,0.25,0.5
Sprite,Background,Centre,"sb\ring.png",0,0 M,0,144908,,337,127 C,0,144908,,255,255,255 F,1,144908,146908,0.9,0 S,1,144908,146908,0.25,0.5
Sprite,Background,Centre,"sb\ring.png",0,0 M,0,145058,,243,358 C,0,145058,,255,255,255 F,1,145058,147058,0.9,0 S,1,145058,147058,0.25,0.5
Sprite,Background,Centre,"sb\ring.png",0,0 M,0,145208,,438,247 C,0,145208,,255,255,255 F,1,145208,147208,0.9,0 S,1,145208,147208,0.25,0.5
Sprite,Background,Centre,"sb\ring.png",0,0 M,0,145358,,177,168 C,0,145358,,255,255,255 F,1,145358,147358,0.9,0 S,1,145358,147358,0.25,0.5
Sprite,Background,Centre,"sb\ring.png",0,0 M,0,145508,,361,338 C,0,145508,,255,255,255 F,1,145508,147658,0.9,0 S,1,145508,147658,0.25,0.5
Sprite,Background,Centre,"sb\ring.png",0,0 M,0,145808,,447,140 C,0,145808,,255,255,255 F,1,145808,147808,0.9,0 S,1,145808,147808,0.25,0.5
Sprite,Background,Centre,"sb\ring.png",0,0 M,0,145958,,361,338 C,0,145958,,255,255,255 F,1,145958,147958,0.9,0 S,1,145958,147958,0.25,0.5
Sprite,Background,Centre,"sb\ring.png",0,0 M,0,146108,,271,73 C,0,146108,,255,255,255 F,1,146108,148108,0.9,0 S,1,146108,148108,0.25,0.5
Sprite,Background,Centre,"sb\ring.png",0,0 M,0,146258,,480,266 C,0,146258,,255,255,255 F,1,146258,148258,0.9,0 S,1,146258,148258,0.25,0.5
Sprite,Background,Centre,"sb\ring.png",0,0 M,0,146408,,208,178 C,0,146408,,255,255,255 F,1,146408,148408,0.9,0 S,1,146408,148408,0.25,0.5
Sprite,Background,Centre,"sb\ring.png",0,0 M,0,146558,,481,116 C,0,146558,,255,255,255 F,1,146558,148558,0.9,0 S,1,146558,148558,0.25,0.5
Sprite,Background,Centre,"sb\ring.png",0,0 M,0,146708,,270,347 C,0,146708,,255,255,255 F,1,146708,148708,0.9,0 S,1,146708,148708,0.25,0.5
Sprite,Background,Centre,"sb\ring.png",0,0 M,0,146858,,163,76 C,0,146858,,255,255,255 F,1,146858,148858,0.9,0 S,1,146858,148858,0.25,0.5
Sprite,Background,Centre,"sb\ring.png",0,0 M,0,147008,,520,190 C,0,147008,,255,255,255 F,1,147008,149008,0.9,0 S,1,147008,149008,0.25,0.5
Sprite,Background,Centre,"sb\ring.png",0,0 M,0,147158,,110,307 C,0,147158,,255,255,255 F,1,147158,149158,0.9,0 S,1,147158,149158,0.25,0.5
Sprite,Background,Centre,"sb\ring.png",0,0 M,0,147308,,467,421 C,0,147308,,255,255,255 F,1,147308,149308,0.9,0 S,1,147308,149308,0.25,0.5
Sprite,Background,Centre,"sb\ring.png",0,0 M,0,147458,,282,158 C,0,147458,,255,255,255 F,1,147458,149758,0.9,0 S,1,147458,149758,0.25,0.5
Sprite,Background,Centre,"sb\ring.png",0,0 M,0,147908,,194,418 C,0,147908,,255,255,255 F,1,147908,149908,0.9,0 S,1,147908,149908,0.25,0.5
Sprite,Background,Centre,"sb\ring.png",0,0 M,0,148058,,228,236 C,0,148058,,255,255,255 F,1,148058,150058,0.9,0 S,1,148058,150058,0.25,0.5
Sprite,Background,Centre,"sb\ring.png",0,0 M,0,148208,,350,361 C,0,148208,,255,255,255 F,1,148208,150208,0.9,0 S,1,148208,150208,0.25,0.5
Sprite,Background,Centre,"sb\ring.png",0,0 M,0,148358,,418,150 C,0,148358,,255,255,255 F,1,148358,150508,0.9,0 S,1,148358,150508,0.25,0.5
Sprite,Background,Centre,"sb\ring.png",0,0 M,0,148658,,536,311 C,0,148658,,255,255,255 F,1,148658,150658,0.9,0 S,1,148658,150658,0.25,0.5
Sprite,Background,Centre,"sb\ring.png",0,0 M,0,148808,,388,165 C,0,148808,,255,255,255 F,1,148808,150808,0.9,0 S,1,148808,150808,0.25,0.5
Sprite,Background,Centre,"sb\ring.png",0,0 M,0,148958,,350,361 C,0,148958,,255,255,255 F,1,148958,150958,0.9,0 S,1,148958,150958,0.25,0.5
Sprite,Background,Centre,"sb\ring.png",0,0 M,0,149108,,287,96 C,0,149108,,255,255,255 F,1,149108,151258,0.9,0 S,1,149108,151258,0.25,0.5
Sprite,Background,Centre,"sb\ring.png",0,0 M,0,149408,,201,391 C,0,149408,,255,255,255 F,1,149408,151558,0.9,0 S,1,149408,151558,0.25,0.5
Sprite,Background,Centre,"sb\ring.png",0,0 M,0,149708,,123,130 C,0,149708,,255,255,255 F,1,149708,151708,0.9,0 S,1,149708,151708,0.25,0.5
Sprite,Background,Centre,"sb\ring.png",0,0 M,0,149858,,301,290 C,0,149858,,255,255,255 F,1,149858,152158,0.9,0 S,1,149858,152158,0.25,0.5
Sprite,Background,Centre,"sb\ring.png",0,0 M,0,150308,,549,406 C,0,150308,,255,255,255 F,1,150308,152308,0.9,0 S,1,150308,152308,0.25,0.5
Sprite,Background,Centre,"sb\ring.png",0,0 M,0,150458,,570,198 C,0,150458,,255,255,255 F,1,150458,152458,0.9,0 S,1,150458,152458,0.25,0.5
Sprite,Background,Centre,"sb\ring.png",0,0 M,0,150608,,450,351 C,0,150608,,255,255,255 F,1,150608,152608,0.9,0 S,1,150608,152608,0.25,0.5
Sprite,Background,Centre,"sb\ring.png",0,0 M,0,150758,,325,204 C,0,150758,,255,255,255 F,1,150758,152908,0.9,0 S,1,150758,152908,0.25,0.5
Sprite,Background,Centre,"sb\ring.png",0,0 M,0,151058,,157,363 C,0,151058,,255,255,255 F,1,151058,153208,0.9,0 S,1,151058,153208,0.25,0.5
Sprite,Background,Centre,"sb\ring.png",0,0 M,0,151358,,325,204 C,0,151358,,255,255,255 F,1,151358,153358,0.9,0 S,1,151358,153358,0.25,0.5
Sprite,Background,Centre,"sb\ring.png",0,0 M,0,151508,,497,369 C,0,151508,,255,255,255 F,1,151508,153808,0.9,0 S,1,151508,153808,0.25,0.5
Sprite,Background,Centre,"sb\ring.png",0,0 M,0,151958,,145,186 C,0,151958,,255,255,255 F,1,151958,154183,0.9,0 S,1,151958,154183,0.25,0.5
Sprite,Background,Centre,"sb\ring.png",0,0 M,0,152258,,212,171 C,0,152258,,255,255,255 F,1,152258,154358,0.9,0 S,1,152258,154358,0.25,0.5
Sprite,Background,Centre,"sb\ring.png",0,0 M,0,152458,,343,319 C,0,152458,,255,255,255 F,1,152458,154558,0.9,0 S,1,152458,154558,0.25,0.5
Sprite,Background,Centre,"sb\ring.png",0,0 M,0,152658,,149,359 C,0,152658,,255,255,255 F,1,152658,154758,0.9,0 S,1,152658,154758,0.25,0.5
Sprite,Background,Centre,"sb\ring.png",0,0 M,0,152858,,446,165 C,0,152858,,255,255,255 F,1,152858,154958,0.9,0 S,1,152858,154958,0.25,0.5
Sprite,Background,Centre,"sb\ring.png",0,0 M,0,153058,,334,378 C,0,153058,,255,255,255 F,1,153058,155158,0.9,0 S,1,153058,155158,0.25,0.5
Sprite,Background,Centre,"sb\ring.png",0,0 M,0,153258,,552,174 C,0,153258,,255,255,255 F,1,153258,155358,0.9,0 S,1,153258,155358,0.25,0.5
Sprite,Background,Centre,"sb\ring.png",0,0 M,0,153458,,434,392 C,0,153458,,255,255,255 F,1,153458,155458,0.9,0 S,1,153458,155458,0.25,0.5
Sprite,Background,Centre,"sb\ring.png",0,0 M,0,153608,,358,211 C,0,153608,,255,255,255 F,1,153608,155608,0.9,0 S,1,153608,155608,0.25,0.5
Sprite,Background,Centre,"sb\ring.png",0,0 M,0,153758,,516,319 C,0,153758,,255,255,255 F,1,153758,155758,0.9,0 S,1,153758,155758,0.25,0.5
Sprite,Background,Centre,"sb\ring.png",0,0 M,0,153908,,333,378 C,0,153908,,255,255,255 F,1,153908,155908,0.9,0 S,1,153908,155908,0.25,0.5
Sprite,Background,Centre,"sb\ring.png",0,0 M,0,154208,,552,174 C,0,154208,,255,255,255 F,1,154208,156208,0.9,0 S,1,154208,156208,0.25,0.5
Sprite,Background,Centre,"sb\ring.png",0,0 M,0,154508,,497,286 C,0,154508,,255,255,255 F,1,154508,157258,0.9,0 S,1,154508,157258,0.25,0.5
Sprite,Background,Centre,"sb\ring.png",0,0 M,0,155858,,334,331 C,0,155858,,255,255,255 F,1,155858,158457,0.9,0 S,1,155858,158457,0.25,0.5
Sprite,Background,Centre,"sb\ring.png",0,0 M,0,156758,,487,129 C,0,156758,,255,255,255 F,1,156758,158908,0.9,0 S,1,156758,158908,0.25,0.5
Sprite,Background,Centre,"sb\ring.png",0,0 M,0,181058,,567,117 C,0,181058,,255,255,255 F,1,181058,183358,0.9,0 S,1,181058,183358,0.25,0.5
Sprite,Background,Centre,"sb\ring.png",0,0 M,0,181508,,253,396 C,0,181508,,255,255,255 F,1,181508,183658,0.9,0 S,1,181508,183658,0.25,0.5
Sprite,Background,Centre,"sb\ring.png",0,0 M,0,181808,,281,120 C,0,181808,,255,255,255 F,1,181808,183808,0.9,0 S,1,181808,183808,0.25,0.5
Sprite,Background,Centre,"sb\ring.png",0,0 M,0,181958,,378,320 C,0,181958,,255,255,255 F,1,181958,183958,0.9,0 S,1,181958,183958,0.25,0.5
Sprite,Background,Centre,"sb\ring.png",0,0 M,0,182108,,92,214 C,0,182108,,255,255,255 F,1,182108,184408,0.9,0 S,1,182108,184408,0.25,0.5
Sprite,Background,Centre,"sb\ring.png",0,0 M,0,182558,,442,137 C,0,182558,,255,255,255 F,1,182558,184708,0.9,0 S,1,182558,184708,0.25,0.5
Sprite,Background,Centre,"sb\ring.png",0,0 M,0,182858,,301,429 C,0,182858,,255,255,255 F,1,182858,184858,0.9,0 S,1,182858,184858,0.25,0.5
Sprite,Background,Centre,"sb\ring.png",0,0 M,0,183008,,281,120 C,0,183008,,255,255,255 F,1,183008,185008,0.9,0 S,1,183008,185008,0.25,0.5
Sprite,Background,Centre,"sb\ring.png",0,0 M,0,183158,,453,270 C,0,183158,,255,255,255 F,1,183158,185158,0.9,0 S,1,183158,185158,0.25,0.5
Sprite,Background,Centre,"sb\ring.png",0,0 M,0,183308,,120,291 C,0,183308,,255,255,255 F,1,183308,185308,0.9,0 S,1,183308,185308,0.25,0.5
Sprite,Background,Centre,"sb\ring.png",0,0 M,0,183458,,365,85 C,0,183458,,255,255,255 F,1,183458,185758,0.9,0 S,1,183458,185758,0.25,0.5
Sprite,Background,Centre,"sb\ring.png",0,0 M,0,183908,,65,195 C,0,183908,,255,255,255 F,1,183908,186058,0.9,0 S,1,183908,186058,0.25,0.5
Sprite,Background,Centre,"sb\ring.png",0,0 M,0,184208,,267,361 C,0,184208,,255,255,255 F,1,184208,186208,0.9,0 S,1,184208,186208,0.25,0.5
Sprite,Background,Centre,"sb\ring.png",0,0 M,0,184358,,230,78 C,0,184358,,255,255,255 F,1,184358,186358,0.9,0 S,1,184358,186358,0.25,0.5
Sprite,Background,Centre,"sb\ring.png",0,0 M,0,184508,,120,291 C,0,184508,,255,255,255 F,1,184508,186508,0.9,0 S,1,184508,186508,0.25,0.5
Sprite,Background,Centre,"sb\ring.png",0,0 M,0,184658,,393,291 C,0,184658,,255,255,255 F,1,184658,186958,0.9,0 S,1,184658,186958,0.25,0.5
Sprite,Background,Centre,"sb\ring.png",0,0 M,0,185108,,105,107 C,0,185108,,255,255,255 F,1,185108,187108,0.9,0 S,1,185108,187108,0.25,0.5
Sprite,Background,Centre,"sb\ring.png",0,0 M,0,185258,,303,440 C,0,185258,,255,255,255 F,1,185258,187408,0.9,0 S,1,185258,187408,0.25,0.5
Sprite,Background,Centre,"sb\ring.png",0,0 M,0,185558,,180,128 C,0,185558,,255,255,255 F,1,185558,187708,0.9,0 S,1,185558,187708,0.25,0.5
Sprite,Background,Centre,"sb\ring.png",0,0 M,0,185858,,410,393 C,0,185858,,255,255,255 F,1,185858,188158,0.9,0 S,1,185858,188158,0.25,0.5
Sprite,Background,Centre,"sb\ring.png",0,0 M,0,186308,,292,61 C,0,186308,,255,255,255 F,1,186308,188608,0.9,0 S,1,186308,188608,0.25,0.5
Sprite,Background,Centre,"sb\ring.png",0,0 M,0,186758,,363,322 C,0,186758,,255,255,255 F,1,186758,188758,0.9,0 S,1,186758,188758,0.25,0.5
Sprite,Background,Centre,"sb\ring.png",0,0 M,0,186908,,450,133 C,0,186908,,255,255,255 F,1,186908,189058,0.9,0 S,1,186908,189058,0.25,0.5
Sprite,Background,Centre,"sb\ring.png",0,0 M,0,187208,,187,307 C,0,187208,,255,255,255 F,1,187208,189208,0.9,0 S,1,187208,189208,0.25,0.5
Sprite,Background,Centre,"sb\ring.png",0,0 M,0,187358,,114,81 C,0,187358,,255,255,255 F,1,187358,189358,0.9,0 S,1,187358,189358,0.25,0.5
Sprite,Background,Centre,"sb\ring.png",0,0 M,0,187508,,278,294 C,0,187508,,255,255,255 F,1,187508,189658,0.9,0 S,1,187508,189658,0.25,0.5
Sprite,Background,Centre,"sb\ring.png",0,0 M,0,187808,,201,56 C,0,187808,,255,255,255 F,1,187808,189808,0.9,0 S,1,187808,189808,0.25,0.5
Sprite,Background,Centre,"sb\ring.png",0,0 M,0,187958,,79,273 C,0,187958,,255,255,255 F,1,187958,189958,0.9,0 S,1,187958,189958,0.25,0.5
Sprite,Background,Centre,"sb\ring.png",0,0 M,0,188108,,231,379 C,0,188108,,255,255,255 F,1,188108,190408,0.9,0 S,1,188108,190408,0.25,0.5
Sprite,Background,Centre,"sb\ring.png",0,0 M,0,188558,,405,84 C,0,188558,,255,255,255 F,1,188558,190708,0.9,0 S,1,188558,190708,0.25,0.5
Sprite,Background,Centre,"sb\ring.png",0,0 M,0,188858,,481,299 C,0,188858,,255,255,255 F,1,188858,190858,0.9,0 S,1,188858,190858,0.25,0.5
Sprite,Background,Centre,"sb\ring.png",0,0 M,0,189008,,400,206 C,0,189008,,255,255,255 F,1,189008,191158,0.9,0 S,1,189008,191158,0.25,0.5
Sprite,Background,Centre,"sb\ring.png",0,0 M,0,189308,,533,414 C,0,189308,,255,255,255 F,1,189308,191608,0.9,0 S,1,189308,191608,0.25,0.5
Sprite,Background,Centre,"sb\ring.png",0,0 M,0,189758,,239,423 C,0,189758,,255,255,255 F,1,189758,191908,0.9,0 S,1,189758,191908,0.25,0.5
Sprite,Background,Centre,"sb\ring.png",0,0 M,0,190058,,133,103 C,0,190058,,255,255,255 F,1,190058,192058,0.9,0 S,1,190058,192058,0.25,0.5
Sprite,Background,Centre,"sb\ring.png",0,0 M,0,190208,,311,267 C,0,190208,,255,255,255 F,1,190208,192208,0.9,0 S,1,190208,192208,0.25,0.5
Sprite,Background,Centre,"sb\ring.png",0,0 M,0,190358,,356,56 C,0,190358,,255,255,255 F,1,190358,192358,0.9,0 S,1,190358,192358,0.25,0.5
Sprite,Background,Centre,"sb\ring.png",0,0 M,0,190508,,102,219 C,0,190508,,255,255,255 F,1,190508,192508,0.9,0 S,1,190508,192508,0.25,0.5
Sprite,Background,Centre,"sb\ring.png",0,0 M,0,190658,,319,440 C,0,190658,,255,255,255 F,1,190658,192958,0.9,0 S,1,190658,192958,0.25,0.5
Sprite,Background,Centre,"sb\ring.png",0,0 M,0,191108,,559,158 C,0,191108,,255,255,255 F,1,191108,193258,0.9,0 S,1,191108,193258,0.25,0.5
Sprite,Background,Centre,"sb\ring.png",0,0 M,0,191408,,331,168 C,0,191408,,255,255,255 F,1,191408,193408,0.9,0 S,1,191408,193408,0.25,0.5
Sprite,Background,Centre,"sb\ring.png",0,0 M,0,191558,,464,386 C,0,191558,,255,255,255 F,1,191558,193558,0.9,0 S,1,191558,193558,0.25,0.5
Sprite,Background,Centre,"sb\ring.png",0,0 M,0,191708,,576,57 C,0,191708,,255,255,255 F,1,191708,194008,0.9,0 S,1,191708,194008,0.25,0.5
Sprite,Background,Centre,"sb\ring.png",0,0 M,0,192158,,362,431 C,0,192158,,255,255,255 F,1,192158,194308,0.9,0 S,1,192158,194308,0.25,0.5
Sprite,Background,Centre,"sb\ring.png",0,0 M,0,192458,,161,171 C,0,192458,,255,255,255 F,1,192458,194683,0.9,0 S,1,192458,194683,0.25,0.5
Sprite,Background,Centre,"sb\ring.png",0,0 M,0,192758,,287,245 C,0,192758,,255,255,255 F,1,192758,194758,0.9,0 S,1,192758,194758,0.25,0.5
Sprite,Background,Centre,"sb\ring.png",0,0 M,0,192908,,465,85 C,0,192908,,255,255,255 F,1,192908,194908,0.9,0 S,1,192908,194908,0.25,0.5
Sprite,Background,Centre,"sb\ring.png",0,0 M,0,193058,,397,283 C,0,193058,,255,255,255 F,1,193058,195358,0.9,0 S,1,193058,195358,0.25,0.5
Sprite,Background,Centre,"sb\ring.png",0,0 M,0,193508,,570,237 C,0,193508,,255,255,255 F,1,193508,195658,0.9,0 S,1,193508,195658,0.25,0.5
Sprite,Background,Centre,"sb\ring.png",0,0 M,0,193808,,399,428 C,0,193808,,255,255,255 F,1,193808,195808,0.9,0 S,1,193808,195808,0.25,0.5
Sprite,Background,Centre,"sb\ring.png",0,0 M,0,193958,,287,245 C,0,193958,,255,255,255 F,1,193958,195958,0.9,0 S,1,193958,195958,0.25,0.5
Sprite,Background,Centre,"sb\ring.png",0,0 M,0,194108,,479,349 C,0,194108,,255,255,255 F,1,194108,196108,0.9,0 S,1,194108,196108,0.25,0.5
Sprite,Background,Centre,"sb\ring.png",0,0 M,0,194258,,232,415 C,0,194258,,255,255,255 F,1,194258,196408,0.9,0 S,1,194258,196408,0.25,0.5
Sprite,Background,Centre,"sb\ring.png",0,0 M,0,194558,,172,128 C,0,194558,,255,255,255 F,1,194558,196558,0.9,0 S,1,194558,196558,0.25,0.5
Sprite,Background,Centre,"sb\ring.png",0,0 M,0,194708,,64,228 C,0,194708,,255,255,255 F,1,194708,196858,0.9,0 S,1,194708,196858,0.25,0.5
Sprite,Background,Centre,"sb\ring.png",0,0 M,0,195008,,346,176 C,0,195008,,255,255,255 F,1,195008,197008,0.9,0 S,1,195008,197008,0.25,0.5
Sprite,Background,Centre,"sb\ring.png",0,0 M,0,195158,,258,56 C,0,195158,,255,255,255 F,1,195158,197308,0.9,0 S,1,195158,197308,0.25,0.5
Sprite,Background,Centre,"sb\ring.png",0,0 M,0,195458,,421,268 C,0,195458,,255,255,255 F,1,195458,197858,0.9,0 S,1,195458,197858,0.25,0.5
Sprite,Background,Centre,"sb\ring.png",0,0 M,0,196058,,291,384 C,0,196058,,255,255,255 F,1,196058,198258,0.9,0 S,1,196058,198258,0.25,0.5
Sprite,Background,Centre,"sb\ring.png",0,0 M,0,196508,,475,437 C,0,196508,,255,255,255 F,1,196508,198508,0.9,0 S,1,196508,198508,0.25,0.5
Sprite,Background,Centre,"sb\ring.png",0,0 M,0,197108,,146,122 C,0,197108,,255,255,255 F,1,197108,199258,0.9,0 S,1,197108,199258,0.25,0.5
Sprite,Background,Centre,"sb\ring.png",0,0 M,0,197408,,320,439 C,0,197408,,255,255,255 F,1,197408,199558,0.9,0 S,1,197408,199558,0.25,0.5
Sprite,Background,Centre,"sb\ring.png",0,0 M,0,197708,,494,122 C,0,197708,,255,255,255 F,1,197708,199858,0.9,0 S,1,197708,199858,0.25,0.5
Sprite,Background,Centre,"sb\ring.png",0,0 M,0,198158,,497,223 C,0,198158,,255,255,255 F,1,198158,200158,0.9,0 S,1,198158,200158,0.25,0.5
Sprite,Background,Centre,"sb\ring.png",0,0 M,0,198308,,138,325 C,0,198308,,255,255,255 F,1,198308,200308,0.9,0 S,1,198308,200308,0.25,0.5
Sprite,Background,Centre,"sb\ring.png",0,0 M,0,198458,,505,427 C,0,198458,,255,255,255 F,1,198458,200458,0.9,0 S,1,198458,200458,0.25,0.5
Sprite,Background,Centre,"sb\ring.png",0,0 M,0,198608,,135,427 C,0,198608,,255,255,255 F,1,198608,200608,0.9,0 S,1,198608,200608,0.25,0.5
Sprite,Background,Centre,"sb\ring.png",0,0 M,0,198758,,501,325 C,0,198758,,255,255,255 F,1,198758,200758,0.9,0 S,1,198758,200758,0.25,0.5
Sprite,Background,Centre,"sb\ring.png",0,0 M,0,198908,,142,223 C,0,198908,,255,255,255 F,1,198908,200908,0.9,0 S,1,198908,200908,0.25,0.5
Sprite,Background,Centre,"sb\ring.png",0,0 M,0,199058,,494,122 C,0,199058,,255,255,255 F,1,199058,201058,0.9,0 S,1,199058,201058,0.25,0.5
Sprite,Background,Centre,"sb\ring.png",0,0 M,0,199208,,320,335 C,0,199208,,255,255,255 F,1,199208,201208,0.9,0 S,1,199208,201208,0.25,0.5
Sprite,Background,Centre,"sb\ring.png",0,0 M,0,199358,,146,122 C,0,199358,,255,255,255 F,1,199358,201358,0.9,0 S,1,199358,201358,0.25,0.5
Sprite,Background,Centre,"sb\ring.png",0,0 M,0,199508,,500,324 C,0,199508,,255,255,255 F,1,199508,201658,0.9,0 S,1,199508,201658,0.25,0.5
Sprite,Background,Centre,"sb\ring.png",0,0 M,0,199808,,320,170 C,0,199808,,255,255,255 F,1,199808,201958,0.9,0 S,1,199808,201958,0.25,0.5
Sprite,Background,Centre,"sb\ring.png",0,0 M,0,200108,,139,324 C,0,200108,,255,255,255 F,1,200108,202258,0.9,0 S,1,200108,202258,0.25,0.5
Sprite,Background,Centre,"sb\ring.png",0,0 M,0,200558,,134,427 C,0,200558,,255,255,255 F,1,200558,202858,0.9,0 S,1,200558,202858,0.25,0.5
Sprite,Background,Centre,"sb\ring.png",0,0 M,0,201008,,147,223 C,0,201008,,255,255,255 F,1,201008,203008,0.9,0 S,1,201008,203008,0.25,0.5
Sprite,Background,Centre,"sb\ring.png",0,0 M,0,201158,,308,436 C,0,201158,,255,255,255 F,1,201158,203158,0.9,0 S,1,201158,203158,0.25,0.5
Sprite,Background,Centre,"sb\ring.png",0,0 M,0,201308,,413,191 C,0,201308,,255,255,255 F,1,201308,203308,0.9,0 S,1,201308,203308,0.25,0.5
Sprite,Background,Centre,"sb\ring.png",0,0 M,0,201458,,139,325 C,0,201458,,255,255,255 F,1,201458,203758,0.9,0 S,1,201458,203758,0.25,0.5
Sprite,Background,Centre,"sb\ring.png",0,0 M,0,201908,,463,260 C,0,201908,,255,255,255 F,1,201908,203908,0.9,0 S,1,201908,203908,0.25,0.5
Sprite,Background,Centre,"sb\ring.png",0,0 M,0,202058,,263,153 C,0,202058,,255,255,255 F,1,202058,204208,0.9,0 S,1,202058,204208,0.25,0.5
Sprite,Background,Centre,"sb\ring.png",0,0 M,0,202358,,415,440 C,0,202358,,255,255,255 F,1,202358,204508,0.9,0 S,1,202358,204508,0.25,0.5
Sprite,Background,Centre,"sb\ring.png",0,0 M,0,202658,,559,120 C,0,202658,,255,255,255 F,1,202658,204958,0.9,0 S,1,202658,204958,0.25,0.5
Sprite,Background,Centre,"sb\ring.png",0,0 M,0,203108,,164,217 C,0,203108,,255,255,255 F,1,203108,205408,0.9,0 S,1,203108,205408,0.25,0.5
Sprite,Background,Centre,"sb\ring.png",0,0 M,0,203558,,93,268 C,0,203558,,255,255,255 F,1,203558,205558,0.9,0 S,1,203558,205558,0.25,0.5
Sprite,Background,Centre,"sb\ring.png",0,0 M,0,203708,,268,402 C,0,203708,,255,255,255 F,1,203708,205858,0.9,0 S,1,203708,205858,0.25,0.5
Sprite,Background,Centre,"sb\ring.png",0,0 M,0,204008,,461,106 C,0,204008,,255,255,255 F,1,204008,206008,0.9,0 S,1,204008,206008,0.25,0.5
Sprite,Background,Centre,"sb\ring.png",0,0 M,0,204158,,400,286 C,0,204158,,255,255,255 F,1,204158,206158,0.9,0 S,1,204158,206158,0.25,0.5
Sprite,Background,Centre,"sb\ring.png",0,0 M,0,204308,,268,115 C,0,204308,,255,255,255 F,1,204308,206458,0.9,0 S,1,204308,206458,0.25,0.5
Sprite,Background,Centre,"sb\ring.png",0,0 M,0,204608,,367,385 C,0,204608,,255,255,255 F,1,204608,206608,0.9,0 S,1,204608,206608,0.25,0.5
Sprite,Background,Centre,"sb\ring.png",0,0 M,0,204758,,225,196 C,0,204758,,255,255,255 F,1,204758,206758,0.9,0 S,1,204758,206758,0.25,0.5
Sprite,Background,Centre,"sb\ring.png",0,0 M,0,204908,,514,153 C,0,204908,,255,255,255 F,1,204908,207208,0.9,0 S,1,204908,207208,0.25,0.5
Sprite,Background,Centre,"sb\ring.png",0,0 M,0,205358,,268,115 C,0,205358,,255,255,255 F,1,205358,207358,0.9,0 S,1,205358,207358,0.25,0.5
Sprite,Background,Centre,"sb\ring.png",0,0 M,0,205508,,150,311 C,0,205508,,255,255,255 F,1,205508,207658,0.9,0 S,1,205508,207658,0.25,0.5
Sprite,Background,Centre,"sb\ring.png",0,0 M,0,205808,,394,99 C,0,205808,,255,255,255 F,1,205808,207808,0.9,0 S,1,205808,207808,0.25,0.5
Sprite,Background,Centre,"sb\ring.png",0,0 M,0,205958,,185,229 C,0,205958,,255,255,255 F,1,205958,207958,0.9,0 S,1,205958,207958,0.25,0.5
Sprite,Background,Centre,"sb\ring.png",0,0 M,0,206108,,334,411 C,0,206108,,255,255,255 F,1,206108,208408,0.9,0 S,1,206108,208408,0.25,0.5
Sprite,Background,Centre,"sb\ring.png",0,0 M,0,206558,,543,185 C,0,206558,,255,255,255 F,1,206558,208708,0.9,0 S,1,206558,208708,0.25,0.5
Sprite,Background,Centre,"sb\ring.png",0,0 M,0,206858,,317,56 C,0,206858,,255,255,255 F,1,206858,208858,0.9,0 S,1,206858,208858,0.25,0.5
Sprite,Background,Centre,"sb\ring.png",0,0 M,0,207008,,406,260 C,0,207008,,255,255,255 F,1,207008,209008,0.9,0 S,1,207008,209008,0.25,0.5
Sprite,Background,Centre,"sb\ring.png",0,0 M,0,207158,,535,88 C,0,207158,,255,255,255 F,1,207158,209158,0.9,0 S,1,207158,209158,0.25,0.5
Sprite,Background,Centre,"sb\ring.png",0,0 M,0,207308,,293,207 C,0,207308,,255,255,255 F,1,207308,209308,0.9,0 S,1,207308,209308,0.25,0.5
Sprite,Background,Centre,"sb\ring.png",0,0 M,0,207458,,502,356 C,0,207458,,255,255,255 F,1,207458,209608,0.9,0 S,1,207458,209608,0.25,0.5
Sprite,Background,Centre,"sb\ring.png",0,0 M,0,207758,,293,207 C,0,207758,,255,255,255 F,1,207758,209758,0.9,0 S,1,207758,209758,0.25,0.5
Sprite,Background,Centre,"sb\ring.png",0,0 M,0,207908,,397,77 C,0,207908,,255,255,255 F,1,207908,210058,0.9,0 S,1,207908,210058,0.25,0.5
Sprite,Background,Centre,"sb\ring.png",0,0 M,0,208208,,289,322 C,0,208208,,255,255,255 F,1,208208,210208,0.9,0 S,1,208208,210208,0.25,0.5
Sprite,Background,Centre,"sb\ring.png",0,0 M,0,208358,,218,117 C,0,208358,,255,255,255 F,1,208358,210358,0.9,0 S,1,208358,210358,0.25,0.5
Sprite,Background,Centre,"sb\ring.png",0,0 M,0,208508,,404,284 C,0,208508,,255,255,255 F,1,208508,210808,0.9,0 S,1,208508,210808,0.25,0.5
Sprite,Background,Centre,"sb\ring.png",0,0 M,0,208958,,67,141 C,0,208958,,255,255,255 F,1,208958,211108,0.9,0 S,1,208958,211108,0.25,0.5
Sprite,Background,Centre,"sb\ring.png",0,0 M,0,209258,,163,412 C,0,209258,,255,255,255 F,1,209258,211258,0.9,0 S,1,209258,211258,0.25,0.5
Sprite,Background,Centre,"sb\ring.png",0,0 M,0,209408,,288,187 C,0,209408,,255,255,255 F,1,209408,211408,0.9,0 S,1,209408,211408,0.25,0.5
Sprite,Background,Centre,"sb\ring.png",0,0 M,0,209558,,101,309 C,0,209558,,255,255,255 F,1,209558,211558,0.9,0 S,1,209558,211558,0.25,0.5
Sprite,Background,Centre,"sb\ring.png",0,0 M,0,209708,,310,408 C,0,209708,,255,255,255 F,1,209708,211708,0.9,0 S,1,209708,211708,0.25,0.5
Sprite,Background,Centre,"sb\ring.png",0,0 M,0,209858,,219,123 C,0,209858,,255,255,255 F,1,209858,212158,0.9,0 S,1,209858,212158,0.25,0.5
Sprite,Background,Centre,"sb\ring.png",0,0 M,0,210308,,404,404 C,0,210308,,255,255,255 F,1,210308,212458,0.9,0 S,1,210308,212458,0.25,0.5
Sprite,Background,Centre,"sb\ring.png",0,0 M,0,210608,,549,122 C,0,210608,,255,255,255 F,1,210608,212608,0.9,0 S,1,210608,212608,0.25,0.5
Sprite,Background,Centre,"sb\ring.png",0,0 M,0,210758,,337,260 C,0,210758,,255,255,255 F,1,210758,212758,0.9,0 S,1,210758,212758,0.25,0.5
Sprite,Background,Centre,"sb\ring.png",0,0 M,0,210908,,540,381 C,0,210908,,255,255,255 F,1,210908,213208,0.9,0 S,1,210908,213208,0.25,0.5
Sprite,Background,Centre,"sb\ring.png",0,0 M,0,211358,,322,440 C,0,211358,,255,255,255 F,1,211358,213358,0.9,0 S,1,211358,213358,0.25,0.5
Sprite,Background,Centre,"sb\ring.png",0,0 M,0,211508,,234,141 C,0,211508,,255,255,255 F,1,211508,213658,0.9,0 S,1,211508,213658,0.25,0.5
Sprite,Background,Centre,"sb\ring.png",0,0 M,0,211808,,389,379 C,0,211808,,255,255,255 F,1,211808,213808,0.9,0 S,1,211808,213808,0.25,0.5
Sprite,Background,Centre,"sb\ring.png",0,0 M,0,211958,,180,232 C,0,211958,,255,255,255 F,1,211958,213958,0.9,0 S,1,211958,213958,0.25,0.5
Sprite,Background,Centre,"sb\ring.png",0,0 M,0,212108,,439,121 C,0,212108,,255,255,255 F,1,212108,214108,0.9,0 S,1,212108,214108,0.25,0.5
Sprite,Background,Centre,"sb\ring.png",0,0 M,0,212258,,273,372 C,0,212258,,255,255,255 F,1,212258,214658,0.9,0 S,1,212258,214658,0.25,0.5
Sprite,Background,Centre,"sb\ring.png",0,0 M,0,212858,,95,273 C,0,212858,,255,255,255 F,1,212858,215058,0.9,0 S,1,212858,215058,0.25,0.5
Sprite,Background,Centre,"sb\ring.png",0,0 M,0,213308,,319,100 C,0,213308,,255,255,255 F,1,213308,215308,0.9,0 S,1,213308,215308,0.25,0.5
Sprite,Background,Centre,"sb\ring.png",0,0 M,0,213908,,486,162 C,0,213908,,255,255,255 F,1,213908,216133,0.9,0 S,1,213908,216133,0.25,0.5
Sprite,Background,Centre,"sb\ring.png",0,0 M,0,214208,,138,112 C,0,214208,,255,255,255 F,1,214208,216508,0.9,0 S,1,214208,216508,0.25,0.5
Sprite,Background,Centre,"sb\ring.png",0,0 M,0,214658,,184,261 C,0,214658,,255,255,255 F,1,214658,216958,0.9,0 S,1,214658,216958,0.25,0.5
Sprite,Background,Centre,"sb\ring.png",0,0 M,0,215108,,262,406 C,0,215108,,255,255,255 F,1,215108,217108,0.9,0 S,1,215108,217108,0.25,0.5
Sprite,Background,Centre,"sb\ring.png",0,0 M,0,215258,,390,177 C,0,215258,,255,255,255 F,1,215258,217258,0.9,0 S,1,215258,217258,0.25,0.5
Sprite,Background,Centre,"sb\ring.png",0,0 M,0,215408,,415,429 C,0,215408,,255,255,255 F,1,215408,217408,0.9,0 S,1,215408,217408,0.25,0.5
Sprite,Background,Centre,"sb\ring.png",0,0 M,0,215558,,522,205 C,0,215558,,255,255,255 F,1,215558,217558,0.9,0 S,1,215558,217558,0.25,0.5
Sprite,Background,Centre,"sb\ring.png",0,0 M,0,215708,,312,292 C,0,215708,,255,255,255 F,1,215708,217708,0.9,0 S,1,215708,217708,0.25,0.5
Sprite,Background,Centre,"sb\ring.png",0,0 M,0,215858,,539,440 C,0,215858,,255,255,255 F,1,215858,218008,0.9,0 S,1,215858,218008,0.25,0.5
Sprite,Background,Centre,"sb\ring.png",0,0 M,0,216158,,541,71 C,0,216158,,255,255,255 F,1,216158,218158,0.9,0 S,1,216158,218158,0.25,0.5
Sprite,Background,Centre,"sb\ring.png",0,0 M,0,216308,,306,160 C,0,216308,,255,255,255 F,1,216308,218308,0.9,0 S,1,216308,218308,0.25,0.5
Sprite,Background,Centre,"sb\ring.png",0,0 M,0,216458,,576,265 C,0,216458,,255,255,255 F,1,216458,218458,0.9,0 S,1,216458,218458,0.25,0.5
Sprite,Background,Centre,"sb\ring.png",0,0 M,0,216608,,362,353 C,0,216608,,255,255,255 F,1,216608,218608,0.9,0 S,1,216608,218608,0.25,0.5
Sprite,Background,Centre,"sb\ring.png",0,0 M,0,216758,,441,57 C,0,216758,,255,255,255 F,1,216758,218908,0.9,0 S,1,216758,218908,0.25,0.5
Sprite,Background,Centre,"sb\ring.png",0,0 M,0,217058,,299,415 C,0,217058,,255,255,255 F,1,217058,219058,0.9,0 S,1,217058,219058,0.25,0.5
Sprite,Background,Centre,"sb\ring.png",0,0 M,0,217208,,125,225 C,0,217208,,255,255,255 F,1,217208,219208,0.9,0 S,1,217208,219208,0.25,0.5
Sprite,Background,Centre,"sb\ring.png",0,0 M,0,217358,,125,225 C,0,217358,,255,255,255 F,1,217358,219508,0.9,0 S,1,217358,219508,0.25,0.5
Sprite,Background,Centre,"sb\ring.png",0,0 M,0,217658,,496,177 C,0,217658,,255,255,255 F,1,217658,219658,0.9,0 S,1,217658,219658,0.25,0.5
Sprite,Background,Centre,"sb\ring.png",0,0 M,0,217808,,416,412 C,0,217808,,255,255,255 F,1,217808,219808,0.9,0 S,1,217808,219808,0.25,0.5
Sprite,Background,Centre,"sb\ring.png",0,0 M,0,217958,,255,123 C,0,217958,,255,255,255 F,1,217958,219958,0.9,0 S,1,217958,219958,0.25,0.5
Sprite,Background,Centre,"sb\ring.png",0,0 M,0,218108,,206,370 C,0,218108,,255,255,255 F,1,218108,220108,0.9,0 S,1,218108,220108,0.25,0.5
Sprite,Background,Centre,"sb\ring.png",0,0 M,0,218258,,554,345 C,0,218258,,255,255,255 F,1,218258,220408,0.9,0 S,1,218258,220408,0.25,0.5
Sprite,Background,Centre,"sb\ring.png",0,0 M,0,218558,,268,316 C,0,218558,,255,255,255 F,1,218558,220708,0.9,0 S,1,218558,220708,0.25,0.5
Sprite,Background,Centre,"sb\ring.png",0,0 M,0,218858,,324,136 C,0,218858,,255,255,255 F,1,218858,221008,0.9,0 S,1,218858,221008,0.25,0.5
Sprite,Background,Centre,"sb\ring.png",0,0 M,0,219158,,121,409 C,0,219158,,255,255,255 F,1,219158,221308,0.9,0 S,1,219158,221308,0.25,0.5
Sprite,Background,Centre,"sb\ring.png",0,0 M,0,219458,,165,165 C,0,219458,,255,255,255 F,1,219458,221458,0.9,0 S,1,219458,221458,0.25,0.5
Sprite,Background,Centre,"sb\ring.png",0,0 M,0,219608,,165,165 C,0,219608,,255,255,255 F,1,219608,221608,0.9,0 S,1,219608,221608,0.25,0.5
Sprite,Background,Centre,"sb\ring.png",0,0 M,0,219758,,423,56 C,0,219758,,255,255,255 F,1,219758,221983,0.9,0 S,1,219758,221983,0.25,0.5
Sprite,Background,Centre,"sb\ring.png",0,0 M,0,220058,,484,274 C,0,220058,,255,255,255 F,1,220058,222058,0.9,0 S,1,220058,222058,0.25,0.5
Sprite,Background,Centre,"sb\ring.png",0,0 M,0,220208,,354,260 C,0,220208,,255,255,255 F,1,220208,222208,0.9,0 S,1,220208,222208,0.25,0.5
Sprite,Background,Centre,"sb\ring.png",0,0 M,0,220358,,542,163 C,0,220358,,255,255,255 F,1,220358,222358,0.9,0 S,1,220358,222358,0.25,0.5
Sprite,Background,Centre,"sb\ring.png",0,0 M,0,220508,,509,365 C,0,220508,,255,255,255 F,1,220508,222508,0.9,0 S,1,220508,222508,0.25,0.5
Sprite,Background,Centre,"sb\ring.png",0,0 M,0,220658,,329,178 C,0,220658,,255,255,255 F,1,220658,222808,0.9,0 S,1,220658,222808,0.25,0.5
Sprite,Background,Centre,"sb\ring.png",0,0 M,0,220958,,471,435 C,0,220958,,255,255,255 F,1,220958,223108,0.9,0 S,1,220958,223108,0.25,0.5
Sprite,Background,Centre,"sb\ring.png",0,0 M,0,221258,,252,243 C,0,221258,,255,255,255 F,1,221258,223258,0.9,0 S,1,221258,223258,0.25,0.5
Sprite,Background,Centre,"sb\ring.png",0,0 M,0,221408,,426,316 C,0,221408,,255,255,255 F,1,221408,223408,0.9,0 S,1,221408,223408,0.25,0.5
Sprite,Background,Centre,"sb\ring.png",0,0 M,0,221558,,281,420 C,0,221558,,255,255,255 F,1,221558,223558,0.9,0 S,1,221558,223558,0.25,0.5
Sprite,Background,Centre,"sb\ring.png",0,0 M,0,221708,,313,324 C,0,221708,,255,255,255 F,1,221708,223708,0.9,0 S,1,221708,223708,0.25,0.5
Sprite,Background,Centre,"sb\ring.png",0,0 M,0,221858,,384,400 C,0,221858,,255,255,255 F,1,221858,223858,0.9,0 S,1,221858,223858,0.25,0.5
Sprite,Background,Centre,"sb\ring.png",0,0 M,0,222008,,125,264 C,0,222008,,255,255,255 F,1,222008,224008,0.9,0 S,1,222008,224008,0.25,0.5
Sprite,Background,Centre,"sb\ring.png",0,0 M,0,222158,,171,436 C,0,222158,,255,255,255 F,1,222158,224308,0.9,0 S,1,222158,224308,0.25,0.5
Sprite,Background,Centre,"sb\ring.png",0,0 M,0,222458,,322,113 C,0,222458,,255,255,255 F,1,222458,224458,0.9,0 S,1,222458,224458,0.25,0.5
Sprite,Background,Centre,"sb\ring.png",0,0 M,0,222608,,355,253 C,0,222608,,255,255,255 F,1,222608,224608,0.9,0 S,1,222608,224608,0.25,0.5
Sprite,Background,Centre,"sb\ring.png",0,0 M,0,222758,,486,182 C,0,222758,,255,255,255 F,1,222758,224908,0.9,0 S,1,222758,224908,0.25,0.5
Sprite,Background,Centre,"sb\ring.png",0,0 M,0,223058,,211,94 C,0,223058,,255,255,255 F,1,223058,225208,0.9,0 S,1,223058,225208,0.25,0.5
Sprite,Background,Centre,"sb\ring.png",0,0 M,0,223358,,354,421 C,0,223358,,255,255,255 F,1,223358,225508,0.9,0 S,1,223358,225508,0.25,0.5
Sprite,Background,Centre,"sb\ring.png",0,0 M,0,223658,,553,252 C,0,223658,,255,255,255 F,1,223658,225658,0.9,0 S,1,223658,225658,0.25,0.5
Sprite,Background,Centre,"sb\ring.png",0,0 M,0,223808,,358,71 C,0,223808,,255,255,255 F,1,223808,225808,0.9,0 S,1,223808,225808,0.25,0.5
Sprite,Background,Centre,"sb\ring.png",0,0 M,0,223958,,277,336 C,0,223958,,255,255,255 F,1,223958,225958,0.9,0 S,1,223958,225958,0.25,0.5
Sprite,Background,Centre,"sb\ring.png",0,0 M,0,224108,,403,220 C,0,224108,,255,255,255 F,1,224108,226108,0.9,0 S,1,224108,226108,0.25,0.5
Sprite,Background,Centre,"sb\ring.png",0,0 M,0,224258,,247,170 C,0,224258,,255,255,255 F,1,224258,226258,0.9,0 S,1,224258,226258,0.25,0.5
Sprite,Background,Centre,"sb\ring.png",0,0 M,0,224408,,145,420 C,0,224408,,255,255,255 F,1,224408,226408,0.9,0 S,1,224408,226408,0.25,0.5
Sprite,Background,Centre,"sb\ring.png",0,0 M,0,224558,,145,420 C,0,224558,,255,255,255 F,1,224558,226708,0.9,0 S,1,224558,226708,0.25,0.5
Sprite,Background,Centre,"sb\ring.png",0,0 M,0,224858,,521,390 C,0,224858,,255,255,255 F,1,224858,226858,0.9,0 S,1,224858,226858,0.25,0.5
Sprite,Background,Centre,"sb\ring.png",0,0 M,0,225008,,333,154 C,0,225008,,255,255,255 F,1,225008,227008,0.9,0 S,1,225008,227008,0.25,0.5
Sprite,Background,Centre,"sb\ring.png",0,0 M,0,225158,,375,415 C,0,225158,,255,255,255 F,1,225158,227158,0.9,0 S,1,225158,227158,0.25,0.5
Sprite,Background,Centre,"sb\ring.png",0,0 M,0,225308,,463,118 C,0,225308,,255,255,255 F,1,225308,227308,0.9,0 S,1,225308,227308,0.25,0.5
Sprite,Background,Centre,"sb\ring.png",0,0 M,0,225458,,227,322 C,0,225458,,255,255,255 F,1,225458,227608,0.9,0 S,1,225458,227608,0.25,0.5
Sprite,Background,Centre,"sb\ring.png",0,0 M,0,225758,,339,246 C,0,225758,,255,255,255 F,1,225758,227758,0.9,0 S,1,225758,227758,0.25,0.5
Sprite,Background,Centre,"sb\ring.png",0,0 M,0,225908,,252,126 C,0,225908,,255,255,255 F,1,225908,228058,0.9,0 S,1,225908,228058,0.25,0.5
Sprite,Background,Centre,"sb\ring.png",0,0 M,0,226208,,303,370 C,0,226208,,255,255,255 F,1,226208,228208,0.9,0 S,1,226208,228208,0.25,0.5
Sprite,Background,Centre,"sb\ring.png",0,0 M,0,226358,,422,116 C,0,226358,,255,255,255 F,1,226358,228358,0.9,0 S,1,226358,228358,0.25,0.5
Sprite,Background,Centre,"sb\ring.png",0,0 M,0,226508,,163,239 C,0,226508,,255,255,255 F,1,226508,228508,0.9,0 S,1,226508,228508,0.25,0.5
Sprite,Background,Centre,"sb\ring.png",0,0 M,0,226658,,474,410 C,0,226658,,255,255,255 F,1,226658,228658,0.9,0 S,1,226658,228658,0.25,0.5
Sprite,Background,Centre,"sb\ring.png",0,0 M,0,226808,,339,246 C,0,226808,,255,255,255 F,1,226808,228808,0.9,0 S,1,226808,228808,0.25,0.5
Sprite,Background,Centre,"sb\ring.png",0,0 M,0,226958,,339,246 C,0,226958,,255,255,255 F,1,226958,229108,0.9,0 S,1,226958,229108,0.25,0.5
Sprite,Background,Centre,"sb\ring.png",0,0 M,0,227258,,547,117 C,0,227258,,255,255,255 F,1,227258,229258,0.9,0 S,1,227258,229258,0.25,0.5
Sprite,Background,Centre,"sb\ring.png",0,0 M,0,227408,,374,353 C,0,227408,,255,255,255 F,1,227408,229408,0.9,0 S,1,227408,229408,0.25,0.5
Sprite,Background,Centre,"sb\ring.png",0,0 M,0,227558,,422,116 C,0,227558,,255,255,255 F,1,227558,229558,0.9,0 S,1,227558,229558,0.25,0.5
Sprite,Background,Centre,"sb\ring.png",0,0 M,0,227708,,557,356 C,0,227708,,255,255,255 F,1,227708,229708,0.9,0 S,1,227708,229708,0.25,0.5
Sprite,Background,Centre,"sb\ring.png",0,0 M,0,227858,,297,440 C,0,227858,,255,255,255 F,1,227858,230008,0.9,0 S,1,227858,230008,0.25,0.5
Sprite,Background,Centre,"sb\ring.png",0,0 M,0,228158,,477,177 C,0,228158,,255,255,255 F,1,228158,230308,0.9,0 S,1,228158,230308,0.25,0.5
Sprite,Background,Centre,"sb\ring.png",0,0 M,0,228458,,186,250 C,0,228458,,255,255,255 F,1,228458,230608,0.9,0 S,1,228458,230608,0.25,0.5
Sprite,Background,Centre,"sb\ring.png",0,0 M,0,228758,,375,354 C,0,228758,,255,255,255 F,1,228758,230758,0.9,0 S,1,228758,230758,0.25,0.5
Sprite,Background,Centre,"sb\ring.png",0,0 M,0,228908,,311,150 C,0,228908,,255,255,255 F,1,228908,230908,0.9,0 S,1,228908,230908,0.25,0.5
Sprite,Background,Centre,"sb\ring.png",0,0 M,0,229058,,102,382 C,0,229058,,255,255,255 F,1,229058,231058,0.9,0 S,1,229058,231058,0.25,0.5
Sprite,Background,Centre,"sb\ring.png",0,0 M,0,229208,,118,289 C,0,229208,,255,255,255 F,1,229208,231208,0.9,0 S,1,229208,231208,0.25,0.5
Sprite,Background,Centre,"sb\ring.png",0,0 M,0,229358,,134,196 C,0,229358,,255,255,255 F,1,229358,231508,0.9,0 S,1,229358,231508,0.25,0.5
Sprite,Background,Centre,"sb\ring.png",0,0 M,0,229658,,118,289 C,0,229658,,255,255,255 F,1,229658,231658,0.9,0 S,1,229658,231658,0.25,0.5
Sprite,Background,Centre,"sb\ring.png",0,0 M,0,229808,,206,258 C,0,229808,,255,255,255 F,1,229808,231958,0.9,0 S,1,229808,231958,0.25,0.5
Sprite,Background,Centre,"sb\ring.png",0,0 M,0,230108,,118,289 C,0,230108,,255,255,255 F,1,230108,232108,0.9,0 S,1,230108,232108,0.25,0.5
Sprite,Background,Centre,"sb\ring.png",0,0 M,0,230258,,188,349 C,0,230258,,255,255,255 F,1,230258,232408,0.9,0 S,1,230258,232408,0.25,0.5
Sprite,Background,Centre,"sb\ring.png",0,0 M,0,230558,,118,289 C,0,230558,,255,255,255 F,1,230558,232558,0.9,0 S,1,230558,232558,0.25,0.5
Sprite,Background,Centre,"sb\ring.png",0,0 M,0,230708,,289,225 C,0,230708,,255,255,255 F,1,230708,232708,0.9,0 S,1,230708,232708,0.25,0.5
Sprite,Background,Centre,"sb\ring.png",0,0 M,0,230858,,144,127 C,0,230858,,255,255,255 F,1,230858,233383,0.9,0 S,1,230858,233383,0.25,0.5
//Storyboard Layer 1 (Fail)
//Storyboard Layer 2 (Pass)
//Storyboard Layer 3 (Foreground)
//Storyboard Layer 4 (Overlay)
//Storyboard Sound Samples

[TimingPoints]
1058,300,4,2,5,40,1,0
10658,-333.333333333333,4,2,5,30,0,0
11558,-333.333333333333,4,2,5,20,0,0
18758,-333.333333333333,4,2,5,25,0,0
29858,-333.333333333333,4,2,5,30,0,0
51158,-100,4,2,5,15,0,0
51458,-86.9565217391304,4,2,5,70,0,0
65858,-80,4,2,5,70,0,0
65958,-80,4,2,5,5,0,0
66058,-80,4,2,5,70,0,0
66158,-80,4,2,5,5,0,0
66258,-80,4,2,5,70,0,0
66358,-80,4,2,5,5,0,0
66458,-68.9655172413793,4,2,5,70,0,0
66558,-68.9655172413793,4,2,5,5,0,0
66658,-68.9655172413793,4,2,5,70,0,0
66758,-68.9655172413793,4,2,5,5,0,0
66858,-68.9655172413793,4,2,5,70,0,0
66958,-68.9655172413793,4,2,5,5,0,0
67058,-86.9565217391304,4,2,5,70,0,0
68108,-333.333333333333,4,2,5,50,0,0
70658,-100,4,2,5,50,0,0
71558,-333.333333333333,4,2,5,50,0,0
72008,-181.818181818182,4,2,5,50,0,0
72458,-95.2380952380952,4,2,5,50,0,0
73058,-100,4,2,5,50,0,0
73958,-333.333333333333,4,2,5,50,0,0
74408,-181.818181818182,4,2,5,50,0,0
74858,-125,4,2,5,50,0,0
76358,-333.333333333333,4,2,5,50,0,0
76808,-181.818181818182,4,2,5,50,0,0
77258,-125,4,2,5,50,0,0
78758,-333.333333333333,4,2,5,50,0,0
79208,-181.818181818182,4,2,5,50,0,0
80258,-105.263157894737,4,2,5,60,0,0
99458,-153.846153846154,4,2,5,60,0,0
119858,-95.2380952380952,4,2,5,10,0,0
120008,-95.2380952380952,4,2,5,15,0,0
120158,-95.2380952380952,4,2,5,25,0,0
120308,-95.2380952380952,4,2,5,35,0,0
120458,-95.2380952380952,4,2,5,45,0,0
120608,-95.2380952380952,4,2,5,55,0,0
121058,-95.2380952380952,4,2,5,70,0,0
136958,-100,4,2,5,70,0,0
137858,-100,4,2,5,60,0,0
142283,-100,4,2,5,5,0,0
142358,-100,4,2,5,60,0,0
142583,-100,4,2,5,5,0,0
142658,-100,4,2,5,60,0,0
154508,-250,4,2,5,60,0,0
155858,-166.666666666667,4,2,5,60,0,0
156758,-200,4,2,5,30,0,0
157058,-250,4,2,5,30,0,0
174458,-333.333333333333,4,2,5,30,0,0
175058,-666.666666666667,4,2,5,20,0,0
176258,-1000,4,2,5,15,0,0
179258,-1000,4,2,5,10,0,0
179858,-100,4,2,5,10,0,0
180008,-100,4,2,5,15,0,0
180158,-100,4,2,5,25,0,0
180308,-100,4,2,5,35,0,0
180458,-100,4,2,5,45,0,0
181058,-86.9565217391304,4,2,5,60,0,0
195458,-100,4,2,5,60,0,0
196508,-86.9565217391304,4,2,5,60,0,0
200258,-86.9565217391304,4,2,5,5,0,0
200558,-86.9565217391304,4,2,5,60,0,0
212258,-100,4,2,5,60,0,0
213908,-86.9565217391304,4,2,5,60,0,0
229058,-100,4,2,5,60,0,0
231458,-166.666666666667,4,2,5,20,0,0
248743,526.315789473684,4,2,5,40,1,0
248874,555.555555555556,4,2,5,40,1,0
249012,659.340659340659,4,2,5,40,1,0
249176,615.384615384615,4,2,5,40,1,0
249252,300,4,2,5,40,1,0
255327,-333.333333333333,4,2,5,5,0,0

[Colours]
Combo1 : 191,191,191
Combo2 : 204,165,248
Combo3 : 133,84,152
Combo4 : 142,198,204

[HitObjects]
116,39,10658,6,0,L|115:200,1,161.999995056153,2|0,0:0|0:0,0:0:0:0:
167,276,11858,1,0,0:0:0:0:
258,268,12158,1,0,0:0:0:0:
297,185,12458,1,0,0:0:0:0:
245,110,12758,1,0,0:0:0:0:
128,359,13058,5,2,0:0:0:0:
128,359,13358,2,0,B|154:350|180:358|180:358|207:365|233:357,1,107.999996704102
323,333,14258,2,0,L|424:337,2,80.9999975280763,2|0|0,0:0|0:0|0:0,0:0:0:0:
156,143,15458,6,0,B|316:118|316:118|259:269,1,323.999990112305,2|0,0:0|0:0,0:0:0:0:
156,143,17858,2,0,B|80:114|80:114|93:194,1,161.999995056153,2|0,0:0|0:0,0:0:0:0:
103,284,19058,1,0,0:0:0:0:
177,231,19358,1,0,0:0:0:0:
19,247,19658,1,0,0:0:0:0:
262,268,19958,1,0,0:0:0:0:
159,48,20258,6,0,B|198:35|238:46|238:46|278:57|317:45,1,161.999995056153,2|0,0:0|0:0,0:0:0:0:
408,22,21458,1,0,0:0:0:0:
399,172,21758,1,0,0:0:0:0:
312,138,22058,1,0,0:0:0:0:
458,100,22358,1,0,0:0:0:0:
273,284,22658,5,2,0:0:0:0:
273,284,22958,2,0,L|144:277,1,107.999996704102
85,232,23858,1,2,0:0:0:0:
165,186,24158,1,0,0:0:0:0:
165,186,24308,2,0,P|170:122|161:90,1,80.9999975280763
85,231,25058,6,0,P|109:352|232:341,1,269.999991760254,2|0,0:0|0:0,0:0:0:0:
343,77,27158,1,0,0:0:0:0:
479,208,27458,6,0,B|413:229|346:210|346:210|279:191|214:213,1,269.999991760254,2|0,0:0|0:0,0:0:0:0:
79,87,29558,1,0,0:0:0:0:
38,267,29858,6,0,L|41:311,1,26.9999991760254,6|0,0:0|0:0,0:0:0:0:
111,189,30158,2,0,L|109:162,1,26.9999991760254
109,162,30758,6,0,L|111:189,1,26.9999991760254,2|0,0:0|0:0,0:0:0:0:
38,267,31058,2,0,L|41:311,1,26.9999991760254
143,338,31358,2,0,L|144:364,1,26.9999991760254
215,234,31658,1,8,0:0:0:0:
215,234,31958,6,0,L|216:260,1,26.9999991760254
364,176,32258,1,2,0:0:0:0:
240,76,32408,1,0,0:0:0:0:
215,234,32558,1,0,0:0:0:0:
273,162,32708,1,0,0:0:0:0:
273,162,33158,6,0,L|297:151,1,26.9999991760254,2|0,0:0|0:0,0:0:0:0:
215,234,33458,2,0,L|211:260,1,26.9999991760254,2|0,0:0|0:0,0:0:0:0:
181,147,33758,2,0,L|159:130,1,26.9999991760254,2|0,0:0|0:0,0:0:0:0:
307,249,34058,2,0,L|328:265,1,26.9999991760254,2|0,0:0|0:0,0:0:0:0:
239,74,34358,2,0,L|242:47,1,26.9999991760254,2|0,0:0|0:0,0:0:0:0:
122,221,34658,6,0,L|97:231,1,26.9999991760254,2|0,0:0|0:0,0:0:0:0:
273,162,34958,2,0,L|297:151,1,26.9999991760254,2|2,0:0|0:0,0:0:0:0:
181,147,35258,6,0,L|159:130,1,26.9999991760254,2|0,0:0|0:0,0:0:0:0:
307,249,35558,2,0,L|328:265,1,26.9999991760254,2|0,0:0|0:0,0:0:0:0:
211,260,35858,6,0,L|215:234,1,26.9999991760254,2|0,0:0|0:0,0:0:0:0:
242,47,36158,1,2,0:0:0:0:
242,47,36308,2,0,L|239:74,1,26.9999991760254,2|0,0:0|0:0,0:0:0:0:
239,74,36758,6,0,L|242:47,1,26.9999991760254,10|0,0:0|0:0,0:0:0:0:
296,150,37058,2,0,P|323:154|350:151,1,53.9999983520508,2|0,0:0|0:0,0:0:0:0:
425,46,37508,2,0,P|409:68|398:93,1,53.9999983520508,2|0,0:0|0:0,0:0:0:0:
451,209,37957,2,0,P|440:184|424:162,1,53.9999983520508,2|0,0:0|0:0,0:0:0:0:
351,266,38408,2,0,P|367:244|379:220,1,53.9999983520508,2|0,0:0|0:0,0:0:0:0:
251,208,38858,1,0,0:0:0:0:
425,46,39158,1,2,0:0:0:0:
477,278,39458,5,2,0:0:0:0:
477,278,39758,2,0,P|478:348|462:381,1,107.999996704102,2|2,0:0|0:0,0:0:0:0:
352,266,40658,2,0,P|347:212|367:162,1,107.999996704102,2|8,0:0|0:0,0:0:0:0:
461,381,41558,1,2,0:0:0:0:
225,353,41858,6,0,L|180:355,2,26.9999991760254,2|0|0,0:0|0:0|0:0,0:0:0:0:
297,329,42308,1,2,0:0:0:0:
297,329,42758,6,0,L|323:330,1,26.9999991760254,2|0,0:0|0:0,0:0:0:0:
225,353,43058,2,0,L|171:355,1,53.9999983520508,2|0,0:0|0:0,0:0:0:0:
54,312,43509,2,0,L|108:315,1,53.9999983520508,2|0,0:0|0:0,0:0:0:0:
173,254,43958,2,0,L|174:280,1,26.9999991760254,2|0,0:0|0:0,0:0:0:0:
107,219,44258,5,2,0:0:0:0:
170,178,44408,1,0,0:0:0:0:
236,213,44558,1,2,0:0:0:0:
236,213,44858,6,0,P|277:244|356:221,1,107.999996704102,2|0,0:0|0:0,0:0:0:0:
299,172,45608,1,0,0:0:0:0:
173,254,45758,1,10,0:0:0:0:
173,254,46058,2,0,L|175:320,1,53.9999983520508,2|8,0:0|0:0,0:0:0:0:
316,365,46658,1,2,0:0:0:0:
256,192,46733,12,0,49058,0:0:0:0:
312,203,51458,6,0,B|194:225|237:137|111:157,1,207.000003948212,6|0,3:2|1:2,0:0:0:0:
0,52,51908,2,0,P|67:34|104:54,1,103.500001974106,2|0,0:0|0:0,0:0:0:0:
137,237,52208,1,0,3:2:0:0:
55,108,52358,1,2,1:2:0:0:
30,352,52508,6,0,P|130:358|198:283,1,207.000003948212,2|0,0:0|0:0,0:0:0:0:
268,111,52958,2,0,P|238:149|252:228,1,103.500001974106,2|0,1:2|3:2,0:0:0:0:
350,366,53258,1,2,0:0:0:0:
343,136,53408,1,2,3:2:0:0:
197,284,53558,1,2,1:2:0:0:
423,336,53708,1,2,0:0:0:0:
512,183,53858,6,0,B|463:148|409:175|409:175|368:234|293:200,1,207.000003948212,2|2,3:2|1:2,0:0:0:0:
164,129,54308,2,0,P|203:80|254:71,1,103.500001974106,2|0,0:0|0:0,0:0:0:0:
312,278,54608,1,2,3:2:0:0:
109,189,54758,1,2,1:2:0:0:
308,11,54908,6,0,P|335:107|282:192,1,207.000003948212,2|0,0:0|3:2,0:0:0:0:
398,361,55358,2,0,P|387:311|390:259,1,103.500001974106,2|0,1:2|3:2,0:0:0:0:
495,77,55658,2,0,P|457:112|410:135,1,103.500001974106,2|0,0:0|3:2,0:0:0:0:
190,148,55958,2,0,P|239:163|282:192,1,103.500001974106,2|0,1:2|0:0,0:0:0:0:
506,332,56258,6,0,P|442:343|379:203,1,207.000003948212,6|2,3:2|1:2,0:0:0:0:
293,8,56708,2,0,P|201:51|198:165,1,207.000003948212,2|0,0:0|3:2,0:0:0:0:
284,285,57158,1,2,1:2:0:0:
40,224,57308,6,0,P|77:196|149:207,1,103.500001974106,2|0,0:0|0:0,0:0:0:0:
241,358,57608,1,2,3:2:0:0:
297,200,57758,1,2,1:2:0:0:
129,376,57908,2,0,P|122:316|80:234,1,103.500001974106,2|0,3:2|0:0,0:0:0:0:
221,20,58208,1,2,3:2:0:0:
34,134,58358,1,2,1:2:0:0:
222,267,58508,6,0,P|318:290|388:220,1,207.000003948212,2|0,0:0|0:0,0:0:0:0:
377,60,58958,2,0,P|348:100|346:157,1,103.500001974106,2|0,1:2|0:0,0:0:0:0:
461,270,59258,1,2,0:0:0:0:
456,31,59408,1,0,0:0:0:0:
255,156,59558,1,2,1:2:0:0:
500,195,59708,6,0,P|405:167|333:242,1,207.000003948212,2|0,0:0|3:2,0:0:0:0:
230,362,60158,2,0,P|234:301|216:251,1,103.500001974106,2|2,1:2|3:2,0:0:0:0:
69,104,60458,2,0,P|95:149|162:169,1,103.500001974106,2|2,0:0|3:2,0:0:0:0:
351,88,60758,1,0,1:0:0:0:
136,24,60908,1,2,1:2:0:0:
119,280,61058,6,0,P|214:248|254:155,1,207.000003948212,6|0,3:2|1:2,0:0:0:0:
446,16,61508,2,0,P|432:76|441:120,1,103.500001974106,2|0,0:0|0:0,0:0:0:0:
431,330,61808,1,2,3:2:0:0:
253,155,61958,1,2,1:2:0:0:
484,216,62108,6,0,P|386:202|331:283,1,207.000003948212,2|0,0:0|3:2,0:0:0:0:
127,134,62558,1,2,1:2:0:0:
280,350,62708,1,2,3:2:0:0:
271,77,62858,1,2,0:0:0:0:
78,314,63008,1,2,3:2:0:0:
378,372,63158,2,0,P|413:337|419:264,1,103.500001974106,2|2,1:2|0:0,0:0:0:0:
362,88,63458,6,0,P|320:173|337:296,1,207.000003948212,2|2,3:2|1:2,0:0:0:0:
497,242,63908,2,0,P|459:205|407:201,1,103.500001974106,2|0,0:0|0:0,0:0:0:0:
280,350,64208,1,2,3:2:0:0:
410,200,64358,1,2,1:2:0:0:
129,158,64508,6,0,P|225:170|237:270,1,207.000003948212,2|0,0:0|3:2,0:0:0:0:
6,224,64958,1,2,1:2:0:0:
80,366,65108,2,0,P|89:315|85:264,1,103.500001974106,2|0,3:2|0:0,0:0:0:0:
7,45,65408,1,2,3:2:0:0:
173,233,65558,1,2,1:2:0:0:
278,10,65708,1,2,0:0:0:0:
129,158,65858,6,0,P|164:144|201:140,1,75,2|0,1:2|0:0,0:0:0:0:
296,301,66058,2,0,P|266:278|244:247,1,75,2|0,3:2|0:0,0:0:0:0:
337,84,66258,2,0,P|331:121|315:155,1,75,2|0,3:2|0:0,0:0:0:0:
74,223,66458,6,0,P|96:186|128:157,1,87.0000026550294,2|0,1:2|0:0,0:0:0:0:
380,317,66658,2,0,P|337:315|296:300,1,87.0000026550294,2|0,3:2|0:0,0:0:0:0:
308,5,66858,2,0,P|328:43|336:85,1,87.0000026550294,2|0,1:2|0:0,0:0:0:0:
162,384,67058,5,2,3:2:0:0:
438,150,67208,1,2,1:2:0:0:
170,26,67358,1,2,0:0:0:0:
380,317,67508,1,2,3:2:0:0:
512,31,67658,1,2,0:0:0:0:
229,254,67808,1,2,3:2:0:0:
512,356,67958,1,2,0:0:0:0:
286,108,68108,1,6,3:2:0:0:
256,192,68183,12,0,70508,0:0:0:0:
81,62,70658,5,6,3:2:0:0:
61,300,70808,1,2,0:0:0:0:
277,198,70958,1,2,0:0:0:0:
123,137,71108,1,2,3:2:0:0:
123,137,71558,6,0,P|116:168|122:193,1,53.9999983520508,2|0,3:2|0:0,0:0:0:0:
209,241,72008,6,0,P|192:241|175:243,1,24.7500007553101,2|0,0:0|0:0,0:0:0:0:
75,294,72158,2,0,P|92:294|109:296,1,24.7500007553101
234,360,72308,1,0,0:0:0:0:
234,360,72383,1,0,0:0:0:0:
234,360,72458,6,0,P|228:335|243:303,1,47.2499985580445,2|0,0:0|0:0,0:0:0:0:
337,209,72608,2,0,P|343:234|328:266,1,47.2499985580445
205,151,72758,1,0,0:0:0:0:
205,151,72833,1,0,0:0:0:0:
205,151,72908,6,0,L|267:143,1,47.2499985580445
391,37,73058,5,2,3:2:0:0:
370,120,73208,1,2,0:0:0:0:
416,191,73358,1,2,0:0:0:0:
359,303,73508,5,2,3:2:0:0:
512,229,73658,1,2,0:0:0:0:
370,120,73808,1,2,0:0:0:0:
453,309,73958,6,0,P|452:289|447:307,1,53.9999983520508,2|0,3:2|0:0,0:0:0:0:
353,351,74408,6,0,P|360:322|352:285,1,49.5000015106202,2|0,0:0|0:0,0:0:0:0:
314,239,74708,1,0,0:0:0:0:
136,336,74858,6,0,B|210:330|210:330|216:326|216:326|311:318,1,144,2|0,0:0|3:0,0:0:0:0:
392,233,75308,1,2,0:0:0:0:
358,302,75458,5,2,3:2:0:0:
343,167,75608,1,2,0:0:0:0:
471,222,75758,1,2,0:0:0:0:
392,233,75908,1,2,3:2:0:0:
278,83,76358,6,0,L|275:115,2,26.9999991760254,2|0|0,3:2|0:0|0:0,0:0:0:0:
239,176,76808,6,0,P|245:123|210:78,1,99.0000030212403,2|0,0:0|0:0,0:0:0:0:
364,80,77258,6,0,P|324:27|224:23,1,144,2|0,0:0|0:0,0:0:0:0:
163,147,77708,5,2,0:0:0:0:
163,147,77783,1,2,0:0:0:0:
163,147,77858,1,2,3:2:0:0:
224,215,78008,1,0,0:0:0:0:
134,234,78158,1,2,0:0:0:0:
252,110,78308,1,2,3:2:0:0:
63,178,78458,1,2,0:0:0:0:
217,307,78608,1,2,0:0:0:0:
314,186,78758,6,0,P|316:164|312:148,2,26.9999991760254,2|0|0,3:2|0:0|0:0,0:0:0:0:
414,38,79208,6,0,P|391:84|389:134,1,99.0000030212403,2|0,0:0|0:0,0:0:0:0:
459,341,79658,5,2,0:0:0:0:
500,160,79808,2,0,P|463:168|445:191,1,49.5000015106202
379,384,80108,1,0,0:0:0:0:
379,384,80183,1,0,0:0:0:0:
379,384,80258,6,0,P|373:336|358:301,1,85.4999977169037,6|0,3:2|0:0,0:0:0:0:
153,229,80558,1,2,0:0:0:0:
212,278,80708,2,0,P|266:271|305:230,1,85.4999977169037
443,93,81008,1,2,3:2:0:0:
392,151,81158,2,0,P|349:140|321:103,1,85.4999977169037,2|0,1:2|0:0,0:0:0:0:
250,5,81458,6,0,P|250:47|237:87,1,85.4999977169037,2|0,0:0|3:2,0:0:0:0:
291,294,81758,2,0,P|301:253|334:216,1,85.4999977169037,2|0,1:2|3:2,0:0:0:0:
443,93,82058,2,0,P|409:67|367:62,1,85.4999977169037,2|0,0:0|3:2,0:0:0:0:
136,194,82358,2,0,P|170:220|211:226,1,85.4999977169037,2|0,1:2|0:0,0:0:0:0:
426,184,82658,5,2,3:2:0:0:
340,281,82808,1,0,0:0:0:0:
265,113,82958,2,0,P|290:157|297:222,1,85.4999977169037,2|0,1:2|0:0,0:0:0:0:
416,356,83258,2,0,P|420:314|437:274,1,85.4999977169037,0|0,0:0|3:2,0:0:0:0:
477,86,83558,2,0,L|381:73,1,85.4999977169037,2|0,1:2|0:0,0:0:0:0:
166,42,83858,6,0,B|149:93|149:93|165:151|165:151|144:209,1,170.999995433807,2|0,0:0|1:2,0:0:0:0:
58,360,84308,2,0,P|96:315|202:320,1,170.999995433807,2|0,3:2|3:2,0:0:0:0:
392,297,84758,2,0,P|349:289|310:272,1,85.4999977169037,2|0,1:2|0:0,0:0:0:0:
145,204,85058,5,2,3:2:0:0:
317,125,85208,1,0,0:0:0:0:
287,251,85358,1,2,1:2:0:0:
192,125,85508,1,2,0:0:0:0:
110,288,85658,2,0,P|97:328|89:370,1,85.4999977169037,0|2,0:0|3:2,0:0:0:0:
31,230,85958,1,0,1:2:0:0:
186,339,86108,6,0,P|227:339|268:322,1,85.4999977169037,2|0,0:0|0:0,0:0:0:0:
392,283,86408,2,0,P|371:246|336:220,1,85.4999977169037,2|0,3:2|1:2,0:0:0:0:
241,133,86708,2,0,P|219:168|214:212,1,85.4999977169037,2|0,3:2|0:0,0:0:0:0:
350,384,87008,1,2,3:2:0:0:
337,220,87158,1,0,1:2:0:0:
186,339,87308,1,0,0:0:0:0:
143,137,87458,6,0,P|134:97|119:49,1,85.4999977169037,2|0,3:2|0:0,0:0:0:0:
121,241,87758,1,2,1:2:0:0:
258,133,87908,1,2,0:0:0:0:
284,306,88058,1,0,0:0:0:0:
258,133,88208,1,2,3:2:0:0:
121,241,88358,2,0,P|75:234|38:219,1,85.4999977169037,2|0,1:2|0:0,0:0:0:0:
258,133,88658,6,0,L|270:219,1,85.4999977169037,2|0,0:0|3:2,0:0:0:0:
188,367,88958,2,0,L|200:281,1,85.4999977169037,2|0,1:2|3:2,0:0:0:0:
258,133,89258,1,2,0:0:0:0:
362,278,89408,1,0,3:2:0:0:
428,97,89558,2,0,P|393:75|349:70,1,85.4999977169037,2|0,1:2|0:0,0:0:0:0:
269,217,89858,5,2,3:2:0:0:
440,190,90008,1,0,0:0:0:0:
270,303,90158,2,0,B|216:283|216:283|158:299|158:299|107:282,1,170.999995433807,2|0,1:2|0:0,0:0:0:0:
76,89,90608,1,0,3:2:0:0:
175,151,90758,2,0,P|219:145|261:131,1,85.4999977169037,2|0,1:2|0:0,0:0:0:0:
387,39,91058,6,0,L|375:125,1,85.4999977169037,2|0,0:0|3:2,0:0:0:0:
269,302,91358,2,0,L|258:218,1,85.4999977169037,2|0,1:2|3:2,0:0:0:0:
200,63,91658,1,2,0:0:0:0:
258,218,91808,1,0,3:2:0:0:
113,107,91958,2,0,P|72:93|30:88,1,85.4999977169037,2|0,1:2|0:0,0:0:0:0:
117,260,92258,6,0,P|168:278|261:206,1,170.999995433807,2|2,3:2|1:2,0:0:0:0:
233,54,92708,1,0,0:0:0:0:
170,183,92858,1,0,0:0:0:0:
366,117,93008,1,0,3:2:0:0:
415,283,93158,2,0,P|428:323|433:365,1,85.4999977169037,2|0,1:2|0:0,0:0:0:0:
257,217,93458,6,0,L|343:208,1,85.4999977169037,2|0,0:0|3:2,0:0:0:0:
455,134,93758,1,2,1:2:0:0:
315,304,93908,2,0,P|226:317|161:258,1,170.999995433807,2|0,3:2|3:2,0:0:0:0:
92,98,94358,2,0,L|83:184,1,85.4999977169037,2|0,1:2|0:0,0:0:0:0:
125,358,94658,5,2,3:2:0:0:
257,217,94808,1,0,0:0:0:0:
50,284,94958,1,2,1:2:0:0:
219,375,95108,1,2,0:0:0:0:
264,190,95258,2,0,P|304:177|346:169,1,85.4999977169037,0|2,0:0|3:2,0:0:0:0:
441,313,95558,1,0,1:2:0:0:
416,93,95708,6,0,P|382:69|339:59,1,85.4999977169037,2|0,0:0|0:0,0:0:0:0:
250,250,96008,2,0,P|287:232|317:199,1,85.4999977169037,2|0,3:2|1:2,0:0:0:0:
197,27,96308,2,0,P|193:67|206:110,1,85.4999977169037,2|0,3:2|0:0,0:0:0:0:
316,200,96608,1,2,3:2:0:0:
197,27,96758,1,2,1:2:0:0:
135,176,96908,1,0,0:0:0:0:
304,57,97058,6,0,L|390:48,1,85.4999977169037,2|0,3:2|0:0,0:0:0:0:
460,226,97358,1,2,1:2:0:0:
291,176,97508,1,2,0:0:0:0:
332,347,97658,1,0,0:0:0:0:
291,176,97808,1,2,3:2:0:0:
190,355,97958,2,0,P|147:351|110:331,1,85.4999977169037,2|2,1:2|0:0,0:0:0:0:
118,141,98258,5,0,0:0:0:0:
247,193,98408,1,2,3:2:0:0:
71,240,98558,1,0,1:2:0:0:
276,185,98708,1,2,3:2:0:0:
111,51,98858,1,0,0:0:0:0:
169,244,99008,1,0,3:2:0:0:
307,97,99158,1,2,1:2:0:0:
268,214,99308,1,0,0:0:0:0:
380,155,99458,6,0,P|399:82|372:30,1,116.999994644165,6|0,3:2|3:2,0:0:0:0:
138,147,100058,1,0,1:2:0:0:
348,263,100358,1,2,0:0:0:0:
240,105,100658,1,2,0:0:0:0:
240,105,100808,2,0,P|232:144|230:171,1,58.4999973220826,0|2,3:2|0:0,0:0:0:0:
259,254,101108,1,0,3:2:0:0:
384,161,101258,2,0,P|345:153|318:151,1,58.4999973220826,0|0,1:2|3:2,0:0:0:0:
230,162,101558,1,2,0:0:0:0:
196,361,101858,6,0,P|189:302|176:245,1,116.999994644165,2|0,3:2|3:2,0:0:0:0:
62,52,102458,1,0,1:2:0:0:
5,231,102758,1,2,0:0:0:0:
145,110,103058,1,2,0:0:0:0:
239,134,103208,2,0,P|278:126|305:124,1,58.4999973220826,0|2,3:2|0:0,0:0:0:0:
391,139,103508,1,0,3:2:0:0:
234,255,103658,2,0,P|204:251|176:245,1,58.4999973220826,2|0,1:2|3:2,0:0:0:0:
96,190,103958,1,2,0:0:0:0:
218,344,104258,6,0,P|261:341|319:267,1,116.999994644165,2|2,3:2|3:2,0:0:0:0:
389,94,104858,2,0,P|376:151|369:209,1,116.999994644165,2|2,1:2|0:0,0:0:0:0:
441,349,105458,2,0,P|437:319|431:291,1,58.4999973220826,2|0,0:0|3:2,0:0:0:0:
369,209,105758,2,0,P|351:185|331:163,1,58.4999973220826,2|2,0:0|3:2,0:0:0:0:
236,123,106058,2,0,P|209:111|181:102,1,58.4999973220826,2|0,1:2|3:2,0:0:0:0:
77,115,106358,2,0,P|47:118|19:124,1,58.4999973220826,2|0,0:0|0:0,0:0:0:0:
102,303,106658,6,0,P|136:257|134:199,1,116.999994644165,2|0,3:2|3:2,0:0:0:0:
0,31,107258,1,0,1:2:0:0:
58,233,107558,1,2,0:0:0:0:
169,55,107858,1,0,0:0:0:0:
236,123,108008,2,0,P|244:162|246:189,1,58.4999973220826,2|0,3:2|0:0,0:0:0:0:
239,278,108308,1,0,3:2:0:0:
332,141,108458,2,0,P|371:133|398:131,1,58.4999973220826,2|0,1:2|3:2,0:0:0:0:
487,139,108758,1,2,0:0:0:0:
354,297,109058,6,0,P|296:284|238:277,1,116.999994644165,2|2,3:2|3:2,0:0:0:0:
120,142,109658,2,0,P|177:129|235:122,1,116.999994644165,0|2,1:2|0:0,0:0:0:0:
422,257,110258,1,2,0:0:0:0:
423,256,110408,2,0,P|429:284|432:313,1,58.4999973220826,0|0,3:2|0:0,0:0:0:0:
472,176,110708,1,0,3:2:0:0:
334,239,110858,1,0,1:2:0:0:
313,83,111008,1,0,3:2:0:0:
255,276,111158,1,2,0:0:0:0:
255,276,111458,6,0,P|248:217|235:160,1,116.999994644165,2|2,3:2|3:2,0:0:0:0:
113,29,112058,2,0,P|100:86|93:144,1,116.999994644165,0|2,1:2|0:0,0:0:0:0:
170,312,112658,1,2,0:0:0:0:
89,273,112808,2,0,P|60:266|31:263,1,58.4999973220826,0|0,3:2|0:0,0:0:0:0:
91,362,113108,1,2,3:2:0:0:
165,217,113258,1,0,1:2:0:0:
305,345,113408,1,0,3:2:0:0:
170,312,113558,1,2,0:0:0:0:
170,312,113858,6,0,B|209:278|209:278|284:278,1,116.999994644165,2|2,3:2|3:2,0:0:0:0:
473,346,114458,2,0,B|434:380|434:380|359:380,1,116.999994644165,2|0,1:2|0:0,0:0:0:0:
426,146,115058,1,0,0:0:0:0:
373,226,115208,2,0,L|364:289,1,58.4999973220826,0|2,3:2|0:0,0:0:0:0:
368,380,115508,1,0,3:2:0:0:
238,279,115658,2,0,P|208:282|180:288,1,58.4999973220826,2|0,1:2|3:2,0:0:0:0:
127,200,115958,2,0,P|103:217|81:237,1,58.4999973220826,2|0,0:0|0:0,0:0:0:0:
44,358,116258,1,2,0:0:0:0:
256,192,116333,12,0,118658,0:0:0:0:
284,207,119858,6,0,P|279:184|269:164,7,47.2499985580445,2|0|0|0|0|0|0|0,1:2|1:0|1:0|1:0|1:0|1:0|1:0|1:0,0:0:0:0:
355,266,120458,2,0,P|347:288|344:311,7,47.2499985580445,2|0|0|0|0|0|0|0,1:2|1:0|1:0|1:0|1:0|1:0|1:0|1:0,0:0:0:0:
265,355,121058,6,0,P|181:337|79:325,1,188.999994232178,6|0,3:2|1:2,0:0:0:0:
35,128,121508,2,0,P|77:119|129:112,1,94.499997116089,2|0,0:0|0:0,0:0:0:0:
350,210,121808,1,0,3:2:0:0:
265,355,121958,1,2,1:2:0:0:
183,174,122108,1,2,0:0:0:0:
431,279,122258,6,0,P|454:238|454:188,1,94.499997116089,0|0,0:0|3:2,0:0:0:0:
307,6,122558,2,0,P|284:47|284:97,1,94.499997116089,2|0,1:2|3:2,0:0:0:0:
351,319,122858,1,2,0:0:0:0:
258,211,123008,1,0,3:2:0:0:
425,113,123158,1,2,1:2:0:0:
237,225,123308,1,2,0:0:0:0:
152,31,123458,6,0,P|65:18|2:88,1,188.999994232178,2|2,3:2|1:2,0:0:0:0:
73,266,123908,2,0,P|118:253|169:244,1,94.499997116089,2|0,0:0|0:0,0:0:0:0:
418,162,124208,1,2,3:2:0:0:
223,320,124358,1,2,1:2:0:0:
226,108,124508,1,2,0:0:0:0:
397,291,124658,6,0,P|392:335|381:384,1,94.499997116089,0|0,0:0|3:2,0:0:0:0:
152,273,124958,2,0,P|157:226|167:180,1,94.499997116089,0|0,1:2|3:2,0:0:0:0:
431,80,125258,1,2,0:0:0:0:
261,236,125408,1,0,3:2:0:0:
333,47,125558,1,2,1:2:0:0:
506,208,125708,1,0,0:0:0:0:
274,335,125858,6,0,B|217:316|217:316|155:332|155:332|92:311,1,188.999994232178,2|2,3:2|1:2,0:0:0:0:
33,108,126308,2,0,P|80:84|129:85,1,94.499997116089,2|0,0:0|0:0,0:0:0:0:
348,218,126608,1,2,3:2:0:0:
204,34,126758,1,2,1:2:0:0:
102,207,126908,1,2,0:0:0:0:
274,95,127058,6,0,L|267:189,1,94.499997116089,0|0,0:0|3:2,0:0:0:0:
177,369,127358,2,0,L|170:275,1,94.499997116089,2|2,1:2|3:2,0:0:0:0:
116,82,127658,1,0,0:0:0:0:
267,190,127808,1,2,3:2:0:0:
30,272,127958,1,2,1:2:0:0:
105,46,128108,1,2,0:0:0:0:
170,275,128258,6,0,P|214:293|268:290,1,94.499997116089,2|0,3:2|0:0,0:0:0:0:
364,80,128558,2,0,P|317:80|273:99,1,94.499997116089,2|0,1:2|0:0,0:0:0:0:
170,275,128858,1,2,0:0:0:0:
273,98,129008,1,2,3:2:0:0:
411,281,129158,2,0,L|428:381,1,94.499997116089,0|2,1:2|0:0,0:0:0:0:
255,194,129458,5,2,0:0:0:0:
456,90,129608,1,0,3:2:0:0:
332,325,129758,1,2,1:2:0:0:
184,125,129908,1,2,3:2:0:0:
453,198,130058,5,2,0:0:0:0:
244,289,130208,1,2,3:2:0:0:
483,188,130358,1,0,1:2:0:0:
186,46,130508,1,2,1:2:0:0:
255,194,130658,6,0,P|314:203|393:114,1,188.999994232178,0|2,3:2|1:2,0:0:0:0:
186,46,131108,2,0,P|175:89|170:139,1,94.499997116089,2|0,0:0|0:0,0:0:0:0:
244,289,131408,1,2,3:2:0:0:
298,108,131558,1,2,1:2:0:0:
422,273,131708,1,2,0:0:0:0:
255,194,131858,6,0,P|209:182|162:178,1,94.499997116089,0|0,0:0|3:2,0:0:0:0:
77,353,132158,2,0,P|122:341|169:337,1,94.499997116089,2|0,1:2|3:2,0:0:0:0:
380,164,132458,1,2,0:0:0:0:
244,289,132608,1,2,3:2:0:0:
466,352,132758,1,2,1:2:0:0:
244,289,132908,1,2,0:0:0:0:
466,236,133058,6,0,P|490:184|436:68,1,188.999994232178,2|2,3:2|1:2,0:0:0:0:
188,167,133508,2,0,L|163:269,1,94.499997116089,2|0,0:0|0:0,0:0:0:0:
0,324,133808,1,2,3:2:0:0:
94,119,133958,1,2,1:2:0:0:
273,236,134108,1,2,0:0:0:0:
334,34,134258,6,0,P|294:9|242:3,1,94.499997116089,0|0,0:0|3:2,0:0:0:0:
86,206,134558,1,2,1:2:0:0:
261,121,134708,2,0,B|240:182|240:182|256:244|256:244|237:301,1,188.999994232178,2|2,3:2|3:2,0:0:0:0:
428,365,135158,1,2,1:2:0:0:
342,192,135308,1,2,0:0:0:0:
129,347,135458,5,2,3:2:0:0:
182,50,136508,1,2,3:2:0:0:
420,220,136958,2,0,L|474:208,1,45
425,140,137108,6,0,L|332:160,1,90,2|0,1:2|0:0,0:0:0:0:
420,60,137408,2,0,L|327:80,1,90,2|2,1:2|0:0,0:0:0:0:
273,229,137708,1,2,1:2:0:0:
182,50,137858,6,0,P|93:41|31:120,1,180,6|0,3:2|1:2,0:0:0:0:
184,236,138308,2,0,L|204:143,1,90,2|0,0:0|0:0,0:0:0:0:
92,19,138608,1,2,3:2:0:0:
288,118,138758,1,2,1:2:0:0:
117,172,138908,1,2,0:0:0:0:
327,290,139058,6,0,P|372:278|419:274,1,90,2|0,0:0|3:2,0:0:0:0:
369,44,139358,1,0,1:2:0:0:
204,143,139508,2,0,P|186:184|191:246,1,90,2|0,3:2|0:0,0:0:0:0:
279,375,139808,2,0,P|252:338|196:312,1,90,2|0,3:2|1:2,0:0:0:0:
40,323,140108,1,2,0:0:0:0:
119,107,140258,6,0,P|186:53|276:86,1,180,2|0,3:2|1:2,0:0:0:0:
404,275,140708,1,0,0:0:0:0:
451,131,140858,1,0,0:0:0:0:
278,244,141008,2,0,P|232:232|185:228,1,90,2|0,3:2|1:2,0:0:0:0:
35,218,141308,1,2,0:2:0:0:
170,367,141458,6,0,B|228:347|228:347|288:362|288:362|342:344,1,180,0|0,0:0|1:2,0:0:0:0:
451,131,141908,1,2,3:2:0:0:
278,244,142057,2,0,P|223:237|237:171,1,135,2|0,0:2|0:0,0:0:0:0:
293,109,142358,2,0,B|370:96|344:147|421:134,1,135,2|0,1:2|0:0,0:0:0:0:
451,131,142658,5,2,3:2:0:0:
363,309,142808,1,0,0:0:0:0:
233,172,142958,1,0,1:2:0:0:
170,367,143108,2,0,P|126:359|88:334,1,90,2|0,0:2|0:0,0:0:0:0:
195,100,143408,5,2,3:2:0:0:
274,240,143558,2,0,P|286:286|290:333,1,90,2|0,1:2|0:0,0:0:0:0:
130,32,143858,5,2,0:2:0:0:
51,172,144008,2,0,P|39:218|35:265,1,90,2|0,3:2|1:2,0:0:0:0:
273,71,144308,1,2,3:2:0:0:
129,230,144458,5,2,0:2:0:0:
195,100,144608,1,2,3:2:0:0:
357,267,144758,1,2,1:2:0:0:
273,71,144908,1,2,0:2:0:0:
179,302,145058,5,2,3:2:0:0:
374,191,145208,1,2,0:2:0:0:
113,112,145358,1,2,1:2:0:0:
297,282,145508,2,0,P|343:294|390:298,1,90,2|0,0:2|0:0,0:0:0:0:
383,84,145808,5,2,3:2:0:0:
297,282,145958,1,2,1:2:0:0:
207,17,146108,1,2,0:2:0:0:
416,210,146258,5,2,0:2:0:0:
144,122,146408,1,0,3:2:0:0:
417,60,146558,1,0,1:2:0:0:
206,291,146708,1,2,3:2:0:0:
99,20,146858,5,2,0:2:0:0:
456,134,147008,1,2,3:2:0:0:
46,251,147158,1,2,1:2:0:0:
403,365,147308,1,2,1:2:0:0:
218,102,147458,6,0,P|153:85|70:162,1,180,2|0,3:2|1:2,0:0:0:0:
130,362,147908,1,0,0:0:0:0:
164,180,148058,1,0,0:0:0:0:
286,305,148208,1,0,3:2:0:0:
354,94,148358,2,0,P|403:76|470:70,1,90,0|2,1:2|0:2,0:0:0:0:
472,255,148658,5,2,0:2:0:0:
324,109,148808,1,0,3:2:0:0:
286,305,148958,1,0,1:2:0:0:
223,40,149108,2,0,L|204:146,1,90,2|0,3:2|0:0,0:0:0:0:
137,335,149408,2,0,L|121:246,1,90,2|0,3:2|1:2,0:0:0:0:
59,74,149708,1,2,0:2:0:0:
237,234,149858,6,0,B|339:251|304:183|406:200,1,180,2|0,3:2|1:2,0:0:0:0:
485,350,150308,1,0,0:0:0:0:
506,142,150458,1,0,0:0:0:0:
386,295,150608,1,0,3:2:0:0:
261,148,150758,2,0,L|155:129,1,90,0|0,1:2|0:0,0:0:0:0:
93,307,151058,6,0,P|137:303|185:276,1,90,2|0,0:2|3:2,0:0:0:0:
261,148,151358,1,0,1:2:0:0:
433,313,151508,2,0,B|330:295|365:363|263:346,1,180,2|2,3:2|3:2,0:0:0:0:
81,130,151958,2,0,L|138:137,3,45,2|2|2|2,1:2|0:2|0:2|0:2,0:0:0:0:
148,115,152258,6,0,P|139:143|136:182,1,60,2|0,1:2|0:0,0:0:0:0:
279,263,152458,2,0,P|259:241|226:219,1,60,2|0,3:2|0:0,0:0:0:0:
85,303,152658,2,0,P|113:296|149:279,1,60,2|0,3:2|0:0,0:0:0:0:
382,109,152858,6,0,L|372:175,1,60,2|0,1:2|0:0,0:0:0:0:
270,322,153058,2,0,L|279:263,1,60,2|0,3:2|0:0,0:0:0:0:
488,118,153258,2,0,L|478:184,1,60,2|0,1:2|0:0,0:0:0:0:
370,336,153458,5,2,3:2:0:0:
294,155,153608,1,0,1:2:0:0:
452,263,153758,1,0,0:0:0:0:
269,322,153908,5,2,3:2:0:0:
488,118,154208,1,2,3:2:0:0:
433,230,154508,6,0,B|399:238|361:208|361:208|339:214|339:214|308:187|265:191,1,180,2|0,3:2|0:0,0:0:0:0:
270,275,155858,6,0,P|185:210|219:122,1,215.999993408203,2|0,0:0|0:0,0:0:0:0:
423,73,156758,2,0,P|428:96|428:126,1,45
372,204,157058,6,0,P|320:195|251:190,2,108,2|2|0,0:0|0:0|0:0,0:0:0:0:
263,341,158258,2,0,P|216:313|159:315,1,108,2|2,0:0|0:0,0:0:0:0:
51,196,159158,2,0,P|58:175|64:150,1,36
136,102,159458,6,0,P|147:154|165:205,1,108,2|0,0:0|0:0,0:0:0:0:
311,302,160358,2,0,L|348:294,2,36,0|0|2,0:0|0:0|0:0,0:0:0:0:
411,186,160958,2,0,L|374:178,1,36,0|2,0:0|0:0,0:0:0:0:
299,117,161258,2,0,L|262:128,1,36,2|2,0:0|0:0,0:0:0:0:
170,158,161558,1,0,0:0:0:0:
346,294,161858,1,2,0:0:0:0:
354,280,163058,6,0,P|372:235|368:171,1,108,2|2,0:0|0:0,0:0:0:0:
238,48,163808,1,2,0:0:0:0:
148,78,163958,2,0,P|130:75|105:74,1,36
122,166,164258,6,0,P|68:174|16:186,1,108,2|0,0:0|0:0,0:0:0:0:
17,187,165158,2,0,P|9:220|-2:274,1,72,2|0,0:0|0:0,0:0:0:0:
69,320,165608,2,0,P|104:314|134:295,1,72
197,169,166058,2,0,L|203:209,1,36,2|0,0:0|0:0,0:0:0:0:
293,233,166358,2,0,L|287:268,1,36
231,342,166658,6,0,P|315:357|368:313,1,144,2|0,0:0|0:0,0:0:0:0:
287,268,167558,1,0,0:0:0:0:
287,268,167858,2,0,P|249:255|206:246,1,72,2|0,0:0|0:0,0:0:0:0:
96,197,168308,2,0,P|134:184|177:175,1,72,2|0,0:0|0:0,0:0:0:0:
238,115,168758,1,0,0:0:0:0:
238,115,168908,1,0,0:0:0:0:
136,280,169058,5,2,0:0:0:0:
8,204,169358,1,0,0:0:0:0:
8,204,169508,2,0,L|23:134,1,72
159,42,170108,1,0,0:0:0:0:
232,101,170258,2,0,P|268:96|305:80,1,72,2|0,0:0|0:0,0:0:0:0:
404,20,170708,2,0,P|392:64|388:101,2,72,2|0|0,0:0|0:0|0:0,0:0:0:0:
455,172,171458,5,2,0:0:0:0:
227,345,172208,2,0,L|177:339,2,36
287,272,172658,2,0,P|281:240|271:201,1,72,2|0,0:0|0:0,0:0:0:0:
208,122,173108,1,2,0:0:0:0:
208,122,173408,2,0,L|202:172,2,36,0|0|2,0:0|0:0|0:0,0:0:0:0:
220,31,173858,1,0,0:0:0:0:
220,31,174458,6,0,L|178:36,2,35.9999989013672
294,142,175058,6,0,P|345:129|388:123,1,94.4999971160889
456,177,176258,6,0,P|445:251|434:358,1,180
434,355,179858,6,0,L|482:369,7,45,0|0|0|0|0|0|0|0,1:0|1:0|1:0|1:0|1:0|1:0|1:0|1:0,0:0:0:0:
356,255,180458,2,0,L|308:268,7,45,0|0|0|0|0|0|0|0,1:0|1:0|1:0|1:0|1:0|1:0|1:0|1:0,0:0:0:0:
503,61,181058,6,0,P|459:156|340:128,1,207.000003948212,6|0,3:2|1:2,0:0:0:0:
189,340,181508,2,0,P|169:288|168:237,1,103.500001974106,2|0,0:0|0:0,0:0:0:0:
217,64,181808,1,0,3:2:0:0:
314,264,181958,1,2,1:2:0:0:
28,158,182108,6,0,B|82:128|127:163|127:163|159:220|244:189,1,207.000003948212,2|0,0:0|3:2,0:0:0:0:
378,81,182558,2,0,P|334:108|304:149,1,103.500001974106,2|0,1:2|3:2,0:0:0:0:
237,373,182858,1,2,0:0:0:0:
217,64,183008,1,2,3:2:0:0:
389,214,183158,1,2,1:2:0:0:
56,235,183308,1,2,0:0:0:0:
301,29,183458,6,0,P|283:126|188:151,1,207.000003948212,2|2,3:2|1:2,0:0:0:0:
1,139,183908,2,0,P|59:92|107:97,1,103.500001974106,2|0,0:0|0:0,0:0:0:0:
203,305,184208,1,2,3:2:0:0:
166,22,184358,1,2,1:2:0:0:
56,235,184508,1,2,0:0:0:0:
329,235,184658,6,0,B|204:212|242:306|125:274,1,207.000003948212,2|2,0:0|1:2,0:0:0:0:
41,51,185108,1,0,3:2:0:0:
239,384,185258,2,0,L|228:266,1,103.500001974106,2|0,0:0|3:2,0:0:0:0:
116,72,185558,2,0,L|101:185,1,103.500001974106,2|0,1:2|0:0,0:0:0:0:
346,337,185858,6,0,P|421:272|414:172,1,207.000003948212,2|2,3:2|1:2,0:0:0:0:
228,5,186308,2,0,P|153:70|161:170,1,207.000003948212,2|0,0:0|3:2,0:0:0:0:
299,266,186758,1,2,1:2:0:0:
386,77,186908,6,0,L|283:73,1,103.500001974106,2|0,0:0|0:0,0:0:0:0:
123,251,187208,1,2,3:2:0:0:
50,25,187358,1,2,1:2:0:0:
214,238,187508,2,0,P|252:192|244:114,1,103.500001974106,2|0,3:2|0:0,0:0:0:0:
137,0,187808,1,2,3:2:0:0:
15,217,187958,1,2,1:2:0:0:
167,323,188108,6,0,P|175:220|149:121,1,207.000003948212,2|0,0:0|0:0,0:0:0:0:
341,28,188558,2,0,P|289:20|247:63,1,103.500001974106,2|0,1:2|0:0,0:0:0:0:
417,243,188858,1,2,0:0:0:0:
336,150,189008,2,0,P|370:113|421:110,1,103.500001974106,2|0,3:2|1:2,0:0:0:0:
469,358,189308,6,0,P|406:285|293:276,1,207.000003948212,2|0,0:0|3:2,0:0:0:0:
175,367,189758,2,0,P|183:316|178:264,1,103.500001974106,2|2,1:2|3:2,0:0:0:0:
69,47,190058,1,2,0:0:0:0:
247,211,190208,1,2,3:2:0:0:
292,0,190358,1,0,1:0:0:0:
38,163,190508,1,2,1:2:0:0:
255,384,190658,6,0,P|296:292|400:261,1,207.000003948212,2|0,3:2|1:2,0:0:0:0:
495,102,191108,2,0,P|465:189|425:209,1,103.500001974106,2|0,0:0|0:0,0:0:0:0:
267,112,191408,1,2,3:2:0:0:
400,330,191558,1,2,1:2:0:0:
512,1,191708,6,0,P|463:95|465:212,1,207.000003948212,2|0,0:0|3:2,0:0:0:0:
298,375,192158,2,0,P|295:311|230:260,1,103.500001974106,2|0,1:2|3:2,0:0:0:0:
97,115,192458,2,0,P|149:171|266:180,1,155.250002961159,2|0,0:0|3:2,0:0:0:0:
223,189,192758,1,2,1:2:0:0:
401,29,192908,1,2,0:0:0:0:
333,227,193058,6,0,P|298:132|322:33,1,207.000003948212,2|2,3:2|1:2,0:0:0:0:
506,181,193508,2,0,P|455:172|408:199,1,103.500001974106,2|0,0:0|0:0,0:0:0:0:
335,372,193808,1,2,3:2:0:0:
223,189,193958,1,2,1:2:0:0:
415,293,194108,1,2,0:2:0:0:
168,359,194258,6,0,P|172:307|163:256,1,103.500001974106,2|0,0:2|3:2,0:0:0:0:
108,72,194558,1,2,1:2:0:0:
0,172,194708,2,0,P|51:177|104:147,1,103.500001974106,2|0,3:2|0:0,0:0:0:0:
282,120,195008,1,2,3:2:0:0:
194,0,195158,2,0,P|185:65|223:126,1,103.500001974106,0|0,1:2|0:0,0:0:0:0:
357,212,195458,6,0,L|370:92,2,120,2|2|2,3:2|0:0|0:0,0:0:0:0:
227,328,196058,2,0,L|214:209,1,120,2|2,0:0|0:0,0:0:0:0:
411,381,196508,5,2,3:2:0:0:
82,66,197108,2,0,P|72:126|84:185,1,103.500001974106,2|0,1:2|0:0,0:0:0:0:
256,383,197408,2,0,L|256:279,1,103.500001974106,2|0,1:2|3:2,0:0:0:0:
430,66,197708,2,0,P|440:126|428:185,1,103.500001974106,2|0,1:2|1:2,0:0:0:0:
433,167,198158,5,2,1:2:0:0:
74,269,198308,1,0,1:2:0:0:
441,371,198458,1,0,1:2:0:0:
71,371,198608,5,2,3:2:0:0:
437,269,198758,1,0,1:2:0:0:
78,167,198908,1,0,1:2:0:0:
430,66,199058,5,2,3:2:0:0:
256,279,199208,1,0,0:0:0:0:
82,66,199358,1,0,1:2:0:0:
436,268,199508,6,0,P|446:319|441:371,1,103.500001974106,2|0,3:2|0:0,0:0:0:0:
256,114,199808,2,0,L|256:10,1,103.500001974106,2|0,3:2|0:0,0:0:0:0:
75,268,200108,2,0,P|65:319|70:371,1,103.500001974106,2|0,3:2|0:0,0:0:0:0:
70,371,200558,6,0,P|160:323|153:205,1,207.000003948212,4|0,1:2|0:0,0:0:0:0:
83,167,201008,1,0,3:2:0:0:
244,380,201158,1,0,1:2:0:0:
349,135,201308,1,2,0:0:0:0:
75,269,201458,6,0,B|124:243|173:269|173:269|223:294|272:269,1,207.000003948212,2|0,0:0|1:2,0:0:0:0:
399,204,201908,1,0,3:2:0:0:
199,97,202058,2,0,P|215:155|220:206,1,103.500001974106,2|0,0:2|3:2,0:0:0:0:
351,384,202358,2,0,P|352:330|380:258,1,103.500001974106,2|0,1:2|0:0,0:0:0:0:
495,64,202658,6,0,B|447:34|399:53|399:53|360:99|274:67,1,207.000003948212,6|2,3:2|1:2,0:0:0:0:
100,161,203108,2,0,P|123:103|123:182,1,207.000003948212,2|0,0:2|3:2,0:0:0:0:
29,212,203558,1,2,1:2:0:0:
204,346,203708,6,0,P|203:277|236:224,1,103.500001974106,2|0,0:2|0:0,0:0:0:0:
397,50,204008,1,2,3:2:0:0:
336,230,204158,1,2,1:2:0:0:
204,59,204308,2,0,P|253:70|287:108,1,103.500001974106,2|0,3:2|0:0,0:0:0:0:
303,329,204608,1,2,3:2:0:0:
161,140,204758,1,2,1:2:0:0:
450,97,204908,6,0,P|357:134|337:231,1,207.000003948212,2|0,0:2|0:0,0:0:0:0:
204,59,205358,1,2,1:2:0:0:
86,255,205508,2,0,P|137:264|190:236,1,103.500001974106,2|0,0:2|0:0,0:0:0:0:
330,43,205808,1,2,3:2:0:0:
121,173,205958,1,2,1:2:0:0:
270,355,206108,6,0,P|255:267|353:205,1,207.000003948212,2|0,0:2|3:2,0:0:0:0:
479,129,206558,2,0,P|428:136|372:95,1,103.500001974106,2|2,1:2|3:2,0:0:0:0:
253,0,206858,1,2,0:2:0:0:
342,204,207008,1,2,3:2:0:0:
471,32,207158,1,0,1:2:0:0:
229,151,207308,1,2,1:2:0:0:
438,300,207458,6,0,P|433:250|440:195,1,103.500001974106,2|2,3:2|0:2,0:0:0:0:
229,151,207758,1,2,1:2:0:0:
333,21,207908,2,0,P|349:77|330:142,1,103.500001974106,2|0,0:2|0:0,0:0:0:0:
225,266,208208,1,2,3:2:0:0:
154,61,208358,1,2,1:2:0:0:
340,228,208508,6,0,B|291:202|242:228|242:228|192:253|143:228,1,207.000003948212,2|0,0:2|3:2,0:0:0:0:
3,85,208958,2,0,P|54:89|97:147,1,103.500001974106,2|0,1:2|3:2,0:0:0:0:
99,356,209258,1,2,0:2:0:0:
224,131,209408,1,2,3:2:0:0:
37,253,209558,1,2,1:2:0:0:
246,352,209708,1,2,0:2:0:0:
155,67,209858,6,0,B|125:111|126:165|126:165|144:220|208:253,1,207.000003948212,2|2,3:2|1:2,0:0:0:0:
340,348,210308,2,0,P|336:297|342:246,1,103.500001974106,2|0,0:2|0:0,0:0:0:0:
485,66,210608,1,2,3:2:0:0:
273,204,210758,1,2,1:2:0:0:
476,325,210908,6,0,B|507:281|507:227|507:227|463:197|410:196,1,207.000003948212,2|0,0:2|3:2,0:0:0:0:
258,384,211358,1,2,1:2:0:0:
170,85,211508,2,0,P|234:90|284:136,1,103.500001974106,2|0,3:2|0:0,0:0:0:0:
325,323,211808,1,2,3:2:0:0:
116,176,211958,1,2,1:2:0:0:
375,65,212108,1,2,0:2:0:0:
209,316,212258,6,0,L|213:189,2,120,2|2|2,3:2|0:2|0:2,0:0:0:0:
31,217,212858,2,0,L|25:97,1,120,2|2,0:2|0:2,0:0:0:0:
255,44,213308,5,2,3:2:0:0:
422,106,213908,2,0,B|334:95|362:158|268:141,1,155.250002961159,2|0,1:2|0:0,0:0:0:0:
74,56,214208,2,0,P|83:88|85:118,4,51.7500009870529,2|2|2|2|2,1:2|0:0|1:2|0:0|1:2,0:0:0:0:
120,205,214658,6,0,P|124:111|180:185,1,207.000003948212,6|2,3:2|1:2,0:0:0:0:
198,350,215108,1,2,0:2:0:0:
326,121,215258,1,0,0:0:0:0:
351,373,215408,1,2,3:2:0:0:
458,149,215558,1,2,1:2:0:0:
248,236,215708,1,2,0:2:0:0:
475,384,215858,6,0,P|478:322|506:256,1,103.500001974106,2|0,0:2|3:2,0:0:0:0:
477,15,216158,1,2,1:2:0:0:
242,104,216308,1,2,3:2:0:0:
512,209,216458,1,2,0:2:0:0:
298,297,216608,1,2,3:2:0:0:
377,1,216758,2,0,P|400:56|408:113,1,103.500001974106,2|2,1:2|0:2,0:0:0:0:
235,359,217058,5,2,3:2:0:0:
61,169,217208,1,2,0:2:0:0:
61,169,217358,2,0,L|203:154,1,103.500001974106,2|0,1:2|0:0,0:0:0:0:
432,121,217658,5,2,0:2:0:0:
352,356,217808,1,2,3:2:0:0:
191,67,217958,1,2,1:2:0:0:
142,314,218108,1,2,0:2:0:0:
490,289,218258,6,0,P|469:252|376:253,1,103.500001974106,2|0,0:2|3:2,0:0:0:0:
204,260,218558,2,0,P|243:309|307:304,1,103.500001974106,2|0,1:2|3:2,0:0:0:0:
260,80,218858,6,0,P|217:79|171:160,1,103.500001974106,2|0,0:2|3:2,0:0:0:0:
57,353,219158,2,0,P|118:343|146:285,1,103.500001974106,2|0,1:2|3:2,0:0:0:0:
101,109,219458,5,2,3:2:0:0:
101,109,219608,1,2,0:2:0:0:
359,0,219758,2,0,P|346:90|374:190,1,155.250002961159,2|0,1:2|0:0,0:0:0:0:
420,218,220058,5,2,0:2:0:0:
290,204,220208,1,2,3:2:0:0:
478,107,220358,1,0,1:2:0:0:
445,309,220508,1,2,0:2:0:0:
265,122,220658,6,0,P|316:122|363:162,1,103.500001974106,2|0,0:2|3:2,0:0:0:0:
407,379,220958,2,0,P|355:379|317:335,1,103.500001974106,2|2,1:2|3:2,0:0:0:0:
188,187,221258,1,2,0:2:0:0:
362,260,221408,1,2,3:2:0:0:
217,364,221558,1,2,1:2:0:0:
249,268,221708,1,2,0:2:0:0:
320,344,221858,5,2,3:2:0:0:
61,208,222008,1,2,0:2:0:0:
107,380,222158,2,0,L|113:260,1,103.500001974106,2|0,1:2|0:0,0:0:0:0:
258,57,222458,1,2,0:2:0:0:
291,197,222608,1,2,3:2:0:0:
422,126,222758,2,0,L|319:116,1,103.500001974106,2|2,1:2|0:2,0:0:0:0:
147,38,223058,6,0,P|169:93|164:145,1,103.500001974106,2|0,0:2|3:2,0:0:0:0:
290,365,223358,2,0,P|297:315|325:267,1,103.500001974106,2|0,1:2|3:2,0:0:0:0:
489,196,223658,1,2,0:2:0:0:
294,15,223808,1,0,3:2:0:0:
213,280,223958,1,2,1:2:0:0:
339,164,224108,1,0,1:2:0:0:
183,114,224258,5,6,3:2:0:0:
81,364,224408,1,2,0:2:0:0:
81,364,224558,2,0,L|186:360,1,103.500001974106,2|0,1:2|0:0,0:0:0:0:
457,334,224858,1,2,0:2:0:0:
269,98,225008,1,2,3:2:0:0:
311,359,225158,1,0,1:2:0:0:
399,62,225308,1,2,0:2:0:0:
163,266,225458,6,0,L|60:271,1,103.500001974106,2|0,0:2|3:2,0:0:0:0:
275,190,225758,1,2,1:2:0:0:
188,70,225908,2,0,L|194:176,1,103.500001974106,2|2,3:2|0:2,0:0:0:0:
239,314,226208,1,2,3:2:0:0:
358,60,226358,1,2,1:2:0:0:
99,183,226508,1,2,0:2:0:0:
410,354,226658,5,2,3:2:0:0:
275,190,226808,1,2,0:2:0:0:
275,190,226958,2,0,L|401:185,1,103.500001974106,2|0,1:2|0:0,0:0:0:0:
483,61,227258,1,2,0:2:0:0:
310,297,227408,1,2,3:2:0:0:
358,60,227558,1,0,1:2:0:0:
493,300,227708,1,2,0:2:0:0:
233,384,227858,6,0,P|226:309|195:254,1,103.500001974106,2|0,0:2|3:2,0:0:0:0:
413,121,228158,2,0,P|383:169|380:252,1,103.500001974106,2|2,1:2|3:2,0:0:0:0:
122,194,228458,2,0,P|172:201|224:194,1,103.500001974106,2|2,0:2|3:2,0:0:0:0:
311,298,228758,1,2,1:2:0:0:
247,94,228908,1,2,0:2:0:0:
38,326,229058,5,2,3:2:0:0:
54,233,229208,1,0,0:0:0:0:
70,140,229358,2,0,L|84:51,1,90
54,233,229658,5,0,0:0:0:0:
142,202,229808,2,0,L|226:169,1,90
54,233,230108,5,2,3:2:0:0:
124,293,230258,2,0,L|193:349,1,90
54,233,230558,5,0,0:0:0:0:
225,169,230708,1,0,1:2:0:0:
80,71,230858,2,0,L|88:151,7,45,0|0|2|0|0|0|2|0,0:0|0:0|1:2|0:0|0:0|0:0|1:2|0:0,0:0:0:0:
308,36,231458,6,0,L|147:29,1,161.999995056153
46,273,232658,6,0,L|208:281,1,161.999995056153
256,192,233858,5,0,0:0:0:0:
256,192,235058,5,0,0:0:0:0:
167,144,235508,5,0,0:0:0:0:
256,192,235658,1,0,0:0:0:0:
345,240,235808,1,0,0:0:0:0:
78,96,236258,5,0,0:0:0:0:
434,288,237458,5,0,0:0:0:0:
208,281,237908,5,0,0:0:0:0:
304,103,238208,1,0,0:0:0:0:
256,192,238658,5,0,0:0:0:0:
202,105,238958,5,0,0:0:0:0:
309,278,239408,1,0,0:0:0:0:
352,14,239858,5,0,0:0:0:0:
256,192,240458,1,0,0:0:0:0:
160,370,241058,1,0,0:0:0:0:
160,370,242258,6,0,P|47:360|-4:334,1,161.999995056153
352,14,243458,5,0,0:0:0:0:
352,14,244658,6,0,P|465:24|516:50,1,161.999995056153
256,192,245858,5,0,0:0:0:0:
256,192,246908,5,0,0:0:0:0:
256,192,249252,12,0,255402,0:0:0:0:
