osu file format v14

[General]
AudioFilename: Ether.mp3
AudioLeadIn: 0
PreviewTime:50750
Countdown: 0
SampleSet: Soft
StackLeniency: 0.7
Mode: 0
LetterboxInBreaks: 0
EpilepsyWarning: 1
WidescreenStoryboard: 1

[Editor]
DistanceSpacing: 0.9
BeatDivisor: 4
GridSize: 4
TimelineZoom: 2.5

[Metadata]
Title:Ether
TitleUnicode:エーテル
Artist:Feryquitous feat. Aitsuki Nakuru
ArtistUnicode:Feryquitous feat. 藍月なくる
Creator:Acyl
Version:LMT's Normal
Source:
Tags:『JelLaboratory』 c95 female vocal japanese doujin pop artcore -tochi j1_ how2miss otosaka-yu necho reincarnation suzuki_1112 moecho neilperry sing toybot kalibe lit120 lami lmt firika fanzhen0019 skystar yusomi amamiya yuko _epreus bbj0920 len fast kawashiro heilia cococolaco 藍月なくる aitsuki nakuru _todestrieb coco
BeatmapID:1947620
BeatmapSetID:902425

[Difficulty]
HPDrainRate:3
CircleSize:3
OverallDifficulty:4
ApproachRate:6
SliderMultiplier:1
SliderTickRate:1

[Events]
//Background and Video events
0,0,"background.jpg",0,0
//Break Periods
2,156758,175058
//Storyboard Layer 0 (Background)
Sprite,Background,Centre,"background.jpg",320,240 F,0,0,,0
Sprite,Background,Centre,"sb\blank.jpg",0,0 F,0,-4025,-3682,0,1 F,0,-3682,-253,1 F,0,-253,3,1,0 M,0,3,,320,240 S,0,3,,0.6493149
Sprite,Background,Centre,"sb\tochi.png",320,240 S,0,-3532,,0.6 F,0,-3532,-3187,0,1 F,0,-3187,-596,1,0.9893727 F,0,-596,-253,0.9893727,0
Sprite,Background,Centre,"sb\bgblurbw.jpg",0,0 F,2,1058,10658,0,0.6487671 M,0,1058,50258,320,-18.8055,320,240 S,0,1058,50258,0.9298632,0.5160549 F,0,10658,49058,0.6487671 F,0,49058,50258,0.6487671,0
Sprite,Background,Centre,"sb\bgblur.jpg",320,240 S,0,51458,,0.5160547 F,0,51458,70658,1 F,0,70658,70958,1,0
Sprite,Background,Centre,"sb\blank.jpg",320,240 S,0,49058,,0.537096 F,0,49058,50258,0,1 F,0,50258,51458,1 F,0,51458,51758,1,0
Sprite,Background,Centre,"sb\blank.jpg",320,240 S,0,70658,,0.5230685 F,0,70658,70958,0,1 F,0,70958,80258,1,0.9966667 F,0,80258,80408,0.9966667,0
Sprite,Background,Centre,"sb\bgblurbw.jpg",320,240 S,0,80258,,0.5300821 F,0,80258,80408,0,1 F,0,80408,118658,1,0.9866667 F,0,118658,119258,0.9866667,0.2384657 F,0,119258,121058,0.2384657,0.2459477 F,0,121058,121358,0.2459477,0
Sprite,Background,Centre,"sb\bgblur.jpg",320,240 F,0,121058,137858,1 S,0,121058,137858,0.5160547,0.5230685 F,0,137858,138158,1,0
Sprite,Background,Centre,"background.jpg",320,240 S,0,137858,,0.5230684 F,0,137858,138158,0,1 F,0,138158,156758,1,0.9866667 F,0,156758,157358,0.9866667,0
Sprite,Background,Centre,"sb\bgblur.jpg",320,240 S,0,181058,,0.5160547 F,0,181058,214658,1 F,0,214658,214958,1,0
Sprite,Background,Centre,"sb\bgblurbw.jpg",0,0 S,0,156758,,0.6493151 P,0,156758,,V F,0,156758,157358,0,1 M,0,156758,179858,200.0658,240,384.526,240 F,0,157358,175058,1 F,0,175058,176258,1,0.2565479 F,0,176258,181058,0.2565479
Sprite,Background,Centre,"background.jpg",320,240 S,0,214658,,0.5160549 F,0,214658,214958,0,1 F,0,214958,231458,1 F,0,231458,232658,1,0
Sprite,Background,Centre,"sb\bgblurbw.jpg",0,0 P,0,231458,,H F,0,231458,232658,0,1 M,2,231458,255458,457.4685,148.8219,-109.9397,549.3041 S,0,231458,255458,0.6984109,1.140274 R,0,231458,255458,-0.01402771,-0.2665204 F,0,232658,249308,1 F,0,249308,255458,1,0
Sprite,Background,Centre,"sb\blank.jpg",0,0 F,0,51308,51458,0,0.5 M,0,51458,,320,240 F,0,51458,51758,0.5,0.1 V,1,51458,51758,0.42,0.51,0.4,0.05 R,0,51458,70658,0.08416412,-0.1402744 P,0,51758,,A F,0,51758,70658,0.1 F,0,70658,70958,0.1,0
Sprite,Background,Centre,"sb\blank.jpg",0,0 F,0,120608,120758,0,0.5 M,0,120758,,320,240 F,0,120758,121058,0.5,0.1 V,1,120758,121058,0.42,0.51,0.4,0.05 R,0,120758,157058,-0.1402744,0.08416412 P,0,121058,,A F,0,121058,157058,0.1 F,0,157058,157358,0.1,0
Sprite,Background,Centre,"sb\blank.jpg",0,0 F,0,180458,180608,0,0.5 M,0,180608,,320,240 F,0,180608,180908,0.5,0.1 V,1,180608,180908,0.42,0.51,0.4,0.05 R,0,180608,231458,0.08416412,-0.1402744 P,0,180908,,A F,0,180908,231458,0.1 F,0,231458,231758,0.1,0
Sprite,Background,Centre,"sb\ring.png",0,0 M,0,51458,,178,266 C,0,51458,,255,255,255 F,1,51458,53458,0.9,0 S,1,51458,53458,0.25,0.5
Sprite,Background,Centre,"sb\ring.png",0,0 M,0,51758,,269,264 C,0,51758,,255,255,255 F,1,51758,54358,0.9,0 S,1,51758,54358,0.25,0.5
Sprite,Background,Centre,"sb\ring.png",0,0 M,0,52658,,372,212 C,0,52658,,255,255,255 F,1,52658,54658,0.9,0 S,1,52658,54658,0.25,0.5
Sprite,Background,Centre,"sb\ring.png",0,0 M,0,52958,,459,233 C,0,52958,,255,255,255 F,1,52958,54958,0.9,0 S,1,52958,54958,0.25,0.5
Sprite,Background,Centre,"sb\ring.png",0,0 M,0,53558,,516,403 C,0,53558,,255,255,255 F,1,53558,55558,0.9,0 S,1,53558,55558,0.25,0.5
Sprite,Background,Centre,"sb\ring.png",0,0 M,0,53858,,424,400 C,0,53858,,255,255,255 F,1,53858,55858,0.9,0 S,1,53858,55858,0.25,0.5
Sprite,Background,Centre,"sb\ring.png",0,0 M,0,54158,,340,366 C,0,54158,,255,255,255 F,1,54158,56758,0.9,0 S,1,54158,56758,0.25,0.5
Sprite,Background,Centre,"sb\ring.png",0,0 M,0,55058,,96,321 C,0,55058,,255,255,255 F,1,55058,57058,0.9,0 S,1,55058,57058,0.25,0.5
Sprite,Background,Centre,"sb\ring.png",0,0 M,0,55658,,188,166 C,0,55658,,255,255,255 F,1,55658,57658,0.9,0 S,1,55658,57658,0.25,0.5
Sprite,Background,Centre,"sb\ring.png",0,0 M,0,55958,,259,220 C,0,55958,,255,255,255 F,1,55958,57958,0.9,0 S,1,55958,57958,0.25,0.5
Sprite,Background,Centre,"sb\ring.png",0,0 M,0,56258,,340,181 C,0,56258,,255,255,255 F,1,56258,58708,0.9,0 S,1,56258,58708,0.25,0.5
Sprite,Background,Centre,"sb\ring.png",0,0 M,0,57158,,552,199 C,0,57158,,255,255,255 F,1,57158,59158,0.9,0 S,1,57158,59158,0.25,0.5
Sprite,Background,Centre,"sb\ring.png",0,0 M,0,57458,,484,258 C,0,57458,,255,255,255 F,1,57458,59908,0.9,0 S,1,57458,59908,0.25,0.5
Sprite,Background,Centre,"sb\ring.png",0,0 M,0,58358,,336,403 C,0,58358,,255,255,255 F,1,58358,60358,0.9,0 S,1,58358,60358,0.25,0.5
Sprite,Background,Centre,"sb\ring.png",0,0 M,0,58658,,311,316 C,0,58658,,255,255,255 F,1,58658,61558,0.9,0 S,1,58658,61558,0.25,0.5
Sprite,Background,Centre,"sb\ring.png",0,0 M,0,59858,,123,315 C,0,59858,,255,255,255 F,1,59858,61858,0.9,0 S,1,59858,61858,0.25,0.5
Sprite,Background,Centre,"sb\ring.png",0,0 M,0,60458,,271,409 C,0,60458,,255,255,255 F,1,60458,62458,0.9,0 S,1,60458,62458,0.25,0.5
Sprite,Background,Centre,"sb\ring.png",0,0 M,0,60608,,271,409 C,0,60608,,255,255,255 F,1,60608,62608,0.9,0 S,1,60608,62608,0.25,0.5
Sprite,Background,Centre,"sb\ring.png",0,0 M,0,60908,,362,422 C,0,60908,,255,255,255 F,1,60908,62908,0.9,0 S,1,60908,62908,0.25,0.5
Sprite,Background,Centre,"sb\ring.png",0,0 M,0,61058,,362,422 C,0,61058,,255,255,255 F,1,61058,63058,0.9,0 S,1,61058,63058,0.25,0.5
Sprite,Background,Centre,"sb\ring.png",0,0 M,0,61358,,383,334 C,0,61358,,255,255,255 F,1,61358,63958,0.9,0 S,1,61358,63958,0.25,0.5
Sprite,Background,Centre,"sb\ring.png",0,0 M,0,62258,,545,126 C,0,62258,,255,255,255 F,1,62258,64708,0.9,0 S,1,62258,64708,0.25,0.5
Sprite,Background,Centre,"sb\ring.png",0,0 M,0,63158,,308,224 C,0,63158,,255,255,255 F,1,63158,65158,0.9,0 S,1,63158,65158,0.25,0.5
Sprite,Background,Centre,"sb\ring.png",0,0 M,0,63458,,264,143 C,0,63458,,255,255,255 F,1,63458,65758,0.9,0 S,1,63458,65758,0.25,0.5
Sprite,Background,Centre,"sb\ring.png",0,0 M,0,64208,,94,247 C,0,64208,,255,255,255 F,1,64208,66208,0.9,0 S,1,64208,66208,0.25,0.5
Sprite,Background,Centre,"sb\ring.png",0,0 M,0,64358,,94,247 C,0,64358,,255,255,255 F,1,64358,66358,0.9,0 S,1,64358,66358,0.25,0.5
Sprite,Background,Centre,"sb\ring.png",0,0 M,0,64508,,94,247 C,0,64508,,255,255,255 F,1,64508,66508,0.9,0 S,1,64508,66508,0.25,0.5
Sprite,Background,Centre,"sb\ring.png",0,0 M,0,64958,,206,321 C,0,64958,,255,255,255 F,1,64958,67108,0.9,0 S,1,64958,67108,0.25,0.5
Sprite,Background,Centre,"sb\ring.png",0,0 M,0,65408,,334,357 C,0,65408,,255,255,255 F,1,65408,67558,0.9,0 S,1,65408,67558,0.25,0.5
Sprite,Background,Centre,"sb\ring.png",0,0 M,0,65858,,472,339 C,0,65858,,255,255,255 F,1,65858,67858,0.9,0 S,1,65858,67858,0.25,0.5
Sprite,Background,Centre,"sb\ring.png",0,0 M,0,66458,,529,168 C,0,66458,,255,255,255 F,1,66458,68458,0.9,0 S,1,66458,68458,0.25,0.5
Sprite,Background,Centre,"sb\ring.png",0,0 M,0,66908,,410,232 C,0,66908,,255,255,255 F,1,66908,68908,0.9,0 S,1,66908,68908,0.25,0.5
Sprite,Background,Centre,"sb\ring.png",0,0 M,0,67058,,410,232 C,0,67058,,255,255,255 F,1,67058,69508,0.9,0 S,1,67058,69508,0.25,0.5
Sprite,Background,Centre,"sb\ring.png",0,0 M,0,67808,,172,201 C,0,67808,,255,255,255 F,1,67808,69808,0.9,0 S,1,67808,69808,0.25,0.5
Sprite,Background,Centre,"sb\ring.png",0,0 M,0,68108,,83,186 C,0,68108,,255,255,255 F,1,68108,70108,0.9,0 S,1,68108,70108,0.25,0.5
Sprite,Background,Centre,"sb\ring.png",0,0 M,0,121058,,261,198 C,0,121058,,255,255,255 F,1,121058,123508,0.9,0 S,1,121058,123508,0.25,0.5
Sprite,Background,Centre,"sb\ring.png",0,0 M,0,121958,,386,418 C,0,121958,,255,255,255 F,1,121958,123958,0.9,0 S,1,121958,123958,0.25,0.5
Sprite,Background,Centre,"sb\ring.png",0,0 M,0,122108,,386,418 C,0,122108,,255,255,255 F,1,122108,124108,0.9,0 S,1,122108,124108,0.25,0.5
Sprite,Background,Centre,"sb\ring.png",0,0 M,0,122558,,476,317 C,0,122558,,255,255,255 F,1,122558,124858,0.9,0 S,1,122558,124858,0.25,0.5
Sprite,Background,Centre,"sb\ring.png",0,0 M,0,123158,,416,167 C,0,123158,,255,255,255 F,1,123158,125458,0.9,0 S,1,123158,125458,0.25,0.5
Sprite,Background,Centre,"sb\ring.png",0,0 M,0,124208,,146,162 C,0,124208,,255,255,255 F,1,124208,126208,0.9,0 S,1,124208,126208,0.25,0.5
Sprite,Background,Centre,"sb\ring.png",0,0 M,0,124358,,146,162 C,0,124358,,255,255,255 F,1,124358,126358,0.9,0 S,1,124358,126358,0.25,0.5
Sprite,Background,Centre,"sb\ring.png",0,0 M,0,124508,,146,162 C,0,124508,,255,255,255 F,1,124508,126508,0.9,0 S,1,124508,126508,0.25,0.5
Sprite,Background,Centre,"sb\ring.png",0,0 M,0,125258,,247,362 C,0,125258,,255,255,255 F,1,125258,127558,0.9,0 S,1,125258,127558,0.25,0.5
Sprite,Background,Centre,"sb\ring.png",0,0 M,0,125858,,286,176 C,0,125858,,255,255,255 F,1,125858,127858,0.9,0 S,1,125858,127858,0.25,0.5
Sprite,Background,Centre,"sb\ring.png",0,0 M,0,126158,,305,88 C,0,126158,,255,255,255 F,1,126158,128158,0.9,0 S,1,126158,128158,0.25,0.5
Sprite,Background,Centre,"sb\ring.png",0,0 M,0,126308,,305,88 C,0,126308,,255,255,255 F,1,126308,128308,0.9,0 S,1,126308,128308,0.25,0.5
Sprite,Background,Centre,"sb\ring.png",0,0 M,0,126758,,421,156 C,0,126758,,255,255,255 F,1,126758,128758,0.9,0 S,1,126758,128758,0.25,0.5
Sprite,Background,Centre,"sb\ring.png",0,0 M,0,126908,,421,156 C,0,126908,,255,255,255 F,1,126908,129358,0.9,0 S,1,126908,129358,0.25,0.5
Sprite,Background,Centre,"sb\ring.png",0,0 M,0,127508,,423,300 C,0,127508,,255,255,255 F,1,127508,129508,0.9,0 S,1,127508,129508,0.25,0.5
Sprite,Background,Centre,"sb\ring.png",0,0 M,0,127958,,318,385 C,0,127958,,255,255,255 F,1,127958,129958,0.9,0 S,1,127958,129958,0.25,0.5
Sprite,Background,Centre,"sb\ring.png",0,0 M,0,128258,,232,357 C,0,128258,,255,255,255 F,1,128258,130558,0.9,0 S,1,128258,130558,0.25,0.5
Sprite,Background,Centre,"sb\ring.png",0,0 M,0,128858,,214,167 C,0,128858,,255,255,255 F,1,128858,130858,0.9,0 S,1,128858,130858,0.25,0.5
Sprite,Background,Centre,"sb\ring.png",0,0 M,0,129008,,214,167 C,0,129008,,255,255,255 F,1,129008,131008,0.9,0 S,1,129008,131008,0.25,0.5
Sprite,Background,Centre,"sb\ring.png",0,0 M,0,129458,,333,105 C,0,129458,,255,255,255 F,1,129458,132058,0.9,0 S,1,129458,132058,0.25,0.5
Sprite,Background,Centre,"sb\ring.png",0,0 M,0,130208,,494,95 C,0,130208,,255,255,255 F,1,130208,132208,0.9,0 S,1,130208,132208,0.25,0.5
Sprite,Background,Centre,"sb\ring.png",0,0 M,0,130658,,557,213 C,0,130658,,255,255,255 F,1,130658,132958,0.9,0 S,1,130658,132958,0.25,0.5
Sprite,Background,Centre,"sb\ring.png",0,0 M,0,131108,,550,312 C,0,131108,,255,255,255 F,1,131108,133108,0.9,0 S,1,131108,133108,0.25,0.5
Sprite,Background,Centre,"sb\ring.png",0,0 M,0,131558,,424,362 C,0,131558,,255,255,255 F,1,131558,133558,0.9,0 S,1,131558,133558,0.25,0.5
Sprite,Background,Centre,"sb\ring.png",0,0 M,0,131858,,354,302 C,0,131858,,255,255,255 F,1,131858,134158,0.9,0 S,1,131858,134158,0.25,0.5
Sprite,Background,Centre,"sb\ring.png",0,0 M,0,132458,,170,264 C,0,132458,,255,255,255 F,1,132458,134458,0.9,0 S,1,132458,134458,0.25,0.5
Sprite,Background,Centre,"sb\ring.png",0,0 M,0,132608,,170,264 C,0,132608,,255,255,255 F,1,132608,134608,0.9,0 S,1,132608,134608,0.25,0.5
Sprite,Background,Centre,"sb\ring.png",0,0 M,0,132908,,214,185 C,0,132908,,255,255,255 F,1,132908,134908,0.9,0 S,1,132908,134908,0.25,0.5
Sprite,Background,Centre,"sb\ring.png",0,0 M,0,133058,,214,185 C,0,133058,,255,255,255 F,1,133058,135358,0.9,0 S,1,133058,135358,0.25,0.5
Sprite,Background,Centre,"sb\ring.png",0,0 M,0,133808,,409,216 C,0,133808,,255,255,255 F,1,133808,135808,0.9,0 S,1,133808,135808,0.25,0.5
Sprite,Background,Centre,"sb\ring.png",0,0 M,0,133958,,409,216 C,0,133958,,255,255,255 F,1,133958,135958,0.9,0 S,1,133958,135958,0.25,0.5
Sprite,Background,Centre,"sb\ring.png",0,0 M,0,134108,,409,216 C,0,134108,,255,255,255 F,1,134108,136108,0.9,0 S,1,134108,136108,0.25,0.5
Sprite,Background,Centre,"sb\ring.png",0,0 M,0,134558,,410,350 C,0,134558,,255,255,255 F,1,134558,136558,0.9,0 S,1,134558,136558,0.25,0.5
Sprite,Background,Centre,"sb\ring.png",0,0 M,0,134708,,410,350 C,0,134708,,255,255,255 F,1,134708,136708,0.9,0 S,1,134708,136708,0.25,0.5
Sprite,Background,Centre,"sb\ring.png",0,0 M,0,135158,,545,350 C,0,135158,,255,255,255 F,1,135158,137158,0.9,0 S,1,135158,137158,0.25,0.5
Sprite,Background,Centre,"sb\ring.png",0,0 M,0,135458,,544,260 C,0,135458,,255,255,255 F,1,135458,137758,0.9,0 S,1,135458,137758,0.25,0.5
Sprite,Background,Centre,"sb\ring.png",0,0 M,0,136508,,381,104 C,0,136508,,255,255,255 F,1,136508,138508,0.9,0 S,1,136508,138508,0.25,0.5
Sprite,Background,Centre,"sb\ring.png",0,0 M,0,137108,,235,209 C,0,137108,,255,255,255 F,1,137108,139108,0.9,0 S,1,137108,139108,0.25,0.5
Sprite,Background,Centre,"sb\ring.png",0,0 M,0,137408,,213,296 C,0,137408,,255,255,255 F,1,137408,139408,0.9,0 S,1,137408,139408,0.25,0.5
Sprite,Background,Centre,"sb\ring.png",0,0 M,0,137708,,190,383 C,0,137708,,255,255,255 F,1,137708,139708,0.9,0 S,1,137708,139708,0.25,0.5
Sprite,Background,Centre,"sb\ring.png",0,0 M,0,137858,,190,383 C,0,137858,,255,255,255 F,1,137858,140158,0.9,0 S,1,137858,140158,0.25,0.5
Sprite,Background,Centre,"sb\ring.png",0,0 M,0,138308,,100,347 C,0,138308,,255,255,255 F,1,138308,140308,0.9,0 S,1,138308,140308,0.25,0.5
Sprite,Background,Centre,"sb\ring.png",0,0 M,0,138758,,93,212 C,0,138758,,255,255,255 F,1,138758,141058,0.9,0 S,1,138758,141058,0.25,0.5
Sprite,Background,Centre,"sb\ring.png",0,0 M,0,139508,,216,136 C,0,139508,,255,255,255 F,1,139508,141508,0.9,0 S,1,139508,141508,0.25,0.5
Sprite,Background,Centre,"sb\ring.png",0,0 M,0,139808,,229,224 C,0,139808,,255,255,255 F,1,139808,141808,0.9,0 S,1,139808,141808,0.25,0.5
Sprite,Background,Centre,"sb\ring.png",0,0 M,0,140258,,335,307 C,0,140258,,255,255,255 F,1,140258,142558,0.9,0 S,1,140258,142558,0.25,0.5
Sprite,Background,Centre,"sb\ring.png",0,0 M,0,141158,,454,261 C,0,141158,,255,255,255 F,1,141158,143158,0.9,0 S,1,141158,143158,0.25,0.5
Sprite,Background,Centre,"sb\ring.png",0,0 M,0,141458,,454,171 C,0,141458,,255,255,255 F,1,141458,144058,0.9,0 S,1,141458,144058,0.25,0.5
Sprite,Background,Centre,"sb\ring.png",0,0 M,0,142658,,108,199 C,0,142658,,255,255,255 F,1,142658,144658,0.9,0 S,1,142658,144658,0.25,0.5
Sprite,Background,Centre,"sb\ring.png",0,0 M,0,143408,,319,276 C,0,143408,,255,255,255 F,1,143408,145408,0.9,0 S,1,143408,145408,0.25,0.5
Sprite,Background,Centre,"sb\ring.png",0,0 M,0,143558,,319,276 C,0,143558,,255,255,255 F,1,143558,145558,0.9,0 S,1,143558,145558,0.25,0.5
Sprite,Background,Centre,"sb\ring.png",0,0 M,0,143858,,336,364 C,0,143858,,255,255,255 F,1,143858,145858,0.9,0 S,1,143858,145858,0.25,0.5
Sprite,Background,Centre,"sb\ring.png",0,0 M,0,144008,,336,364 C,0,144008,,255,255,255 F,1,144008,146008,0.9,0 S,1,144008,146008,0.25,0.5
Sprite,Background,Centre,"sb\ring.png",0,0 M,0,144458,,470,372 C,0,144458,,255,255,255 F,1,144458,146458,0.9,0 S,1,144458,146458,0.25,0.5
Sprite,Background,Centre,"sb\ring.png",0,0 M,0,145058,,488,220 C,0,145058,,255,255,255 F,1,145058,147058,0.9,0 S,1,145058,147058,0.25,0.5
Sprite,Background,Centre,"sb\ring.png",0,0 M,0,145358,,419,161 C,0,145358,,255,255,255 F,1,145358,147358,0.9,0 S,1,145358,147358,0.25,0.5
Sprite,Background,Centre,"sb\ring.png",0,0 M,0,145508,,419,161 C,0,145508,,255,255,255 F,1,145508,147508,0.9,0 S,1,145508,147508,0.25,0.5
Sprite,Background,Centre,"sb\ring.png",0,0 M,0,145958,,495,57 C,0,145958,,255,255,255 F,1,145958,147958,0.9,0 S,1,145958,147958,0.25,0.5
Sprite,Background,Centre,"sb\ring.png",0,0 M,0,146258,,549,120 C,0,146258,,255,255,255 F,1,146258,148258,0.9,0 S,1,146258,148258,0.25,0.5
Sprite,Background,Centre,"sb\ring.png",0,0 M,0,146858,,373,77 C,0,146858,,255,255,255 F,1,146858,148858,0.9,0 S,1,146858,148858,0.25,0.5
Sprite,Background,Centre,"sb\ring.png",0,0 M,0,147458,,215,166 C,0,147458,,255,255,255 F,1,147458,149758,0.9,0 S,1,147458,149758,0.25,0.5
Sprite,Background,Centre,"sb\ring.png",0,0 M,0,148208,,164,395 C,0,148208,,255,255,255 F,1,148208,150208,0.9,0 S,1,148208,150208,0.25,0.5
Sprite,Background,Centre,"sb\ring.png",0,0 M,0,148358,,164,395 C,0,148358,,255,255,255 F,1,148358,150358,0.9,0 S,1,148358,150358,0.25,0.5
Sprite,Background,Centre,"sb\ring.png",0,0 M,0,148658,,252,376 C,0,148658,,255,255,255 F,1,148658,150958,0.9,0 S,1,148658,150958,0.25,0.5
Sprite,Background,Centre,"sb\ring.png",0,0 M,0,149108,,350,361 C,0,149108,,255,255,255 F,1,149108,151108,0.9,0 S,1,149108,151108,0.25,0.5
Sprite,Background,Centre,"sb\ring.png",0,0 M,0,149408,,439,345 C,0,149408,,255,255,255 F,1,149408,151408,0.9,0 S,1,149408,151408,0.25,0.5
Sprite,Background,Centre,"sb\ring.png",0,0 M,0,149858,,526,253 C,0,149858,,255,255,255 F,1,149858,152158,0.9,0 S,1,149858,152158,0.25,0.5
Sprite,Background,Centre,"sb\ring.png",0,0 M,0,150758,,370,102 C,0,150758,,255,255,255 F,1,150758,153058,0.9,0 S,1,150758,153058,0.25,0.5
Sprite,Background,Centre,"sb\ring.png",0,0 M,0,151358,,298,248 C,0,151358,,255,255,255 F,1,151358,153358,0.9,0 S,1,151358,153358,0.25,0.5
Sprite,Background,Centre,"sb\ring.png",0,0 M,0,151508,,298,248 C,0,151508,,255,255,255 F,1,151508,153958,0.9,0 S,1,151508,153958,0.25,0.5
Sprite,Background,Centre,"sb\ring.png",0,0 M,0,152258,,102,253 C,0,152258,,255,255,255 F,1,152258,154458,0.9,0 S,1,152258,154458,0.25,0.5
Sprite,Background,Centre,"sb\ring.png",0,0 M,0,152658,,146,366 C,0,152658,,255,255,255 F,1,152658,154658,0.9,0 S,1,152658,154658,0.25,0.5
Sprite,Background,Centre,"sb\ring.png",0,0 M,0,152858,,121,420 C,0,152858,,255,255,255 F,1,152858,154858,0.9,0 S,1,152858,154858,0.25,0.5
Sprite,Background,Centre,"sb\ring.png",0,0 M,0,153458,,294,372 C,0,153458,,255,255,255 F,1,153458,155608,0.9,0 S,1,153458,155608,0.25,0.5
Sprite,Background,Centre,"sb\ring.png",0,0 M,0,153908,,432,350 C,0,153908,,255,255,255 F,1,153908,155908,0.9,0 S,1,153908,155908,0.25,0.5
Sprite,Background,Centre,"sb\ring.png",0,0 M,0,154208,,520,332 C,0,154208,,255,255,255 F,1,154208,156208,0.9,0 S,1,154208,156208,0.25,0.5
Sprite,Background,Centre,"sb\ring.png",0,0 M,0,154508,,501,243 C,0,154508,,255,255,255 F,1,154508,156508,0.9,0 S,1,154508,156508,0.25,0.5
Sprite,Background,Centre,"sb\ring.png",0,0 M,0,154658,,320,248 C,0,154658,,255,255,255 F,1,154658,157858,0.9,0 S,1,154658,157858,0.25,0.5
Sprite,Background,Centre,"sb\ring.png",0,0 M,0,181058,,302,166 C,0,181058,,255,255,255 F,1,181058,183358,0.9,0 S,1,181058,183358,0.25,0.5
Sprite,Background,Centre,"sb\ring.png",0,0 M,0,181958,,537,236 C,0,181958,,255,255,255 F,1,181958,184258,0.9,0 S,1,181958,184258,0.25,0.5
Sprite,Background,Centre,"sb\ring.png",0,0 M,0,182558,,406,361 C,0,182558,,255,255,255 F,1,182558,185158,0.9,0 S,1,182558,185158,0.25,0.5
Sprite,Background,Centre,"sb\ring.png",0,0 M,0,183458,,179,323 C,0,183458,,255,255,255 F,1,183458,185458,0.9,0 S,1,183458,185458,0.25,0.5
Sprite,Background,Centre,"sb\ring.png",0,0 M,0,184208,,165,143 C,0,184208,,255,255,255 F,1,184208,186208,0.9,0 S,1,184208,186208,0.25,0.5
Sprite,Background,Centre,"sb\ring.png",0,0 M,0,184358,,165,143 C,0,184358,,255,255,255 F,1,184358,186358,0.9,0 S,1,184358,186358,0.25,0.5
Sprite,Background,Centre,"sb\ring.png",0,0 M,0,184658,,253,124 C,0,184658,,255,255,255 F,1,184658,186658,0.9,0 S,1,184658,186658,0.25,0.5
Sprite,Background,Centre,"sb\ring.png",0,0 M,0,185258,,432,131 C,0,185258,,255,255,255 F,1,185258,187258,0.9,0 S,1,185258,187258,0.25,0.5
Sprite,Background,Centre,"sb\ring.png",0,0 M,0,185558,,389,210 C,0,185558,,255,255,255 F,1,185558,187558,0.9,0 S,1,185558,187558,0.25,0.5
Sprite,Background,Centre,"sb\ring.png",0,0 M,0,185858,,447,278 C,0,185858,,255,255,255 F,1,185858,188158,0.9,0 S,1,185858,188158,0.25,0.5
Sprite,Background,Centre,"sb\ring.png",0,0 M,0,186308,,458,377 C,0,186308,,255,255,255 F,1,186308,188308,0.9,0 S,1,186308,188308,0.25,0.5
Sprite,Background,Centre,"sb\ring.png",0,0 M,0,186758,,325,399 C,0,186758,,255,255,255 F,1,186758,188758,0.9,0 S,1,186758,188758,0.25,0.5
Sprite,Background,Centre,"sb\ring.png",0,0 M,0,186908,,325,399 C,0,186908,,255,255,255 F,1,186908,189208,0.9,0 S,1,186908,189208,0.25,0.5
Sprite,Background,Centre,"sb\ring.png",0,0 M,0,187508,,225,298 C,0,187508,,255,255,255 F,1,187508,189808,0.9,0 S,1,187508,189808,0.25,0.5
Sprite,Background,Centre,"sb\ring.png",0,0 M,0,187958,,207,199 C,0,187958,,255,255,255 F,1,187958,189958,0.9,0 S,1,187958,189958,0.25,0.5
Sprite,Background,Centre,"sb\ring.png",0,0 M,0,188258,,262,128 C,0,188258,,255,255,255 F,1,188258,191158,0.9,0 S,1,188258,191158,0.25,0.5
Sprite,Background,Centre,"sb\ring.png",0,0 M,0,189458,,575,167 C,0,189458,,255,255,255 F,1,189458,191458,0.9,0 S,1,189458,191458,0.25,0.5
Sprite,Background,Centre,"sb\ring.png",0,0 M,0,190058,,435,280 C,0,190058,,255,255,255 F,1,190058,192058,0.9,0 S,1,190058,192058,0.25,0.5
Sprite,Background,Centre,"sb\ring.png",0,0 M,0,190208,,435,280 C,0,190208,,255,255,255 F,1,190208,192208,0.9,0 S,1,190208,192208,0.25,0.5
Sprite,Background,Centre,"sb\ring.png",0,0 M,0,190508,,351,313 C,0,190508,,255,255,255 F,1,190508,192508,0.9,0 S,1,190508,192508,0.25,0.5
Sprite,Background,Centre,"sb\ring.png",0,0 M,0,190658,,351,313 C,0,190658,,255,255,255 F,1,190658,192958,0.9,0 S,1,190658,192958,0.25,0.5
Sprite,Background,Centre,"sb\ring.png",0,0 M,0,191558,,80,247 C,0,191558,,255,255,255 F,1,191558,193558,0.9,0 S,1,191558,193558,0.25,0.5
Sprite,Background,Centre,"sb\ring.png",0,0 M,0,191708,,80,247 C,0,191708,,255,255,255 F,1,191708,193708,0.9,0 S,1,191708,193708,0.25,0.5
Sprite,Background,Centre,"sb\ring.png",0,0 M,0,192158,,97,113 C,0,192158,,255,255,255 F,1,192158,194458,0.9,0 S,1,192158,194458,0.25,0.5
Sprite,Background,Centre,"sb\ring.png",0,0 M,0,192758,,285,86 C,0,192758,,255,255,255 F,1,192758,194758,0.9,0 S,1,192758,194758,0.25,0.5
Sprite,Background,Centre,"sb\ring.png",0,0 M,0,193058,,326,165 C,0,193058,,255,255,255 F,1,193058,195058,0.9,0 S,1,193058,195058,0.25,0.5
Sprite,Background,Centre,"sb\ring.png",0,0 M,0,193808,,534,249 C,0,193808,,255,255,255 F,1,193808,195808,0.9,0 S,1,193808,195808,0.25,0.5
Sprite,Background,Centre,"sb\ring.png",0,0 M,0,193958,,534,249 C,0,193958,,255,255,255 F,1,193958,195958,0.9,0 S,1,193958,195958,0.25,0.5
Sprite,Background,Centre,"sb\ring.png",0,0 M,0,194258,,454,291 C,0,194258,,255,255,255 F,1,194258,196258,0.9,0 S,1,194258,196258,0.25,0.5
Sprite,Background,Centre,"sb\ring.png",0,0 M,0,194558,,376,336 C,0,194558,,255,255,255 F,1,194558,196558,0.9,0 S,1,194558,196558,0.25,0.5
Sprite,Background,Centre,"sb\ring.png",0,0 M,0,194708,,376,336 C,0,194708,,255,255,255 F,1,194708,196708,0.9,0 S,1,194708,196708,0.25,0.5
Sprite,Background,Centre,"sb\ring.png",0,0 M,0,195458,,162,263 C,0,195458,,255,255,255 F,1,195458,197758,0.9,0 S,1,195458,197758,0.25,0.5
Sprite,Background,Centre,"sb\ring.png",0,0 M,0,196508,,346,134 C,0,196508,,255,255,255 F,1,196508,198508,0.9,0 S,1,196508,198508,0.25,0.5
Sprite,Background,Centre,"sb\ring.png",0,0 M,0,197108,,395,307 C,0,197108,,255,255,255 F,1,197108,199108,0.9,0 S,1,197108,199108,0.25,0.5
Sprite,Background,Centre,"sb\ring.png",0,0 M,0,197408,,475,267 C,0,197408,,255,255,255 F,1,197408,199408,0.9,0 S,1,197408,199408,0.25,0.5
Sprite,Background,Centre,"sb\ring.png",0,0 M,0,197708,,556,229 C,0,197708,,255,255,255 F,1,197708,199708,0.9,0 S,1,197708,199708,0.25,0.5
Sprite,Background,Centre,"sb\ring.png",0,0 M,0,198158,,532,96 C,0,198158,,255,255,255 F,1,198158,200608,0.9,0 S,1,198158,200608,0.25,0.5
Sprite,Background,Centre,"sb\ring.png",0,0 M,0,199058,,274,178 C,0,199058,,255,255,255 F,1,199058,201508,0.9,0 S,1,199058,201508,0.25,0.5
Sprite,Background,Centre,"sb\ring.png",0,0 M,0,199808,,181,368 C,0,199808,,255,255,255 F,1,199808,201808,0.9,0 S,1,199808,201808,0.25,0.5
Sprite,Background,Centre,"sb\ring.png",0,0 M,0,200108,,108,314 C,0,200108,,255,255,255 F,1,200108,202108,0.9,0 S,1,200108,202108,0.25,0.5
Sprite,Background,Centre,"sb\ring.png",0,0 M,0,200558,,118,179 C,0,200558,,255,255,255 F,1,200558,202558,0.9,0 S,1,200558,202558,0.25,0.5
Sprite,Background,Centre,"sb\ring.png",0,0 M,0,201158,,285,112 C,0,201158,,255,255,255 F,1,201158,203458,0.9,0 S,1,201158,203458,0.25,0.5
Sprite,Background,Centre,"sb\ring.png",0,0 M,0,201758,,395,225 C,0,201758,,255,255,255 F,1,201758,204358,0.9,0 S,1,201758,204358,0.25,0.5
Sprite,Background,Centre,"sb\ring.png",0,0 M,0,202658,,368,400 C,0,202658,,255,255,255 F,1,202658,204658,0.9,0 S,1,202658,204658,0.25,0.5
Sprite,Background,Centre,"sb\ring.png",0,0 M,0,203558,,527,216 C,0,203558,,255,255,255 F,1,203558,205558,0.9,0 S,1,203558,205558,0.25,0.5
Sprite,Background,Centre,"sb\ring.png",0,0 M,0,203858,,509,127 C,0,203858,,255,255,255 F,1,203858,206158,0.9,0 S,1,203858,206158,0.25,0.5
Sprite,Background,Centre,"sb\ring.png",0,0 M,0,204308,,409,123 C,0,204308,,255,255,255 F,1,204308,206308,0.9,0 S,1,204308,206308,0.25,0.5
Sprite,Background,Centre,"sb\ring.png",0,0 M,0,204758,,284,175 C,0,204758,,255,255,255 F,1,204758,206758,0.9,0 S,1,204758,206758,0.25,0.5
Sprite,Background,Centre,"sb\ring.png",0,0 M,0,205058,,200,141 C,0,205058,,255,255,255 F,1,205058,207058,0.9,0 S,1,205058,207058,0.25,0.5
Sprite,Background,Centre,"sb\ring.png",0,0 M,0,205508,,106,238 C,0,205508,,255,255,255 F,1,205508,207958,0.9,0 S,1,205508,207958,0.25,0.5
Sprite,Background,Centre,"sb\ring.png",0,0 M,0,206258,,267,379 C,0,206258,,255,255,255 F,1,206258,208258,0.9,0 S,1,206258,208258,0.25,0.5
Sprite,Background,Centre,"sb\ring.png",0,0 M,0,206858,,413,274 C,0,206858,,255,255,255 F,1,206858,208858,0.9,0 S,1,206858,208858,0.25,0.5
Sprite,Background,Centre,"sb\ring.png",0,0 M,0,207008,,413,274 C,0,207008,,255,255,255 F,1,207008,209008,0.9,0 S,1,207008,209008,0.25,0.5
Sprite,Background,Centre,"sb\ring.png",0,0 M,0,207308,,437,187 C,0,207308,,255,255,255 F,1,207308,209308,0.9,0 S,1,207308,209308,0.25,0.5
Sprite,Background,Centre,"sb\ring.png",0,0 M,0,207458,,437,187 C,0,207458,,255,255,255 F,1,207458,209908,0.9,0 S,1,207458,209908,0.25,0.5
Sprite,Background,Centre,"sb\ring.png",0,0 M,0,208358,,187,75 C,0,208358,,255,255,255 F,1,208358,210358,0.9,0 S,1,208358,210358,0.25,0.5
Sprite,Background,Centre,"sb\ring.png",0,0 M,0,208658,,122,137 C,0,208658,,255,255,255 F,1,208658,210658,0.9,0 S,1,208658,210658,0.25,0.5
Sprite,Background,Centre,"sb\ring.png",0,0 M,0,208958,,195,188 C,0,208958,,255,255,255 F,1,208958,211558,0.9,0 S,1,208958,211558,0.25,0.5
Sprite,Background,Centre,"sb\ring.png",0,0 M,0,209858,,194,414 C,0,209858,,255,255,255 F,1,209858,212158,0.9,0 S,1,209858,212158,0.25,0.5
Sprite,Background,Centre,"sb\ring.png",0,0 M,0,210608,,423,367 C,0,210608,,255,255,255 F,1,210608,212608,0.9,0 S,1,210608,212608,0.25,0.5
Sprite,Background,Centre,"sb\ring.png",0,0 M,0,210758,,423,367 C,0,210758,,255,255,255 F,1,210758,212758,0.9,0 S,1,210758,212758,0.25,0.5
Sprite,Background,Centre,"sb\ring.png",0,0 M,0,210908,,423,367 C,0,210908,,255,255,255 F,1,210908,212908,0.9,0 S,1,210908,212908,0.25,0.5
Sprite,Background,Centre,"sb\ring.png",0,0 M,0,211358,,495,252 C,0,211358,,255,255,255 F,1,211358,213358,0.9,0 S,1,211358,213358,0.25,0.5
Sprite,Background,Centre,"sb\ring.png",0,0 M,0,211508,,495,252 C,0,211508,,255,255,255 F,1,211508,213508,0.9,0 S,1,211508,213508,0.25,0.5
Sprite,Background,Centre,"sb\ring.png",0,0 M,0,211958,,389,167 C,0,211958,,255,255,255 F,1,211958,213958,0.9,0 S,1,211958,213958,0.25,0.5
Sprite,Background,Centre,"sb\ring.png",0,0 M,0,212258,,314,218 C,0,212258,,255,255,255 F,1,212258,214408,0.9,0 S,1,212258,214408,0.25,0.5
Sprite,Background,Centre,"sb\ring.png",0,0 M,0,213308,,87,418 C,0,213308,,255,255,255 F,1,213308,215308,0.9,0 S,1,213308,215308,0.25,0.5
Sprite,Background,Centre,"sb\ring.png",0,0 M,0,213908,,262,377 C,0,213908,,255,255,255 F,1,213908,215908,0.9,0 S,1,213908,215908,0.25,0.5
Sprite,Background,Centre,"sb\ring.png",0,0 M,0,214208,,184,321 C,0,214208,,255,255,255 F,1,214208,216208,0.9,0 S,1,214208,216208,0.25,0.5
Sprite,Background,Centre,"sb\ring.png",0,0 M,0,214508,,111,268 C,0,214508,,255,255,255 F,1,214508,216508,0.9,0 S,1,214508,216508,0.25,0.5
Sprite,Background,Centre,"sb\ring.png",0,0 M,0,214658,,111,268 C,0,214658,,255,255,255 F,1,214658,217108,0.9,0 S,1,214658,217108,0.25,0.5
Sprite,Background,Centre,"sb\ring.png",0,0 M,0,215558,,276,84 C,0,215558,,255,255,255 F,1,215558,217558,0.9,0 S,1,215558,217558,0.25,0.5
Sprite,Background,Centre,"sb\ring.png",0,0 M,0,215858,,349,136 C,0,215858,,255,255,255 F,1,215858,217858,0.9,0 S,1,215858,217858,0.25,0.5
Sprite,Background,Centre,"sb\ring.png",0,0 M,0,216158,,374,222 C,0,216158,,255,255,255 F,1,216158,218158,0.9,0 S,1,216158,218158,0.25,0.5
Sprite,Background,Centre,"sb\ring.png",0,0 M,0,216308,,374,222 C,0,216308,,255,255,255 F,1,216308,218308,0.9,0 S,1,216308,218308,0.25,0.5
Sprite,Background,Centre,"sb\ring.png",0,0 M,0,216758,,304,332 C,0,216758,,255,255,255 F,1,216758,218758,0.9,0 S,1,216758,218758,0.25,0.5
Sprite,Background,Centre,"sb\ring.png",0,0 M,0,217058,,376,384 C,0,217058,,255,255,255 F,1,217058,219358,0.9,0 S,1,217058,219358,0.25,0.5
Sprite,Background,Centre,"sb\ring.png",0,0 M,0,217808,,552,259 C,0,217808,,255,255,255 F,1,217808,219808,0.9,0 S,1,217808,219808,0.25,0.5
Sprite,Background,Centre,"sb\ring.png",0,0 M,0,217958,,552,259 C,0,217958,,255,255,255 F,1,217958,219958,0.9,0 S,1,217958,219958,0.25,0.5
Sprite,Background,Centre,"sb\ring.png",0,0 M,0,218258,,462,255 C,0,218258,,255,255,255 F,1,218258,220258,0.9,0 S,1,218258,220258,0.25,0.5
Sprite,Background,Centre,"sb\ring.png",0,0 M,0,218858,,323,139 C,0,218858,,255,255,255 F,1,218858,220858,0.9,0 S,1,218858,220858,0.25,0.5
Sprite,Background,Centre,"sb\ring.png",0,0 M,0,219458,,156,207 C,0,219458,,255,255,255 F,1,219458,221758,0.9,0 S,1,219458,221758,0.25,0.5
Sprite,Background,Centre,"sb\ring.png",0,0 M,0,220058,,177,365 C,0,220058,,255,255,255 F,1,220058,222058,0.9,0 S,1,220058,222058,0.25,0.5
Sprite,Background,Centre,"sb\ring.png",0,0 M,0,220658,,355,316 C,0,220658,,255,255,255 F,1,220658,222958,0.9,0 S,1,220658,222958,0.25,0.5
Sprite,Background,Centre,"sb\ring.png",0,0 M,0,221258,,521,263 C,0,221258,,255,255,255 F,1,221258,223258,0.9,0 S,1,221258,223258,0.25,0.5
Sprite,Background,Centre,"sb\ring.png",0,0 M,0,221858,,379,137 C,0,221858,,255,255,255 F,1,221858,224758,0.9,0 S,1,221858,224758,0.25,0.5
Sprite,Background,Centre,"sb\ring.png",0,0 M,0,223058,,77,208 C,0,223058,,255,255,255 F,1,223058,225058,0.9,0 S,1,223058,225058,0.25,0.5
Sprite,Background,Centre,"sb\ring.png",0,0 M,0,223658,,164,365 C,0,223658,,255,255,255 F,1,223658,225658,0.9,0 S,1,223658,225658,0.25,0.5
Sprite,Background,Centre,"sb\ring.png",0,0 M,0,224108,,234,249 C,0,224108,,255,255,255 F,1,224108,226108,0.9,0 S,1,224108,226108,0.25,0.5
Sprite,Background,Centre,"sb\ring.png",0,0 M,0,224258,,234,249 C,0,224258,,255,255,255 F,1,224258,226258,0.9,0 S,1,224258,226258,0.25,0.5
Sprite,Background,Centre,"sb\ring.png",0,0 M,0,224558,,323,254 C,0,224558,,255,255,255 F,1,224558,227008,0.9,0 S,1,224558,227008,0.25,0.5
Sprite,Background,Centre,"sb\ring.png",0,0 M,0,225458,,528,111 C,0,225458,,255,255,255 F,1,225458,227758,0.9,0 S,1,225458,227758,0.25,0.5
Sprite,Background,Centre,"sb\ring.png",0,0 M,0,225908,,428,103 C,0,225908,,255,255,255 F,1,225908,227908,0.9,0 S,1,225908,227908,0.25,0.5
Sprite,Background,Centre,"sb\ring.png",0,0 M,0,226358,,295,77 C,0,226358,,255,255,255 F,1,226358,228358,0.9,0 S,1,226358,228358,0.25,0.5
Sprite,Background,Centre,"sb\ring.png",0,0 M,0,226658,,224,133 C,0,226658,,255,255,255 F,1,226658,228658,0.9,0 S,1,226658,228658,0.25,0.5
Sprite,Background,Centre,"sb\ring.png",0,0 M,0,226958,,269,210 C,0,226958,,255,255,255 F,1,226958,229408,0.9,0 S,1,226958,229408,0.25,0.5
Sprite,Background,Centre,"sb\ring.png",0,0 M,0,227858,,401,416 C,0,227858,,255,255,255 F,1,227858,230158,0.9,0 S,1,227858,230158,0.25,0.5
Sprite,Background,Centre,"sb\ring.png",0,0 M,0,228308,,412,316 C,0,228308,,255,255,255 F,1,228308,230308,0.9,0 S,1,228308,230308,0.25,0.5
Sprite,Background,Centre,"sb\ring.png",0,0 M,0,228758,,531,252 C,0,228758,,255,255,255 F,1,228758,230758,0.9,0 S,1,228758,230758,0.25,0.5
Sprite,Background,Centre,"sb\ring.png",0,0 M,0,229058,,546,163 C,0,229058,,255,255,255 F,1,229058,231058,0.9,0 S,1,229058,231058,0.25,0.5
Sprite,Background,Centre,"sb\ring.png",0,0 M,0,230108,,217,165 C,0,230108,,255,255,255 F,1,230108,232108,0.9,0 S,1,230108,232108,0.25,0.5
Sprite,Background,Centre,"sb\ring.png",0,0 M,0,230708,,313,316 C,0,230708,,255,255,255 F,1,230708,232708,0.9,0 S,1,230708,232708,0.25,0.5
Sprite,Background,Centre,"sb\ring.png",0,0 M,0,231008,,223,329 C,0,231008,,255,255,255 F,1,231008,233008,0.9,0 S,1,231008,233008,0.25,0.5
Sprite,Background,Centre,"sb\ring.png",0,0 M,0,231158,,223,329 C,0,231158,,255,255,255 F,1,231158,233158,0.9,0 S,1,231158,233158,0.25,0.5
//Storyboard Layer 1 (Fail)
//Storyboard Layer 2 (Pass)
//Storyboard Layer 3 (Foreground)
//Storyboard Layer 4 (Overlay)
//Storyboard Sound Samples

[TimingPoints]
1058,300,4,2,3,40,1,0
11483,-100,4,2,3,40,0,0
11558,-133.333333333333,4,2,3,40,0,0
13883,-133.333333333333,4,2,3,40,0,0
13958,-133.333333333333,4,2,3,40,0,0
15383,-133.333333333333,4,2,3,40,0,0
15458,-133.333333333333,4,2,3,40,0,0
18683,-133.333333333333,4,2,3,40,0,0
18758,-133.333333333333,4,2,3,40,0,0
21083,-133.333333333333,4,2,3,40,0,0
21158,-133.333333333333,4,2,3,40,0,0
23483,-133.333333333333,4,2,3,40,0,0
23558,-133.333333333333,4,2,3,40,0,0
24983,-133.333333333333,4,2,3,40,0,0
25058,-133.333333333333,4,2,3,40,0,0
29858,-100,4,2,3,50,0,0
51158,-100,4,2,3,50,0,0
51458,-100,4,2,3,70,0,0
60533,-100,4,2,3,70,0,0
60608,-100,4,2,3,70,0,0
63683,-100,4,2,3,70,0,0
63758,-100,4,2,3,70,0,0
65183,-100,4,2,3,70,0,0
65258,-100,4,2,3,70,0,0
65483,-100,4,2,3,70,0,0
65558,-100,4,2,3,70,0,0
65633,-100,4,2,3,70,0,0
65708,-100,4,2,3,70,0,0
65783,-100,4,2,3,70,0,0
65858,-100,4,2,3,70,0,0
66008,-100,4,2,3,70,0,0
66058,-100,4,2,3,70,0,0
66158,-100,4,2,3,70,0,0
66233,-100,4,2,3,70,0,0
66383,-100,4,2,3,70,0,0
66458,-100,4,2,3,70,0,0
66608,-100,4,2,3,70,0,0
66658,-100,4,2,3,70,0,0
66758,-100,4,2,3,70,0,0
66858,-100,4,2,3,70,0,0
66983,-100,4,2,3,70,0,0
67058,-100,4,2,3,70,0,0
68108,-100,4,2,3,70,0,0
69383,-100,4,2,3,70,0,0
69458,-100,4,2,3,70,0,0
70658,-100,4,2,3,70,0,0
71558,-100,4,2,3,50,0,0
72008,-100,4,2,3,60,0,0
73058,-100,4,2,3,70,0,0
73958,-100,4,2,3,50,0,0
74558,-100,4,2,3,60,0,0
75158,-100,4,2,3,70,0,0
76358,-100,4,2,3,50,0,0
76808,-100,4,2,3,60,0,0
77858,-100,4,2,3,70,0,0
80258,-100,4,2,3,60,0,0
86483,-100,4,2,3,60,0,0
86558,-100,4,2,3,60,0,0
89183,-100,4,2,3,60,0,0
89258,-100,4,2,3,60,0,0
91283,-100,4,2,3,60,0,0
91358,-100,4,2,3,60,0,0
97283,-100,4,2,3,60,0,0
97358,-100,4,2,3,60,0,0
98333,-100,4,2,3,60,0,0
98408,-100,4,2,3,60,0,0
99458,-100,4,2,3,55,0,0
101183,-100,4,2,3,55,0,0
101258,-100,4,2,3,55,0,0
103583,-100,4,2,3,55,0,0
103658,-100,4,2,3,55,0,0
105983,-100,4,2,3,55,0,0
106058,-100,4,2,3,55,0,0
108383,-100,4,2,3,55,0,0
108458,-100,4,2,3,55,0,0
110783,-100,4,2,3,55,0,0
110858,-100,4,2,3,55,0,0
113183,-100,4,2,3,55,0,0
113258,-100,4,2,3,55,0,0
115583,-100,4,2,3,55,0,0
115658,-100,4,2,3,55,0,0
116333,-100,4,2,3,5,0,0
118658,-100,4,2,3,55,0,0
119858,-100,4,2,3,55,0,0
120008,-100,4,2,3,55,0,0
120158,-100,4,2,3,55,0,0
120308,-100,4,2,3,55,0,0
120458,-100,4,2,3,55,0,0
120608,-100,4,2,3,55,0,0
121058,-100,4,2,3,55,0,0
121733,-100,4,2,3,55,0,0
121808,-100,4,2,3,55,0,0
122333,-100,4,2,3,55,0,0
122408,-100,4,2,3,55,0,0
123083,-100,4,2,3,55,0,0
123158,-100,4,2,3,55,0,0
123983,-100,4,2,3,55,0,0
124058,-100,4,2,3,55,0,0
124733,-100,4,2,3,55,0,0
124808,-100,4,2,3,55,0,0
125783,-100,4,2,3,55,0,0
125858,-100,4,2,3,55,0,0
126533,-100,4,2,3,55,0,0
126608,-100,4,2,3,55,0,0
127133,-100,4,2,3,55,0,0
127208,-100,4,2,3,55,0,0
128333,-100,4,2,3,55,0,0
128408,-100,4,2,3,55,0,0
128933,-100,4,2,3,55,0,0
129008,-100,4,2,3,55,0,0
129083,-100,4,2,3,55,0,0
129158,-100,4,2,3,55,0,0
129233,-100,4,2,3,55,0,0
129308,-100,4,2,3,55,0,0
129533,-100,4,2,3,55,0,0
129608,-100,4,2,3,55,0,0
131333,-100,4,2,3,55,0,0
131408,-100,4,2,3,55,0,0
131933,-100,4,2,3,55,0,0
132008,-100,4,2,3,55,0,0
133283,-100,4,2,3,55,0,0
133358,-100,4,2,3,55,0,0
134333,-100,4,2,3,55,0,0
134408,-100,4,2,3,55,0,0
136433,-100,4,2,3,55,0,0
136508,-100,4,2,3,55,0,0
136583,-100,4,2,3,55,0,0
136958,-100,4,2,3,55,0,0
137333,-100,4,2,3,55,0,0
137408,-100,4,2,3,55,0,0
137633,-100,4,2,3,55,0,0
137708,-100,4,2,3,55,0,0
137858,-100,4,2,3,55,0,0
138083,-100,4,2,3,55,0,0
138158,-100,4,2,3,55,0,0
140483,-100,4,2,3,55,0,0
140558,-100,4,2,3,55,0,0
143333,-100,4,2,3,55,0,0
143408,-100,4,2,3,55,0,0
143483,-100,4,2,3,55,0,0
143558,-100,4,2,3,55,0,0
143933,-100,4,2,3,55,0,0
144008,-100,4,2,3,55,0,0
144233,-100,4,2,3,55,0,0
144308,-100,4,2,3,55,0,0
144383,-100,4,2,3,55,0,0
144458,-100,4,2,3,55,0,0
145733,-100,4,2,3,55,0,0
145808,-100,4,2,3,55,0,0
149333,-100,4,2,3,55,0,0
149408,-100,4,2,3,55,0,0
149633,-100,4,2,3,55,0,0
149708,-100,4,2,3,55,0,0
152408,-100,4,2,3,55,0,0
152458,-100,4,2,3,55,0,0
152608,-100,4,2,3,55,0,0
152658,-100,4,2,3,55,0,0
152808,-100,4,2,3,55,0,0
152858,-100,4,2,3,55,0,0
153008,-100,4,2,3,55,0,0
153058,-100,4,2,3,55,0,0
153208,-100,4,2,3,55,0,0
153258,-100,4,2,3,55,0,0
153408,-100,4,2,3,55,0,0
153458,-100,4,2,3,55,0,0
154133,-100,4,2,3,55,0,0
154208,-100,4,2,3,55,0,0
154433,-100,4,2,3,55,0,0
154508,-100,4,2,3,55,0,0
155858,-100,4,2,3,55,0,0
156458,-100,4,2,3,40,0,0
156758,-100,4,2,3,40,0,0
173708,-100,4,2,3,30,0,0
173783,-100,4,2,3,5,0,0
176258,-100,4,2,3,30,0,0
179858,-100,4,2,3,30,0,0
180008,-100,4,2,3,30,0,0
180158,-100,4,2,3,30,0,0
180308,-100,4,2,3,40,0,0
180458,-100,4,2,3,40,0,0
180608,-100,4,2,3,50,0,0
180908,-100,4,2,3,60,0,0
181058,-100,4,2,3,70,0,0
181733,-100,4,2,3,70,0,0
181808,-100,4,2,3,70,0,0
182333,-100,4,2,3,70,0,0
182408,-100,4,2,3,70,0,0
184883,-100,4,2,3,70,0,0
184958,-100,4,2,3,70,0,0
187133,-100,4,2,3,70,0,0
187208,-100,4,2,3,70,0,0
189533,-100,4,2,3,70,0,0
189608,-100,4,2,3,70,0,0
191333,-100,4,2,3,70,0,0
191408,-100,4,2,3,70,0,0
191933,-100,4,2,3,70,0,0
192008,-100,4,2,3,70,0,0
192683,-100,4,2,3,70,0,0
192758,-100,4,2,3,70,0,0
193583,-100,4,2,3,70,0,0
193658,-100,4,2,3,70,0,0
194483,-100,4,2,3,70,0,0
194558,-100,4,2,3,70,0,0
194933,-100,4,2,3,70,0,0
195008,-100,4,2,3,70,0,0
196433,-100,4,2,3,70,0,0
196508,-100,4,2,3,70,0,0
196583,-100,4,2,3,70,0,0
196808,-100,4,2,3,70,0,0
197858,-100,4,2,3,70,0,0
198083,-100,4,2,3,70,0,0
198158,-100,4,2,3,70,0,0
199733,-100,4,2,3,70,0,0
199808,-100,4,2,3,70,0,0
200033,-100,4,2,3,70,0,0
200108,-100,4,2,3,70,0,0
201683,-100,4,2,3,70,0,0
201758,-100,4,2,3,70,0,0
202583,-100,4,2,3,70,0,0
202658,-100,4,2,3,70,0,0
203933,-100,4,2,3,70,0,0
204008,-100,4,2,3,70,0,0
205133,-100,4,2,3,70,0,0
205208,-100,4,2,3,70,0,0
205283,-100,4,2,3,70,0,0
205358,-100,4,2,3,70,0,0
205583,-100,4,2,3,70,0,0
205658,-100,4,2,3,70,0,0
206333,-100,4,2,3,70,0,0
206408,-100,4,2,3,70,0,0
208133,-100,4,2,3,70,0,0
208208,-100,4,2,3,70,0,0
208733,-100,4,2,3,70,0,0
208808,-100,4,2,3,70,0,0
210083,-100,4,2,3,70,0,0
210158,-100,4,2,3,70,0,0
211133,-100,4,2,3,70,0,0
211208,-100,4,2,3,70,0,0
213233,-100,4,2,3,70,0,0
213308,-100,4,2,3,70,0,0
213383,-100,4,2,3,70,0,0
213758,-100,4,2,3,70,0,0
213908,-100,4,2,3,70,0,0
216983,-100,4,2,3,70,0,0
217058,-100,4,2,3,70,0,0
230258,-100,4,2,3,70,0,0
230408,-100,4,2,3,70,0,0
230558,-100,4,2,3,70,0,0
230708,-100,4,2,3,70,0,0
230858,-100,4,2,3,70,0,0
231458,-100,4,2,3,40,0,0
248743,526.315789473684,4,2,3,10,1,0
248874,555.555555555556,4,2,3,10,1,0
249012,659.340659340659,4,2,3,10,1,0
249176,615.384615384615,4,2,3,10,1,0
249252,300,4,2,3,5,1,0
255458,-100,4,2,3,5,0,0

[Colours]
Combo1 : 191,191,191
Combo2 : 204,165,248
Combo3 : 133,84,152
Combo4 : 142,198,204

[HitObjects]
112,100,10658,5,2,0:0:0:0:
300,173,11558,2,0,L|386:184,2,75.000002861023
273,259,12458,1,0,0:0:0:0:
95,231,13058,1,2,0:0:0:0:
417,96,14258,5,2,0:0:0:0:
403,230,14708,1,0,0:0:0:0:
388,364,15158,1,0,0:0:0:0:
299,348,15458,1,2,0:0:0:0:
256,192,16658,12,2,17858,0:0:0:0:
169,131,18758,6,0,L|77:138,2,75.000002861023
258,121,19658,1,0,0:0:0:0:
436,106,20258,1,2,0:0:0:0:
140,310,21458,5,0,0:0:0:0:
112,224,21758,1,8,0:0:0:0:
286,268,22358,1,0,0:0:0:0:
255,352,22658,1,2,0:0:0:0:
28,72,23858,5,0,0:0:0:0:
162,60,24308,1,0,0:0:0:0:
296,50,24758,1,0,0:0:0:0:
310,138,25058,1,2,0:0:0:0:
256,192,25358,12,2,27458,0:0:0:0:
103,270,29558,5,0,0:0:0:0:
191,249,29858,2,0,L|207:142,1,100,4|0,0:3|3:0,0:0:0:0:
384,124,30758,1,0,0:0:0:0:
433,199,31058,2,0,P|372:229|353:361,1,200,0|0,0:0|1:0,0:0:0:0:
168,335,32258,6,0,B|144:205|144:205|68:180,1,200,2|0,0:0|0:0,0:0:0:0:
104,97,33158,1,0,0:0:0:0:
189,124,33458,1,0,0:0:0:0:
353,46,34058,1,0,0:0:0:0:
476,177,34658,5,0,3:0:0:0:
394,214,34958,2,0,L|383:280,1,50,0|0,1:0|0:0,0:0:0:0:
153,375,35858,5,0,0:0:0:0:
101,299,36158,2,0,L|79:243,1,50,8|0,0:0|0:0,0:0:0:0:
128,79,37058,6,0,L|184:220,1,150
295,142,37958,1,0,0:0:0:0:
392,235,38408,1,0,1:0:0:0:
307,340,38858,2,0,L|202:348,2,100,2|0|0,0:0|0:0|0:0,0:0:0:0:
20,226,40358,5,0,0:0:0:0:
103,190,40658,2,0,B|203:151|165:228|308:187,1,200,0|2,0:0|0:0,0:0:0:0:
305,100,41558,1,0,3:0:0:0:
391,76,41858,1,0,0:0:0:0:
328,336,43058,5,0,3:0:0:0:
200,293,43508,1,0,0:0:0:0:
324,239,43958,1,0,3:0:0:0:
245,194,44258,2,0,B|147:160|163:232|41:191,1,200,0|0,3:0|0:0,0:0:0:0:
208,205,46058,5,2,0:0:0:0:
414,325,46658,2,0,B|448:302|472:258|472:258|432:223|359:213|309:228|309:228|266:314|136:329|83:271|83:271|93:212|128:166|183:141|243:155|243:155|229:186|209:200,1,800,2|8,0:0|0:3,0:0:0:0:
114,210,51458,5,4,1:0:0:0:
205,208,51758,2,0,B|236:84|236:84|318:63,1,200,8|8,0:1|0:1,0:0:0:0:
308,156,52658,1,0,3:0:0:0:
395,177,52958,1,8,0:1:0:0:
452,347,53558,1,8,0:1:0:0:
360,344,53858,5,0,3:0:0:0:
276,310,54158,2,0,B|155:300|194:355|73:340,1,200,8|8,0:1|0:1,0:0:0:0:
32,265,55058,1,0,1:0:0:0:
124,110,55658,5,0,3:0:0:0:
195,164,55958,1,8,0:1:0:0:
276,125,56258,2,0,P|304:71|400:61,1,150,4|2,1:3|0:0,0:0:0:0:
488,143,57158,1,8,0:1:0:0:
420,202,57458,2,0,L|407:361,1,150,2|0,1:2|0:0,0:0:0:0:
272,347,58358,1,8,0:1:0:0:
247,260,58658,2,0,P|215:185|17:182,1,300,0|8,1:0|0:1,0:0:0:0:
59,259,59858,1,4,1:3:0:0:
207,353,60458,5,0,3:0:0:0:
207,353,60608,1,0,3:0:0:0:
298,366,60908,1,2,0:0:0:0:
298,366,61058,5,4,1:0:0:0:
319,278,61358,2,0,P|349:193|460:155,1,200,8|8,0:1|0:1,0:0:0:0:
481,70,62258,2,0,L|327:52,1,150,0|0,3:0|3:0,0:0:0:0:
244,168,63158,1,8,0:1:0:0:
200,87,63458,2,0,L|87:75,1,100,0|8,3:0|0:1,0:0:0:0:
30,191,64208,5,0,1:0:0:0:
30,191,64358,1,8,0:1:0:0:
30,191,64508,1,2,0:0:0:0:
142,265,64958,2,0,L|201:257,1,50,8|2,0:1|0:0,0:0:0:0:
270,301,65408,2,0,L|324:293,1,50,2|8,0:0|0:1,0:0:0:0:
408,283,65858,5,4,1:2:0:0:
465,112,66458,1,4,1:2:0:0:
346,176,66908,1,0,0:0:0:0:
346,176,67058,2,0,L|178:158,1,150,0|2,1:0|0:0,0:0:0:0:
108,145,67808,1,0,3:0:0:0:
19,130,68108,1,8,0:3:0:0:
256,192,68408,12,0,70058,0:0:0:0:
346,97,70658,5,4,1:0:0:0:
264,135,70958,1,8,0:0:0:0:
264,135,71108,1,0,3:0:0:0:
161,47,71558,5,2,0:0:0:0:
26,47,72008,1,2,0:0:0:0:
28,181,72458,1,8,3:2:0:0:
206,206,73058,5,0,1:0:0:0:
249,333,73508,1,0,1:0:0:0:
308,265,73808,1,0,1:0:0:0:
308,265,73958,5,2,0:0:0:0:
373,146,74408,1,2,0:0:0:0:
495,202,74858,1,8,0:0:0:0:
448,364,75458,5,0,1:0:0:0:
358,362,75758,1,8,0:0:0:0:
358,362,75908,1,0,1:0:0:0:
298,240,76358,5,2,0:0:0:0:
164,221,76808,1,2,3:0:0:0:
30,198,77258,1,2,0:0:0:0:
158,71,77858,5,0,1:0:0:0:
283,120,78308,1,0,1:0:0:0:
363,79,78608,1,0,1:0:0:0:
363,79,78758,5,2,0:0:0:0:
477,149,79208,1,2,0:0:0:0:
412,267,79658,1,2,3:0:0:0:
241,317,80258,6,0,L|123:297,1,100,4|8,1:0|0:0,0:0:0:0:
142,300,80708,1,2,0:0:0:0:
40,212,81158,2,0,L|147:193,1,100,8|0,0:0|1:0,0:0:0:0:
227,181,81758,1,8,0:0:0:0:
358,57,82358,1,8,0:0:0:0:
438,97,82658,6,0,L|449:216,1,100,0|8,3:0|0:1,0:0:0:0:
447,196,83108,1,2,0:0:0:0:
328,261,83558,1,8,0:0:0:0:
251,214,83858,2,0,P|196:193|113:234,1,150,0|2,1:0|0:0,0:0:0:0:
18,136,84758,1,8,0:0:0:0:
56,54,85058,6,0,L|215:46,1,150,0|0,1:0|0:0,0:0:0:0:
259,118,85808,1,2,0:0:0:0:
348,109,86108,1,0,3:0:0:0:
481,229,86708,1,2,0:0:0:0:
391,229,87008,1,2,0:0:0:0:
293,322,87458,6,0,L|175:299,1,100,0|8,1:0|0:1,0:0:0:0:
194,302,87908,1,0,0:0:0:0:
87,221,88358,2,0,L|203:203,1,100,8|0,0:0|3:0,0:0:0:0:
275,192,88958,1,8,0:0:0:0:
419,84,89558,1,8,0:0:0:0:
336,47,89858,6,0,L|232:57,1,100,4|8,1:2|0:0,0:0:0:0:
236,56,90308,1,2,0:0:0:0:
130,139,90758,2,0,P|200:156|234:286,1,200,8|8,0:0|0:0,0:0:0:0:
77,341,91958,1,8,0:0:0:0:
26,266,92258,6,0,L|23:165,1,100,0|8,3:0|0:1,0:0:0:0:
23,166,92708,1,2,0:0:0:0:
130,84,93158,1,8,0:0:0:0:
207,129,93458,2,0,L|225:297,1,150,0|2,1:0|0:0,0:0:0:0:
329,361,94358,5,8,0:0:0:0:
369,282,94658,2,0,B|317:237|231:254|273:289|185:326|83:270,1,300,0|8,1:0|0:0,0:0:0:0:
24,102,96158,1,8,0:0:0:0:
196,51,96758,1,8,0:0:0:0:
260,114,97058,2,0,B|379:77|330:137|455:109,1,200,0|0,1:0|1:0,0:0:0:0:
493,202,97958,2,0,P|413:220|368:333,1,200,8|8,0:0|0:0,0:0:0:0:
180,350,99158,1,8,0:0:0:0:
136,271,99458,6,0,L|139:161,2,100,12|0|8,1:3|1:0|0:0,0:0:0:0:
349,340,100808,1,0,3:0:0:0:
338,250,101108,2,0,L|333:194,2,50,0|0|2,3:0|1:0|0:0,0:0:0:0:
217,190,101858,6,0,L|227:73,2,100,0|0|8,1:0|3:0|0:0,0:0:0:0:
1,253,103208,1,0,3:0:0:0:
12,163,103508,2,0,L|17:107,2,50,0|8|2,3:0|0:0|0:0,0:0:0:0:
111,254,104258,6,0,L|215:261,2,100,0|0|8,1:0|1:0|0:0,0:0:0:0:
268,165,105458,6,0,P|311:154|349:147,1,66.6666666666667,2|0,0:0|0:0,0:0:0:0:
392,155,105858,1,0,0:0:0:0:
449,172,106058,1,0,1:0:0:0:
365,331,106658,6,0,L|215:305,1,150,0|0,1:0|0:0,0:0:0:0:
95,247,107558,1,0,3:0:0:0:
198,160,108008,2,0,P|247:155|304:234,1,150,0|8,3:0|0:0,0:0:0:0:
387,192,108758,1,0,3:0:0:0:
397,102,109058,2,0,B|413:71|413:71|475:40,2,100,0|0|8,1:0|1:0|0:0,0:0:0:0:
174,130,110408,5,0,3:0:0:0:
149,216,110708,2,0,L|158:282,2,50,0|0|2,3:0|1:0|0:0,0:0:0:0:
275,167,111458,2,0,L|261:279,2,100,0|0|8,1:0|3:0|0:0,0:0:0:0:
427,71,112658,5,0,1:0:0:0:
502,182,113108,1,0,3:0:0:0:
409,280,113558,1,0,3:0:0:0:
470,346,113858,2,0,L|260:332,1,200,0|8,1:0|0:0,0:0:0:0:
37,223,115358,5,0,0:0:0:0:
104,162,115658,1,0,1:0:0:0:
145,241,115958,1,8,0:0:0:0:
81,305,116258,2,0,B|157:233|326:155|468:208|468:208|416:293|299:373|134:369,1,800,2|8,0:0|0:3,0:0:0:0:
114,109,120458,5,0,3:0:0:0:
114,109,120608,1,0,3:0:0:0:
197,142,120908,1,0,3:0:0:0:
197,142,121058,2,0,L|208:298,1,150,4|0,1:0|0:0,0:0:0:0:
322,362,121958,1,8,0:1:0:0:
322,362,122108,1,0,1:0:0:0:
412,261,122558,2,0,L|427:160,1,100,8|0,0:1|1:0,0:0:0:0:
352,111,123158,2,0,L|346:51,2,50,8|0|0,0:1|1:0|3:0,0:0:0:0:
82,106,124208,5,0,1:0:0:0:
82,106,124358,1,8,0:1:0:0:
82,106,124508,1,2,0:0:0:0:
183,306,125258,6,0,L|203:200,1,100,0|8,3:0|0:1,0:0:0:0:
222,120,125858,1,4,1:3:0:0:
241,32,126158,1,8,0:1:0:0:
241,32,126308,1,2,0:0:0:0:
357,100,126758,1,8,0:1:0:0:
357,100,126908,2,0,B|323:190|390:159|354:262,1,150,2|8,0:0|0:1,0:0:0:0:
359,244,127508,1,2,0:0:0:0:
254,329,127958,1,8,0:1:0:0:
168,301,128258,6,0,L|161:190,1,100,0|8,1:0|0:1,0:0:0:0:
150,111,128858,1,0,3:0:0:0:
150,111,129008,1,0,3:0:0:0:
269,49,129458,2,0,P|310:86|432:35,1,200,4|0,1:3|3:0,0:0:0:0:
430,39,130208,1,0,3:0:0:0:
493,157,130658,6,0,L|485:272,1,100,4|8,1:0|0:1,0:0:0:0:
486,256,131108,1,2,0:0:0:0:
360,306,131558,1,8,0:1:0:0:
290,246,131858,2,0,L|180:241,1,100,0|8,3:0|0:1,0:0:0:0:
106,208,132458,1,0,1:0:0:0:
106,208,132608,1,2,0:0:0:0:
150,129,132908,1,0,1:0:0:0:
150,129,133058,6,0,P|179:95|240:91,1,100,0|8,3:0|0:1,0:0:0:0:
345,160,133808,1,0,1:0:0:0:
345,160,133958,1,8,0:1:0:0:
345,160,134108,1,2,0:0:0:0:
346,294,134558,1,8,0:1:0:0:
346,294,134708,1,2,0:0:0:0:
481,294,135158,1,8,0:1:0:0:
480,204,135458,6,0,L|480:148,2,50,4|0|0,1:2|0:0|0:0,0:0:0:0:
317,48,136508,1,4,1:2:0:0:
171,153,137108,1,0,1:0:0:0:
149,240,137408,1,0,3:0:0:0:
126,327,137708,1,0,3:0:0:0:
126,327,137858,6,0,B|65:317|65:317|27:283,1,100,4|8,1:0|0:1,0:0:0:0:
36,291,138308,1,2,0:0:0:0:
29,156,138758,2,0,L|18:40,1,100,8|0,0:1|1:0,0:0:0:0:
152,80,139508,1,2,0:0:0:0:
165,168,139808,1,0,1:0:0:0:
271,251,140258,6,0,L|287:369,1,100,0|8,1:0|0:1,0:0:0:0:
390,205,141158,1,8,0:1:0:0:
390,115,141458,2,0,P|337:71|208:81,1,200,0|0,1:0|1:0,0:0:0:0:
44,143,142658,5,0,1:0:0:0:
255,220,143408,1,0,3:0:0:0:
255,220,143558,1,8,0:1:0:0:
272,308,143858,1,0,1:0:0:0:
272,308,144008,1,2,0:0:0:0:
406,316,144458,1,0,1:0:0:0:
424,164,145058,5,0,1:0:0:0:
355,105,145358,1,8,0:1:0:0:
355,105,145508,1,2,0:0:0:0:
431,1,145958,1,8,0:1:0:0:
485,64,146258,5,0,1:0:0:0:
309,21,146858,1,0,3:0:0:0:
151,110,147458,2,0,L|130:211,1,100,4|8,1:0|0:1,0:0:0:0:
100,339,148208,1,0,1:0:0:0:
100,339,148358,1,8,0:1:0:0:
188,320,148658,2,0,L|294:304,1,100,0|8,1:0|0:1,0:0:0:0:
286,305,149108,1,2,0:0:0:0:
375,289,149408,1,0,1:0:0:0:
462,197,149858,6,0,L|479:96,1,100,0|8,1:0|0:1,0:0:0:0:
306,46,150758,2,0,L|313:164,1,100,8|0,0:1|1:0,0:0:0:0:
234,192,151358,1,8,0:1:0:0:
234,192,151508,2,0,P|205:153|96:150,1,150,2|8,0:0|0:1,0:0:0:0:
38,197,152258,6,0,P|75:246|83:261,1,66.6666666666667,4|4,1:2|1:2,0:0:0:0:
82,310,152658,1,4,1:2:0:0:
57,364,152858,1,4,1:2:0:0:
230,316,153458,6,0,L|296:309,1,50,0|8,1:0|0:1,0:0:0:0:
368,294,153908,1,8,0:0:0:0:
456,276,154208,1,2,0:0:0:0:
437,187,154508,1,2,0:0:0:0:
256,192,154658,12,2,155858,0:0:0:0:
255,191,176258,5,8,0:3:0:0:
157,150,180458,5,0,3:0:0:0:
157,150,180608,1,0,3:0:0:0:
238,110,180908,1,0,3:0:0:0:
238,110,181058,2,0,L|341:101,1,100,4|8,1:0|0:1,0:0:0:0:
473,180,181958,2,0,P|438:204|419:267,1,100,8|0,0:1|3:0,0:0:0:0:
342,305,182558,2,0,P|317:246|190:225,1,200,8|8,0:1|0:1,0:0:0:0:
115,267,183458,1,0,3:0:0:0:
101,87,184208,5,0,1:0:0:0:
101,87,184358,1,8,0:1:0:0:
189,68,184658,1,0,1:0:0:0:
368,75,185258,5,0,3:0:0:0:
325,154,185558,1,8,0:1:0:0:
383,222,185858,2,0,L|396:332,1,100,4|8,1:3|0:1,0:0:0:0:
394,321,186308,1,2,0:0:0:0:
261,343,186758,1,8,0:1:0:0:
261,343,186908,2,0,L|251:233,1,100,2|2,0:0|0:0,0:0:0:0:
161,242,187508,2,0,L|141:130,1,100,2|2,0:0|0:0,0:0:0:0:
143,143,187958,1,8,0:1:0:0:
198,72,188258,2,0,P|248:103|460:38,1,300,0|8,1:0|0:1,0:0:0:0:
511,111,189458,1,4,1:3:0:0:
371,224,190058,5,0,3:0:0:0:
371,224,190208,1,0,3:0:0:0:
287,257,190508,1,2,0:0:0:0:
287,257,190658,2,0,L|167:245,1,100,4|8,1:0|0:1,0:0:0:0:
16,191,191558,1,8,0:1:0:0:
16,191,191708,1,0,1:0:0:0:
33,57,192158,2,0,L|139:45,1,100,8|0,0:1|1:0,0:0:0:0:
221,30,192758,1,8,0:1:0:0:
262,109,193058,1,0,3:0:0:0:
470,193,193808,5,0,1:0:0:0:
470,193,193958,1,8,0:1:0:0:
390,235,194258,1,0,1:0:0:0:
312,280,194558,1,8,0:1:0:0:
312,280,194708,1,2,0:0:0:0:
98,207,195458,6,0,L|160:196,2,50,4|0|0,1:2|0:0|0:0,0:0:0:0:
282,78,196508,1,4,1:0:0:0:
331,251,197108,1,8,0:1:0:0:
411,211,197408,1,0,3:0:0:0:
492,173,197708,1,0,1:0:0:0:
468,40,198158,6,0,P|410:26|318:57,1,150,0|8,1:0|0:0,0:0:0:0:
210,122,199058,2,0,L|198:271,1,150,0|4,1:0|1:2,0:0:0:0:
117,312,199808,1,4,1:2:0:0:
44,258,200108,1,4,1:2:0:0:
54,123,200558,5,8,0:1:0:0:
221,56,201158,2,0,L|247:171,1,100,8|0,0:1|1:0,0:0:0:0:
331,169,201758,2,0,P|276:181|225:305,1,200,8|8,0:1|0:1,0:0:0:0:
304,344,202658,1,4,1:3:0:0:
463,160,203558,1,8,0:1:0:0:
445,71,203858,6,0,L|332:67,1,100,2|8,1:2|0:1,0:0:0:0:
345,67,204308,1,2,0:0:0:0:
220,119,204758,1,8,0:1:0:0:
136,85,205058,1,0,1:0:0:0:
42,182,205508,2,0,P|90:195|119:294,1,150,2|8,0:0|0:1,0:0:0:0:
203,323,206258,1,4,1:3:0:0:
349,218,206858,5,0,3:0:0:0:
349,218,207008,1,0,3:0:0:0:
373,131,207308,1,2,0:0:0:0:
373,131,207458,2,0,L|212:107,1,150,4|0,1:0|0:0,0:0:0:0:
123,19,208358,1,8,0:1:0:0:
58,81,208658,1,0,3:0:0:0:
131,132,208958,6,0,P|159:174|74:281,1,200,8|8,0:1|0:1,0:0:0:0:
130,358,209858,2,0,L|235:344,1,100,0|8,3:0|0:1,0:0:0:0:
359,311,210608,5,0,1:0:0:0:
359,311,210758,1,8,0:1:0:0:
359,311,210908,1,2,0:0:0:0:
431,196,211358,1,8,0:1:0:0:
431,196,211508,1,2,0:0:0:0:
325,111,211958,1,8,0:1:0:0:
250,162,212258,6,0,L|182:156,1,50,4|0,1:2|0:0,0:0:0:0:
23,362,213308,1,4,1:2:0:0:
198,321,213908,1,8,0:1:0:0:
120,265,214208,1,0,1:0:0:0:
47,212,214508,1,8,0:1:0:0:
47,212,214658,6,0,P|42:133|104:91,1,150,4|2,1:0|0:0,0:0:0:0:
212,28,215558,1,8,0:1:0:0:
285,80,215858,1,0,1:0:0:0:
310,166,216158,1,8,0:1:0:0:
310,166,216308,1,2,0:0:0:0:
240,276,216758,1,8,0:1:0:0:
312,328,217058,6,0,L|419:314,1,100,0|8,1:0|0:1,0:0:0:0:
488,203,217808,1,0,0:0:0:0:
488,203,217958,1,8,0:1:0:0:
398,199,218258,1,0,1:0:0:0:
259,83,218858,1,0,1:0:0:0:
92,151,219458,6,0,P|130:172|139:232,1,100,0|8,1:0|0:1,0:0:0:0:
113,309,220058,1,0,0:0:0:0:
291,260,220658,2,0,P|341:210|388:203,1,100,0|8,1:0|0:1,0:0:0:0:
457,207,221258,1,0,1:0:0:0:
315,81,221858,2,0,B|160:25|209:160|22:60,1,300,0|8,1:0|0:1,0:0:0:0:
13,152,223058,5,0,1:0:0:0:
100,309,223658,1,0,3:0:0:0:
170,193,224108,1,2,0:0:0:0:
170,193,224258,1,4,1:0:0:0:
259,198,224558,2,0,L|416:176,1,150,8|0,0:1|1:0,0:0:0:0:
464,55,225458,2,0,L|353:47,1,100,0|8,1:0|0:1,0:0:0:0:
364,47,225908,1,2,0:0:0:0:
231,21,226358,1,8,0:1:0:0:
160,77,226658,5,0,1:0:0:0:
205,154,226958,2,0,L|216:315,1,150,8|0,0:1|0:0,0:0:0:0:
337,360,227858,2,0,L|350:249,1,100,0|8,1:0|0:1,0:0:0:0:
348,260,228308,1,2,0:0:0:0:
467,196,228758,1,8,0:1:0:0:
482,107,229058,1,0,1:0:0:0:
153,109,230108,5,4,1:3:0:0:
249,260,230708,5,8,0:0:0:0:
159,273,231008,1,2,3:0:0:0:
159,273,231158,1,0,3:0:0:0:
69,283,231458,1,4,1:0:0:0:
