osu file format v14

[General]
AudioFilename: Ether.mp3
AudioLeadIn: 0
PreviewTime: 50750
Countdown: 0
SampleSet: Soft
StackLeniency: 0.2
Mode: 0
LetterboxInBreaks: 0
EpilepsyWarning: 1
WidescreenStoryboard: 1

[Editor]
Bookmarks: 70658,99458,118658,157058,162383,162908,163508,166658,197858,217058,231458
DistanceSpacing: 0.4
BeatDivisor: 4
GridSize: 16
TimelineZoom: 2.5

[Metadata]
Title:Ether
TitleUnicode:エーテル
Artist:Feryquitous feat. Aitsuki Nakuru
ArtistUnicode:Feryquitous feat. 藍月なくる
Creator:Acyl
Version:Kalibe x toybot's Expert
Source:
Tags:『JelLaboratory』 c95 female vocal japanese doujin pop artcore -tochi j1_ how2miss otosaka-yu necho reincarnation suzuki_1112 moecho neilperry sing toybot kalibe lit120 lami lmt firika fanzhen0019 skystar yusomi amamiya yuko _epreus bbj0920 len fast kawashiro heilia cococolaco 藍月なくる aitsuki nakuru _todestrieb coco
BeatmapID:1947618
BeatmapSetID:902425

[Difficulty]
HPDrainRate:6
CircleSize:4.5
OverallDifficulty:8.5
ApproachRate:9.5
SliderMultiplier:1.7
SliderTickRate:1

[Events]
//Background and Video events
0,0,"background.jpg",0,0
//Break Periods
2,157258,166133
2,176457,179483
//Storyboard Layer 0 (Background)
Sprite,Background,Centre,"background.jpg",320,240 F,0,0,,0
Sprite,Background,Centre,"sb\blank.jpg",0,0 F,0,-4025,-3682,0,1 F,0,-3682,-253,1 F,0,-253,3,1,0 M,0,3,,320,240 S,0,3,,0.6493149
Sprite,Background,Centre,"sb\tochi.png",320,240 S,0,-3532,,0.6 F,0,-3532,-3187,0,1 F,0,-3187,-596,1,0.9893727 F,0,-596,-253,0.9893727,0
Sprite,Background,Centre,"sb\bgblurbw.jpg",0,0 F,2,1058,10658,0,0.6487671 M,0,1058,50258,320,-18.8055,320,240 S,0,1058,50258,0.9298632,0.5160549 F,0,10658,49058,0.6487671 F,0,49058,50258,0.6487671,0
Sprite,Background,Centre,"sb\bgblur.jpg",320,240 S,0,51458,,0.5160547 F,0,51458,70658,1 F,0,70658,70958,1,0
Sprite,Background,Centre,"sb\blank.jpg",320,240 S,0,49058,,0.537096 F,0,49058,50258,0,1 F,0,50258,51458,1 F,0,51458,51758,1,0
Sprite,Background,Centre,"sb\blank.jpg",320,240 S,0,70658,,0.5230685 F,0,70658,70958,0,1 F,0,70958,80258,1,0.9966667 F,0,80258,80408,0.9966667,0
Sprite,Background,Centre,"sb\bgblurbw.jpg",320,240 S,0,80258,,0.5300821 F,0,80258,80408,0,1 F,0,80408,118658,1,0.9866667 F,0,118658,119258,0.9866667,0.2384657 F,0,119258,121058,0.2384657,0.2459477 F,0,121058,121358,0.2459477,0
Sprite,Background,Centre,"sb\bgblur.jpg",320,240 F,0,121058,137858,1 S,0,121058,137858,0.5160547,0.5230685 F,0,137858,138158,1,0
Sprite,Background,Centre,"background.jpg",320,240 S,0,137858,,0.5230684 F,0,137858,138158,0,1 F,0,138158,156758,1,0.9866667 F,0,156758,157358,0.9866667,0
Sprite,Background,Centre,"sb\bgblur.jpg",320,240 S,0,181058,,0.5160547 F,0,181058,214658,1 F,0,214658,214958,1,0
Sprite,Background,Centre,"sb\bgblurbw.jpg",0,0 S,0,156758,,0.6493151 P,0,156758,,V F,0,156758,157358,0,1 M,0,156758,179858,200.0658,240,384.526,240 F,0,157358,175058,1 F,0,175058,176258,1,0.2565479 F,0,176258,181058,0.2565479
Sprite,Background,Centre,"background.jpg",320,240 S,0,214658,,0.5160549 F,0,214658,214958,0,1 F,0,214958,231458,1 F,0,231458,232658,1,0
Sprite,Background,Centre,"sb\bgblurbw.jpg",0,0 P,0,231458,,H F,0,231458,232658,0,1 M,2,231458,255458,457.4685,148.8219,-109.9397,549.3041 S,0,231458,255458,0.6984109,1.140274 R,0,231458,255458,-0.01402771,-0.2665204 F,0,232658,249308,1 F,0,249308,255458,1,0
Sprite,Background,Centre,"sb\blank.jpg",0,0 F,0,51308,51458,0,0.5 M,0,51458,,320,240 F,0,51458,51758,0.5,0.1 V,1,51458,51758,0.42,0.51,0.4,0.05 R,0,51458,70658,0.08416412,-0.1402744 P,0,51758,,A F,0,51758,70658,0.1 F,0,70658,70958,0.1,0
Sprite,Background,Centre,"sb\blank.jpg",0,0 F,0,120608,120758,0,0.5 M,0,120758,,320,240 F,0,120758,121058,0.5,0.1 V,1,120758,121058,0.42,0.51,0.4,0.05 R,0,120758,157058,-0.1402744,0.08416412 P,0,121058,,A F,0,121058,157058,0.1 F,0,157058,157358,0.1,0
Sprite,Background,Centre,"sb\blank.jpg",0,0 F,0,180458,180608,0,0.5 M,0,180608,,320,240 F,0,180608,180908,0.5,0.1 V,1,180608,180908,0.42,0.51,0.4,0.05 R,0,180608,231458,0.08416412,-0.1402744 P,0,180908,,A F,0,180908,231458,0.1 F,0,231458,231758,0.1,0
Sprite,Background,Centre,"sb\ring.png",0,0 M,0,51458,,532,172 C,0,51458,,255,255,255 F,1,51458,53758,0.9,0 S,1,51458,53758,0.25,0.5
Sprite,Background,Centre,"sb\ring.png",0,0 M,0,51908,,192,115 C,0,51908,,255,255,255 F,1,51908,54132,0.9,0 S,1,51908,54132,0.25,0.5
Sprite,Background,Centre,"sb\ring.png",0,0 M,0,52208,,298,139 C,0,52208,,255,255,255 F,1,52208,54208,0.9,0 S,1,52208,54208,0.25,0.5
Sprite,Background,Centre,"sb\ring.png",0,0 M,0,52358,,142,331 C,0,52358,,255,255,255 F,1,52358,54358,0.9,0 S,1,52358,54358,0.25,0.5
Sprite,Background,Centre,"sb\ring.png",0,0 M,0,52508,,225,192 C,0,52508,,255,255,255 F,1,52508,54657,0.9,0 S,1,52508,54657,0.25,0.5
Sprite,Background,Centre,"sb\ring.png",0,0 M,0,52808,,201,417 C,0,52808,,255,255,255 F,1,52808,54957,0.9,0 S,1,52808,54957,0.25,0.5
Sprite,Background,Centre,"sb\ring.png",0,0 M,0,53108,,389,258 C,0,53108,,255,255,255 F,1,53108,55407,0.9,0 S,1,53108,55407,0.25,0.5
Sprite,Background,Centre,"sb\ring.png",0,0 M,0,53558,,357,436 C,0,53558,,255,255,255 F,1,53558,55558,0.9,0 S,1,53558,55558,0.25,0.5
Sprite,Background,Centre,"sb\ring.png",0,0 M,0,53708,,546,264 C,0,53708,,255,255,255 F,1,53708,55708,0.9,0 S,1,53708,55708,0.25,0.5
Sprite,Background,Centre,"sb\ring.png",0,0 M,0,53858,,576,401 C,0,53858,,255,255,255 F,1,53858,56007,0.9,0 S,1,53858,56007,0.25,0.5
Sprite,Background,Centre,"sb\ring.png",0,0 M,0,54083,,422,326 C,0,54083,,255,255,255 F,1,54083,56083,0.9,0 S,1,54083,56083,0.25,0.5
Sprite,Background,Centre,"sb\ring.png",0,0 M,0,54158,,416,344 C,0,54158,,255,255,255 F,1,54158,56158,0.9,0 S,1,54158,56158,0.25,0.5
Sprite,Background,Centre,"sb\ring.png",0,0 M,0,54308,,362,187 C,0,54308,,255,255,255 F,1,54308,56308,0.9,0 S,1,54308,56308,0.25,0.5
Sprite,Background,Centre,"sb\ring.png",0,0 M,0,54458,,268,295 C,0,54458,,255,255,255 F,1,54458,56458,0.9,0 S,1,54458,56458,0.25,0.5
Sprite,Background,Centre,"sb\ring.png",0,0 M,0,54608,,468,205 C,0,54608,,255,255,255 F,1,54608,56757,0.9,0 S,1,54608,56757,0.25,0.5
Sprite,Background,Centre,"sb\ring.png",0,0 M,0,54908,,338,74 C,0,54908,,255,255,255 F,1,54908,57132,0.9,0 S,1,54908,57132,0.25,0.5
Sprite,Background,Centre,"sb\ring.png",0,0 M,0,55208,,263,172 C,0,55208,,255,255,255 F,1,55208,57208,0.9,0 S,1,55208,57208,0.25,0.5
Sprite,Background,Centre,"sb\ring.png",0,0 M,0,55358,,493,124 C,0,55358,,255,255,255 F,1,55358,57358,0.9,0 S,1,55358,57358,0.25,0.5
Sprite,Background,Centre,"sb\ring.png",0,0 M,0,55508,,357,266 C,0,55508,,255,255,255 F,1,55508,57657,0.9,0 S,1,55508,57657,0.25,0.5
Sprite,Background,Centre,"sb\ring.png",0,0 M,0,55808,,493,124 C,0,55808,,255,255,255 F,1,55808,57808,0.9,0 S,1,55808,57808,0.25,0.5
Sprite,Background,Centre,"sb\ring.png",0,0 M,0,55883,,487,114 C,0,55883,,255,255,255 F,1,55883,57883,0.9,0 S,1,55883,57883,0.25,0.5
Sprite,Background,Centre,"sb\ring.png",0,0 M,0,55958,,476,104 C,0,55958,,255,255,255 F,1,55958,58032,0.9,0 S,1,55958,58032,0.25,0.5
Sprite,Background,Centre,"sb\ring.png",0,0 M,0,56108,,565,212 C,0,56108,,255,255,255 F,1,56108,58182,0.9,0 S,1,56108,58182,0.25,0.5
Sprite,Background,Centre,"sb\ring.png",0,0 M,0,56258,,379,210 C,0,56258,,255,255,255 F,1,56258,58482,0.9,0 S,1,56258,58482,0.25,0.5
Sprite,Background,Centre,"sb\ring.png",0,0 M,0,56558,,522,287 C,0,56558,,255,255,255 F,1,56558,58558,0.9,0 S,1,56558,58558,0.25,0.5
Sprite,Background,Centre,"sb\ring.png",0,0 M,0,56708,,382,353 C,0,56708,,255,255,255 F,1,56708,59007,0.9,0 S,1,56708,59007,0.25,0.5
Sprite,Background,Centre,"sb\ring.png",0,0 M,0,57158,,278,251 C,0,57158,,255,255,255 F,1,57158,59158,0.9,0 S,1,57158,59158,0.25,0.5
Sprite,Background,Centre,"sb\ring.png",0,0 M,0,57308,,137,325 C,0,57308,,255,255,255 F,1,57308,59457,0.9,0 S,1,57308,59457,0.25,0.5
Sprite,Background,Centre,"sb\ring.png",0,0 M,0,57608,,210,354 C,0,57608,,255,255,255 F,1,57608,59608,0.9,0 S,1,57608,59608,0.25,0.5
Sprite,Background,Centre,"sb\ring.png",0,0 M,0,57758,,137,168 C,0,57758,,255,255,255 F,1,57758,59758,0.9,0 S,1,57758,59758,0.25,0.5
Sprite,Background,Centre,"sb\ring.png",0,0 M,0,57908,,82,224 C,0,57908,,255,255,255 F,1,57908,60132,0.9,0 S,1,57908,60132,0.25,0.5
Sprite,Background,Centre,"sb\ring.png",0,0 M,0,58208,,215,136 C,0,58208,,255,255,255 F,1,58208,60208,0.9,0 S,1,58208,60208,0.25,0.5
Sprite,Background,Centre,"sb\ring.png",0,0 M,0,58358,,395,181 C,0,58358,,255,255,255 F,1,58358,60358,0.9,0 S,1,58358,60358,0.25,0.5
Sprite,Background,Centre,"sb\ring.png",0,0 M,0,58508,,206,285 C,0,58508,,255,255,255 F,1,58508,60508,0.9,0 S,1,58508,60508,0.25,0.5
Sprite,Background,Centre,"sb\ring.png",0,0 M,0,58658,,394,291 C,0,58658,,255,255,255 F,1,58658,60882,0.9,0 S,1,58658,60882,0.25,0.5
Sprite,Background,Centre,"sb\ring.png",0,0 M,0,58958,,191,299 C,0,58958,,255,255,255 F,1,58958,61257,0.9,0 S,1,58958,61257,0.25,0.5
Sprite,Background,Centre,"sb\ring.png",0,0 M,0,59408,,259,67 C,0,59408,,255,255,255 F,1,59408,61557,0.9,0 S,1,59408,61557,0.25,0.5
Sprite,Background,Centre,"sb\ring.png",0,0 M,0,59708,,219,129 C,0,59708,,255,255,255 F,1,59708,61708,0.9,0 S,1,59708,61708,0.25,0.5
Sprite,Background,Centre,"sb\ring.png",0,0 M,0,59858,,373,65 C,0,59858,,255,255,255 F,1,59858,61858,0.9,0 S,1,59858,61858,0.25,0.5
Sprite,Background,Centre,"sb\ring.png",0,0 M,0,60008,,399,137 C,0,60008,,255,255,255 F,1,60008,62008,0.9,0 S,1,60008,62008,0.25,0.5
Sprite,Background,Centre,"sb\ring.png",0,0 M,0,60158,,259,67 C,0,60158,,255,255,255 F,1,60158,62158,0.9,0 S,1,60158,62158,0.25,0.5
Sprite,Background,Centre,"sb\ring.png",0,0 M,0,60308,,479,97 C,0,60308,,255,255,255 F,1,60308,62532,0.9,0 S,1,60308,62532,0.25,0.5
Sprite,Background,Centre,"sb\ring.png",0,0 M,0,60608,,536,310 C,0,60608,,255,255,255 F,1,60608,62608,0.9,0 S,1,60608,62608,0.25,0.5
Sprite,Background,Centre,"sb\ring.png",0,0 M,0,60683,,532,311 C,0,60683,,255,255,255 F,1,60683,62683,0.9,0 S,1,60683,62683,0.25,0.5
Sprite,Background,Centre,"sb\ring.png",0,0 M,0,60758,,527,313 C,0,60758,,255,255,255 F,1,60758,62832,0.9,0 S,1,60758,62832,0.25,0.5
Sprite,Background,Centre,"sb\ring.png",0,0 M,0,60908,,358,388 C,0,60908,,255,255,255 F,1,60908,62983,0.9,0 S,1,60908,62983,0.25,0.5
Sprite,Background,Centre,"sb\ring.png",0,0 M,0,61058,,438,380 C,0,61058,,255,255,255 F,1,61058,63282,0.9,0 S,1,61058,63282,0.25,0.5
Sprite,Background,Centre,"sb\ring.png",0,0 M,0,61358,,274,337 C,0,61358,,255,255,255 F,1,61358,63358,0.9,0 S,1,61358,63358,0.25,0.5
Sprite,Background,Centre,"sb\ring.png",0,0 M,0,61508,,150,430 C,0,61508,,255,255,255 F,1,61508,63807,0.9,0 S,1,61508,63807,0.25,0.5
Sprite,Background,Centre,"sb\ring.png",0,0 M,0,61958,,116,72 C,0,61958,,255,255,255 F,1,61958,64107,0.9,0 S,1,61958,64107,0.25,0.5
Sprite,Background,Centre,"sb\ring.png",0,0 M,0,62183,,67,148 C,0,62183,,255,255,255 F,1,62183,64183,0.9,0 S,1,62183,64183,0.25,0.5
Sprite,Background,Centre,"sb\ring.png",0,0 M,0,62258,,81,166 C,0,62258,,255,255,255 F,1,62258,64258,0.9,0 S,1,62258,64258,0.25,0.5
Sprite,Background,Centre,"sb\ring.png",0,0 M,0,62408,,153,227 C,0,62408,,255,255,255 F,1,62408,64408,0.9,0 S,1,62408,64408,0.25,0.5
Sprite,Background,Centre,"sb\ring.png",0,0 M,0,62558,,192,157 C,0,62558,,255,255,255 F,1,62558,64558,0.9,0 S,1,62558,64558,0.25,0.5
Sprite,Background,Centre,"sb\ring.png",0,0 M,0,62708,,70,238 C,0,62708,,255,255,255 F,1,62708,64708,0.9,0 S,1,62708,64708,0.25,0.5
Sprite,Background,Centre,"sb\ring.png",0,0 M,0,62858,,388,182 C,0,62858,,255,255,255 F,1,62858,64858,0.9,0 S,1,62858,64858,0.25,0.5
Sprite,Background,Centre,"sb\ring.png",0,0 M,0,63008,,299,152 C,0,63008,,255,255,255 F,1,63008,65008,0.9,0 S,1,63008,65008,0.25,0.5
Sprite,Background,Centre,"sb\ring.png",0,0 M,0,63158,,411,258 C,0,63158,,255,255,255 F,1,63158,65158,0.9,0 S,1,63158,65158,0.25,0.5
Sprite,Background,Centre,"sb\ring.png",0,0 M,0,63308,,435,106 C,0,63308,,255,255,255 F,1,63308,65308,0.9,0 S,1,63308,65308,0.25,0.5
Sprite,Background,Centre,"sb\ring.png",0,0 M,0,63458,,326,263 C,0,63458,,255,255,255 F,1,63458,65682,0.9,0 S,1,63458,65682,0.25,0.5
Sprite,Background,Centre,"sb\ring.png",0,0 M,0,63758,,331,390 C,0,63758,,255,255,255 F,1,63758,65758,0.9,0 S,1,63758,65758,0.25,0.5
Sprite,Background,Centre,"sb\ring.png",0,0 M,0,63908,,225,274 C,0,63908,,255,255,255 F,1,63908,66057,0.9,0 S,1,63908,66057,0.25,0.5
Sprite,Background,Centre,"sb\ring.png",0,0 M,0,64208,,338,185 C,0,64208,,255,255,255 F,1,64208,66208,0.9,0 S,1,64208,66208,0.25,0.5
Sprite,Background,Centre,"sb\ring.png",0,0 M,0,64358,,270,129 C,0,64358,,255,255,255 F,1,64358,66432,0.9,0 S,1,64358,66432,0.25,0.5
Sprite,Background,Centre,"sb\ring.png",0,0 M,0,64508,,338,185 C,0,64508,,255,255,255 F,1,64508,66732,0.9,0 S,1,64508,66732,0.25,0.5
Sprite,Background,Centre,"sb\ring.png",0,0 M,0,64808,,450,130 C,0,64808,,255,255,255 F,1,64808,66808,0.9,0 S,1,64808,66808,0.25,0.5
Sprite,Background,Centre,"sb\ring.png",0,0 M,0,64958,,528,287 C,0,64958,,255,255,255 F,1,64958,66958,0.9,0 S,1,64958,66958,0.25,0.5
Sprite,Background,Centre,"sb\ring.png",0,0 M,0,65108,,442,382 C,0,65108,,255,255,255 F,1,65108,67257,0.9,0 S,1,65108,67257,0.25,0.5
Sprite,Background,Centre,"sb\ring.png",0,0 M,0,65408,,348,115 C,0,65408,,255,255,255 F,1,65408,67482,0.9,0 S,1,65408,67482,0.25,0.5
Sprite,Background,Centre,"sb\ring.png",0,0 M,0,65558,,289,254 C,0,65558,,255,255,255 F,1,65558,67558,0.9,0 S,1,65558,67558,0.25,0.5
Sprite,Background,Centre,"sb\ring.png",0,0 M,0,65708,,428,100 C,0,65708,,255,255,255 F,1,65708,67708,0.9,0 S,1,65708,67708,0.25,0.5
Sprite,Background,Centre,"sb\ring.png",0,0 M,0,65858,,175,159 C,0,65858,,255,255,255 F,1,65858,67958,0.9,0 S,1,65858,67958,0.25,0.5
Sprite,Background,Centre,"sb\ring.png",0,0 M,0,66058,,289,254 C,0,66058,,255,255,255 F,1,66058,68158,0.9,0 S,1,66058,68158,0.25,0.5
Sprite,Background,Centre,"sb\ring.png",0,0 M,0,66258,,426,177 C,0,66258,,255,255,255 F,1,66258,68358,0.9,0 S,1,66258,68358,0.25,0.5
Sprite,Background,Centre,"sb\ring.png",0,0 M,0,66458,,537,297 C,0,66458,,255,255,255 F,1,66458,68558,0.9,0 S,1,66458,68558,0.25,0.5
Sprite,Background,Centre,"sb\ring.png",0,0 M,0,66658,,430,400 C,0,66658,,255,255,255 F,1,66658,68758,0.9,0 S,1,66658,68758,0.25,0.5
Sprite,Background,Centre,"sb\ring.png",0,0 M,0,66858,,304,316 C,0,66858,,255,255,255 F,1,66858,68958,0.9,0 S,1,66858,68958,0.25,0.5
Sprite,Background,Centre,"sb\ring.png",0,0 M,0,67058,,366,357 C,0,67058,,255,255,255 F,1,67058,69058,0.9,0 S,1,67058,69058,0.25,0.5
Sprite,Background,Centre,"sb\ring.png",0,0 M,0,67208,,175,419 C,0,67208,,255,255,255 F,1,67208,69282,0.9,0 S,1,67208,69282,0.25,0.5
Sprite,Background,Centre,"sb\ring.png",0,0 M,0,67358,,209,248 C,0,67358,,255,255,255 F,1,67358,69507,0.9,0 S,1,67358,69507,0.25,0.5
Sprite,Background,Centre,"sb\ring.png",0,0 M,0,67658,,359,282 C,0,67658,,255,255,255 F,1,67658,69658,0.9,0 S,1,67658,69658,0.25,0.5
Sprite,Background,Centre,"sb\ring.png",0,0 M,0,67808,,303,406 C,0,67808,,255,255,255 F,1,67808,70107,0.9,0 S,1,67808,70107,0.25,0.5
Sprite,Background,Centre,"sb\ring.png",0,0 M,0,68183,,320,248 C,0,68183,,255,255,255 F,1,68183,72358,0.9,0 S,1,68183,72358,0.25,0.5
Sprite,Background,Centre,"sb\ring.png",0,0 M,0,121058,,348,73 C,0,121058,,255,255,255 F,1,121058,123358,0.9,0 S,1,121058,123358,0.25,0.5
Sprite,Background,Centre,"sb\ring.png",0,0 M,0,121508,,329,333 C,0,121508,,255,255,255 F,1,121508,123732,0.9,0 S,1,121508,123732,0.25,0.5
Sprite,Background,Centre,"sb\ring.png",0,0 M,0,121808,,393,139 C,0,121808,,255,255,255 F,1,121808,123808,0.9,0 S,1,121808,123808,0.25,0.5
Sprite,Background,Centre,"sb\ring.png",0,0 M,0,121958,,238,266 C,0,121958,,255,255,255 F,1,121958,123958,0.9,0 S,1,121958,123958,0.25,0.5
Sprite,Background,Centre,"sb\ring.png",0,0 M,0,122108,,410,331 C,0,122108,,255,255,255 F,1,122108,124257,0.9,0 S,1,122108,124257,0.25,0.5
Sprite,Background,Centre,"sb\ring.png",0,0 M,0,122408,,301,160 C,0,122408,,255,255,255 F,1,122408,124408,0.9,0 S,1,122408,124408,0.25,0.5
Sprite,Background,Centre,"sb\ring.png",0,0 M,0,122558,,319,356 C,0,122558,,255,255,255 F,1,122558,124707,0.9,0 S,1,122558,124707,0.25,0.5
Sprite,Background,Centre,"sb\ring.png",0,0 M,0,122858,,367,71 C,0,122858,,255,255,255 F,1,122858,124858,0.9,0 S,1,122858,124858,0.25,0.5
Sprite,Background,Centre,"sb\ring.png",0,0 M,0,122933,,367,71 C,0,122933,,255,255,255 F,1,122933,124933,0.9,0 S,1,122933,124933,0.25,0.5
Sprite,Background,Centre,"sb\ring.png",0,0 M,0,123008,,367,71 C,0,123008,,255,255,255 F,1,123008,125008,0.9,0 S,1,123008,125008,0.25,0.5
Sprite,Background,Centre,"sb\ring.png",0,0 M,0,123158,,459,165 C,0,123158,,255,255,255 F,1,123158,125232,0.9,0 S,1,123158,125232,0.25,0.5
Sprite,Background,Centre,"sb\ring.png",0,0 M,0,123308,,276,201 C,0,123308,,255,255,255 F,1,123308,125382,0.9,0 S,1,123308,125382,0.25,0.5
Sprite,Background,Centre,"sb\ring.png",0,0 M,0,123458,,110,329 C,0,123458,,255,255,255 F,1,123458,125682,0.9,0 S,1,123458,125682,0.25,0.5
Sprite,Background,Centre,"sb\ring.png",0,0 M,0,123758,,110,329 C,0,123758,,255,255,255 F,1,123758,125758,0.9,0 S,1,123758,125758,0.25,0.5
Sprite,Background,Centre,"sb\ring.png",0,0 M,0,123908,,149,140 C,0,123908,,255,255,255 F,1,123908,125908,0.9,0 S,1,123908,125908,0.25,0.5
Sprite,Background,Centre,"sb\ring.png",0,0 M,0,124058,,182,293 C,0,124058,,255,255,255 F,1,124058,126058,0.9,0 S,1,124058,126058,0.25,0.5
Sprite,Background,Centre,"sb\ring.png",0,0 M,0,124208,,222,179 C,0,124208,,255,255,255 F,1,124208,126282,0.9,0 S,1,124208,126282,0.25,0.5
Sprite,Background,Centre,"sb\ring.png",0,0 M,0,124358,,266,285 C,0,124358,,255,255,255 F,1,124358,126432,0.9,0 S,1,124358,126432,0.25,0.5
Sprite,Background,Centre,"sb\ring.png",0,0 M,0,124508,,364,120 C,0,124508,,255,255,255 F,1,124508,126508,0.9,0 S,1,124508,126508,0.25,0.5
Sprite,Background,Centre,"sb\ring.png",0,0 M,0,124583,,352,145 C,0,124583,,255,255,255 F,1,124583,126583,0.9,0 S,1,124583,126583,0.25,0.5
Sprite,Background,Centre,"sb\ring.png",0,0 M,0,124658,,360,172 C,0,124658,,255,255,255 F,1,124658,126658,0.9,0 S,1,124658,126658,0.25,0.5
Sprite,Background,Centre,"sb\ring.png",0,0 M,0,124808,,489,296 C,0,124808,,255,255,255 F,1,124808,126808,0.9,0 S,1,124808,126808,0.25,0.5
Sprite,Background,Centre,"sb\ring.png",0,0 M,0,124958,,544,124 C,0,124958,,255,255,255 F,1,124958,126958,0.9,0 S,1,124958,126958,0.25,0.5
Sprite,Background,Centre,"sb\ring.png",0,0 M,0,125108,,452,219 C,0,125108,,255,255,255 F,1,125108,127182,0.9,0 S,1,125108,127182,0.25,0.5
Sprite,Background,Centre,"sb\ring.png",0,0 M,0,125258,,419,93 C,0,125258,,255,255,255 F,1,125258,127258,0.9,0 S,1,125258,127258,0.25,0.5
Sprite,Background,Centre,"sb\ring.png",0,0 M,0,125408,,489,296 C,0,125408,,255,255,255 F,1,125408,127408,0.9,0 S,1,125408,127408,0.25,0.5
Sprite,Background,Centre,"sb\ring.png",0,0 M,0,125558,,319,254 C,0,125558,,255,255,255 F,1,125558,127782,0.9,0 S,1,125558,127782,0.25,0.5
Sprite,Background,Centre,"sb\ring.png",0,0 M,0,125858,,489,295 C,0,125858,,255,255,255 F,1,125858,128007,0.9,0 S,1,125858,128007,0.25,0.5
Sprite,Background,Centre,"sb\ring.png",0,0 M,0,126158,,559,116 C,0,126158,,255,255,255 F,1,126158,128158,0.9,0 S,1,126158,128158,0.25,0.5
Sprite,Background,Centre,"sb\ring.png",0,0 M,0,126308,,495,301 C,0,126308,,255,255,255 F,1,126308,128608,0.9,0 S,1,126308,128608,0.25,0.5
Sprite,Background,Centre,"sb\ring.png",0,0 M,0,126758,,413,302 C,0,126758,,255,255,255 F,1,126758,128758,0.9,0 S,1,126758,128758,0.25,0.5
Sprite,Background,Centre,"sb\ring.png",0,0 M,0,126908,,565,340 C,0,126908,,255,255,255 F,1,126908,129207,0.9,0 S,1,126908,129207,0.25,0.5
Sprite,Background,Centre,"sb\ring.png",0,0 M,0,127358,,209,175 C,0,127358,,255,255,255 F,1,127358,129358,0.9,0 S,1,127358,129358,0.25,0.5
Sprite,Background,Centre,"sb\ring.png",0,0 M,0,127508,,294,201 C,0,127508,,255,255,255 F,1,127508,129658,0.9,0 S,1,127508,129658,0.25,0.5
Sprite,Background,Centre,"sb\ring.png",0,0 M,0,127808,,229,256 C,0,127808,,255,255,255 F,1,127808,129808,0.9,0 S,1,127808,129808,0.25,0.5
Sprite,Background,Centre,"sb\ring.png",0,0 M,0,127958,,365,150 C,0,127958,,255,255,255 F,1,127958,129958,0.9,0 S,1,127958,129958,0.25,0.5
Sprite,Background,Centre,"sb\ring.png",0,0 M,0,128108,,323,280 C,0,128108,,255,255,255 F,1,128108,130183,0.9,0 S,1,128108,130183,0.25,0.5
Sprite,Background,Centre,"sb\ring.png",0,0 M,0,128258,,362,380 C,0,128258,,255,255,255 F,1,128258,130558,0.9,0 S,1,128258,130558,0.25,0.5
Sprite,Background,Centre,"sb\ring.png",0,0 M,0,128708,,576,328 C,0,128708,,255,255,255 F,1,128708,130858,0.9,0 S,1,128708,130858,0.25,0.5
Sprite,Background,Centre,"sb\ring.png",0,0 M,0,129008,,361,380 C,0,129008,,255,255,255 F,1,129008,131158,0.9,0 S,1,129008,131158,0.25,0.5
Sprite,Background,Centre,"sb\ring.png",0,0 M,0,129308,,385,273 C,0,129308,,255,255,255 F,1,129308,131308,0.9,0 S,1,129308,131308,0.25,0.5
Sprite,Background,Centre,"sb\ring.png",0,0 M,0,129458,,361,379 C,0,129458,,255,255,255 F,1,129458,131683,0.9,0 S,1,129458,131683,0.25,0.5
Sprite,Background,Centre,"sb\ring.png",0,0 M,0,129758,,293,265 C,0,129758,,255,255,255 F,1,129758,131908,0.9,0 S,1,129758,131908,0.25,0.5
Sprite,Background,Centre,"sb\ring.png",0,0 M,0,130058,,116,107 C,0,130058,,255,255,255 F,1,130058,132133,0.9,0 S,1,130058,132133,0.25,0.5
Sprite,Background,Centre,"sb\ring.png",0,0 M,0,130208,,330,162 C,0,130208,,255,255,255 F,1,130208,132283,0.9,0 S,1,130208,132283,0.25,0.5
Sprite,Background,Centre,"sb\ring.png",0,0 M,0,130358,,98,184 C,0,130358,,255,255,255 F,1,130358,132433,0.9,0 S,1,130358,132433,0.25,0.5
Sprite,Background,Centre,"sb\ring.png",0,0 M,0,130508,,346,238 C,0,130508,,255,255,255 F,1,130508,132583,0.9,0 S,1,130508,132583,0.25,0.5
Sprite,Background,Centre,"sb\ring.png",0,0 M,0,130658,,70,356 C,0,130658,,255,255,255 F,1,130658,132957,0.9,0 S,1,130658,132957,0.25,0.5
Sprite,Background,Centre,"sb\ring.png",0,0 M,0,131108,,310,308 C,0,131108,,255,255,255 F,1,131108,133332,0.9,0 S,1,131108,133332,0.25,0.5
Sprite,Background,Centre,"sb\ring.png",0,0 M,0,131408,,220,323 C,0,131408,,255,255,255 F,1,131408,133408,0.9,0 S,1,131408,133408,0.25,0.5
Sprite,Background,Centre,"sb\ring.png",0,0 M,0,131558,,394,287 C,0,131558,,255,255,255 F,1,131558,133558,0.9,0 S,1,131558,133558,0.25,0.5
Sprite,Background,Centre,"sb\ring.png",0,0 M,0,131708,,181,220 C,0,131708,,255,255,255 F,1,131708,133708,0.9,0 S,1,131708,133708,0.25,0.5
Sprite,Background,Centre,"sb\ring.png",0,0 M,0,131858,,397,185 C,0,131858,,255,255,255 F,1,131858,134082,0.9,0 S,1,131858,134082,0.25,0.5
Sprite,Background,Centre,"sb\ring.png",0,0 M,0,132158,,442,111 C,0,132158,,255,255,255 F,1,132158,134307,0.9,0 S,1,132158,134307,0.25,0.5
Sprite,Background,Centre,"sb\ring.png",0,0 M,0,132458,,464,235 C,0,132458,,255,255,255 F,1,132458,134458,0.9,0 S,1,132458,134458,0.25,0.5
Sprite,Background,Centre,"sb\ring.png",0,0 M,0,132608,,319,168 C,0,132608,,255,255,255 F,1,132608,134608,0.9,0 S,1,132608,134608,0.25,0.5
Sprite,Background,Centre,"sb\ring.png",0,0 M,0,132758,,335,322 C,0,132758,,255,255,255 F,1,132758,134758,0.9,0 S,1,132758,134758,0.25,0.5
Sprite,Background,Centre,"sb\ring.png",0,0 M,0,132908,,373,248 C,0,132908,,255,255,255 F,1,132908,134908,0.9,0 S,1,132908,134908,0.25,0.5
Sprite,Background,Centre,"sb\ring.png",0,0 M,0,132983,,373,248 C,0,132983,,255,255,255 F,1,132983,134983,0.9,0 S,1,132983,134983,0.25,0.5
Sprite,Background,Centre,"sb\ring.png",0,0 M,0,133058,,373,248 C,0,133058,,255,255,255 F,1,133058,135058,0.9,0 S,1,133058,135058,0.25,0.5
Sprite,Background,Centre,"sb\ring.png",0,0 M,0,133208,,220,316 C,0,133208,,255,255,255 F,1,133208,135357,0.9,0 S,1,133208,135357,0.25,0.5
Sprite,Background,Centre,"sb\ring.png",0,0 M,0,133508,,345,419 C,0,133508,,255,255,255 F,1,133508,135657,0.9,0 S,1,133508,135657,0.25,0.5
Sprite,Background,Centre,"sb\ring.png",0,0 M,0,133808,,229,215 C,0,133808,,255,255,255 F,1,133808,135882,0.9,0 S,1,133808,135882,0.25,0.5
Sprite,Background,Centre,"sb\ring.png",0,0 M,0,133958,,132,165 C,0,133958,,255,255,255 F,1,133958,136032,0.9,0 S,1,133958,136032,0.25,0.5
Sprite,Background,Centre,"sb\ring.png",0,0 M,0,134108,,345,185 C,0,134108,,255,255,255 F,1,134108,136332,0.9,0 S,1,134108,136332,0.25,0.5
Sprite,Background,Centre,"sb\ring.png",0,0 M,0,134408,,426,81 C,0,134408,,255,255,255 F,1,134408,136408,0.9,0 S,1,134408,136408,0.25,0.5
Sprite,Background,Centre,"sb\ring.png",0,0 M,0,134558,,268,172 C,0,134558,,255,255,255 F,1,134558,136558,0.9,0 S,1,134558,136558,0.25,0.5
Sprite,Background,Centre,"sb\ring.png",0,0 M,0,134708,,397,248 C,0,134708,,255,255,255 F,1,134708,136932,0.9,0 S,1,134708,136932,0.25,0.5
Sprite,Background,Centre,"sb\ring.png",0,0 M,0,135008,,300,293 C,0,135008,,255,255,255 F,1,135008,137082,0.9,0 S,1,135008,137082,0.25,0.5
Sprite,Background,Centre,"sb\ring.png",0,0 M,0,135158,,489,267 C,0,135158,,255,255,255 F,1,135158,137232,0.9,0 S,1,135158,137232,0.25,0.5
Sprite,Background,Centre,"sb\ring.png",0,0 M,0,135308,,521,393 C,0,135308,,255,255,255 F,1,135308,137308,0.9,0 S,1,135308,137308,0.25,0.5
Sprite,Background,Centre,"sb\ring.png",0,0 M,0,135458,,314,425 C,0,135458,,255,255,255 F,1,135458,137458,0.9,0 S,1,135458,137458,0.25,0.5
Sprite,Background,Centre,"sb\ring.png",0,0 M,0,135758,,349,100 C,0,135758,,255,255,255 F,1,135758,137758,0.9,0 S,1,135758,137758,0.25,0.5
Sprite,Background,Centre,"sb\ring.png",0,0 M,0,136208,,349,100 C,0,136208,,255,255,255 F,1,136208,138208,0.9,0 S,1,136208,138208,0.25,0.5
Sprite,Background,Centre,"sb\ring.png",0,0 M,0,136358,,366,176 C,0,136358,,255,255,255 F,1,136358,138358,0.9,0 S,1,136358,138358,0.25,0.5
Sprite,Background,Centre,"sb\ring.png",0,0 M,0,136508,,131,166 C,0,136508,,255,255,255 F,1,136508,138583,0.9,0 S,1,136508,138583,0.25,0.5
Sprite,Background,Centre,"sb\ring.png",0,0 M,0,136808,,101,177 C,0,136808,,255,255,255 F,1,136808,138808,0.9,0 S,1,136808,138808,0.25,0.5
Sprite,Background,Centre,"sb\ring.png",0,0 M,0,136883,,137,131 C,0,136883,,255,255,255 F,1,136883,138883,0.9,0 S,1,136883,138883,0.25,0.5
Sprite,Background,Centre,"sb\ring.png",0,0 M,0,136958,,190,110 C,0,136958,,255,255,255 F,1,136958,138958,0.9,0 S,1,136958,138958,0.25,0.5
Sprite,Background,Centre,"sb\ring.png",0,0 M,0,137033,,248,117 C,0,137033,,255,255,255 F,1,137033,139033,0.9,0 S,1,137033,139033,0.25,0.5
Sprite,Background,Centre,"sb\ring.png",0,0 M,0,137108,,294,152 C,0,137108,,255,255,255 F,1,137108,139183,0.9,0 S,1,137108,139183,0.25,0.5
Sprite,Background,Centre,"sb\ring.png",0,0 M,0,137408,,309,166 C,0,137408,,255,255,255 F,1,137408,139483,0.9,0 S,1,137408,139483,0.25,0.5
Sprite,Background,Centre,"sb\ring.png",0,0 M,0,137558,,169,317 C,0,137558,,255,255,255 F,1,137558,139558,0.9,0 S,1,137558,139558,0.25,0.5
Sprite,Background,Centre,"sb\ring.png",0,0 M,0,137708,,272,406 C,0,137708,,255,255,255 F,1,137708,139783,0.9,0 S,1,137708,139783,0.25,0.5
Sprite,Background,Centre,"sb\ring.png",0,0 M,0,137858,,393,190 C,0,137858,,255,255,255 F,1,137858,140083,0.9,0 S,1,137858,140083,0.25,0.5
Sprite,Background,Centre,"sb\ring.png",0,0 M,0,138158,,197,215 C,0,138158,,255,255,255 F,1,138158,140158,0.9,0 S,1,138158,140158,0.25,0.5
Sprite,Background,Centre,"sb\ring.png",0,0 M,0,138308,,341,375 C,0,138308,,255,255,255 F,1,138308,140607,0.9,0 S,1,138308,140607,0.25,0.5
Sprite,Background,Centre,"sb\ring.png",0,0 M,0,138758,,410,295 C,0,138758,,255,255,255 F,1,138758,140832,0.9,0 S,1,138758,140832,0.25,0.5
Sprite,Background,Centre,"sb\ring.png",0,0 M,0,138908,,576,364 C,0,138908,,255,255,255 F,1,138908,140908,0.9,0 S,1,138908,140908,0.25,0.5
Sprite,Background,Centre,"sb\ring.png",0,0 M,0,138983,,576,364 C,0,138983,,255,255,255 F,1,138983,140983,0.9,0 S,1,138983,140983,0.25,0.5
Sprite,Background,Centre,"sb\ring.png",0,0 M,0,139058,,576,364 C,0,139058,,255,255,255 F,1,139058,141207,0.9,0 S,1,139058,141207,0.25,0.5
Sprite,Background,Centre,"sb\ring.png",0,0 M,0,139358,,477,175 C,0,139358,,255,255,255 F,1,139358,141358,0.9,0 S,1,139358,141358,0.25,0.5
Sprite,Background,Centre,"sb\ring.png",0,0 M,0,139508,,458,311 C,0,139508,,255,255,255 F,1,139508,141732,0.9,0 S,1,139508,141732,0.25,0.5
Sprite,Background,Centre,"sb\ring.png",0,0 M,0,139808,,477,175 C,0,139808,,255,255,255 F,1,139808,141957,0.9,0 S,1,139808,141957,0.25,0.5
Sprite,Background,Centre,"sb\ring.png",0,0 M,0,140108,,221,97 C,0,140108,,255,255,255 F,1,140108,142257,0.9,0 S,1,140108,142257,0.25,0.5
Sprite,Background,Centre,"sb\ring.png",0,0 M,0,140408,,328,120 C,0,140408,,255,255,255 F,1,140408,142408,0.9,0 S,1,140408,142408,0.25,0.5
Sprite,Background,Centre,"sb\ring.png",0,0 M,0,140558,,160,143 C,0,140558,,255,255,255 F,1,140558,142858,0.9,0 S,1,140558,142858,0.25,0.5
Sprite,Background,Centre,"sb\ring.png",0,0 M,0,141008,,125,212 C,0,141008,,255,255,255 F,1,141008,143233,0.9,0 S,1,141008,143233,0.25,0.5
Sprite,Background,Centre,"sb\ring.png",0,0 M,0,141308,,160,143 C,0,141308,,255,255,255 F,1,141308,143308,0.9,0 S,1,141308,143308,0.25,0.5
Sprite,Background,Centre,"sb\ring.png",0,0 M,0,141458,,129,306 C,0,141458,,255,255,255 F,1,141458,143608,0.9,0 S,1,141458,143608,0.25,0.5
Sprite,Background,Centre,"sb\ring.png",0,0 M,0,141758,,115,389 C,0,141758,,255,255,255 F,1,141758,143758,0.9,0 S,1,141758,143758,0.25,0.5
Sprite,Background,Centre,"sb\ring.png",0,0 M,0,141908,,233,301 C,0,141908,,255,255,255 F,1,141908,144358,0.9,0 S,1,141908,144358,0.25,0.5
Sprite,Background,Centre,"sb\ring.png",0,0 M,0,142433,,295,191 C,0,142433,,255,255,255 F,1,142433,144433,0.9,0 S,1,142433,144433,0.25,0.5
Sprite,Background,Centre,"sb\ring.png",0,0 M,0,142508,,324,187 C,0,142508,,255,255,255 F,1,142508,144508,0.9,0 S,1,142508,144508,0.25,0.5
Sprite,Background,Centre,"sb\ring.png",0,0 M,0,142583,,351,198 C,0,142583,,255,255,255 F,1,142583,144583,0.9,0 S,1,142583,144583,0.25,0.5
Sprite,Background,Centre,"sb\ring.png",0,0 M,0,142658,,368,221 C,0,142658,,255,255,255 F,1,142658,144808,0.9,0 S,1,142658,144808,0.25,0.5
Sprite,Background,Centre,"sb\ring.png",0,0 M,0,142958,,391,117 C,0,142958,,255,255,255 F,1,142958,144958,0.9,0 S,1,142958,144958,0.25,0.5
Sprite,Background,Centre,"sb\ring.png",0,0 M,0,143108,,534,332 C,0,143108,,255,255,255 F,1,143108,145258,0.9,0 S,1,143108,145258,0.25,0.5
Sprite,Background,Centre,"sb\ring.png",0,0 M,0,143408,,391,117 C,0,143408,,255,255,255 F,1,143408,145408,0.9,0 S,1,143408,145408,0.25,0.5
Sprite,Background,Centre,"sb\ring.png",0,0 M,0,143558,,451,205 C,0,143558,,255,255,255 F,1,143558,145708,0.9,0 S,1,143558,145708,0.25,0.5
Sprite,Background,Centre,"sb\ring.png",0,0 M,0,143858,,181,96 C,0,143858,,255,255,255 F,1,143858,145858,0.9,0 S,1,143858,145858,0.25,0.5
Sprite,Background,Centre,"sb\ring.png",0,0 M,0,144008,,226,266 C,0,144008,,255,255,255 F,1,144008,146158,0.9,0 S,1,144008,146158,0.25,0.5
Sprite,Background,Centre,"sb\ring.png",0,0 M,0,144308,,181,96 C,0,144308,,255,255,255 F,1,144308,146308,0.9,0 S,1,144308,146308,0.25,0.5
Sprite,Background,Centre,"sb\ring.png",0,0 M,0,144458,,226,266 C,0,144458,,255,255,255 F,1,144458,146458,0.9,0 S,1,144458,146458,0.25,0.5
Sprite,Background,Centre,"sb\ring.png",0,0 M,0,144608,,310,299 C,0,144608,,255,255,255 F,1,144608,146608,0.9,0 S,1,144608,146608,0.25,0.5
Sprite,Background,Centre,"sb\ring.png",0,0 M,0,144758,,409,271 C,0,144758,,255,255,255 F,1,144758,146758,0.9,0 S,1,144758,146758,0.25,0.5
Sprite,Background,Centre,"sb\ring.png",0,0 M,0,144908,,453,158 C,0,144908,,255,255,255 F,1,144908,146908,0.9,0 S,1,144908,146908,0.25,0.5
Sprite,Background,Centre,"sb\ring.png",0,0 M,0,145058,,381,348 C,0,145058,,255,255,255 F,1,145058,147058,0.9,0 S,1,145058,147058,0.25,0.5
Sprite,Background,Centre,"sb\ring.png",0,0 M,0,145208,,226,266 C,0,145208,,255,255,255 F,1,145208,147357,0.9,0 S,1,145208,147357,0.25,0.5
Sprite,Background,Centre,"sb\ring.png",0,0 M,0,145508,,116,400 C,0,145508,,255,255,255 F,1,145508,147733,0.9,0 S,1,145508,147733,0.25,0.5
Sprite,Background,Centre,"sb\ring.png",0,0 M,0,145808,,165,168 C,0,145808,,255,255,255 F,1,145808,147883,0.9,0 S,1,145808,147883,0.25,0.5
Sprite,Background,Centre,"sb\ring.png",0,0 M,0,145958,,280,209 C,0,145958,,255,255,255 F,1,145958,148033,0.9,0 S,1,145958,148033,0.25,0.5
Sprite,Background,Centre,"sb\ring.png",0,0 M,0,146108,,393,254 C,0,146108,,255,255,255 F,1,146108,148183,0.9,0 S,1,146108,148183,0.25,0.5
Sprite,Background,Centre,"sb\ring.png",0,0 M,0,146258,,332,272 C,0,146258,,255,255,255 F,1,146258,148408,0.9,0 S,1,146258,148408,0.25,0.5
Sprite,Background,Centre,"sb\ring.png",0,0 M,0,146558,,363,99 C,0,146558,,255,255,255 F,1,146558,148558,0.9,0 S,1,146558,148558,0.25,0.5
Sprite,Background,Centre,"sb\ring.png",0,0 M,0,146708,,288,121 C,0,146708,,255,255,255 F,1,146708,148708,0.9,0 S,1,146708,148708,0.25,0.5
Sprite,Background,Centre,"sb\ring.png",0,0 M,0,146858,,459,181 C,0,146858,,255,255,255 F,1,146858,149008,0.9,0 S,1,146858,149008,0.25,0.5
Sprite,Background,Centre,"sb\ring.png",0,0 M,0,147158,,489,355 C,0,147158,,255,255,255 F,1,147158,149158,0.9,0 S,1,147158,149158,0.25,0.5
Sprite,Background,Centre,"sb\ring.png",0,0 M,0,147308,,414,333 C,0,147308,,255,255,255 F,1,147308,149308,0.9,0 S,1,147308,149308,0.25,0.5
Sprite,Background,Centre,"sb\ring.png",0,0 M,0,147458,,524,143 C,0,147458,,255,255,255 F,1,147458,149683,0.9,0 S,1,147458,149683,0.25,0.5
Sprite,Background,Centre,"sb\ring.png",0,0 M,0,147758,,448,269 C,0,147758,,255,255,255 F,1,147758,149908,0.9,0 S,1,147758,149908,0.25,0.5
Sprite,Background,Centre,"sb\ring.png",0,0 M,0,148058,,309,81 C,0,148058,,255,255,255 F,1,148058,150208,0.9,0 S,1,148058,150208,0.25,0.5
Sprite,Background,Centre,"sb\ring.png",0,0 M,0,148358,,214,298 C,0,148358,,255,255,255 F,1,148358,150508,0.9,0 S,1,148358,150508,0.25,0.5
Sprite,Background,Centre,"sb\ring.png",0,0 M,0,148583,,224,155 C,0,148583,,255,255,255 F,1,148583,150583,0.9,0 S,1,148583,150583,0.25,0.5
Sprite,Background,Centre,"sb\ring.png",0,0 M,0,148658,,224,155 C,0,148658,,255,255,255 F,1,148658,150658,0.9,0 S,1,148658,150658,0.25,0.5
Sprite,Background,Centre,"sb\ring.png",0,0 M,0,148808,,301,331 C,0,148808,,255,255,255 F,1,148808,150808,0.9,0 S,1,148808,150808,0.25,0.5
Sprite,Background,Centre,"sb\ring.png",0,0 M,0,148958,,309,81 C,0,148958,,255,255,255 F,1,148958,150958,0.9,0 S,1,148958,150958,0.25,0.5
Sprite,Background,Centre,"sb\ring.png",0,0 M,0,149108,,310,348 C,0,149108,,255,255,255 F,1,149108,151333,0.9,0 S,1,149108,151333,0.25,0.5
Sprite,Background,Centre,"sb\ring.png",0,0 M,0,149408,,394,310 C,0,149408,,255,255,255 F,1,149408,151558,0.9,0 S,1,149408,151558,0.25,0.5
Sprite,Background,Centre,"sb\ring.png",0,0 M,0,149708,,535,145 C,0,149708,,255,255,255 F,1,149708,151783,0.9,0 S,1,149708,151783,0.25,0.5
Sprite,Background,Centre,"sb\ring.png",0,0 M,0,149858,,549,383 C,0,149858,,255,255,255 F,1,149858,152008,0.9,0 S,1,149858,152008,0.25,0.5
Sprite,Background,Centre,"sb\ring.png",0,0 M,0,150158,,443,227 C,0,150158,,255,255,255 F,1,150158,152308,0.9,0 S,1,150158,152308,0.25,0.5
Sprite,Background,Centre,"sb\ring.png",0,0 M,0,150458,,278,252 C,0,150458,,255,255,255 F,1,150458,152758,0.9,0 S,1,150458,152758,0.25,0.5
Sprite,Background,Centre,"sb\ring.png",0,0 M,0,150908,,427,295 C,0,150908,,255,255,255 F,1,150908,152908,0.9,0 S,1,150908,152908,0.25,0.5
Sprite,Background,Centre,"sb\ring.png",0,0 M,0,150983,,412,304 C,0,150983,,255,255,255 F,1,150983,152983,0.9,0 S,1,150983,152983,0.25,0.5
Sprite,Background,Centre,"sb\ring.png",0,0 M,0,151058,,397,312 C,0,151058,,255,255,255 F,1,151058,153358,0.9,0 S,1,151058,153358,0.25,0.5
Sprite,Background,Centre,"sb\ring.png",0,0 M,0,151508,,382,99 C,0,151508,,255,255,255 F,1,151508,153733,0.9,0 S,1,151508,153733,0.25,0.5
Sprite,Background,Centre,"sb\ring.png",0,0 M,0,151808,,410,164 C,0,151808,,255,255,255 F,1,151808,153883,0.9,0 S,1,151808,153883,0.25,0.5
Sprite,Background,Centre,"sb\ring.png",0,0 M,0,151958,,347,285 C,0,151958,,255,255,255 F,1,151958,154033,0.9,0 S,1,151958,154033,0.25,0.5
Sprite,Background,Centre,"sb\ring.png",0,0 M,0,152108,,174,298 C,0,152108,,255,255,255 F,1,152108,154108,0.9,0 S,1,152108,154108,0.25,0.5
Sprite,Background,Centre,"sb\ring.png",0,0 M,0,152183,,144,339 C,0,152183,,255,255,255 F,1,152183,154183,0.9,0 S,1,152183,154183,0.25,0.5
Sprite,Background,Centre,"sb\ring.png",0,0 M,0,152258,,160,382 C,0,152258,,255,255,255 F,1,152258,154358,0.9,0 S,1,152258,154358,0.25,0.5
Sprite,Background,Centre,"sb\ring.png",0,0 M,0,152458,,374,247 C,0,152458,,255,255,255 F,1,152458,154458,0.9,0 S,1,152458,154458,0.25,0.5
Sprite,Background,Centre,"sb\ring.png",0,0 M,0,152558,,444,282 C,0,152558,,255,255,255 F,1,152558,154858,0.9,0 S,1,152558,154858,0.25,0.5
Sprite,Background,Centre,"sb\ring.png",0,0 M,0,153058,,106,125 C,0,153058,,255,255,255 F,1,153058,155158,0.9,0 S,1,153058,155158,0.25,0.5
Sprite,Background,Centre,"sb\ring.png",0,0 M,0,153258,,124,262 C,0,153258,,255,255,255 F,1,153258,155458,0.9,0 S,1,153258,155458,0.25,0.5
Sprite,Background,Centre,"sb\ring.png",0,0 M,0,153608,,228,182 C,0,153608,,255,255,255 F,1,153608,155683,0.9,0 S,1,153608,155683,0.25,0.5
Sprite,Background,Centre,"sb\ring.png",0,0 M,0,153908,,176,203 C,0,153908,,255,255,255 F,1,153908,156133,0.9,0 S,1,153908,156133,0.25,0.5
Sprite,Background,Centre,"sb\ring.png",0,0 M,0,154208,,345,335 C,0,154208,,255,255,255 F,1,154208,156433,0.9,0 S,1,154208,156433,0.25,0.5
Sprite,Background,Centre,"sb\ring.png",0,0 M,0,154508,,384,102 C,0,154508,,255,255,255 F,1,154508,156508,0.9,0 S,1,154508,156508,0.25,0.5
Sprite,Background,Centre,"sb\ring.png",0,0 M,0,154583,,320,248 C,0,154583,,255,255,255 F,1,154583,157858,0.9,0 S,1,154583,157858,0.25,0.5
Sprite,Background,Centre,"sb\ring.png",0,0 M,0,156308,,182,276 C,0,156308,,255,255,255 F,1,156308,158608,0.9,0 S,1,156308,158608,0.25,0.5
Sprite,Background,Centre,"sb\ring.png",0,0 M,0,156758,,255,153 C,0,156758,,255,255,255 F,1,156758,158908,0.9,0 S,1,156758,158908,0.25,0.5
Sprite,Background,Centre,"sb\ring.png",0,0 M,0,181058,,249,242 C,0,181058,,255,255,255 F,1,181058,183282,0.9,0 S,1,181058,183282,0.25,0.5
Sprite,Background,Centre,"sb\ring.png",0,0 M,0,181358,,336,86 C,0,181358,,255,255,255 F,1,181358,183358,0.9,0 S,1,181358,183358,0.25,0.5
Sprite,Background,Centre,"sb\ring.png",0,0 M,0,181508,,291,329 C,0,181508,,255,255,255 F,1,181508,183732,0.9,0 S,1,181508,183732,0.25,0.5
Sprite,Background,Centre,"sb\ring.png",0,0 M,0,181808,,97,300 C,0,181808,,255,255,255 F,1,181808,183808,0.9,0 S,1,181808,183808,0.25,0.5
Sprite,Background,Centre,"sb\ring.png",0,0 M,0,181958,,178,392 C,0,181958,,255,255,255 F,1,181958,184032,0.9,0 S,1,181958,184032,0.25,0.5
Sprite,Background,Centre,"sb\ring.png",0,0 M,0,182108,,122,199 C,0,182108,,255,255,255 F,1,182108,184257,0.9,0 S,1,182108,184257,0.25,0.5
Sprite,Background,Centre,"sb\ring.png",0,0 M,0,182408,,327,195 C,0,182408,,255,255,255 F,1,182408,184408,0.9,0 S,1,182408,184408,0.25,0.5
Sprite,Background,Centre,"sb\ring.png",0,0 M,0,182483,,327,195 C,0,182483,,255,255,255 F,1,182483,184483,0.9,0 S,1,182483,184483,0.25,0.5
Sprite,Background,Centre,"sb\ring.png",0,0 M,0,182558,,327,195 C,0,182558,,255,255,255 F,1,182558,184632,0.9,0 S,1,182558,184632,0.25,0.5
Sprite,Background,Centre,"sb\ring.png",0,0 M,0,182708,,438,250 C,0,182708,,255,255,255 F,1,182708,184782,0.9,0 S,1,182708,184782,0.25,0.5
Sprite,Background,Centre,"sb\ring.png",0,0 M,0,182858,,547,203 C,0,182858,,255,255,255 F,1,182858,184858,0.9,0 S,1,182858,184858,0.25,0.5
Sprite,Background,Centre,"sb\ring.png",0,0 M,0,183008,,430,406 C,0,183008,,255,255,255 F,1,183008,185008,0.9,0 S,1,183008,185008,0.25,0.5
Sprite,Background,Centre,"sb\ring.png",0,0 M,0,183158,,377,200 C,0,183158,,255,255,255 F,1,183158,185158,0.9,0 S,1,183158,185158,0.25,0.5
Sprite,Background,Centre,"sb\ring.png",0,0 M,0,183308,,430,406 C,0,183308,,255,255,255 F,1,183308,185382,0.9,0 S,1,183308,185382,0.25,0.5
Sprite,Background,Centre,"sb\ring.png",0,0 M,0,183458,,465,279 C,0,183458,,255,255,255 F,1,183458,185683,0.9,0 S,1,183458,185683,0.25,0.5
Sprite,Background,Centre,"sb\ring.png",0,0 M,0,183758,,256,321 C,0,183758,,255,255,255 F,1,183758,185758,0.9,0 S,1,183758,185758,0.25,0.5
Sprite,Background,Centre,"sb\ring.png",0,0 M,0,183908,,371,118 C,0,183908,,255,255,255 F,1,183908,186133,0.9,0 S,1,183908,186133,0.25,0.5
Sprite,Background,Centre,"sb\ring.png",0,0 M,0,184208,,460,158 C,0,184208,,255,255,255 F,1,184208,186283,0.9,0 S,1,184208,186283,0.25,0.5
Sprite,Background,Centre,"sb\ring.png",0,0 M,0,184358,,369,281 C,0,184358,,255,255,255 F,1,184358,186583,0.9,0 S,1,184358,186583,0.25,0.5
Sprite,Background,Centre,"sb\ring.png",0,0 M,0,184658,,574,284 C,0,184658,,255,255,255 F,1,184658,186658,0.9,0 S,1,184658,186658,0.25,0.5
Sprite,Background,Centre,"sb\ring.png",0,0 M,0,184808,,562,209 C,0,184808,,255,255,255 F,1,184808,186808,0.9,0 S,1,184808,186808,0.25,0.5
Sprite,Background,Centre,"sb\ring.png",0,0 M,0,184958,,522,384 C,0,184958,,255,255,255 F,1,184958,186958,0.9,0 S,1,184958,186958,0.25,0.5
Sprite,Background,Centre,"sb\ring.png",0,0 M,0,185108,,387,209 C,0,185108,,255,255,255 F,1,185108,187108,0.9,0 S,1,185108,187108,0.25,0.5
Sprite,Background,Centre,"sb\ring.png",0,0 M,0,185183,,387,209 C,0,185183,,255,255,255 F,1,185183,187183,0.9,0 S,1,185183,187183,0.25,0.5
Sprite,Background,Centre,"sb\ring.png",0,0 M,0,185258,,387,209 C,0,185258,,255,255,255 F,1,185258,187258,0.9,0 S,1,185258,187258,0.25,0.5
Sprite,Background,Centre,"sb\ring.png",0,0 M,0,185408,,402,283 C,0,185408,,255,255,255 F,1,185408,187408,0.9,0 S,1,185408,187408,0.25,0.5
Sprite,Background,Centre,"sb\ring.png",0,0 M,0,185558,,439,110 C,0,185558,,255,255,255 F,1,185558,187782,0.9,0 S,1,185558,187782,0.25,0.5
Sprite,Background,Centre,"sb\ring.png",0,0 M,0,185858,,177,139 C,0,185858,,255,255,255 F,1,185858,188083,0.9,0 S,1,185858,188083,0.25,0.5
Sprite,Background,Centre,"sb\ring.png",0,0 M,0,186158,,182,264 C,0,186158,,255,255,255 F,1,186158,188158,0.9,0 S,1,186158,188158,0.25,0.5
Sprite,Background,Centre,"sb\ring.png",0,0 M,0,186308,,345,331 C,0,186308,,255,255,255 F,1,186308,188532,0.9,0 S,1,186308,188532,0.25,0.5
Sprite,Background,Centre,"sb\ring.png",0,0 M,0,186608,,189,378 C,0,186608,,255,255,255 F,1,186608,188608,0.9,0 S,1,186608,188608,0.25,0.5
Sprite,Background,Centre,"sb\ring.png",0,0 M,0,186758,,416,294 C,0,186758,,255,255,255 F,1,186758,188832,0.9,0 S,1,186758,188832,0.25,0.5
Sprite,Background,Centre,"sb\ring.png",0,0 M,0,186908,,346,409 C,0,186908,,255,255,255 F,1,186908,189132,0.9,0 S,1,186908,189132,0.25,0.5
Sprite,Background,Centre,"sb\ring.png",0,0 M,0,187208,,497,427 C,0,187208,,255,255,255 F,1,187208,189208,0.9,0 S,1,187208,189208,0.25,0.5
Sprite,Background,Centre,"sb\ring.png",0,0 M,0,187358,,306,269 C,0,187358,,255,255,255 F,1,187358,189507,0.9,0 S,1,187358,189507,0.25,0.5
Sprite,Background,Centre,"sb\ring.png",0,0 M,0,187583,,132,307 C,0,187583,,255,255,255 F,1,187583,189583,0.9,0 S,1,187583,189583,0.25,0.5
Sprite,Background,Centre,"sb\ring.png",0,0 M,0,187658,,114,311 C,0,187658,,255,255,255 F,1,187658,189658,0.9,0 S,1,187658,189658,0.25,0.5
Sprite,Background,Centre,"sb\ring.png",0,0 M,0,187808,,249,193 C,0,187808,,255,255,255 F,1,187808,189957,0.9,0 S,1,187808,189957,0.25,0.5
Sprite,Background,Centre,"sb\ring.png",0,0 M,0,188108,,405,321 C,0,188108,,255,255,255 F,1,188108,190108,0.9,0 S,1,188108,190108,0.25,0.5
Sprite,Background,Centre,"sb\ring.png",0,0 M,0,188258,,417,237 C,0,188258,,255,255,255 F,1,188258,190407,0.9,0 S,1,188258,190407,0.25,0.5
Sprite,Background,Centre,"sb\ring.png",0,0 M,0,188558,,542,175 C,0,188558,,255,255,255 F,1,188558,190857,0.9,0 S,1,188558,190857,0.25,0.5
Sprite,Background,Centre,"sb\ring.png",0,0 M,0,189008,,477,292 C,0,189008,,255,255,255 F,1,189008,191008,0.9,0 S,1,189008,191008,0.25,0.5
Sprite,Background,Centre,"sb\ring.png",0,0 M,0,189158,,225,247 C,0,189158,,255,255,255 F,1,189158,191233,0.9,0 S,1,189158,191233,0.25,0.5
Sprite,Background,Centre,"sb\ring.png",0,0 M,0,189308,,382,171 C,0,189308,,255,255,255 F,1,189308,191533,0.9,0 S,1,189308,191533,0.25,0.5
Sprite,Background,Centre,"sb\ring.png",0,0 M,0,189608,,359,409 C,0,189608,,255,255,255 F,1,189608,191683,0.9,0 S,1,189608,191683,0.25,0.5
Sprite,Background,Centre,"sb\ring.png",0,0 M,0,189758,,247,320 C,0,189758,,255,255,255 F,1,189758,191758,0.9,0 S,1,189758,191758,0.25,0.5
Sprite,Background,Centre,"sb\ring.png",0,0 M,0,189908,,408,246 C,0,189908,,255,255,255 F,1,189908,191908,0.9,0 S,1,189908,191908,0.25,0.5
Sprite,Background,Centre,"sb\ring.png",0,0 M,0,190058,,434,374 C,0,190058,,255,255,255 F,1,190058,192058,0.9,0 S,1,190058,192058,0.25,0.5
Sprite,Background,Centre,"sb\ring.png",0,0 M,0,190208,,272,216 C,0,190208,,255,255,255 F,1,190208,192208,0.9,0 S,1,190208,192208,0.25,0.5
Sprite,Background,Centre,"sb\ring.png",0,0 M,0,190283,,268,203 C,0,190283,,255,255,255 F,1,190283,192283,0.9,0 S,1,190283,192283,0.25,0.5
Sprite,Background,Centre,"sb\ring.png",0,0 M,0,190358,,264,183 C,0,190358,,255,255,255 F,1,190358,192433,0.9,0 S,1,190358,192433,0.25,0.5
Sprite,Background,Centre,"sb\ring.png",0,0 M,0,190508,,442,92 C,0,190508,,255,255,255 F,1,190508,192583,0.9,0 S,1,190508,192583,0.25,0.5
Sprite,Background,Centre,"sb\ring.png",0,0 M,0,190658,,366,292 C,0,190658,,255,255,255 F,1,190658,192882,0.9,0 S,1,190658,192882,0.25,0.5
Sprite,Background,Centre,"sb\ring.png",0,0 M,0,190958,,492,306 C,0,190958,,255,255,255 F,1,190958,192958,0.9,0 S,1,190958,192958,0.25,0.5
Sprite,Background,Centre,"sb\ring.png",0,0 M,0,191108,,284,366 C,0,191108,,255,255,255 F,1,191108,193332,0.9,0 S,1,191108,193332,0.25,0.5
Sprite,Background,Centre,"sb\ring.png",0,0 M,0,191408,,449,440 C,0,191408,,255,255,255 F,1,191408,193482,0.9,0 S,1,191408,193482,0.25,0.5
Sprite,Background,Centre,"sb\ring.png",0,0 M,0,191558,,366,292 C,0,191558,,255,255,255 F,1,191558,193558,0.9,0 S,1,191558,193558,0.25,0.5
Sprite,Background,Centre,"sb\ring.png",0,0 M,0,191708,,407,147 C,0,191708,,255,255,255 F,1,191708,193932,0.9,0 S,1,191708,193932,0.25,0.5
Sprite,Background,Centre,"sb\ring.png",0,0 M,0,192008,,458,304 C,0,192008,,255,255,255 F,1,192008,194008,0.9,0 S,1,192008,194008,0.25,0.5
Sprite,Background,Centre,"sb\ring.png",0,0 M,0,192158,,552,140 C,0,192158,,255,255,255 F,1,192158,194232,0.9,0 S,1,192158,194232,0.25,0.5
Sprite,Background,Centre,"sb\ring.png",0,0 M,0,192308,,553,256 C,0,192308,,255,255,255 F,1,192308,194532,0.9,0 S,1,192308,194532,0.25,0.5
Sprite,Background,Centre,"sb\ring.png",0,0 M,0,192608,,394,232 C,0,192608,,255,255,255 F,1,192608,194608,0.9,0 S,1,192608,194608,0.25,0.5
Sprite,Background,Centre,"sb\ring.png",0,0 M,0,192758,,198,321 C,0,192758,,255,255,255 F,1,192758,194758,0.9,0 S,1,192758,194758,0.25,0.5
Sprite,Background,Centre,"sb\ring.png",0,0 M,0,192908,,340,391 C,0,192908,,255,255,255 F,1,192908,194908,0.9,0 S,1,192908,194908,0.25,0.5
Sprite,Background,Centre,"sb\ring.png",0,0 M,0,193058,,240,424 C,0,193058,,255,255,255 F,1,193058,195282,0.9,0 S,1,193058,195282,0.25,0.5
Sprite,Background,Centre,"sb\ring.png",0,0 M,0,193358,,271,251 C,0,193358,,255,255,255 F,1,193358,195358,0.9,0 S,1,193358,195358,0.25,0.5
Sprite,Background,Centre,"sb\ring.png",0,0 M,0,193508,,159,85 C,0,193508,,255,255,255 F,1,193508,195732,0.9,0 S,1,193508,195732,0.25,0.5
Sprite,Background,Centre,"sb\ring.png",0,0 M,0,193808,,110,278 C,0,193808,,255,255,255 F,1,193808,195882,0.9,0 S,1,193808,195882,0.25,0.5
Sprite,Background,Centre,"sb\ring.png",0,0 M,0,193958,,310,141 C,0,193958,,255,255,255 F,1,193958,195958,0.9,0 S,1,193958,195958,0.25,0.5
Sprite,Background,Centre,"sb\ring.png",0,0 M,0,194108,,222,142 C,0,194108,,255,255,255 F,1,194108,196332,0.9,0 S,1,194108,196332,0.25,0.5
Sprite,Background,Centre,"sb\ring.png",0,0 M,0,194408,,382,214 C,0,194408,,255,255,255 F,1,194408,196408,0.9,0 S,1,194408,196408,0.25,0.5
Sprite,Background,Centre,"sb\ring.png",0,0 M,0,194558,,413,368 C,0,194558,,255,255,255 F,1,194558,196558,0.9,0 S,1,194558,196558,0.25,0.5
Sprite,Background,Centre,"sb\ring.png",0,0 M,0,194708,,485,243 C,0,194708,,255,255,255 F,1,194708,197007,0.9,0 S,1,194708,197007,0.25,0.5
Sprite,Background,Centre,"sb\ring.png",0,0 M,0,195158,,92,432 C,0,195158,,255,255,255 F,1,195158,197232,0.9,0 S,1,195158,197232,0.25,0.5
Sprite,Background,Centre,"sb\ring.png",0,0 M,0,195308,,225,350 C,0,195308,,255,255,255 F,1,195308,197382,0.9,0 S,1,195308,197382,0.25,0.5
Sprite,Background,Centre,"sb\ring.png",0,0 M,0,195458,,157,390 C,0,195458,,255,255,255 F,1,195458,197458,0.9,0 S,1,195458,197458,0.25,0.5
Sprite,Background,Centre,"sb\ring.png",0,0 M,0,195608,,157,390 C,0,195608,,255,255,255 F,1,195608,197608,0.9,0 S,1,195608,197608,0.25,0.5
Sprite,Background,Centre,"sb\ring.png",0,0 M,0,195758,,157,390 C,0,195758,,255,255,255 F,1,195758,197758,0.9,0 S,1,195758,197758,0.25,0.5
Sprite,Background,Centre,"sb\ring.png",0,0 M,0,196058,,381,120 C,0,196058,,255,255,255 F,1,196058,198207,0.9,0 S,1,196058,198207,0.25,0.5
Sprite,Background,Centre,"sb\ring.png",0,0 M,0,196283,,405,281 C,0,196283,,255,255,255 F,1,196283,198432,0.9,0 S,1,196283,198432,0.25,0.5
Sprite,Background,Centre,"sb\ring.png",0,0 M,0,196508,,291,137 C,0,196508,,255,255,255 F,1,196508,198582,0.9,0 S,1,196508,198582,0.25,0.5
Sprite,Background,Centre,"sb\ring.png",0,0 M,0,197108,,208,123 C,0,197108,,255,255,255 F,1,197108,199182,0.9,0 S,1,197108,199182,0.25,0.5
Sprite,Background,Centre,"sb\ring.png",0,0 M,0,197408,,64,261 C,0,197408,,255,255,255 F,1,197408,199482,0.9,0 S,1,197408,199482,0.25,0.5
Sprite,Background,Centre,"sb\ring.png",0,0 M,0,197558,,256,198 C,0,197558,,255,255,255 F,1,197558,199632,0.9,0 S,1,197558,199632,0.25,0.5
Sprite,Background,Centre,"sb\ring.png",0,0 M,0,197708,,449,308 C,0,197708,,255,255,255 F,1,197708,199782,0.9,0 S,1,197708,199782,0.25,0.5
Sprite,Background,Centre,"sb\ring.png",0,0 M,0,197858,,439,418 C,0,197858,,255,255,255 F,1,197858,199858,0.9,0 S,1,197858,199858,0.25,0.5
Sprite,Background,Centre,"sb\ring.png",0,0 M,0,198158,,439,418 C,0,198158,,255,255,255 F,1,198158,200158,0.9,0 S,1,198158,200158,0.25,0.5
Sprite,Background,Centre,"sb\ring.png",0,0 M,0,198308,,209,329 C,0,198308,,255,255,255 F,1,198308,200308,0.9,0 S,1,198308,200308,0.25,0.5
Sprite,Background,Centre,"sb\ring.png",0,0 M,0,198458,,320,104 C,0,198458,,255,255,255 F,1,198458,200458,0.9,0 S,1,198458,200458,0.25,0.5
Sprite,Background,Centre,"sb\ring.png",0,0 M,0,198608,,431,329 C,0,198608,,255,255,255 F,1,198608,200608,0.9,0 S,1,198608,200608,0.25,0.5
Sprite,Background,Centre,"sb\ring.png",0,0 M,0,198758,,201,418 C,0,198758,,255,255,255 F,1,198758,200758,0.9,0 S,1,198758,200758,0.25,0.5
Sprite,Background,Centre,"sb\ring.png",0,0 M,0,198908,,320,184 C,0,198908,,255,255,255 F,1,198908,200908,0.9,0 S,1,198908,200908,0.25,0.5
Sprite,Background,Centre,"sb\ring.png",0,0 M,0,199058,,423,241 C,0,199058,,255,255,255 F,1,199058,201058,0.9,0 S,1,199058,201058,0.25,0.5
Sprite,Background,Centre,"sb\ring.png",0,0 M,0,199208,,320,392 C,0,199208,,255,255,255 F,1,199208,201208,0.9,0 S,1,199208,201208,0.25,0.5
Sprite,Background,Centre,"sb\ring.png",0,0 M,0,199358,,217,241 C,0,199358,,255,255,255 F,1,199358,201358,0.9,0 S,1,199358,201358,0.25,0.5
Sprite,Background,Centre,"sb\ring.png",0,0 M,0,199508,,429,247 C,0,199508,,255,255,255 F,1,199508,201658,0.9,0 S,1,199508,201658,0.25,0.5
Sprite,Background,Centre,"sb\ring.png",0,0 M,0,199808,,198,165 C,0,199808,,255,255,255 F,1,199808,201957,0.9,0 S,1,199808,201957,0.25,0.5
Sprite,Background,Centre,"sb\ring.png",0,0 M,0,200108,,477,106 C,0,200108,,255,255,255 F,1,200108,202183,0.9,0 S,1,200108,202183,0.25,0.5
Sprite,Background,Centre,"sb\ring.png",0,0 M,0,200558,,508,100 C,0,200558,,255,255,255 F,1,200558,202783,0.9,0 S,1,200558,202783,0.25,0.5
Sprite,Background,Centre,"sb\ring.png",0,0 M,0,200858,,436,197 C,0,200858,,255,255,255 F,1,200858,203008,0.9,0 S,1,200858,203008,0.25,0.5
Sprite,Background,Centre,"sb\ring.png",0,0 M,0,201158,,277,309 C,0,201158,,255,255,255 F,1,201158,203233,0.9,0 S,1,201158,203233,0.25,0.5
Sprite,Background,Centre,"sb\ring.png",0,0 M,0,201308,,428,396 C,0,201308,,255,255,255 F,1,201308,203308,0.9,0 S,1,201308,203308,0.25,0.5
Sprite,Background,Centre,"sb\ring.png",0,0 M,0,201383,,419,404 C,0,201383,,255,255,255 F,1,201383,203383,0.9,0 S,1,201383,203383,0.25,0.5
Sprite,Background,Centre,"sb\ring.png",0,0 M,0,201458,,411,411 C,0,201458,,255,255,255 F,1,201458,203608,0.9,0 S,1,201458,203608,0.25,0.5
Sprite,Background,Centre,"sb\ring.png",0,0 M,0,201758,,525,182 C,0,201758,,255,255,255 F,1,201758,203758,0.9,0 S,1,201758,203758,0.25,0.5
Sprite,Background,Centre,"sb\ring.png",0,0 M,0,201908,,484,260 C,0,201908,,255,255,255 F,1,201908,204208,0.9,0 S,1,201908,204208,0.25,0.5
Sprite,Background,Centre,"sb\ring.png",0,0 M,0,202358,,228,186 C,0,202358,,255,255,255 F,1,202358,204358,0.9,0 S,1,202358,204358,0.25,0.5
Sprite,Background,Centre,"sb\ring.png",0,0 M,0,202508,,309,200 C,0,202508,,255,255,255 F,1,202508,204508,0.9,0 S,1,202508,204508,0.25,0.5
Sprite,Background,Centre,"sb\ring.png",0,0 M,0,202658,,229,320 C,0,202658,,255,255,255 F,1,202658,204658,0.9,0 S,1,202658,204658,0.25,0.5
Sprite,Background,Centre,"sb\ring.png",0,0 M,0,202808,,263,110 C,0,202808,,255,255,255 F,1,202808,204808,0.9,0 S,1,202808,204808,0.25,0.5
Sprite,Background,Centre,"sb\ring.png",0,0 M,0,202958,,317,285 C,0,202958,,255,255,255 F,1,202958,204958,0.9,0 S,1,202958,204958,0.25,0.5
Sprite,Background,Centre,"sb\ring.png",0,0 M,0,203108,,152,263 C,0,203108,,255,255,255 F,1,203108,205332,0.9,0 S,1,203108,205332,0.25,0.5
Sprite,Background,Centre,"sb\ring.png",0,0 M,0,203408,,235,192 C,0,203408,,255,255,255 F,1,203408,205483,0.9,0 S,1,203408,205483,0.25,0.5
Sprite,Background,Centre,"sb\ring.png",0,0 M,0,203558,,72,271 C,0,203558,,255,255,255 F,1,203558,205558,0.9,0 S,1,203558,205558,0.25,0.5
Sprite,Background,Centre,"sb\ring.png",0,0 M,0,203708,,256,213 C,0,203708,,255,255,255 F,1,203708,205933,0.9,0 S,1,203708,205933,0.25,0.5
Sprite,Background,Centre,"sb\ring.png",0,0 M,0,204008,,446,326 C,0,204008,,255,255,255 F,1,204008,206008,0.9,0 S,1,204008,206008,0.25,0.5
Sprite,Background,Centre,"sb\ring.png",0,0 M,0,204158,,257,294 C,0,204158,,255,255,255 F,1,204158,206233,0.9,0 S,1,204158,206233,0.25,0.5
Sprite,Background,Centre,"sb\ring.png",0,0 M,0,204308,,387,199 C,0,204308,,255,255,255 F,1,204308,206458,0.9,0 S,1,204308,206458,0.25,0.5
Sprite,Background,Centre,"sb\ring.png",0,0 M,0,204608,,316,370 C,0,204608,,255,255,255 F,1,204608,206683,0.9,0 S,1,204608,206683,0.25,0.5
Sprite,Background,Centre,"sb\ring.png",0,0 M,0,204758,,345,278 C,0,204758,,255,255,255 F,1,204758,206758,0.9,0 S,1,204758,206758,0.25,0.5
Sprite,Background,Centre,"sb\ring.png",0,0 M,0,204908,,374,186 C,0,204908,,255,255,255 F,1,204908,206983,0.9,0 S,1,204908,206983,0.25,0.5
Sprite,Background,Centre,"sb\ring.png",0,0 M,0,205058,,460,340 C,0,205058,,255,255,255 F,1,205058,207058,0.9,0 S,1,205058,207058,0.25,0.5
Sprite,Background,Centre,"sb\ring.png",0,0 M,0,205208,,556,366 C,0,205208,,255,255,255 F,1,205208,207208,0.9,0 S,1,205208,207208,0.25,0.5
Sprite,Background,Centre,"sb\ring.png",0,0 M,0,205358,,526,263 C,0,205358,,255,255,255 F,1,205358,207358,0.9,0 S,1,205358,207358,0.25,0.5
Sprite,Background,Centre,"sb\ring.png",0,0 M,0,205508,,460,340 C,0,205508,,255,255,255 F,1,205508,207733,0.9,0 S,1,205508,207733,0.25,0.5
Sprite,Background,Centre,"sb\ring.png",0,0 M,0,205808,,343,434 C,0,205808,,255,255,255 F,1,205808,207883,0.9,0 S,1,205808,207883,0.25,0.5
Sprite,Background,Centre,"sb\ring.png",0,0 M,0,205958,,209,392 C,0,205958,,255,255,255 F,1,205958,208033,0.9,0 S,1,205958,208033,0.25,0.5
Sprite,Background,Centre,"sb\ring.png",0,0 M,0,206108,,135,420 C,0,206108,,255,255,255 F,1,206108,208108,0.9,0 S,1,206108,208108,0.25,0.5
Sprite,Background,Centre,"sb\ring.png",0,0 M,0,206258,,285,306 C,0,206258,,255,255,255 F,1,206258,208482,0.9,0 S,1,206258,208482,0.25,0.5
Sprite,Background,Centre,"sb\ring.png",0,0 M,0,206558,,362,324 C,0,206558,,255,255,255 F,1,206558,208632,0.9,0 S,1,206558,208632,0.25,0.5
Sprite,Background,Centre,"sb\ring.png",0,0 M,0,206708,,178,214 C,0,206708,,255,255,255 F,1,206708,208782,0.9,0 S,1,206708,208782,0.25,0.5
Sprite,Background,Centre,"sb\ring.png",0,0 M,0,206858,,368,82 C,0,206858,,255,255,255 F,1,206858,208933,0.9,0 S,1,206858,208933,0.25,0.5
Sprite,Background,Centre,"sb\ring.png",0,0 M,0,207008,,286,102 C,0,207008,,255,255,255 F,1,207008,209083,0.9,0 S,1,207008,209083,0.25,0.5
Sprite,Background,Centre,"sb\ring.png",0,0 M,0,207158,,412,176 C,0,207158,,255,255,255 F,1,207158,209233,0.9,0 S,1,207158,209233,0.25,0.5
Sprite,Background,Centre,"sb\ring.png",0,0 M,0,207308,,251,284 C,0,207308,,255,255,255 F,1,207308,209383,0.9,0 S,1,207308,209383,0.25,0.5
Sprite,Background,Centre,"sb\ring.png",0,0 M,0,207458,,416,414 C,0,207458,,255,255,255 F,1,207458,209458,0.9,0 S,1,207458,209458,0.25,0.5
Sprite,Background,Centre,"sb\ring.png",0,0 M,0,207608,,335,242 C,0,207608,,255,255,255 F,1,207608,209758,0.9,0 S,1,207608,209758,0.25,0.5
Sprite,Background,Centre,"sb\ring.png",0,0 M,0,207908,,535,391 C,0,207908,,255,255,255 F,1,207908,210208,0.9,0 S,1,207908,210208,0.25,0.5
Sprite,Background,Centre,"sb\ring.png",0,0 M,0,208358,,255,314 C,0,208358,,255,255,255 F,1,208358,210358,0.9,0 S,1,208358,210358,0.25,0.5
Sprite,Background,Centre,"sb\ring.png",0,0 M,0,208508,,123,425 C,0,208508,,255,255,255 F,1,208508,210508,0.9,0 S,1,208508,210508,0.25,0.5
Sprite,Background,Centre,"sb\ring.png",0,0 M,0,208583,,143,428 C,0,208583,,255,255,255 F,1,208583,210583,0.9,0 S,1,208583,210583,0.25,0.5
Sprite,Background,Centre,"sb\ring.png",0,0 M,0,208658,,163,430 C,0,208658,,255,255,255 F,1,208658,210808,0.9,0 S,1,208658,210808,0.25,0.5
Sprite,Background,Centre,"sb\ring.png",0,0 M,0,208958,,81,137 C,0,208958,,255,255,255 F,1,208958,211108,0.9,0 S,1,208958,211108,0.25,0.5
Sprite,Background,Centre,"sb\ring.png",0,0 M,0,209258,,316,119 C,0,209258,,255,255,255 F,1,209258,211483,0.9,0 S,1,209258,211483,0.25,0.5
Sprite,Background,Centre,"sb\ring.png",0,0 M,0,209558,,243,269 C,0,209558,,255,255,255 F,1,209558,211633,0.9,0 S,1,209558,211633,0.25,0.5
Sprite,Background,Centre,"sb\ring.png",0,0 M,0,209708,,64,249 C,0,209708,,255,255,255 F,1,209708,211783,0.9,0 S,1,209708,211783,0.25,0.5
Sprite,Background,Centre,"sb\ring.png",0,0 M,0,209858,,157,216 C,0,209858,,255,255,255 F,1,209858,212083,0.9,0 S,1,209858,212083,0.25,0.5
Sprite,Background,Centre,"sb\ring.png",0,0 M,0,210158,,90,182 C,0,210158,,255,255,255 F,1,210158,212158,0.9,0 S,1,210158,212158,0.25,0.5
Sprite,Background,Centre,"sb\ring.png",0,0 M,0,210308,,215,96 C,0,210308,,255,255,255 F,1,210308,212308,0.9,0 S,1,210308,212308,0.25,0.5
Sprite,Background,Centre,"sb\ring.png",0,0 M,0,210458,,325,201 C,0,210458,,255,255,255 F,1,210458,212458,0.9,0 S,1,210458,212458,0.25,0.5
Sprite,Background,Centre,"sb\ring.png",0,0 M,0,210608,,462,172 C,0,210608,,255,255,255 F,1,210608,212608,0.9,0 S,1,210608,212608,0.25,0.5
Sprite,Background,Centre,"sb\ring.png",0,0 M,0,210758,,277,364 C,0,210758,,255,255,255 F,1,210758,212758,0.9,0 S,1,210758,212758,0.25,0.5
Sprite,Background,Centre,"sb\ring.png",0,0 M,0,210908,,443,339 C,0,210908,,255,255,255 F,1,210908,212908,0.9,0 S,1,210908,212908,0.25,0.5
Sprite,Background,Centre,"sb\ring.png",0,0 M,0,211058,,203,212 C,0,211058,,255,255,255 F,1,211058,213283,0.9,0 S,1,211058,213283,0.25,0.5
Sprite,Background,Centre,"sb\ring.png",0,0 M,0,211358,,191,288 C,0,211358,,255,255,255 F,1,211358,213433,0.9,0 S,1,211358,213433,0.25,0.5
Sprite,Background,Centre,"sb\ring.png",0,0 M,0,211508,,450,350 C,0,211508,,255,255,255 F,1,211508,213732,0.9,0 S,1,211508,213732,0.25,0.5
Sprite,Background,Centre,"sb\ring.png",0,0 M,0,211808,,316,379 C,0,211808,,255,255,255 F,1,211808,213883,0.9,0 S,1,211808,213883,0.25,0.5
Sprite,Background,Centre,"sb\ring.png",0,0 M,0,211958,,288,148 C,0,211958,,255,255,255 F,1,211958,214033,0.9,0 S,1,211958,214033,0.25,0.5
Sprite,Background,Centre,"sb\ring.png",0,0 M,0,212108,,301,266 C,0,212108,,255,255,255 F,1,212108,214108,0.9,0 S,1,212108,214108,0.25,0.5
Sprite,Background,Centre,"sb\ring.png",0,0 M,0,212258,,542,125 C,0,212258,,255,255,255 F,1,212258,214258,0.9,0 S,1,212258,214258,0.25,0.5
Sprite,Background,Centre,"sb\ring.png",0,0 M,0,212408,,388,179 C,0,212408,,255,255,255 F,1,212408,214557,0.9,0 S,1,212408,214557,0.25,0.5
Sprite,Background,Centre,"sb\ring.png",0,0 M,0,212708,,443,201 C,0,212708,,255,255,255 F,1,212708,215308,0.9,0 S,1,212708,215308,0.25,0.5
Sprite,Background,Centre,"sb\ring.png",0,0 M,0,213908,,129,343 C,0,213908,,255,255,255 F,1,213908,215908,0.9,0 S,1,213908,215908,0.25,0.5
Sprite,Background,Centre,"sb\ring.png",0,0 M,0,214208,,141,355 C,0,214208,,255,255,255 F,1,214208,216283,0.9,0 S,1,214208,216283,0.25,0.5
Sprite,Background,Centre,"sb\ring.png",0,0 M,0,214358,,319,376 C,0,214358,,255,255,255 F,1,214358,216358,0.9,0 S,1,214358,216358,0.25,0.5
Sprite,Background,Centre,"sb\ring.png",0,0 M,0,214433,,306,356 C,0,214433,,255,255,255 F,1,214433,216433,0.9,0 S,1,214433,216433,0.25,0.5
Sprite,Background,Centre,"sb\ring.png",0,0 M,0,214508,,320,332 C,0,214508,,255,255,255 F,1,214508,216508,0.9,0 S,1,214508,216508,0.25,0.5
Sprite,Background,Centre,"sb\ring.png",0,0 M,0,214583,,307,296 C,0,214583,,255,255,255 F,1,214583,216583,0.9,0 S,1,214583,216583,0.25,0.5
Sprite,Background,Centre,"sb\ring.png",0,0 M,0,214658,,319,251 C,0,214658,,255,255,255 F,1,214658,216658,0.9,0 S,1,214658,216658,0.25,0.5
Sprite,Background,Centre,"sb\ring.png",0,0 M,0,214733,,320,248 C,0,214733,,255,255,255 F,1,214733,218758,0.9,0 S,1,214733,218758,0.25,0.5
Sprite,Background,Centre,"sb\ring.png",0,0 M,0,217058,,476,344 C,0,217058,,255,255,255 F,1,217058,219283,0.9,0 S,1,217058,219283,0.25,0.5
Sprite,Background,Centre,"sb\ring.png",0,0 M,0,217358,,483,195 C,0,217358,,255,255,255 F,1,217358,219508,0.9,0 S,1,217358,219508,0.25,0.5
Sprite,Background,Centre,"sb\ring.png",0,0 M,0,217658,,476,344 C,0,217658,,255,255,255 F,1,217658,219808,0.9,0 S,1,217658,219808,0.25,0.5
Sprite,Background,Centre,"sb\ring.png",0,0 M,0,217958,,215,247 C,0,217958,,255,255,255 F,1,217958,219958,0.9,0 S,1,217958,219958,0.25,0.5
Sprite,Background,Centre,"sb\ring.png",0,0 M,0,218108,,338,160 C,0,218108,,255,255,255 F,1,218108,220108,0.9,0 S,1,218108,220108,0.25,0.5
Sprite,Background,Centre,"sb\ring.png",0,0 M,0,218258,,182,90 C,0,218258,,255,255,255 F,1,218258,220408,0.9,0 S,1,218258,220408,0.25,0.5
Sprite,Background,Centre,"sb\ring.png",0,0 M,0,218558,,437,272 C,0,218558,,255,255,255 F,1,218558,220708,0.9,0 S,1,218558,220708,0.25,0.5
Sprite,Background,Centre,"sb\ring.png",0,0 M,0,218858,,463,56 C,0,218858,,255,255,255 F,1,218858,221083,0.9,0 S,1,218858,221083,0.25,0.5
Sprite,Background,Centre,"sb\ring.png",0,0 M,0,219158,,420,185 C,0,219158,,255,255,255 F,1,219158,221158,0.9,0 S,1,219158,221158,0.25,0.5
Sprite,Background,Centre,"sb\ring.png",0,0 M,0,219308,,302,141 C,0,219308,,255,255,255 F,1,219308,221383,0.9,0 S,1,219308,221383,0.25,0.5
Sprite,Background,Centre,"sb\ring.png",0,0 M,0,219458,,495,218 C,0,219458,,255,255,255 F,1,219458,221758,0.9,0 S,1,219458,221758,0.25,0.5
Sprite,Background,Centre,"sb\ring.png",0,0 M,0,219908,,305,232 C,0,219908,,255,255,255 F,1,219908,221908,0.9,0 S,1,219908,221908,0.25,0.5
Sprite,Background,Centre,"sb\ring.png",0,0 M,0,220058,,169,193 C,0,220058,,255,255,255 F,1,220058,222133,0.9,0 S,1,220058,222133,0.25,0.5
Sprite,Background,Centre,"sb\ring.png",0,0 M,0,220208,,329,305 C,0,220208,,255,255,255 F,1,220208,222358,0.9,0 S,1,220208,222358,0.25,0.5
Sprite,Background,Centre,"sb\ring.png",0,0 M,0,220508,,259,120 C,0,220508,,255,255,255 F,1,220508,222583,0.9,0 S,1,220508,222583,0.25,0.5
Sprite,Background,Centre,"sb\ring.png",0,0 M,0,220658,,75,199 C,0,220658,,255,255,255 F,1,220658,222883,0.9,0 S,1,220658,222883,0.25,0.5
Sprite,Background,Centre,"sb\ring.png",0,0 M,0,220958,,227,202 C,0,220958,,255,255,255 F,1,220958,222958,0.9,0 S,1,220958,222958,0.25,0.5
Sprite,Background,Centre,"sb\ring.png",0,0 M,0,221108,,134,138 C,0,221108,,255,255,255 F,1,221108,223108,0.9,0 S,1,221108,223108,0.25,0.5
Sprite,Background,Centre,"sb\ring.png",0,0 M,0,221258,,338,219 C,0,221258,,255,255,255 F,1,221258,223258,0.9,0 S,1,221258,223258,0.25,0.5
Sprite,Background,Centre,"sb\ring.png",0,0 M,0,221408,,433,179 C,0,221408,,255,255,255 F,1,221408,223408,0.9,0 S,1,221408,223408,0.25,0.5
Sprite,Background,Centre,"sb\ring.png",0,0 M,0,221558,,501,112 C,0,221558,,255,255,255 F,1,221558,223558,0.9,0 S,1,221558,223558,0.25,0.5
Sprite,Background,Centre,"sb\ring.png",0,0 M,0,221708,,411,60 C,0,221708,,255,255,255 F,1,221708,223783,0.9,0 S,1,221708,223783,0.25,0.5
Sprite,Background,Centre,"sb\ring.png",0,0 M,0,221858,,420,255 C,0,221858,,255,255,255 F,1,221858,224158,0.9,0 S,1,221858,224158,0.25,0.5
Sprite,Background,Centre,"sb\ring.png",0,0 M,0,222308,,342,225 C,0,222308,,255,255,255 F,1,222308,224458,0.9,0 S,1,222308,224458,0.25,0.5
Sprite,Background,Centre,"sb\ring.png",0,0 M,0,222608,,521,208 C,0,222608,,255,255,255 F,1,222608,224758,0.9,0 S,1,222608,224758,0.25,0.5
Sprite,Background,Centre,"sb\ring.png",0,0 M,0,222908,,430,251 C,0,222908,,255,255,255 F,1,222908,224908,0.9,0 S,1,222908,224908,0.25,0.5
Sprite,Background,Centre,"sb\ring.png",0,0 M,0,223058,,366,400 C,0,223058,,255,255,255 F,1,223058,225133,0.9,0 S,1,223058,225133,0.25,0.5
Sprite,Background,Centre,"sb\ring.png",0,0 M,0,223208,,486,381 C,0,223208,,255,255,255 F,1,223208,225208,0.9,0 S,1,223208,225208,0.25,0.5
Sprite,Background,Centre,"sb\ring.png",0,0 M,0,223358,,308,344 C,0,223358,,255,255,255 F,1,223358,225508,0.9,0 S,1,223358,225508,0.25,0.5
Sprite,Background,Centre,"sb\ring.png",0,0 M,0,223658,,451,277 C,0,223658,,255,255,255 F,1,223658,225658,0.9,0 S,1,223658,225658,0.25,0.5
Sprite,Background,Centre,"sb\ring.png",0,0 M,0,223808,,372,152 C,0,223808,,255,255,255 F,1,223808,225808,0.9,0 S,1,223808,225808,0.25,0.5
Sprite,Background,Centre,"sb\ring.png",0,0 M,0,223958,,451,277 C,0,223958,,255,255,255 F,1,223958,226033,0.9,0 S,1,223958,226033,0.25,0.5
Sprite,Background,Centre,"sb\ring.png",0,0 M,0,224108,,372,152 C,0,224108,,255,255,255 F,1,224108,226183,0.9,0 S,1,224108,226183,0.25,0.5
Sprite,Background,Centre,"sb\ring.png",0,0 M,0,224258,,448,64 C,0,224258,,255,255,255 F,1,224258,226558,0.9,0 S,1,224258,226558,0.25,0.5
Sprite,Background,Centre,"sb\ring.png",0,0 M,0,224858,,448,64 C,0,224858,,255,255,255 F,1,224858,226858,0.9,0 S,1,224858,226858,0.25,0.5
Sprite,Background,Centre,"sb\ring.png",0,0 M,0,225008,,283,101 C,0,225008,,255,255,255 F,1,225008,227158,0.9,0 S,1,225008,227158,0.25,0.5
Sprite,Background,Centre,"sb\ring.png",0,0 M,0,225308,,425,208 C,0,225308,,255,255,255 F,1,225308,227383,0.9,0 S,1,225308,227383,0.25,0.5
Sprite,Background,Centre,"sb\ring.png",0,0 M,0,225458,,519,315 C,0,225458,,255,255,255 F,1,225458,227458,0.9,0 S,1,225458,227458,0.25,0.5
Sprite,Background,Centre,"sb\ring.png",0,0 M,0,225608,,401,368 C,0,225608,,255,255,255 F,1,225608,227608,0.9,0 S,1,225608,227608,0.25,0.5
Sprite,Background,Centre,"sb\ring.png",0,0 M,0,225758,,399,281 C,0,225758,,255,255,255 F,1,225758,227758,0.9,0 S,1,225758,227758,0.25,0.5
Sprite,Background,Centre,"sb\ring.png",0,0 M,0,225908,,519,425 C,0,225908,,255,255,255 F,1,225908,228133,0.9,0 S,1,225908,228133,0.25,0.5
Sprite,Background,Centre,"sb\ring.png",0,0 M,0,226208,,334,340 C,0,226208,,255,255,255 F,1,226208,228358,0.9,0 S,1,226208,228358,0.25,0.5
Sprite,Background,Centre,"sb\ring.png",0,0 M,0,226508,,349,231 C,0,226508,,255,255,255 F,1,226508,228508,0.9,0 S,1,226508,228508,0.25,0.5
Sprite,Background,Centre,"sb\ring.png",0,0 M,0,226658,,289,178 C,0,226658,,255,255,255 F,1,226658,228808,0.9,0 S,1,226658,228808,0.25,0.5
Sprite,Background,Centre,"sb\ring.png",0,0 M,0,226958,,469,359 C,0,226958,,255,255,255 F,1,226958,229183,0.9,0 S,1,226958,229183,0.25,0.5
Sprite,Background,Centre,"sb\ring.png",0,0 M,0,227258,,458,191 C,0,227258,,255,255,255 F,1,227258,229258,0.9,0 S,1,227258,229258,0.25,0.5
Sprite,Background,Centre,"sb\ring.png",0,0 M,0,227408,,368,315 C,0,227408,,255,255,255 F,1,227408,229483,0.9,0 S,1,227408,229483,0.25,0.5
Sprite,Background,Centre,"sb\ring.png",0,0 M,0,227558,,210,407 C,0,227558,,255,255,255 F,1,227558,229558,0.9,0 S,1,227558,229558,0.25,0.5
Sprite,Background,Centre,"sb\ring.png",0,0 M,0,227708,,381,396 C,0,227708,,255,255,255 F,1,227708,230008,0.9,0 S,1,227708,230008,0.25,0.5
Sprite,Background,Centre,"sb\ring.png",0,0 M,0,228158,,324,301 C,0,228158,,255,255,255 F,1,228158,230158,0.9,0 S,1,228158,230158,0.25,0.5
Sprite,Background,Centre,"sb\ring.png",0,0 M,0,228308,,97,219 C,0,228308,,255,255,255 F,1,228308,230458,0.9,0 S,1,228308,230458,0.25,0.5
Sprite,Background,Centre,"sb\ring.png",0,0 M,0,228608,,263,252 C,0,228608,,255,255,255 F,1,228608,230683,0.9,0 S,1,228608,230683,0.25,0.5
Sprite,Background,Centre,"sb\ring.png",0,0 M,0,228758,,294,137 C,0,228758,,255,255,255 F,1,228758,230758,0.9,0 S,1,228758,230758,0.25,0.5
Sprite,Background,Centre,"sb\ring.png",0,0 M,0,228908,,182,203 C,0,228908,,255,255,255 F,1,228908,230908,0.9,0 S,1,228908,230908,0.25,0.5
Sprite,Background,Centre,"sb\ring.png",0,0 M,0,229058,,353,242 C,0,229058,,255,255,255 F,1,229058,231058,0.9,0 S,1,229058,231058,0.25,0.5
Sprite,Background,Centre,"sb\ring.png",0,0 M,0,229208,,428,228 C,0,229208,,255,255,255 F,1,229208,231208,0.9,0 S,1,229208,231208,0.25,0.5
Sprite,Background,Centre,"sb\ring.png",0,0 M,0,229358,,492,266 C,0,229358,,255,255,255 F,1,229358,231358,0.9,0 S,1,229358,231358,0.25,0.5
Sprite,Background,Centre,"sb\ring.png",0,0 M,0,229508,,505,339 C,0,229508,,255,255,255 F,1,229508,231508,0.9,0 S,1,229508,231508,0.25,0.5
Sprite,Background,Centre,"sb\ring.png",0,0 M,0,229658,,505,339 C,0,229658,,255,255,255 F,1,229658,231733,0.9,0 S,1,229658,231733,0.25,0.5
Sprite,Background,Centre,"sb\ring.png",0,0 M,0,229808,,351,363 C,0,229808,,255,255,255 F,1,229808,231883,0.9,0 S,1,229808,231883,0.25,0.5
Sprite,Background,Centre,"sb\ring.png",0,0 M,0,229958,,257,234 C,0,229958,,255,255,255 F,1,229958,232033,0.9,0 S,1,229958,232033,0.25,0.5
Sprite,Background,Centre,"sb\ring.png",0,0 M,0,230108,,346,156 C,0,230108,,255,255,255 F,1,230108,232108,0.9,0 S,1,230108,232108,0.25,0.5
Sprite,Background,Centre,"sb\ring.png",0,0 M,0,230258,,346,156 C,0,230258,,255,255,255 F,1,230258,232633,0.9,0 S,1,230258,232633,0.25,0.5
Sprite,Background,Centre,"sb\ring.png",0,0 M,0,230708,,230,250 C,0,230708,,255,255,255 F,1,230708,232708,0.9,0 S,1,230708,232708,0.25,0.5
Sprite,Background,Centre,"sb\ring.png",0,0 M,0,230858,,142,361 C,0,230858,,255,255,255 F,1,230858,232858,0.9,0 S,1,230858,232858,0.25,0.5
Sprite,Background,Centre,"sb\ring.png",0,0 M,0,230933,,147,357 C,0,230933,,255,255,255 F,1,230933,232933,0.9,0 S,1,230933,232933,0.25,0.5
Sprite,Background,Centre,"sb\ring.png",0,0 M,0,231008,,152,355 C,0,231008,,255,255,255 F,1,231008,233083,0.9,0 S,1,231008,233083,0.25,0.5
Sprite,Background,Centre,"sb\ring.png",0,0 M,0,231158,,66,255 C,0,231158,,255,255,255 F,1,231158,233158,0.9,0 S,1,231158,233158,0.25,0.5
Sprite,Background,Centre,"sb\ring.png",0,0 M,0,231233,,66,255 C,0,231233,,255,255,255 F,1,231233,233233,0.9,0 S,1,231233,233233,0.25,0.5
Sprite,Background,Centre,"sb\ring.png",0,0 M,0,231308,,66,255 C,0,231308,,255,255,255 F,1,231308,233383,0.9,0 S,1,231308,233383,0.25,0.5
//Storyboard Layer 1 (Fail)
//Storyboard Layer 2 (Pass)
//Storyboard Layer 3 (Foreground)
//Storyboard Layer 4 (Overlay)
//Storyboard Sound Samples

[TimingPoints]
1058,300,4,2,3,40,1,0
1067,-100,4,2,99,30,0,0
11483,-100,4,2,99,5,0,0
11558,-100,4,2,99,20,0,0
13358,-133.333333333333,4,2,99,20,0,0
13883,-133.333333333333,4,2,99,5,0,0
13958,-133.333333333333,4,2,99,20,0,0
14258,-285.714285714286,4,2,99,20,0,0
15383,-285.714285714286,4,2,99,5,0,0
15458,-666.666666666667,4,2,99,20,0,0
18683,-666.666666666667,4,2,99,5,0,0
18758,-333.333333333333,4,2,99,25,0,0
20258,-142.857142857143,4,2,99,25,0,0
21083,-142.857142857143,4,2,99,5,0,0
21158,-142.857142857143,4,2,99,25,0,0
21758,-100,4,2,99,25,0,0
22583,-116.279069767442,4,2,99,25,0,0
23483,-116.279069767442,4,2,99,5,0,0
23558,-116.279069767442,4,2,99,25,0,0
23858,-142.857142857143,4,2,99,25,0,0
24158,-83.3333333333333,4,2,99,25,0,0
24308,-100,4,2,99,25,0,0
24833,-71.4285714285714,4,2,99,25,0,0
24983,-71.4285714285714,4,2,99,5,0,0
25058,-333.333333333333,4,2,99,25,0,0
26858,-142.857142857143,4,2,99,25,0,0
29858,-125,4,2,99,30,0,0
29867,-125,4,2,99,30,0,0
34658,-71.4285714285714,4,2,99,30,0,0
34958,-125,4,2,99,30,0,0
36008,-166.666666666667,4,2,99,30,0,0
36158,-90.9090909090909,4,2,99,30,0,0
37508,-111.111111111111,4,2,99,30,0,0
38108,-80,4,2,99,30,0,0
38858,-100,4,2,99,30,0,0
39458,-142.857142857143,4,2,99,30,0,0
41558,-90.9090909090909,4,2,99,30,0,0
43958,-166.666666666667,4,2,99,30,0,0
44258,-111.111111111111,4,2,99,30,0,0
45758,-83.3333333333333,4,2,99,30,0,0
46358,-166.666666666667,4,2,99,30,0,0
46958,-312.5,4,2,99,30,0,0
51158,-100,4,2,99,15,0,0
51458,-90.9090909090909,4,2,99,70,0,0
51467,-90.9090909090909,4,2,99,70,0,0
51758,-83.3333333333333,4,2,99,70,0,0
56108,-71.4285714285714,4,2,99,70,0,0
56258,-83.3333333333333,4,2,99,70,0,0
60533,-83.3333333333333,4,2,99,5,0,0
60608,-83.3333333333333,4,2,99,70,0,0
60758,-76.9230769230769,4,2,99,70,0,0
60908,-66.6666666666667,4,2,99,70,0,0
61058,-83.3333333333333,4,2,99,70,0,0
63683,-83.3333333333333,4,2,99,5,0,0
63758,-83.3333333333333,4,2,99,70,0,0
65183,-83.3333333333333,4,2,99,5,0,0
65258,-83.3333333333333,4,2,99,70,0,0
65483,-83.3333333333333,4,2,99,5,0,0
65558,-83.3333333333333,4,2,99,70,0,0
65633,-83.3333333333333,4,2,99,5,0,0
65708,-83.3333333333333,4,2,99,70,0,0
65783,-83.3333333333333,4,2,99,5,0,0
65858,-74.0740740740741,4,2,99,70,0,0
66008,-74.0740740740741,4,2,99,5,0,0
66058,-74.0740740740741,4,2,99,70,0,0
66158,-74.0740740740741,4,2,99,5,0,0
66233,-74.0740740740741,4,2,99,70,0,0
66383,-74.0740740740741,4,2,99,5,0,0
66458,-74.0740740740741,4,2,99,70,0,0
66608,-74.0740740740741,4,2,99,5,0,0
66658,-74.0740740740741,4,2,99,70,0,0
66758,-74.0740740740741,4,2,99,5,0,0
66858,-74.0740740740741,4,2,99,70,0,0
66983,-74.0740740740741,4,2,99,5,0,0
67058,-76.9230769230769,4,2,99,70,0,0
68108,-500,4,2,99,50,0,0
69383,-500,4,2,99,5,0,0
69458,-500,4,2,99,50,0,0
70658,-100,4,2,99,50,0,0
71558,-100,4,2,99,30,0,0
72008,-133.333333333333,4,2,99,50,0,0
72017,-133.333333333333,4,2,99,50,0,0
72083,-133.333333333333,4,2,99,40,0,0
72158,-133.333333333333,4,2,99,50,0,0
72233,-133.333333333333,4,2,99,30,0,0
72608,-133.333333333333,4,2,99,40,0,0
72758,-133.333333333333,4,2,99,50,0,0
73958,-133.333333333333,4,2,99,40,0,0
74408,-133.333333333333,4,2,99,30,0,0
74567,-133.333333333333,4,2,99,40,0,0
74858,-50,4,2,99,50,0,0
75167,-50,4,2,99,50,0,0
75458,-133.333333333333,4,2,99,50,0,0
76358,-133.333333333333,4,2,99,30,0,0
76367,-133.333333333333,4,2,99,50,0,0
76817,-133.333333333333,4,2,99,50,0,0
77258,-133.333333333333,4,2,99,55,0,0
77708,-133.333333333333,4,2,99,60,0,0
77858,-133.333333333333,4,2,99,50,0,0
79208,-100,4,2,99,50,0,0
79658,-80,4,2,99,50,0,0
80258,-100,4,2,99,60,0,0
80267,-100,4,2,99,60,0,0
86408,-83.3333333333333,4,2,99,60,0,0
86483,-83.3333333333333,4,2,99,5,0,0
86558,-83.3333333333333,4,2,99,60,0,0
87008,-100,4,2,99,60,0,0
89183,-100,4,2,99,5,0,0
89258,-100,4,2,99,60,0,0
91283,-100,4,2,99,5,0,0
91358,-100,4,2,99,60,0,0
94658,-80,4,2,99,60,0,0
97283,-80,4,2,99,5,0,0
97358,-80,4,2,99,60,0,0
98333,-80,4,2,99,5,0,0
98408,-80,4,2,99,60,0,0
99458,-95.2380952380952,4,2,99,60,0,0
99467,-95.2380952380952,4,2,99,60,0,0
101183,-95.2380952380952,4,2,99,5,0,0
101258,-95.2380952380952,4,2,99,60,0,0
101858,-117.647058823529,4,2,99,60,0,0
102458,-95.2380952380952,4,2,99,60,0,0
103583,-95.2380952380952,4,2,99,5,0,0
103658,-95.2380952380952,4,2,99,60,0,0
105983,-95.2380952380952,4,2,99,5,0,0
106058,-95.2380952380952,4,2,99,60,0,0
106658,-117.647058823529,4,2,99,60,0,0
107258,-95.2380952380952,4,2,99,60,0,0
108383,-95.2380952380952,4,2,99,5,0,0
108458,-95.2380952380952,4,2,99,60,0,0
110783,-95.2380952380952,4,2,99,5,0,0
110858,-95.2380952380952,4,2,99,60,0,0
111458,-117.647058823529,4,2,99,60,0,0
111908,-95.2380952380952,4,2,99,60,0,0
113183,-95.2380952380952,4,2,99,5,0,0
113258,-95.2380952380952,4,2,99,60,0,0
115583,-95.2380952380952,4,2,99,5,0,0
115658,-95.2380952380952,4,2,99,60,0,0
116258,-285.714285714286,4,2,99,60,0,0
119858,-100,4,2,99,5,0,0
120008,-100,4,2,99,15,0,0
120158,-100,4,2,99,25,0,0
120308,-83.3333333333333,4,2,99,35,0,0
120458,-100,4,2,99,45,0,0
120608,-100,4,2,99,55,0,0
121058,-100,4,2,99,70,0,0
121508,-83.3333333333333,4,2,99,70,0,0
121733,-83.3333333333333,4,2,99,5,0,0
121808,-83.3333333333333,4,2,99,70,0,0
122333,-83.3333333333333,4,2,99,5,0,0
122408,-83.3333333333333,4,2,99,70,0,0
123083,-83.3333333333333,4,2,99,5,0,0
123158,-76.9230769230769,4,2,99,70,0,0
123983,-76.9230769230769,4,2,99,5,0,0
124058,-76.9230769230769,4,2,99,70,0,0
124733,-76.9230769230769,4,2,99,5,0,0
124808,-76.9230769230769,4,2,99,70,0,0
125108,-83.3333333333333,4,2,99,70,0,0
125783,-83.3333333333333,4,2,99,5,0,0
125858,-71.4285714285714,4,2,99,70,0,0
126158,-100,4,2,99,70,0,0
126533,-100,4,2,99,5,0,0
126608,-100,4,2,99,70,0,0
126908,-83.3333333333333,4,2,99,70,0,0
127133,-83.3333333333333,4,2,99,5,0,0
127208,-83.3333333333333,4,2,99,70,0,0
127358,-125,4,2,99,70,0,0
128258,-100,4,2,99,70,0,0
128333,-100,4,2,99,5,0,0
128408,-100,4,2,99,70,0,0
128933,-100,4,2,99,5,0,0
129008,-100,4,2,99,70,0,0
129083,-100,4,2,99,5,0,0
129158,-100,4,2,99,70,0,0
129233,-100,4,2,99,5,0,0
129308,-100,4,2,99,70,0,0
129458,-90.9090909090909,4,2,99,70,0,0
129533,-90.9090909090909,4,2,99,5,0,0
129608,-90.9090909090909,4,2,99,70,0,0
130658,-83.3333333333333,4,2,99,70,0,0
131333,-83.3333333333333,4,2,99,5,0,0
131408,-83.3333333333333,4,2,99,70,0,0
131933,-83.3333333333333,4,2,99,5,0,0
132008,-83.3333333333333,4,2,99,70,0,0
132158,-111.111111111111,4,2,99,70,0,0
133283,-111.111111111111,4,2,99,5,0,0
133358,-111.111111111111,4,2,99,70,0,0
134108,-76.9230769230769,4,2,99,70,0,0
134333,-76.9230769230769,4,2,99,5,0,0
134408,-76.9230769230769,4,2,99,70,0,0
136433,-76.9230769230769,4,2,99,5,0,0
136508,-66.6666666666667,4,2,99,70,0,0
137333,-66.6666666666667,4,2,99,5,0,0
137408,-66.6666666666667,4,2,99,70,0,0
137633,-66.6666666666667,4,2,99,5,0,0
137708,-66.6666666666667,4,2,99,70,0,0
137858,-66.6666666666667,4,2,99,60,0,0
138083,-66.6666666666667,4,2,99,5,0,0
138158,-66.6666666666667,4,2,99,60,0,0
138308,-83.3333333333333,4,2,99,60,0,0
139508,-76.9230769230769,4,2,99,60,0,0
140408,-100,4,2,99,60,0,0
140483,-100,4,2,99,5,0,0
140558,-100,4,2,99,60,0,0
143108,-66.6666666666667,4,2,99,60,0,0
143333,-66.6666666666667,4,2,99,5,0,0
143408,-66.6666666666667,4,2,99,60,0,0
143483,-66.6666666666667,4,2,99,5,0,0
143558,-100,4,2,99,60,0,0
143933,-100,4,2,99,5,0,0
144008,-66.6666666666667,4,2,99,60,0,0
144233,-66.6666666666667,4,2,99,5,0,0
144308,-66.6666666666667,4,2,99,60,0,0
144383,-66.6666666666667,4,2,99,5,0,0
144458,-66.6666666666667,4,2,99,60,0,0
145058,-83.3333333333333,4,2,99,60,0,0
145508,-66.6666666666667,4,2,99,60,0,0
145733,-66.6666666666667,4,2,99,5,0,0
145808,-66.6666666666667,4,2,99,60,0,0
146258,-100,4,2,99,60,0,0
146858,-80,4,2,99,60,0,0
149108,-66.6666666666667,4,2,99,60,0,0
149333,-66.6666666666667,4,2,99,5,0,0
149408,-80,4,2,99,60,0,0
149633,-80,4,2,99,5,0,0
149708,-80,4,2,99,60,0,0
151508,-66.6666666666667,4,2,99,60,0,0
152408,-100,4,2,99,5,0,0
152458,-100,4,2,99,60,0,0
152608,-100,4,2,99,5,0,0
152658,-100,4,2,99,60,0,0
152808,-100,4,2,99,5,0,0
152858,-100,4,2,99,60,0,0
153008,-100,4,2,99,5,0,0
153058,-100,4,2,99,60,0,0
153208,-100,4,2,99,5,0,0
153258,-66.6666666666667,4,2,99,60,0,0
153408,-66.6666666666667,4,2,99,5,0,0
153458,-66.6666666666667,4,2,99,60,0,0
154133,-66.6666666666667,4,2,99,5,0,0
154208,-66.6666666666667,4,2,99,60,0,0
154433,-66.6666666666667,4,2,99,5,0,0
154508,-500,4,2,99,60,0,0
155858,-200,4,2,99,60,0,0
156308,-133.333333333333,4,2,99,60,0,0
156467,-133.333333333333,4,2,99,60,0,0
156758,-200,4,2,99,30,0,0
166658,-142.857142857143,4,2,99,30,0,0
173708,-200,4,2,99,30,0,0
173717,-200,4,2,99,30,0,0
174458,-333.333333333333,4,2,99,30,0,0
174858,-666.666666666667,4,2,99,30,0,0
179858,-100,4,2,99,5,0,0
180008,-100,4,2,99,15,0,0
180158,-100,4,2,99,25,0,0
180308,-83.3333333333333,4,2,99,35,0,0
180317,-83.3333333333333,4,2,99,35,0,0
180458,-76.9230769230769,4,2,99,45,0,0
180617,-76.9230769230769,4,2,99,45,0,0
180917,-76.9230769230769,4,2,99,45,0,0
181058,-83.3333333333333,4,2,99,60,0,0
181067,-83.3333333333333,4,2,99,60,0,0
181733,-83.3333333333333,4,2,99,5,0,0
181808,-83.3333333333333,4,2,99,60,0,0
182333,-83.3333333333333,4,2,99,5,0,0
182408,-83.3333333333333,4,2,99,60,0,0
183458,-74.0740740740741,4,2,99,60,0,0
184883,-74.0740740740741,4,2,99,5,0,0
184958,-74.0740740740741,4,2,99,60,0,0
185558,-83.3333333333333,4,2,99,60,0,0
185858,-66.6666666666667,4,2,99,60,0,0
186158,-83.3333333333333,4,2,99,60,0,0
187133,-83.3333333333333,4,2,99,5,0,0
187208,-83.3333333333333,4,2,99,60,0,0
189158,-74.0740740740741,4,2,99,60,0,0
189533,-74.0740740740741,4,2,99,5,0,0
189608,-74.0740740740741,4,2,99,60,0,0
190358,-68.9655172413793,4,2,99,60,0,0
190508,-64.5161290322581,4,2,99,60,0,0
190658,-55.5555555555556,4,2,99,60,0,0
191108,-71.4285714285714,4,2,99,60,0,0
191333,-71.4285714285714,4,2,99,5,0,0
191408,-71.4285714285714,4,2,99,60,0,0
191933,-71.4285714285714,4,2,99,5,0,0
192008,-71.4285714285714,4,2,99,60,0,0
192158,-76.9230769230769,4,2,99,60,0,0
192683,-76.9230769230769,4,2,99,5,0,0
192758,-76.9230769230769,4,2,99,60,0,0
193583,-76.9230769230769,4,2,99,5,0,0
193658,-76.9230769230769,4,2,99,60,0,0
194483,-76.9230769230769,4,2,99,5,0,0
194558,-76.9230769230769,4,2,99,60,0,0
194933,-76.9230769230769,4,2,99,5,0,0
195008,-76.9230769230769,4,2,99,60,0,0
196433,-76.9230769230769,4,2,99,5,0,0
196508,-76.9230769230769,4,2,99,60,0,0
196583,-76.9230769230769,4,2,99,5,0,0
196808,-76.9230769230769,4,2,99,60,0,0
197858,-238.095238095238,4,2,99,60,0,0
198083,-238.095238095238,4,2,99,5,0,0
198158,-100,4,2,99,60,0,0
199733,-100,4,2,99,5,0,0
199808,-83.3333333333333,4,2,99,60,0,0
200033,-83.3333333333333,4,2,99,5,0,0
200108,-133.333333333333,4,2,99,60,0,0
200558,-80,4,2,99,60,0,0
200858,-100,4,2,99,60,0,0
201683,-100,4,2,99,5,0,0
201758,-100,4,2,99,60,0,0
202583,-100,4,2,99,5,0,0
202658,-100,4,2,99,60,0,0
203108,-75.0018750468762,4,2,99,60,0,0
203408,-133.333333333333,4,2,99,60,0,0
203708,-80,4,2,99,60,0,0
203933,-80,4,2,99,5,0,0
204008,-80,4,2,99,60,0,0
205133,-80,4,2,99,5,0,0
205208,-80,4,2,99,60,0,0
205283,-80,4,2,99,5,0,0
205358,-80,4,2,99,60,0,0
205583,-80,4,2,99,5,0,0
205658,-80,4,2,99,60,0,0
206258,-75.0018750468762,4,2,99,60,0,0
206333,-75.0018750468762,4,2,99,5,0,0
206408,-75.0018750468762,4,2,99,60,0,0
206858,-133.333333333333,4,2,99,60,0,0
207158,-80,4,2,99,60,0,0
208133,-80,4,2,99,5,0,0
208208,-80,4,2,99,60,0,0
208733,-80,4,2,99,5,0,0
208808,-80,4,2,99,60,0,0
210083,-80,4,2,99,5,0,0
210158,-80,4,2,99,60,0,0
211133,-80,4,2,99,5,0,0
211208,-80,4,2,99,60,0,0
211508,-71.4285714285714,4,2,99,60,0,0
211808,-100,4,2,99,60,0,0
212408,-166.666666666667,4,2,99,60,0,0
212708,-133.333333333333,4,2,99,60,0,0
213233,-133.333333333333,4,2,99,5,0,0
213308,-133.333333333333,4,2,99,60,0,0
213383,-133.333333333333,4,2,99,5,0,0
213758,-133.333333333333,4,2,99,45,0,0
213908,-133.333333333333,4,2,99,60,0,0
214208,-80,4,2,99,60,0,0
216983,-80,4,2,99,5,0,0
217058,-80,4,2,99,60,0,0
217358,-91.743119266055,4,2,99,60,0,0
230258,-100,4,2,99,15,0,0
230408,-100,4,2,99,25,0,0
230558,-100,4,2,99,35,0,0
230708,-100,4,2,99,45,0,0
230858,-100,4,2,99,60,0,0
231458,-333.333333333333,4,2,99,30,0,0
231467,-333.333333333333,4,2,99,30,0,0
248743,526.315789473684,4,2,3,40,1,0
248874,555.555555555556,4,2,3,40,1,0
249012,659.340659340659,4,2,3,40,1,0
249176,615.384615384615,4,2,3,40,1,0
249252,300,4,2,3,40,1,0
249317,-333.333333333333,4,2,99,30,0,0
255458,-333.333333333333,4,2,99,5,0,0

[Colours]
Combo1 : 191,191,191
Combo2 : 204,165,248
Combo3 : 133,84,152
Combo4 : 142,198,204

[HitObjects]
425,69,11558,5,2,0:0:0:0:
358,94,11858,1,2,0:0:0:0:
336,121,12158,1,2,0:0:0:0:
330,141,12458,1,2,0:0:0:0:
336,153,12758,1,2,0:0:0:0:
340,147,13058,6,0,B|248:157|297:210|187:222,1,170,2|2,0:0|0:0,0:0:0:0:
193,221,13508,1,0,0:0:0:0:
201,145,13658,2,0,P|179:140|131:123,1,63.7500024318696,2|0,0:0|0:0,0:0:0:0:
235,327,13958,2,0,L|241:363,2,31.8750012159348,2|0|0,0:0|0:0|0:0,0:0:0:0:
328,229,14258,1,2,0:0:0:0:
328,229,14708,6,0,P|357:259|407:251,1,89.2499972763062,2|2,0:0|0:0,0:0:0:0:
406,252,15458,6,0,P|334:260|307:329,1,152.999995330811,2|0,0:0|0:0,0:0:0:0:
306,328,17858,1,2,0:0:0:0:
45,160,18758,5,2,0:0:0:0:
57,231,19058,1,2,0:0:0:0:
64,259,19358,1,2,0:0:0:0:
69,275,19658,1,2,0:0:0:0:
72,285,19958,1,2,0:0:0:0:
73,292,20258,6,0,P|125:278|156:160,1,178.499994552612,2|0,0:0|0:0,0:0:0:0:
150,100,20858,2,0,P|93:118|91:173,1,118.999996368408,0|2,0:0|0:0,0:0:0:0:
84,175,21458,2,0,P|74:146|83:120,1,59.4999981842042,2|0,0:0|0:0,0:0:0:0:
248,220,21758,6,0,B|336:196|336:196|360:126|360:126|450:101,1,255,2|0,0:0|0:0,0:0:0:0:
446,101,22358,1,2,0:0:0:0:
337,320,22583,5,0,0:0:0:0:
338,333,22658,2,0,B|368:316|389:306|389:306|373:268|355:211,1,146.200002230835,2|2,0:0|0:0,0:0:0:0:
295,265,23108,1,0,0:0:0:0:
397,380,23258,2,0,B|315:392|346:330|250:341,1,146.200002230835,0|2,0:0|0:0,0:0:0:0:
37,164,23858,6,0,P|17:189|25:217,1,59.4999981842042,2|0,0:0|0:0,0:0:0:0:
217,163,24158,6,0,B|227:153|243:144|243:144|233:142|223:128,1,50.9999984436036
107,201,24308,2,0,B|150:175|199:178|199:178|184:223|219:253,1,170,2|0,0:0|0:0,0:0:0:0:
399,154,24758,1,2,0:0:0:0:
411,151,24833,2,0,B|398:113|398:113|306:137,1,118.999996368408
280,128,25058,6,0,B|352:86|394:146|394:146|442:211|507:169,1,254.999992218018,2|0,0:0|0:0,0:0:0:0:
508,93,26858,2,0,P|479:94|458:125,1,59.4999981842042
380,243,27158,2,0,P|351:242|330:211,1,59.4999981842042,2|0,0:0|0:0,0:0:0:0:
334,210,27383,1,0,0:0:0:0:
343,203,27458,1,2,0:0:0:0:
256,192,27533,12,0,29558,0:0:0:0:
449,74,29858,5,2,0:0:0:0:
375,105,30008,1,0,0:0:0:0:
512,208,30158,2,0,P|466:155|408:176,1,136
411,342,30758,5,2,0:0:0:0:
335,318,30908,2,0,B|361:324|361:324|374:333|374:333|406:340,1,68,0|2,0:0|0:0,0:0:0:0:
285,220,31208,1,0,0:0:0:0:
410,172,31358,2,0,B|355:190|355:190|344:203|344:203|285:221,1,136
228,174,31808,1,0,0:0:0:0:
202,272,31958,1,2,0:0:0:0:
386,56,32183,5,0,0:0:0:0:
374,50,32258,2,0,P|351:77|362:115,1,68,2|0,0:0|0:0,0:0:0:0:
467,225,32558,1,0,0:0:0:0:
370,306,32708,2,0,P|380:281|389:225,1,68
410,172,33008,2,0,P|400:197|391:253,1,68,0|2,0:0|0:0,0:0:0:0:
435,342,33308,5,0,0:0:0:0:
444,333,33383,1,0,0:0:0:0:
445,320,33458,1,2,0:0:0:0:
388,240,33608,1,0,0:0:0:0:
271,209,33758,1,2,0:0:0:0:
146,261,33908,5,0,0:0:0:0:
169,331,34058,1,2,0:0:0:0:
223,276,34208,1,0,0:0:0:0:
157,87,34358,6,0,P|131:108|126:146,1,68,2|0,0:0|0:0,0:0:0:0:
130,147,34583,1,0,0:0:0:0:
146,156,34658,6,0,P|144:84|44:83,1,178.499994552612,2|0,0:0|0:0,0:0:0:0:
40,85,34958,1,2,0:0:0:0:
82,235,35108,5,2,0:0:0:0:
54,160,35258,2,0,B|107:144|144:176|144:176|168:244|228:233,1,204,2|0,0:0|0:0,0:0:0:0:
223,233,35858,1,2,0:0:0:0:
306,344,36008,6,0,B|310:328|310:328|314:326|314:326|313:318,1,25.4999992218018
403,314,36158,6,0,B|374:321|349:357|349:357|347:298|321:235,1,187.000005706787,2|2,0:0|0:0,0:0:0:0:
294,178,36608,1,0,0:0:0:0:
242,261,36758,5,2,0:0:0:0:
373,175,36908,2,0,P|372:152|353:128,2,46.7500014266968,0|0|2,0:0|0:0|0:0,0:0:0:0:
432,226,37208,1,0,0:0:0:0:
294,178,37358,1,0,0:0:0:0:
443,79,37508,2,0,B|355:109|355:109|326:87|342:55,1,152.999995330811
396,1,37958,1,2,0:0:0:0:
373,175,38108,6,0,P|309:111|236:127,1,159.375
230,131,38408,1,2,0:0:0:0:
339,252,38558,6,0,B|379:286|417:267|417:267|411:242|370:254,1,106.25
385,253,38783,1,0,0:0:0:0:
378,257,38858,2,0,B|298:278|333:338|219:338,1,170,2|0,0:0|0:0,0:0:0:0:
42,188,39458,5,2,0:0:0:0:
107,158,39608,1,0,0:0:0:0:
47,118,39758,1,0,0:0:0:0:
65,154,39908,5,0,0:0:0:0:
105,52,40058,2,0,P|80:32|49:39,1,59.4999981842042
144,242,40358,5,2,0:0:0:0:
163,324,40508,1,0,0:0:0:0:
163,324,40658,2,0,P|191:326|213:307,1,59.4999981842042,2|0,0:0|0:0,0:0:0:0:
337,178,40958,5,0,0:0:0:0:
360,102,41108,1,0,0:0:0:0:
360,102,41258,2,0,P|387:95|419:125,1,59.4999981842042
498,212,41558,6,0,B|491:255|491:255|493:265|493:265|485:305,1,93.5000028533936,2|0,0:0|0:0,0:0:0:0:
481,323,41783,1,0,0:0:0:0:
475,350,41858,1,2,0:0:0:0:
418,253,42008,1,0,0:0:0:0:
292,151,42158,5,0,0:0:0:0:
243,278,42308,2,0,P|310:183|400:178,1,187.000005706787
373,172,42758,1,2,0:0:0:0:
263,63,42908,6,0,B|264:47|262:24|262:24|268:52|279:90,1,93.5000028533936,0|2,0:0|0:0,0:0:0:0:
175,227,43208,1,0,0:0:0:0:
292,151,43358,1,0,0:0:0:0:
182,136,43508,2,0,B|292:156|233:217|345:227,1,187.000005706787
472,314,43958,2,0,P|447:304|464:329,1,76.4999976654053,2|0,0:0|0:0,0:0:0:0:
481,306,44258,5,2,0:0:0:0:
405,284,44408,1,0,0:0:0:0:
331,310,44558,1,2,0:0:0:0:
270,360,44708,2,0,P|217:366|200:283,1,152.999995330811,2|0,0:0|0:0,0:0:0:0:
198,284,45158,1,0,0:0:0:0:
335,112,45308,6,0,B|331:137|330:154|330:154|322:140|306:120,1,76.4999976654053
246,199,45608,1,0,0:0:0:0:
429,135,45758,6,0,B|321:123|374:220|230:197,1,203.999993774414,4|0,0:0|0:0,0:0:0:0:
69,69,46358,5,2,0:0:0:0:
69,69,46508,2,0,P|101:55|74:75,1,101.999996887207
131,154,46958,6,0,B|149:188|132:232|132:232|118:175|69:143|69:143|126:88|93:23|93:23|92:50|68:79,1,380.8
468,116,50858,5,0,0:0:0:0:
388,62,51008,2,0,L|378:121,1,54.4
468,116,51458,6,0,B|372:100|410:193|288:158,1,187.000005706787,6|8,1:2|0:0,0:0:0:0:
128,59,51908,2,0,B|171:4|225:25|225:25|221:47|233:75,1,152.999995330811
234,83,52208,1,0,1:0:0:0:
78,275,52358,5,10,0:0:0:0:
161,136,52508,2,0,P|115:139|85:195,1,101.999996887207,2|0,0:0|0:0,0:0:0:0:
137,361,52808,2,0,P|144:333|155:303,2,50.9999984436036,0|0|10,1:0|0:0|0:0,0:0:0:0:
325,202,53108,2,0,B|302:188|294:151|294:151|214:205|245:280,1,203.999993774414,0|0,1:0|0:0,0:0:0:0:
293,380,53558,1,10,0:0:0:0:
482,208,53708,1,2,0:0:0:0:
512,345,53858,6,0,B|474:332|474:332|463:317|463:317|421:301,1,101.999996887207,2|0,1:2|0:0,0:0:0:0:
358,270,54083,1,0,0:0:0:0:
352,288,54158,1,8,0:0:0:0:
298,131,54308,1,0,0:0:0:0:
204,239,54458,5,0,0:0:0:0:
404,149,54608,2,0,B|435:143|476:165|476:165|467:134|452:125,1,101.999996887207,2|8,1:2|0:0,0:0:0:0:
274,18,54908,2,0,B|216:6|186:57|186:57|213:79|215:108,1,152.999995330811,2|0,0:0|0:0,0:0:0:0:
199,116,55208,1,0,1:0:0:0:
429,68,55358,5,8,0:0:0:0:
293,210,55508,2,0,B|285:184|316:154|316:154|311:176|326:206,1,101.999996887207,0|2,1:0|0:0,0:0:0:0:
429,68,55808,5,0,1:0:0:0:
423,58,55883,1,0,1:0:0:0:
412,48,55958,2,0,B|390:44|390:44|373:44|333:34,1,50.9999984436036,10|0,0:0|0:0,0:0:0:0:
501,156,56108,6,0,B|516:150|530:151|530:151|516:145|499:134,1,59.4999981842042
315,154,56258,6,0,B|371:174|371:174|383:209|383:209|438:225,1,152.999995330811,2|0,1:2|0:0,0:0:0:0:
458,231,56558,1,10,0:0:0:0:
318,297,56708,2,0,B|263:308|235:273|235:273|236:343|182:376,1,203.999993774414,2|0,0:0|0:0,0:0:0:0:
214,195,57158,5,10,0:0:0:0:
73,269,57308,2,0,P|118:258|145:312,1,101.999996887207,2|0,0:0|0:0,0:0:0:0:
146,298,57608,1,2,1:2:0:0:
73,112,57758,1,8,0:0:0:0:
18,168,57908,2,0,P|70:161|148:93,1,152.999995330811,2|0,1:2|0:0,0:0:0:0:
151,80,58208,1,2,1:2:0:0:
331,125,58358,5,10,0:0:0:0:
142,229,58508,1,2,0:0:0:0:
330,235,58658,6,0,B|279:231|270:190|270:190|243:164|195:175,1,152.999995330811,0|0,1:0|0:0,0:0:0:0:
127,243,58958,2,0,B|110:268|84:288|84:288|33:216|113:156,1,203.999993774414,8|2,0:0|0:0,0:0:0:0:
195,11,59408,2,0,P|237:28|221:81,1,101.999996887207,0|10,1:0|0:0,0:0:0:0:
155,73,59708,5,2,0:0:0:0:
309,9,59858,1,0,0:0:0:0:
335,81,60008,1,0,1:0:0:0:
195,11,60158,1,8,0:0:0:0:
415,41,60308,6,0,B|382:58|358:77|358:77|367:117|382:198,1,152.999995330811,0|0,1:0|0:0,0:0:0:0:
472,254,60608,5,0,1:0:0:0:
468,255,60683,1,0,1:0:0:0:
463,257,60758,2,0,B|457:238|457:238|454:219|454:219|444:180,1,55.2499974708558,10|0,0:0|0:0,0:0:0:0:
294,332,60908,6,0,B|302:308|302:308|300:290|300:290|310:269,1,63.7500024318696,8|0,0:0|0:0,0:0:0:0:
374,324,61058,6,0,B|313:311|313:311|300:299|300:299|224:285,1,152.999995330811,6|0,1:2|0:0,0:0:0:0:
210,281,61358,1,8,0:0:0:0:
86,374,61508,6,0,B|55:326|85:283|85:283|149:239|117:174,1,203.999993774414
52,16,61958,2,0,P|5:33|1:83,1,101.999996887207,10|0,0:0|0:0,0:0:0:0:
3,92,62183,1,0,0:0:0:0:
17,110,62258,5,0,0:0:0:0:
89,171,62408,1,0,1:0:0:0:
128,101,62558,1,10,0:0:0:0:
6,182,62708,1,2,1:0:0:0:
324,126,62858,5,2,0:0:0:0:
235,96,63008,1,2,1:0:0:0:
347,202,63158,1,10,0:0:0:0:
371,50,63308,1,2,0:0:0:0:
262,207,63458,6,0,B|257:258|213:293|213:293|243:298|264:330,1,152.999995330811,2|0,1:0|0:0,0:0:0:0:
267,334,63758,1,8,0:0:0:0:
161,218,63908,2,0,P|114:223|98:278,1,101.999996887207
274,129,64208,1,2,1:0:0:0:
206,73,64358,6,0,B|178:68|178:68|194:98,1,50.9999984436036,10|0,0:0|0:0,0:0:0:0:
274,129,64508,2,0,B|303:133|362:150|362:150|367:119|384:77,1,152.999995330811,2|0,0:0|0:0,0:0:0:0:
386,74,64808,1,0,1:0:0:0:
464,231,64958,5,10,0:0:0:0:
378,326,65108,2,0,B|383:299|399:281|399:281|387:262|386:230,1,101.999996887207
284,59,65408,2,0,B|291:84|291:84|276:120,1,50.9999984436036,2|0,1:0|0:0,0:0:0:0:
225,198,65558,5,10,0:0:0:0:
364,44,65708,1,2,0:0:0:0:
111,103,65858,6,0,B|168:91|168:91|143:121,1,76.5000002918244,10|0,0:0|0:0,0:0:0:0:
225,198,66058,2,0,B|282:210|282:210|257:180,1,76.5000002918244,2|0,1:0|0:0,0:0:0:0:
362,121,66258,2,0,B|419:109|419:109|394:139,1,76.5000002918244,2|0,1:0|0:0,0:0:0:0:
473,241,66458,6,0,P|504:236|473:233,1,76.5000002918244,8|0,0:0|0:0,0:0:0:0:
366,344,66658,6,0,P|345:377|304:374,1,76.5000002918244,2|0,1:0|0:0,0:0:0:0:
240,260,66858,2,0,P|261:227|302:230,1,76.5000002918244,10|0,0:0|0:0,0:0:0:0:
302,301,67058,1,0,1:0:0:0:
111,363,67208,6,0,B|117:339|117:339|118:324|118:324|125:298,1,55.2499974708558,10|0,0:0|0:0,0:0:0:0:
145,192,67358,2,0,B|118:188|87:177|87:177|83:201|70:227,1,110.499994941712,2|0,0:0|0:0,0:0:0:0:
295,226,67658,5,2,0:0:0:0:
239,350,67808,2,0,B|197:313|225:257|225:257|296:209|241:147,1,220.999989883423,2|4,1:0|1:2,0:0:0:0:
256,192,68183,12,0,70358,0:0:0:0:
128,359,70658,5,10,0:0:0:0:
112,284,70808,1,2,0:0:0:0:
208,215,70958,1,10,0:0:0:0:
192,140,71108,1,2,1:0:0:0:
20,52,71558,5,4,1:2:0:0:
29,61,72008,2,0,L|21:107,1,31.8750012159348,2|0,0:0|0:0,0:0:0:0:
99,81,72158,2,0,L|91:127,3,31.8750012159348
58,174,72458,5,2,0:0:0:0:
63,164,72533,1,0,0:0:0:0:
74,155,72608,1,0,0:0:0:0:
100,150,72683,1,0,0:0:0:0:
124,164,72758,1,0,0:0:0:0:
137,207,72833,1,0,0:0:0:0:
107,246,72908,1,2,0:0:0:0:
172,98,73058,5,2,1:0:0:0:
323,131,73208,1,2,0:0:0:0:
256,185,73358,1,10,0:0:0:0:
227,31,73508,1,2,1:0:0:0:
247,110,73658,5,2,0:0:0:0:
219,252,73808,1,2,0:0:0:0:
216,24,73958,5,4,1:2:0:0:
227,31,74408,2,0,L|272:25,1,31.8750012159348,2|0,0:0|0:0,0:0:0:0:
330,15,74558,2,0,L|375:9,3,31.8750012159348
419,60,74858,6,0,B|459:152|326:204|296:130|296:130|319:146|356:143,1,255,10|2,0:0|1:0,0:0:0:0:
343,131,75158,6,0,B|348:162|348:162|340:187|340:187|346:235,1,85
266,358,75458,5,2,1:0:0:0:
432,247,75608,1,2,0:0:0:0:
416,367,75758,1,10,0:0:0:0:
255,273,75908,1,2,1:0:0:0:
428,358,76358,6,0,L|492:347,2,63.7500024318696,4|8|0,1:2|0:3|1:0,0:0:0:0:
357,337,76808,1,2,0:0:0:0:
357,337,77258,1,2,0:0:0:0:
357,337,77708,1,2,0:0:0:0:
256,368,77858,5,2,1:0:0:0:
315,194,78008,1,2,0:0:0:0:
230,179,78158,1,10,0:0:0:0:
327,326,78308,1,2,1:0:0:0:
419,294,78458,5,2,0:0:0:0:
261,265,78608,1,10,0:0:0:0:
97,351,78758,6,0,L|106:270,1,63.7500024318696,4|0,1:2|0:0,0:0:0:0:
97,351,79058,1,0,0:0:0:0:
181,262,79208,6,0,P|98:261|40:202,1,170,2|0,0:0|0:0,0:0:0:0:
178,346,79658,6,0,P|204:339|231:336,1,53.125,2|0,0:0|0:0,0:0:0:0:
150,187,79808,2,0,P|176:183|202:177,1,53.125,8|0,3:0|0:0,0:0:0:0:
181,262,80108,5,0,1:0:0:0:
420,333,80258,5,4,1:2:0:0:
463,258,80408,1,0,0:0:0:0:
368,190,80558,1,8,0:0:0:0:
425,100,80708,2,0,B|430:59|430:59|412:17,1,85
423,27,80933,1,0,0:0:0:0:
432,35,81008,1,0,1:0:0:0:
228,133,81158,2,0,B|267:122|267:122|291:90|291:90|337:81,1,127.5,10|0,0:0|0:0,0:0:0:0:
345,72,81458,6,0,P|302:65|261:55,1,85,2|0,0:0|1:0,0:0:0:0:
264,212,81758,1,10,0:0:0:0:
471,143,81908,2,0,P|408:139|356:174,1,127.5,0|0,1:0|0:0,0:0:0:0:
341,171,82208,2,0,P|349:191|354:212,1,42.5,0|0,1:0|0:0,0:0:0:0:
220,285,82358,2,0,P|262:291|303:301,1,85,10|0,0:0|0:0,0:0:0:0:
55,350,82658,5,2,1:0:0:0:
33,269,82808,1,0,0:0:0:0:
165,222,82958,1,10,0:0:0:0:
182,130,83108,2,0,L|89:101,1,85
112,100,83333,1,0,0:0:0:0:
124,95,83408,1,0,1:0:0:0:
247,189,83558,2,0,L|276:263,1,42.5,10|0,0:0|0:0,0:0:0:0:
325,66,83708,2,0,L|340:26,1,42.5
247,39,83858,5,2,0:0:0:0:
340,178,84008,1,0,1:0:0:0:
496,138,84158,1,8,0:0:0:0:
403,125,84308,2,0,B|424:165|424:165|416:216,1,85,2|0,1:0|0:0,0:0:0:0:
487,309,84608,2,0,L|469:248,1,42.5,0|0,1:0|0:0,0:0:0:0:
406,214,84758,2,0,L|265:186,1,127.5,10|0,0:0|0:0,0:0:0:0:
216,223,85058,5,2,1:0:0:0:
290,60,85208,1,0,0:0:0:0:
291,199,85358,1,8,0:0:0:0:
139,177,85508,2,0,B|110:118|110:118|131:40,1,127.5
135,72,85808,2,0,P|116:61|95:57,1,42.5,0|0,1:0|0:0,0:0:0:0:
200,29,85958,1,8,0:0:0:0:
58,190,86108,6,0,P|71:227|72:268,1,42.5
216,153,86258,2,0,P|214:174|216:195,1,42.5
180,363,86408,6,0,B|177:326|177:326|161:296|161:296|155:239,1,101.999996887207,0|8,0:0|0:0,0:0:0:0:
137,173,86708,1,0,1:0:0:0:
94,344,86858,1,0,0:0:0:0:
274,291,87008,2,0,L|340:304,2,42.5,0|0|8,1:0|0:0|0:0,0:0:0:0:
160,267,87308,1,0,0:0:0:0:
373,179,87458,6,0,B|284:201|284:201|306:207|324:240,1,127.5,0|0,1:0|0:0,0:0:0:0:
258,267,87758,2,0,L|270:191,1,42.5,8|0,0:0|0:0,0:0:0:0:
254,102,87908,1,0,0:0:0:0:
273,289,88058,1,0,0:0:0:0:
322,152,88208,1,0,1:0:0:0:
340,244,88358,1,10,0:0:0:0:
401,173,88508,5,0,0:0:0:0:
412,209,88658,1,2,0:0:0:0:
422,170,88808,1,0,1:0:0:0:
484,235,88958,5,10,0:0:0:0:
502,131,89108,2,0,L|486:34,1,85,0|2,0:0|0:0,0:0:0:0:
376,273,89408,2,0,L|360:370,1,85,0|10,1:0|0:0,0:0:0:0:
282,173,89708,2,0,L|270:116,1,42.5
197,125,89858,5,2,1:0:0:0:
361,184,90008,2,0,B|405:194|405:194|446:168,1,85,0|8,0:0|0:0,0:0:0:0:
269,191,90308,2,0,B|259:234|259:234|233:259|233:259|219:319,1,127.5
266,370,90608,2,0,L|251:313,1,42.5,0|0,1:0|0:0,0:0:0:0:
110,303,90758,2,0,L|95:246,1,42.5,10|0,0:0|0:0,0:0:0:0:
152,205,90908,1,0,0:0:0:0:
154,192,90983,1,2,0:0:0:0:
156,179,91058,5,2,0:0:0:0:
28,306,91208,1,0,0:0:0:0:
239,180,91358,2,0,L|224:123,1,42.5,10|0,0:0|0:0,0:0:0:0:
82,55,91508,2,0,L|190:90,1,85,0|2,1:0|0:0,0:0:0:0:
292,33,91808,6,0,L|257:58,1,42.5,0|0,1:0|0:0,0:0:0:0:
230,270,91958,2,0,B|243:242|243:242|218:136,1,127.5,10|0,0:0|0:0,0:0:0:0:
228,138,92258,6,0,L|127:116,1,85,2|0,1:0|0:0,0:0:0:0:
320,251,92558,1,10,0:0:0:0:
123,303,92708,2,0,B|161:271|212:279|212:279|190:318,1,127.5,2|0,0:1|0:0,0:0:0:0:
123,303,93008,5,0,1:0:0:0:
249,210,93158,1,10,0:0:0:0:
70,233,93308,5,0,0:0:0:0:
242,189,93458,2,0,L|260:98,1,85,2|0,0:0|1:0,0:0:0:0:
60,144,93758,5,10,0:0:0:0:
271,124,93908,2,0,L|300:-12,1,127.5,2|0,1:0|0:0,0:0:0:0:
315,12,94208,6,0,L|305:53,1,42.5,0|0,1:0|0:0,0:0:0:0:
335,275,94358,2,0,L|315:192,1,85,10|0,0:0|0:0,0:0:0:0:
346,164,94583,1,0,0:0:0:0:
350,171,94658,6,0,P|300:229|225:215,1,159.375,2|0,1:0|0:0,0:0:0:0:
230,206,94958,2,0,L|300:223,1,53.125,8|0,0:0|0:0,0:0:0:0:
440,340,95108,2,0,P|409:297|358:290,1,106.25
438,129,95408,2,0,P|386:133|349:170,1,106.25,0|8,1:0|0:0,0:0:0:0:
350,171,95708,6,0,B|335:119|335:119|344:65,1,106.25,2|0,1:2|0:0,0:0:0:0:
261,280,96008,2,0,L|276:198,1,53.125,0|0,1:0|0:0,0:0:0:0:
236,91,96158,2,0,L|258:139,1,53.125,8|0,0:0|0:0,0:0:0:0:
283,216,96308,6,0,B|140:184|140:184|176:224|150:277,1,212.5,0|0,1:0|0:0,0:0:0:0:
321,316,96758,2,0,B|397:288|397:288|373:329,1,106.25,8|0,0:0|0:0,0:0:0:0:
285,381,96983,1,0,0:0:0:0:
271,370,97058,6,0,L|279:317,1,53.125,2|0,1:0|0:0,0:0:0:0:
89,321,97208,2,0,L|67:259,1,53.125
183,332,97358,1,8,0:0:0:0:
204,152,97508,1,0,0:0:0:0:
154,246,97658,5,0,0:0:0:0:
236,240,97808,1,0,1:0:0:0:
164,53,97958,1,10,0:0:0:0:
358,60,98108,2,0,L|254:77,1,106.25
337,270,98408,2,0,L|212:233,1,106.25,0|8,1:0|0:0,0:0:0:0:
303,166,98708,5,0,1:0:0:0:
408,180,98858,1,0,0:0:0:0:
203,149,99008,1,0,1:0:0:0:
200,142,99083,1,0,1:0:0:0:
197,135,99158,5,10,0:0:0:0:
340,279,99308,1,0,0:0:0:0:
365,57,99458,1,4,1:2:0:0:
365,57,99758,1,0,1:0:0:0:
365,57,100058,2,0,B|436:93|486:46|486:46|475:21|441:32,1,178.499994552612,8|0,0:0|0:0,0:0:0:0:
283,113,100508,6,0,P|241:121|182:132,1,89.2499972763062,2|0,0:0|0:0,0:0:0:0:
130,95,100808,1,0,1:0:0:0:
162,204,100958,1,0,0:0:0:0:
195,129,101108,5,0,1:0:0:0:
67,234,101258,1,8,0:0:0:0:
67,234,101408,2,0,B|174:215|129:296|252:265,1,178.499994552612,0|0,1:0|0:0,0:0:0:0:
351,184,101858,6,0,P|307:170|266:150,1,72.2500013780594,0|0,1:0|0:0,0:0:0:0:
369,342,102158,2,0,P|325:355|286:376,1,72.2500013780594,0|0,1:0|0:0,0:0:0:0:
436,239,102458,2,0,P|497:271|488:372,1,178.499994552612,8|0,0:0|0:0,0:0:0:0:
342,270,102908,6,0,P|352:222|350:172,1,89.2499972763062,2|0,0:0|0:0,0:0:0:0:
424,131,103208,1,0,1:0:0:0:
341,8,103358,1,0,0:0:0:0:
430,49,103508,1,0,1:0:0:0:
286,124,103658,1,8,0:0:0:0:
350,182,103808,2,0,B|409:151|444:178|444:178|481:226|517:209,1,178.499994552612,0|0,1:0|0:0,0:0:0:0:
424,131,104258,5,0,1:0:0:0:
410,207,104558,1,0,1:0:0:0:
394,283,104858,2,0,P|341:283|261:369,1,178.499994552612,8|0,0:0|0:0,0:0:0:0:
177,282,105308,6,0,L|84:271,1,89.2499972763062,2|0,0:0|0:0,0:0:0:0:
26,221,105608,1,2,1:2:0:0:
50,337,105758,1,0,0:0:0:0:
210,197,105908,5,0,1:0:0:0:
174,313,106058,1,8,0:0:0:0:
217,202,106208,1,0,1:0:0:0:
1,191,106358,5,2,0:0:0:0:
13,199,106458,2,0,L|88:184,1,74.3749977302552,2|0,0:0|0:0,0:0:0:0:
171,131,106658,6,0,B|159:97|159:97|177:61,1,72.2500013780594,0|0,1:0|0:0,0:0:0:0:
275,161,106958,2,0,L|367:181,1,72.2500013780594,0|0,1:0|0:0,0:0:0:0:
509,26,107258,2,0,P|458:21|400:84,1,133.874995914459,8|0,0:0|0:0,0:0:0:0:
394,88,107558,1,0,0:0:0:0:
470,196,107708,6,0,P|474:130|484:98,1,89.2499972763062,2|0,0:0|0:0,0:0:0:0:
376,170,108008,1,2,1:2:0:0:
490,315,108158,2,0,B|442:299|442:299|425:269|425:269|366:250,1,133.874995914459
361,251,108458,1,8,0:0:0:0:
246,349,108608,1,2,1:2:0:0:
184,306,108758,1,0,0:0:0:0:
254,275,108908,1,2,0:0:0:0:
159,383,109058,6,0,P|171:305|184:195,2,178.499994552612,0|0|8,1:0|1:0|0:0,0:0:0:0:
88,218,109958,2,0,P|44:230|-2:238,1,89.2499972763062,0|2,0:0|0:0,0:0:0:0:
132,132,110258,1,0,0:0:0:0:
50,69,110408,2,0,B|156:71|110:139|223:129,1,178.499994552612,0|0,1:0|1:0,0:0:0:0:
382,82,110858,5,8,0:0:0:0:
262,189,111008,2,0,B|305:218|324:196|324:196|311:138|304:85,1,178.499994552612,0|0,1:0|0:0,0:0:0:0:
404,49,111458,6,0,L|486:63,1,72.2500013780594,0|0,1:0|0:0,0:0:0:0:
345,214,111758,1,0,1:0:0:0:
470,170,111908,1,0,0:0:0:0:
399,144,112058,2,0,P|386:190|386:297,1,133.874995914459,8|0,0:0|0:0,0:0:0:0:
367,291,112358,2,0,P|391:318|450:312,1,89.2499972763062,0|2,0:0|0:0,0:0:0:0:
269,208,112658,5,0,0:0:0:0:
269,208,112808,2,0,B|205:222|205:222|183:264|183:264|117:284,1,178.499994552612,0|0,1:0|1:0,0:0:0:0:
173,371,113258,5,8,0:0:0:0:
41,326,113408,2,0,B|81:322|119:282|119:282|130:342|171:359,1,178.499994552612,0|0,1:0|0:0,0:0:0:0:
259,286,113858,5,0,1:0:0:0:
118,203,114158,1,0,1:0:0:0:
252,106,114458,2,0,P|194:110|138:59,1,133.874995914459,8|0,0:0|0:0,0:0:0:0:
122,86,114758,2,0,P|76:94|22:110,1,89.2499972763062,0|2,0:0|0:0,0:0:0:0:
138,313,115058,5,0,0:0:0:0:
93,173,115208,2,0,P|63:238|68:272,1,89.2499972763062,2|0,1:2|0:0,0:0:0:0:
252,106,115508,1,0,1:0:0:0:
156,232,115658,2,0,B|224:223|210:194|285:184,1,133.874995914459,8|0,0:0|0:0,0:0:0:0:
342,224,115958,2,0,P|385:224|401:173,1,89.2499972763062,8|0,0:3|0:0,0:0:0:0:
417,28,116258,6,0,B|431:88|367:134|306:107|306:107|408:204|321:273|321:273|258:238|280:183,1,475.999985473633,2|0,0:0|0:0,0:0:0:0:
412,100,120008,5,0,0:0:0:0:
426,107,120083,2,0,L|503:96,2,42.5,2|0|0,1:2|0:0|0:0,0:0:0:0:
320,230,120308,6,0,B|327:252|327:252|337:263|337:263|347:292,2,50.9999984436036,2|0|0,0:2|0:0|0:0,0:0:0:0:
192,174,120533,6,0,B|185:188|185:188|182:202|182:202|158:233,2,42.5,2|0|0,1:2|0:0|0:0,0:0:0:0:
276,113,120758,5,8,0:0:0:0:
269,89,120833,1,8,0:0:0:0:
288,55,120908,1,10,0:0:0:0:
284,17,120983,1,8,0:0:0:0:
284,17,121058,6,0,B|242:5|206:31|206:31|183:80|122:67,1,170,4|8,1:2|0:0,0:0:0:0:
265,277,121508,2,0,B|254:256|254:256|273:156|273:156|261:108,1,152.999995330811
329,83,121808,5,0,1:0:0:0:
174,210,121958,1,10,0:0:0:0:
346,275,122108,2,0,L|408:258,2,50.9999984436036,2|0|0,0:0|0:0|0:0,0:0:0:0:
237,104,122408,5,0,1:0:0:0:
255,300,122558,2,0,L|273:185,1,101.999996887207,10|0,0:0|0:0,0:0:0:0:
303,15,122858,5,2,0:0:0:0:
303,15,122933,1,0,0:0:0:0:
303,15,123008,1,0,0:0:0:0:
395,109,123158,6,0,L|326:123,1,55.2499974708558,10|0,0:0|0:0,0:0:0:0:
212,145,123308,2,0,L|143:159,1,55.2499974708558,2|0,0:0|0:0,0:0:0:0:
46,273,123458,6,0,B|13:276|13:276|34:169|34:169|61:198,1,165.749992412568,2|0,1:0|0:0,0:0:0:0:
46,273,123758,1,8,0:0:0:0:
85,84,123908,1,0,0:0:0:0:
118,237,124058,1,0,0:0:0:0:
158,123,124208,6,0,L|238:108,1,55.2499974708558,2|0,1:0|0:0,0:0:0:0:
202,229,124358,2,0,L|290:249,1,55.2499974708558,10|0,0:0|0:0,0:0:0:0:
300,64,124508,1,2,0:0:0:0:
288,89,124583,1,0,0:0:0:0:
296,116,124658,5,0,0:0:0:0:
425,240,124808,1,0,1:0:0:0:
480,68,124958,1,8,0:0:0:0:
388,163,125108,6,0,P|397:139|393:114,1,50.9999984436036,0|0,1:0|0:0,0:0:0:0:
355,37,125258,1,2,0:0:0:0:
425,240,125408,5,0,1:0:0:0:
255,198,125558,2,0,P|314:152|388:163,1,152.999995330811,10|0,0:0|0:0,0:0:0:0:
425,239,125858,6,0,P|375:216|388:162,1,118.999996368408,2|0,1:0|0:0,0:0:0:0:
495,60,126158,1,10,0:0:0:0:
431,245,126308,2,0,L|418:34,1,170,2|0,0:0|0:0,0:0:0:0:
349,246,126758,5,10,0:0:0:0:
501,284,126908,2,0,B|398:252|411:355|298:313,1,203.999993774414,2|0,0:0|0:0,0:0:0:0:
145,119,127358,5,10,0:0:0:0:
230,145,127508,2,0,L|217:57,1,68,2|0,1:0|0:0,0:0:0:0:
165,200,127808,1,2,1:0:0:0:
301,94,127958,1,10,0:0:0:0:
259,224,128108,2,0,L|255:272,1,34,2|0,0:0|0:0,0:0:0:0:
298,324,128258,6,0,B|327:369|384:348|384:348|420:305|472:326,1,170,0|10,0:0|0:0,0:0:0:0:
512,272,128708,2,0,P|479:245|437:241,1,85
297,324,129008,2,0,P|264:350|222:354,1,85,0|8,1:0|0:0,0:0:0:0:
321,217,129308,1,2,0:0:0:0:
297,323,129458,6,0,P|229:324|191:269,1,140.25000428009
229,209,129758,2,0,L|220:115,1,93.5000028533936,8|0,0:0|0:0,0:0:0:0:
52,51,130058,6,0,L|97:62,1,46.7500014266968
266,106,130208,2,0,L|220:117,1,46.7500014266968,2|0,1:0|0:0,0:0:0:0:
34,128,130358,6,0,L|79:139,1,46.7500014266968,8|0,0:0|0:0,0:0:0:0:
282,182,130508,2,0,L|236:193,1,46.7500014266968,8|0,0:0|0:0,0:0:0:0:
6,300,130658,6,0,B|107:277|84:368|200:336,1,203.999993774414,4|8,1:2|0:0,0:0:0:0:
246,252,131108,2,0,B|189:204|129:241|129:241|178:271,1,152.999995330811,2|0,0:0|0:0,0:0:0:0:
156,267,131408,5,2,1:0:0:0:
330,231,131558,1,10,0:0:0:0:
117,164,131708,1,2,0:0:0:0:
333,129,131858,2,0,B|352:81|418:46|418:46|378:51,1,152.999995330811
378,55,132158,2,0,L|280:35,1,76.4999976654053,10|0,0:0|0:0,0:0:0:0:
400,179,132458,5,2,0:0:0:0:
255,112,132608,1,2,1:0:0:0:
271,266,132758,1,10,0:0:0:0:
309,192,132908,5,2,0:0:0:0:
309,192,132983,1,2,0:0:0:0:
309,192,133058,1,0,1:0:0:0:
156,260,133208,2,0,L|63:240,1,76.4999976654053,0|10,0:0|0:0,0:0:0:0:
281,363,133508,2,0,L|188:343,1,76.4999976654053
165,159,133808,6,0,L|223:151,1,38.2499988327027,2|0,1:0|0:0,0:0:0:0:
68,109,133958,2,0,L|126:101,1,38.2499988327027,10|0,0:0|0:0,0:0:0:0:
281,129,134108,6,0,B|299:86|299:86|301:31|275:3|239:23|241:70|281:59,1,165.749992412568,2|0,0:0|0:0,0:0:0:0:
362,25,134408,1,0,1:0:0:0:
204,116,134558,1,10,0:0:0:0:
333,192,134708,2,0,B|315:235|315:235|313:290|339:318|375:298|373:251|333:262,1,165.749992412568,2|0,1:0|0:0,0:0:0:0:
236,237,135008,6,0,P|242:263|244:291,1,55.2499974708558,2|0,1:0|0:0,0:0:0:0:
425,211,135158,2,0,P|426:238|433:265,1,55.2499974708558,10|0,0:0|0:0,0:0:0:0:
457,337,135308,1,10,0:0:0:0:
250,369,135458,5,2,1:0:0:0:
285,44,135758,1,2,0:0:0:0:
285,44,136208,1,2,0:0:0:0:
302,120,136358,1,0,0:0:0:0:
67,110,136508,6,0,B|44:109|20:101|20:101|28:115,1,63.7500024318696,8|0,0:0|0:0,0:0:0:0:
37,121,136808,5,0,1:0:0:0:
73,75,136883,1,0,1:0:0:0:
126,54,136958,1,0,1:0:0:0:
184,61,137033,1,0,1:0:0:0:
230,96,137108,6,0,L|220:184,1,63.7500024318696,10|0,0:0|0:0,0:0:0:0:
245,110,137408,6,0,L|220:184,1,63.7500024318696,10|0,0:0|0:0,0:0:0:0:
105,261,137558,1,2,0:0:0:0:
208,350,137708,6,0,P|196:318|191:281,1,63.7500024318696,10|0,0:0|0:0,0:0:0:0:
329,134,137858,6,0,B|224:110|251:203|123:158,1,191.250007295609,6|0,1:2|0:0,0:0:0:0:
133,159,138158,1,8,0:0:0:0:
277,319,138308,2,0,P|241:373|222:274,1,203.999993774414,2|0,0:0|0:0,0:0:0:0:
346,239,138758,6,0,L|411:261,1,50.9999984436036,10|0,0:0|0:0,0:0:0:0:
512,308,138908,1,2,0:0:0:0:
512,308,138983,1,2,0:0:0:0:
512,308,139058,2,0,P|466:336|419:329,1,101.999996887207
413,119,139358,1,8,0:0:0:0:
394,255,139508,6,0,P|338:244|358:146,1,165.749992412568,4|0,1:2|0:0,0:0:0:0:
413,119,139808,2,0,P|394:174|341:173,1,110.499994941712,0|8,1:0|0:0,0:0:0:0:
157,41,140108,6,0,L|277:67,1,110.499994941712,4|0,0:0|0:0,0:0:0:0:
264,64,140408,1,0,0:0:0:0:
96,87,140558,6,0,L|264:64,1,170,8|0,0:0|0:0,0:0:0:0:
61,156,141008,2,0,P|20:109|30:48,1,127.5,2|0,1:0|0:0,0:0:0:0:
96,87,141308,1,2,0:0:0:0:
65,250,141458,6,0,L|50:341,1,85
51,333,141758,1,8,0:0:0:0:
169,245,141908,2,0,B|191:325|191:325|211:122,1,255,0|2,1:0|0:0,0:0:0:0:
231,135,142433,1,2,0:0:0:0:
260,131,142508,1,2,0:0:0:0:
287,142,142583,1,2,0:0:0:0:
304,165,142658,6,0,L|391:149,1,85,6|0,1:2|0:0,0:0:0:0:
327,61,142958,1,8,0:0:0:0:
470,276,143108,2,0,P|418:285|362:233,1,127.500004863739,2|0,0:0|0:0,0:0:0:0:
327,61,143408,5,2,1:0:0:0:
387,149,143558,2,0,L|303:133,1,85,10|0,0:0|0:0,0:0:0:0:
117,40,143858,5,2,0:0:0:0:
162,210,144008,2,0,P|196:158|180:98,1,127.500004863739,2|8,1:0|0:0,0:0:0:0:
117,40,144308,1,2,1:0:0:0:
162,210,144458,5,2,0:0:0:0:
246,243,144608,1,2,1:0:0:0:
345,215,144758,1,10,0:0:0:0:
389,102,144908,1,2,0:0:0:0:
317,292,145058,5,2,1:0:0:0:
162,210,145208,2,0,P|111:211|70:266,1,101.999996887207,2|8,0:0|0:0,0:0:0:0:
52,344,145508,6,0,B|58:324|58:324|32:173|32:173|43:140,1,191.250007295609,2|0,0:0|0:0,0:0:0:0:
101,112,145808,2,0,L|-12:147,1,63.7500024318696,2|0,1:0|0:0,0:0:0:0:
216,153,145958,2,0,L|103:188,1,63.7500024318696,10|0,0:0|0:0,0:0:0:0:
329,198,146108,2,0,L|216:233,1,63.7500024318696,2|0,0:0|0:0,0:0:0:0:
268,216,146258,6,0,L|250:317,1,85,2|0,0:0|0:0,0:0:0:0:
299,43,146558,1,10,0:0:0:0:
224,65,146708,1,0,1:0:0:0:
395,125,146858,6,0,L|374:12,1,106.25,2|0,0:0|0:0,0:0:0:0:
425,299,147158,1,10,0:0:0:0:
350,277,147308,1,8,0:0:0:0:
460,87,147458,6,0,P|461:162|396:201,1,159.375,6|0,1:2|0:0,0:0:0:0:
384,213,147758,2,0,P|348:200|268:211,1,106.25,8|0,0:0|0:0,0:0:0:0:
245,25,148058,2,0,P|251:62|301:126,1,106.25
150,242,148358,2,0,P|189:205|209:156,1,106.25,8|0,0:0|0:0,0:0:0:0:
160,99,148583,1,0,0:0:0:0:
160,99,148658,5,2,0:0:0:0:
237,275,148808,1,0,1:0:0:0:
245,25,148958,1,8,0:0:0:0:
246,292,149108,6,0,L|460:266,1,191.250007295609,2|0,1:0|0:0,0:0:0:0:
330,254,149408,6,0,L|435:268,1,106.25,2|8,1:0|0:0,0:0:0:0:
471,89,149708,2,0,L|478:147,1,53.125,2|0,0:0|0:0,0:0:0:0:
485,327,149858,6,0,P|511:274|495:224,1,106.25,0|0,1:0|0:0,0:0:0:0:
379,171,150158,2,0,P|352:126|302:109,1,106.25,8|0,0:0|0:0,0:0:0:0:
214,196,150458,2,0,P|161:196|122:231,2,106.25,0|0|8,0:0|0:0|0:0,0:0:0:0:
363,239,150908,1,0,0:0:0:0:
348,248,150983,1,0,0:0:0:0:
333,256,151058,6,0,L|101:228,1,212.5,2|8,0:0|0:0,0:0:0:0:
318,43,151508,2,0,B|258:38|231:133|288:153|288:153|269:127|283:89,1,191.250007295609,2|0,1:0|0:0,0:0:0:0:
346,108,151808,6,0,P|374:115|374:145,1,63.7500024318696,2|0,1:0|0:0,0:0:0:0:
283,229,151958,2,0,L|178:215,1,63.7500024318696,10|0,0:0|0:0,0:0:0:0:
110,242,152108,1,2,0:0:0:0:
80,283,152183,1,2,0:0:0:0:
96,326,152258,6,0,P|135:338|173:320,1,85.0000032424928,12|0,0:0|0:0,0:0:0:0:
310,191,152458,1,0,1:0:0:0:
380,226,152558,6,0,L|210:208,1,170,2|8,0:0|0:0,0:0:0:0:
42,69,153058,2,0,P|47:96|38:122,1,56.6666666666667,0|0,1:0|0:0,0:0:0:0:
60,206,153258,6,0,B|-1:179|10:112|10:112|45:63,1,170.000006484986,8|0,0:0|0:0,0:0:0:0:
164,126,153608,2,0,P|143:149|112:147,1,63.7500024318696,8|0,0:0|0:0,0:0:0:0:
112,147,153908,6,0,B|186:160|186:160|220:191|220:191|312:208,1,191.250007295609,4|0,1:2|0:0,0:0:0:0:
281,279,154208,2,0,L|259:77,1,191.250007295609,4|0,1:2|0:0,0:0:0:0:
320,46,154508,5,4,1:2:0:0:
256,192,154583,12,2,155858,0:0:0:0:
118,220,156308,6,0,P|188:219|212:147,1,127.500004863739,2|0,0:1|0:0,0:0:0:0:
191,97,156758,6,0,L|195:145,1,42.5
214,29,157058,1,2,0:0:0:0:
126,71,166658,6,0,B|122:33|160:13|160:13|185:98|111:78|157:180,1,237.999992736817,2|0,0:0|0:0,0:0:0:0:
153,172,167558,1,0,0:0:0:0:
339,61,167858,6,0,B|298:27|259:40|259:40|295:53|297:76,1,118.999996368408,2|0,0:0|0:0,0:0:0:0:
405,132,168308,2,0,B|446:166|485:153|485:153|449:140|447:117,1,118.999996368408,2|0,0:0|0:0,0:0:0:0:
457,137,168758,2,0,P|436:159|441:191,1,59.4999981842042,2|0,0:0|0:0,0:0:0:0:
511,353,169058,6,0,P|465:296|410:316,1,118.999996368408,2|0,0:0|0:0,0:0:0:0:
426,302,169508,2,0,P|423:332|416:363,1,59.4999981842042,2|0,0:0|0:0,0:0:0:0:
315,213,169808,2,0,P|320:273|324:341,1,118.999996368408,2|0,0:0|0:0,0:0:0:0:
169,283,170258,6,0,B|142:292|142:292|99:299,1,59.4999981842042
125,220,170558,1,2,0:0:0:0:
24,297,170708,2,0,P|78:314|99:384,2,118.999996368408,2|0|0,0:0|0:0|0:0,0:0:0:0:
125,220,171458,6,0,B|243:258|225:127|357:160,1,237.999992736817
374,222,172208,1,2,0:0:0:0:
315,179,172358,1,2,0:0:0:0:
384,153,172508,1,2,0:0:0:0:
300,252,172658,6,0,P|269:254|255:221,1,59.4999981842042,2|0,0:0|0:0,0:0:0:0:
210,170,172958,1,2,0:0:0:0:
409,84,173108,6,0,P|355:100|342:160,1,118.999996368408,2|0,0:0|0:0,0:0:0:0:
404,198,173558,1,2,0:0:0:0:
328,255,173708,1,2,0:0:0:0:
433,291,173858,6,0,P|371:299|327:251,1,127.5,2|0,0:0|0:0,0:0:0:0:
267,91,174458,6,0,P|246:77|192:80,1,67.9999979248048,2|0,0:0|0:0,0:0:0:0:
83,205,175058,6,0,P|47:241|-5:235,1,101.999996887207,2|0,0:0|0:0,0:0:0:0:
185,309,180008,5,0,1:0:0:0:
194,323,180083,2,0,B|191:339|180:350|167:389,2,42.5,2|0|0,1:2|0:0|0:0,0:0:0:0:
328,247,180308,6,0,B|336:266|330:285|340:308,2,50.9999984436036,10|0|0,0:0|0:0|0:0,0:0:0:0:
439,156,180533,6,0,B|460:158|470:173|519:182,2,55.2499974708558,2|0|0,1:2|0:0|0:0,0:0:0:0:
338,91,180758,5,8,0:0:0:0:
313,97,180833,1,8,0:0:0:0:
276,129,180908,1,10,0:0:0:0:
254,136,180983,1,8,0:0:0:0:
185,186,181058,6,0,B|160:92|160:92|214:66,1,152.999995330811,4|0,1:2|0:0,0:0:0:0:
272,30,181358,1,8,0:0:0:0:
227,273,181508,2,0,P|193:219|86:230,1,152.999995330811
33,244,181808,1,0,1:0:0:0:
114,336,181958,6,0,P|132:313|131:280,1,50.9999984436036,10|0,0:0|0:0,0:0:0:0:
58,143,182108,2,0,B|15:166|15:166|26:220,1,101.999996887207,2|0,0:0|0:0,0:0:0:0:
263,139,182408,1,0,1:0:0:0:
263,139,182483,1,0,1:0:0:0:
263,139,182558,2,0,L|355:149,1,50.9999984436036,10|0,0:0|0:0,0:0:0:0:
374,194,182708,2,0,L|463:206,1,50.9999984436036,0|0,1:0|0:0,0:0:0:0:
483,147,182858,5,2,0:0:0:0:
366,350,183008,1,2,1:0:0:0:
313,144,183158,5,10,0:0:0:0:
366,350,183308,2,0,P|382:325|380:286,1,50.9999984436036,2|0,0:0|0:0,0:0:0:0:
401,223,183458,6,0,B|359:198|317:224|317:224|304:278|245:278,1,172.125000656605,2|0,1:0|0:0,0:0:0:0:
192,265,183758,1,8,0:0:0:0:
307,62,183908,2,0,B|271:73|271:73|268:160|268:160|319:141,1,172.125000656605
396,102,184208,6,0,B|423:90|423:90|390:83,1,57.3750002188683,2|0,1:0|0:0,0:0:0:0:
305,225,184358,2,0,B|311:255|331:277|331:277|391:259|458:244,1,172.125000656605,10|0,0:0|0:0,0:0:0:0:
510,228,184658,5,2,0:0:0:0:
498,153,184808,1,0,0:0:0:0:
458,328,184958,1,8,0:0:0:0:
323,153,185108,5,0,1:0:0:0:
323,153,185183,1,0,1:0:0:0:
323,153,185258,1,2,0:0:0:0:
338,227,185408,1,0,1:0:0:0:
375,54,185558,2,0,B|311:66|311:66|299:78|299:78|219:96,1,152.999995330811,10|0,0:0|0:0,0:0:0:0:
113,83,185858,6,0,B|144:74|175:50|175:50|226:126|153:193,1,191.250007295609,6|0,0:0|0:0,0:0:0:0:
118,208,186158,1,10,0:0:0:0:
281,275,186308,2,0,B|199:288|239:352|111:329,1,152.999995330811,2|0,0:0|0:0,0:0:0:0:
125,322,186608,1,0,1:0:0:0:
352,238,186758,6,0,P|364:259|355:291,1,50.9999984436036,10|0,0:0|0:0,0:0:0:0:
282,353,186908,2,0,L|452:374,1,152.999995330811,2|0,0:0|0:0,0:0:0:0:
433,371,187208,1,2,1:0:0:0:
242,213,187358,6,0,L|115:236,1,101.999996887207,8|2,0:0|1:0,0:0:0:0:
68,251,187583,1,0,0:0:0:0:
50,255,187658,1,0,0:0:0:0:
185,137,187808,2,0,L|198:70,2,50.9999984436036,2|0|10,1:0|0:0|0:0,0:0:0:0:
341,265,188108,1,2,0:0:0:0:
353,181,188258,6,0,B|319:218|319:218|346:276,1,101.999996887207,2|0,0:0|0:0,0:0:0:0:
478,119,188558,2,0,B|404:98|404:98|391:52|391:52|309:26,1,203.999993774414,8|0,0:0|0:0,0:0:0:0:
413,236,189008,1,0,1:0:0:0:
161,191,189158,6,0,B|166:172|166:172|230:185,1,57.3750002188683,8|0,0:0|0:0,0:0:0:0:
318,115,189308,2,0,B|299:158|299:158|315:189|315:189|290:284,1,172.125000656605,2|0,0:0|0:0,0:0:0:0:
295,353,189608,2,0,P|267:342|216:340,1,57.3750002188683,0|0,1:0|0:0,0:0:0:0:
183,264,189758,5,8,0:0:0:0:
344,190,189908,1,0,1:0:0:0:
370,318,190058,5,0,0:0:0:0:
208,160,190208,1,2,1:0:0:0:
204,147,190283,1,0,1:0:0:0:
200,127,190358,6,0,P|221:101|256:99,1,61.6250018806458,8|0,0:0|0:0,0:0:0:0:
378,36,190508,6,0,P|404:57|404:97,1,65.8750005025864,10|0,0:0|0:0,0:0:0:0:
302,236,190658,6,0,B|275:253|219:218|231:148|331:122|396:216,1,229.499992996216,4|0,1:2|0:0,0:0:0:0:
428,250,190958,1,8,0:0:0:0:
220,310,191108,6,0,B|261:300|296:260|296:260|294:307|324:344,1,178.499994552612,2|0,0:0|0:0,0:0:0:0:
385,384,191408,2,0,L|399:319,1,59.4999981842042,0|0,1:0|0:0,0:0:0:0:
302,236,191558,1,10,0:0:0:0:
343,91,191708,6,0,B|351:156|351:156|389:181|389:181|395:255,1,178.499994552612,2|0,0:0|0:0,0:0:0:0:
394,248,192008,1,0,1:0:0:0:
488,84,192158,6,0,P|465:99|438:104,1,55.2499974708558,10|0,0:0|0:0,0:0:0:0:
489,200,192308,2,0,P|442:149|336:172,1,165.749992412568,0|0,1:0|0:0,0:0:0:0:
330,176,192608,1,0,0:0:0:0:
134,265,192758,5,10,0:0:0:0:
276,335,192908,1,2,0:0:0:0:
176,368,193058,6,0,B|194:322|194:322|179:297|179:297|205:184,1,165.749992412568,2|0,1:0|0:0,0:0:0:0:
207,195,193358,1,8,0:0:0:0:
95,29,193508,2,0,B|61:19|40:36|40:36|54:92|60:162,1,165.749992412568
46,222,193808,2,0,P|71:212|107:206,1,55.2499974708558,2|0,1:0|0:0,0:0:0:0:
246,85,193958,1,10,0:0:0:0:
158,86,194108,6,0,B|221:100|221:100|237:134|237:134|309:154,1,165.749992412568,2|0,0:0|0:0,0:0:0:0:
318,158,194408,1,0,0:0:0:0:
349,312,194558,5,10,0:0:0:0:
421,187,194708,2,0,B|362:148|314:186|314:186|302:246|238:250,1,220.999989883423,2|0,1:0|0:0,0:0:0:0:
28,376,195158,6,0,B|15:349|15:349|21:321,1,55.2499974708558,10|0,0:0|0:0,0:0:0:0:
161,294,195308,2,0,B|174:316|174:316|168:349,1,55.2499974708558,2|0,0:0|0:0,0:0:0:0:
93,334,195458,5,2,1:0:0:0:
93,334,195608,1,0,0:0:0:0:
93,334,195758,1,0,0:0:0:0:
317,64,196058,6,0,B|359:85|359:85|337:157,1,110.499994941712,2|0,0:1|0:0,0:0:0:0:
341,225,196283,2,0,B|299:204|299:204|321:132,1,110.499994941712,2|0,0:1|0:0,0:0:0:0:
227,81,196508,6,0,L|153:94,1,55.2499974708558,8|0,0:0|0:0,0:0:0:0:
144,67,197108,6,0,L|89:76,1,55.2499974708558,8|0,0:0|0:0,0:0:0:0:
0,205,197408,6,0,P|21:188|52:184,1,55.2499974708558,8|0,0:0|0:0,0:0:0:0:
192,142,197558,6,0,P|218:144|243:163,1,55.2499974708558,0|0,1:0|0:0,0:0:0:0:
385,252,197708,6,0,P|402:273|406:304,1,55.2499974708558,8|0,0:0|0:0,0:0:0:0:
375,362,197858,1,8,1:3:0:0:
375,362,198158,5,8,0:0:0:0:
145,273,198308,1,8,0:0:0:0:
256,48,198458,1,8,0:0:0:0:
367,273,198608,5,0,1:0:0:0:
137,362,198758,1,8,0:0:0:0:
256,128,198908,1,8,0:0:0:0:
359,185,199058,5,4,1:2:0:0:
256,336,199208,1,0,0:0:0:0:
153,185,199358,1,8,0:0:0:0:
365,191,199508,6,0,L|464:176,1,85,4|0,1:2|0:0,0:0:0:0:
134,109,199808,6,0,L|32:95,1,101.999996887207,4|0,1:2|0:0,0:0:0:0:
413,50,200108,6,0,L|468:40,1,31.8750012159348,4|0,1:2|2:0,0:0:0:0:
444,44,200558,6,0,P|368:32|319:91,1,159.375,14|0,0:0|0:0,0:0:0:0:
372,141,200858,2,0,B|392:180|392:180|379:236,1,85,0|0,0:0|1:0,0:0:0:0:
213,253,201158,2,0,L|288:269,1,42.5,8|0,0:0|0:0,0:0:0:0:
364,340,201308,5,2,0:0:0:0:
355,348,201383,1,2,0:0:0:0:
347,355,201458,2,0,B|328:319|328:319|344:263,1,85
461,126,201758,1,8,0:0:0:0:
420,204,201908,2,0,B|329:178|350:269|246:242,1,170,0|0,1:0|0:0,0:0:0:0:
164,130,202358,5,10,0:0:0:0:
245,144,202508,1,0,0:0:0:0:
165,264,202658,5,2,1:0:0:0:
199,54,202808,1,0,0:0:0:0:
253,229,202958,1,10,0:0:0:0:
88,207,203108,2,0,B|61:164|61:126|61:126|82:78|125:57,1,169.995745956064,2|0,0:0|0:0,0:0:0:0:
171,136,203408,6,0,L|131:144,1,31.8750012159348,0|0,1:0|0:0,0:0:0:0:
8,215,203558,1,10,0:0:0:0:
192,157,203708,6,0,B|243:167|243:167|272:211|272:211|324:221,1,159.375,2|0,0:0|0:0,0:0:0:0:
382,270,204008,1,2,1:0:0:0:
193,238,204158,6,0,L|134:250,1,53.125,8|0,0:0|0:0,0:0:0:0:
323,143,204308,2,0,L|350:19,1,106.25,2|0,1:0|0:0,0:0:0:0:
252,314,204608,6,0,P|258:340|269:365,1,53.125,0|0,1:0|0:0,0:0:0:0:
281,222,204758,1,10,0:0:0:0:
310,130,204908,6,0,P|304:104|293:79,1,53.125,2|0,0:0|0:0,0:0:0:0:
396,284,205058,1,2,1:0:0:0:
492,310,205208,5,0,0:0:0:0:
462,207,205358,1,8,0:0:0:0:
396,284,205508,2,0,B|287:307|287:307|328:311|343:348,1,159.375
279,378,205808,6,0,P|253:381|232:364,1,53.125,2|0,1:0|0:0,0:0:0:0:
145,336,205958,2,0,P|136:311|144:283,1,53.125,10|0,0:0|0:0,0:0:0:0:
71,364,206108,1,2,0:0:0:0:
221,250,206258,6,0,B|246:202|246:202|240:150|168:149|178:221|193:219|234:212,1,169.995745956064
298,268,206558,2,0,L|328:198,1,56.6652486520214,8|0,0:0|0:0,0:0:0:0:
114,158,206708,2,0,L|94:76,1,56.6652486520214,0|0,1:0|0:0,0:0:0:0:
304,26,206858,6,0,P|304:41|300:57,1,31.8750012159348
222,46,207008,2,0,P|222:30|225:14,1,31.8750012159348,2|0,1:0|0:0,0:0:0:0:
348,120,207158,6,0,P|373:130|428:146,1,53.125,8|0,0:0|0:0,0:0:0:0:
187,228,207308,2,0,P|162:238|137:247,1,53.125,8|0,0:0|0:0,0:0:0:0:
352,358,207458,5,2,1:0:0:0:
271,186,207608,2,0,B|278:228|278:228|272:252|272:252|281:302,1,106.25,2|8,0:0|0:0,0:0:0:0:
471,335,207908,2,0,B|504:302|504:302|399:322|399:322|341:368,1,212.5,2|0,0:0|0:0,0:0:0:0:
191,258,208358,1,10,0:0:0:0:
59,369,208508,1,2,0:0:0:0:
79,372,208583,1,2,0:0:0:0:
99,374,208658,2,0,P|116:326|90:282,1,106.25
17,81,208958,6,0,P|43:123|93:114,1,106.25,10|0,0:0|0:0,0:0:0:0:
252,63,209258,2,0,B|148:85|148:85|107:131,1,159.375,2|0,0:0|0:0,0:0:0:0:
179,213,209558,6,0,P|180:187|186:161,1,53.125,10|0,0:0|0:0,0:0:0:0:
0,193,209708,2,0,P|13:216|25:247,1,53.125,2|0,0:0|0:0,0:0:0:0:
93,160,209858,6,0,B|121:68|50:99|83:-9,1,159.375,2|0,1:0|0:0,0:0:0:0:
26,126,210158,1,8,0:0:0:0:
151,40,210308,1,0,0:0:0:0:
261,145,210458,1,0,0:0:0:0:
398,116,210608,5,2,1:0:0:0:
213,308,210758,1,10,0:0:0:0:
379,283,210908,1,2,0:0:0:0:
139,156,211058,2,0,B|100:133|100:133|56:203|56:203|13:195,1,159.375
127,232,211358,6,0,B|147:237|147:237|153:242|153:242|189:249,1,53.125,10|0,0:0|0:0,0:0:0:0:
386,294,211508,2,0,B|290:307|346:199|221:205,1,178.499994552612,2|0,1:0|0:0,0:0:0:0:
252,323,211808,6,0,L|247:278,1,42.5,2|0,1:0|0:0,0:0:0:0:
224,92,211958,2,0,L|228:134,1,42.5,10|0,0:0|0:0,0:0:0:0:
237,210,212108,1,2,0:0:0:0:
478,69,212258,5,2,1:0:0:0:
324,123,212408,2,0,P|349:123|371:136,1,50.9999984436036
379,145,212708,6,0,L|364:-8,2,127.500004863739,2|2|2,0:0|0:0|1:2,0:0:0:0:
65,287,213908,5,8,0:0:0:0:
77,299,214208,2,0,B|103:292|103:292|153:318,1,53.125,8|0,0:0|0:0,0:0:0:0:
255,320,214358,5,0,1:0:0:0:
242,300,214433,1,0,1:0:0:0:
256,276,214508,1,8,0:0:0:0:
243,240,214583,1,0,1:0:0:0:
255,195,214658,5,6,1:2:0:0:
256,192,214733,12,8,216758,0:0:0:0:
412,288,217058,6,0,B|400:247|400:247|432:182|432:182|419:136,1,159.375,0|0,1:0|0:0,0:0:0:0:
419,139,217358,2,0,B|374:127|374:127|328:152,1,92.6500009896088,8|0,0:0|0:0,0:0:0:0:
412,288,217658,2,0,B|367:300|367:300|321:275,1,92.6500009896088,2|0,0:0|0:0,0:0:0:0:
151,191,217958,5,10,0:0:0:0:
274,104,218108,1,2,0:0:0:0:
118,34,218258,2,0,P|149:76|196:80,1,92.6500009896088,2|0,0:0|0:0,0:0:0:0:
373,216,218558,2,0,P|417:205|441:167,1,92.6500009896088,8|0,0:0|0:0,0:0:0:0:
399,0,218858,2,0,B|397:76|359:50|356:136,1,138.975001484413,2|0,0:0|0:0,0:0:0:0:
356,129,219158,1,8,0:0:0:0:
238,85,219308,6,0,L|299:74,1,46.3250004948044,0|2,0:0|0:3,0:0:0:0:
431,162,219458,2,0,B|360:140|360:140|350:100|350:100|273:73,1,185.300001979218,2|8,1:0|0:0,0:0:0:0:
241,176,219908,1,0,0:0:0:0:
105,137,220058,6,0,P|125:126|162:129,1,46.3250004948044,2|0,0:0|0:0,0:0:0:0:
265,249,220208,2,0,B|218:262|218:262|172:223,1,92.6500009896088,2|8,3:1|0:0,0:0:0:0:
195,64,220508,6,0,P|175:53|138:56,1,46.3250004948044,2|0,3:1|0:0,0:0:0:0:
11,143,220658,2,0,B|50:178|50:178|152:150,1,138.975001484413,2|0,0:0|0:0,0:0:0:0:
163,146,220958,1,8,0:0:0:0:
70,82,221108,1,0,1:0:0:0:
274,163,221258,5,2,0:0:0:0:
369,123,221408,1,0,1:0:0:0:
437,56,221558,5,8,0:0:0:0:
347,4,221708,2,0,L|340:65,1,46.3250004948044,2|0,0:0|0:0,0:0:0:0:
356,199,221858,6,0,B|378:144|338:109|338:109|296:70|322:23,1,185.300001979218,2|8,1:0|0:0,0:0:0:0:
278,169,222308,2,0,B|252:208|252:208|266:255,1,92.6500009896088,2|0,0:0|0:0,0:0:0:0:
457,152,222608,2,0,B|483:191|483:191|469:238,1,92.6500009896088,2|8,1:0|0:0,0:0:0:0:
366,195,222908,1,0,0:0:0:0:
302,344,223058,6,0,L|365:335,1,46.3250004948044,2|0,0:0|0:0,0:0:0:0:
422,325,223208,1,0,1:0:0:0:
244,288,223358,2,0,P|207:317|217:366,1,92.6500009896088,8|0,0:0|0:0,0:0:0:0:
387,221,223658,5,0,1:0:0:0:
308,96,223808,1,0,1:0:0:0:
387,221,223958,6,0,B|397:202|397:202|399:159,1,46.3250004948044,8|0,0:0|0:0,0:0:0:0:
308,96,224108,2,0,B|300:76|300:76|302:32,1,46.3250004948044,8|0,0:0|0:0,0:0:0:0:
384,8,224258,6,0,B|348:1|348:1|315:9|315:9|288:42|288:42|254:55|254:55|202:40,1,185.300001979218,4|8,1:2|0:0,0:0:0:0:
384,8,224858,5,2,0:0:0:0:
219,45,225008,2,0,B|174:39|174:39|143:76,1,92.6500009896088,2|8,1:0|0:0,0:0:0:0:
361,152,225308,2,0,B|382:158|382:158|408:189,1,46.3250004948044,2|0,0:3|0:0,0:0:0:0:
455,259,225458,5,2,0:0:0:0:
337,312,225608,1,0,1:0:0:0:
335,225,225758,5,8,0:0:0:0:
455,369,225908,2,0,B|401:353|401:353|382:322|382:322|298:302,1,138.975001484413,2|0,1:0|0:0,0:0:0:0:
270,284,226208,2,0,L|159:307,1,92.6500009896088,2|8,1:0|0:0,0:0:0:0:
285,175,226508,1,0,0:0:0:0:
225,122,226658,6,0,P|187:153|200:199,1,92.6500009896088,2|0,1:2|0:0,0:0:0:0:
405,303,226958,2,0,L|395:135,1,138.975001484413,8|0,0:0|0:0,0:0:0:0:
394,135,227258,1,2,0:0:0:0:
304,259,227408,6,0,P|282:265|264:280,1,46.3250004948044,2|0,1:0|0:0,0:0:0:0:
146,351,227558,1,8,0:0:0:0:
317,340,227708,6,0,B|266:324|266:324|198:363|198:363|108:342,1,185.300001979218,2|0,0:0|0:0,0:0:0:0:
260,245,228158,1,8,0:0:0:0:
33,163,228308,2,0,B|75:137|75:137|136:150,1,92.6500009896088,2|2,1:0|0:0,0:0:0:0:
199,196,228608,2,0,L|217:129,1,46.3250004948044,0|0,1:0|0:0,0:0:0:0:
230,81,228758,5,8,0:0:0:0:
118,147,228908,1,2,0:0:0:0:
289,186,229058,5,2,1:3:0:0:
364,172,229208,1,0,0:0:0:0:
428,210,229358,1,2,0:0:0:0:
441,283,229508,1,0,0:0:0:0:
441,283,229658,6,0,P|416:285|392:277,1,46.3250004948044,12|0,0:3|0:0,0:0:0:0:
287,307,229808,2,0,P|274:285|268:248,1,46.3250004948044,2|0,0:0|0:0,0:0:0:0:
193,178,229958,2,0,P|199:157|219:135,1,46.3250004948044,2|0,0:3|0:0,0:0:0:0:
282,100,230108,5,4,1:3:0:0:
282,100,230258,2,0,B|330:152|330:152|185:187,1,212.5,2|0,0:0|0:0,0:0:0:0:
166,194,230708,1,8,0:0:0:0:
78,305,230858,5,0,1:0:0:0:
83,301,230933,1,0,1:0:0:0:
88,299,231008,2,0,B|97:280|97:280|89:251,1,42.5,8|0,0:0|0:0,0:0:0:0:
2,199,231158,5,0,1:0:0:0:
2,199,231233,1,0,1:0:0:0:
2,199,231308,2,0,B|-6:179|-6:179|2:148,1,42.5,8|0,0:0|0:0,0:0:0:0:
71,59,231458,5,2,0:0:0:0:
256,192,231533,12,0,234458,0:0:0:0:
