osu file format v14

[General]
AudioFilename: Ether.mp3
AudioLeadIn: 0
PreviewTime:50750
Countdown: 0
SampleSet: None
StackLeniency: 0.7
Mode: 0
LetterboxInBreaks: 0
EpilepsyWarning: 1
WidescreenStoryboard: 1

[Editor]
DistanceSpacing: 1
BeatDivisor: 4
GridSize: 4
TimelineZoom: 2.5

[Metadata]
Title:Ether
TitleUnicode:エーテル
Artist:Feryquitous feat. Aitsuki Nakuru
ArtistUnicode:Feryquitous feat. 藍月なくる
Creator:Acyl
Version:Insane
Source:
Tags:『JelLaboratory』 c95 female vocal japanese doujin pop artcore -tochi j1_ how2miss otosaka-yu necho reincarnation suzuki_1112 moecho neilperry sing toybot kalibe lit120 lami lmt firika fanzhen0019 skystar yusomi amamiya yuko _epreus bbj0920 len fast kawashiro heilia cococolaco 藍月なくる aitsuki nakuru _todestrieb coco
BeatmapID:2240403
BeatmapSetID:902425

[Difficulty]
HPDrainRate:5
CircleSize:4
OverallDifficulty:8
ApproachRate:9.2
SliderMultiplier:1.7
SliderTickRate:1

[Events]
//Background and Video events
0,0,"background.jpg",0,0
//Break Periods
//Storyboard Layer 0 (Background)
Sprite,Background,Centre,"background.jpg",320,240 F,0,0,,0
Sprite,Background,Centre,"sb\blank.jpg",0,0 F,0,-4025,-3682,0,1 F,0,-3682,-253,1 F,0,-253,3,1,0 M,0,3,,320,240 S,0,3,,0.6493149
Sprite,Background,Centre,"sb\tochi.png",320,240 S,0,-3532,,0.6 F,0,-3532,-3187,0,1 F,0,-3187,-596,1,0.9893727 F,0,-596,-253,0.9893727,0
Sprite,Background,Centre,"sb\bgblurbw.jpg",0,0 F,2,1058,10658,0,0.6487671 M,0,1058,50258,320,-18.8055,320,240 S,0,1058,50258,0.9298632,0.5160549 F,0,10658,49058,0.6487671 F,0,49058,50258,0.6487671,0
Sprite,Background,Centre,"sb\bgblur.jpg",320,240 S,0,51458,,0.5160547 F,0,51458,70658,1 F,0,70658,70958,1,0
Sprite,Background,Centre,"sb\blank.jpg",320,240 S,0,49058,,0.537096 F,0,49058,50258,0,1 F,0,50258,51458,1 F,0,51458,51758,1,0
Sprite,Background,Centre,"sb\blank.jpg",320,240 S,0,70658,,0.5230685 F,0,70658,70958,0,1 F,0,70958,80258,1,0.9966667 F,0,80258,80408,0.9966667,0
Sprite,Background,Centre,"sb\bgblurbw.jpg",320,240 S,0,80258,,0.5300821 F,0,80258,80408,0,1 F,0,80408,118658,1,0.9866667 F,0,118658,119258,0.9866667,0.2384657 F,0,119258,121058,0.2384657,0.2459477 F,0,121058,121358,0.2459477,0
Sprite,Background,Centre,"sb\bgblur.jpg",320,240 F,0,121058,137858,1 S,0,121058,137858,0.5160547,0.5230685 F,0,137858,138158,1,0
Sprite,Background,Centre,"background.jpg",320,240 S,0,137858,,0.5230684 F,0,137858,138158,0,1 F,0,138158,156758,1,0.9866667 F,0,156758,157358,0.9866667,0
Sprite,Background,Centre,"sb\bgblur.jpg",320,240 S,0,181058,,0.5160547 F,0,181058,214658,1 F,0,214658,214958,1,0
Sprite,Background,Centre,"sb\bgblurbw.jpg",0,0 S,0,156758,,0.6493151 P,0,156758,,V F,0,156758,157358,0,1 M,0,156758,179858,200.0658,240,384.526,240 F,0,157358,175058,1 F,0,175058,176258,1,0.2565479 F,0,176258,181058,0.2565479
Sprite,Background,Centre,"background.jpg",320,240 S,0,214658,,0.5160549 F,0,214658,214958,0,1 F,0,214958,231458,1 F,0,231458,232658,1,0
Sprite,Background,Centre,"sb\bgblurbw.jpg",0,0 P,0,231458,,H F,0,231458,232658,0,1 M,2,231458,255458,457.4685,148.8219,-109.9397,549.3041 S,0,231458,255458,0.6984109,1.140274 R,0,231458,255458,-0.01402771,-0.2665204 F,0,232658,249308,1 F,0,249308,255458,1,0
Sprite,Background,Centre,"sb\blank.jpg",0,0 F,0,51308,51458,0,0.5 M,0,51458,,320,240 F,0,51458,51758,0.5,0.1 V,1,51458,51758,0.42,0.51,0.4,0.05 R,0,51458,70658,0.08416412,-0.1402744 P,0,51758,,A F,0,51758,70658,0.1 F,0,70658,70958,0.1,0
Sprite,Background,Centre,"sb\blank.jpg",0,0 F,0,120608,120758,0,0.5 M,0,120758,,320,240 F,0,120758,121058,0.5,0.1 V,1,120758,121058,0.42,0.51,0.4,0.05 R,0,120758,157058,-0.1402744,0.08416412 P,0,121058,,A F,0,121058,157058,0.1 F,0,157058,157358,0.1,0
Sprite,Background,Centre,"sb\blank.jpg",0,0 F,0,180458,180608,0,0.5 M,0,180608,,320,240 F,0,180608,180908,0.5,0.1 V,1,180608,180908,0.42,0.51,0.4,0.05 R,0,180608,231458,0.08416412,-0.1402744 P,0,180908,,A F,0,180908,231458,0.1 F,0,231458,231758,0.1,0
Sprite,Background,Centre,"sb/ring.png",0,0 M,0,51458,,469,140 S,1,51458,53758,0.25,0.5 F,1,51458,53758,0.9,0 C,0,51458,,255,255,255
Sprite,Background,Centre,"sb/ring.png",0,0 M,0,51908,,220,310 S,1,51908,53908,0.25,0.5 F,1,51908,53908,0.9,0 C,0,51908,,255,255,255
Sprite,Background,Centre,"sb/ring.png",0,0 M,0,52058,,315,359 S,1,52058,54208,0.25,0.5 F,1,52058,54208,0.9,0 C,0,52058,,255,255,255
Sprite,Background,Centre,"sb/ring.png",0,0 M,0,52358,,118,167 S,1,52358,54358,0.25,0.5 F,1,52358,54358,0.9,0 C,0,52358,,255,255,255
Sprite,Background,Centre,"sb/ring.png",0,0 M,0,52508,,141,242 S,1,52508,54733,0.25,0.5 F,1,52508,54733,0.9,0 C,0,52508,,255,255,255
Sprite,Background,Centre,"sb/ring.png",0,0 M,0,52808,,266,191 S,1,52808,54808,0.25,0.5 F,1,52808,54808,0.9,0 C,0,52808,,255,255,255
Sprite,Background,Centre,"sb/ring.png",0,0 M,0,52958,,385,285 S,1,52958,55108,0.25,0.5 F,1,52958,55108,0.9,0 C,0,52958,,255,255,255
Sprite,Background,Centre,"sb/ring.png",0,0 M,0,53258,,534,206 S,1,53258,55258,0.25,0.5 F,1,53258,55258,0.9,0 C,0,53258,,255,255,255
Sprite,Background,Centre,"sb/ring.png",0,0 M,0,53408,,528,121 S,1,53408,55408,0.25,0.5 F,1,53408,55408,0.9,0 C,0,53408,,255,255,255
Sprite,Background,Centre,"sb/ring.png",0,0 M,0,53558,,461,68 S,1,53558,55558,0.25,0.5 F,1,53558,55558,0.9,0 C,0,53558,,255,255,255
Sprite,Background,Centre,"sb/ring.png",0,0 M,0,53708,,377,84 S,1,53708,55708,0.25,0.5 F,1,53708,55708,0.9,0 C,0,53708,,255,255,255
Sprite,Background,Centre,"sb/ring.png",0,0 M,0,53858,,346,163 S,1,53858,56458,0.25,0.5 F,1,53858,56458,0.9,0 C,0,53858,,255,255,255
Sprite,Background,Centre,"sb/ring.png",0,0 M,0,54608,,479,222 S,1,54608,56758,0.25,0.5 F,1,54608,56758,0.9,0 C,0,54608,,255,255,255
Sprite,Background,Centre,"sb/ring.png",0,0 M,0,54908,,553,182 S,1,54908,56908,0.25,0.5 F,1,54908,56908,0.9,0 C,0,54908,,255,255,255
Sprite,Background,Centre,"sb/ring.png",0,0 M,0,55058,,424,156 S,1,55058,57058,0.25,0.5 F,1,55058,57058,0.9,0 C,0,55058,,255,255,255
Sprite,Background,Centre,"sb/ring.png",0,0 M,0,55208,,424,156 S,1,55208,57208,0.25,0.5 F,1,55208,57208,0.9,0 C,0,55208,,255,255,255
Sprite,Background,Centre,"sb/ring.png",0,0 M,0,55358,,434,72 S,1,55358,57358,0.25,0.5 F,1,55358,57358,0.9,0 C,0,55358,,255,255,255
Sprite,Background,Centre,"sb/ring.png",0,0 M,0,55508,,499,122 S,1,55508,57508,0.25,0.5 F,1,55508,57508,0.9,0 C,0,55508,,255,255,255
Sprite,Background,Centre,"sb/ring.png",0,0 M,0,55658,,335,73 S,1,55658,57808,0.25,0.5 F,1,55658,57808,0.9,0 C,0,55658,,255,255,255
Sprite,Background,Centre,"sb/ring.png",0,0 M,0,55958,,280,242 S,1,55958,58108,0.25,0.5 F,1,55958,58108,0.9,0 C,0,55958,,255,255,255
Sprite,Background,Centre,"sb/ring.png",0,0 M,0,56258,,336,410 S,1,56258,58558,0.25,0.5 F,1,56258,58558,0.9,0 C,0,56258,,255,255,255
Sprite,Background,Centre,"sb/ring.png",0,0 M,0,56708,,562,398 S,1,56708,58708,0.25,0.5 F,1,56708,58708,0.9,0 C,0,56708,,255,255,255
Sprite,Background,Centre,"sb/ring.png",0,0 M,0,56858,,573,234 S,1,56858,59008,0.25,0.5 F,1,56858,59008,0.9,0 C,0,56858,,255,255,255
Sprite,Background,Centre,"sb/ring.png",0,0 M,0,57158,,489,353 S,1,57158,59158,0.25,0.5 F,1,57158,59158,0.9,0 C,0,57158,,255,255,255
Sprite,Background,Centre,"sb/ring.png",0,0 M,0,57308,,428,228 S,1,57308,59608,0.25,0.5 F,1,57308,59608,0.9,0 C,0,57308,,255,255,255
Sprite,Background,Centre,"sb/ring.png",0,0 M,0,57758,,138,132 S,1,57758,59758,0.25,0.5 F,1,57758,59758,0.9,0 C,0,57758,,255,255,255
Sprite,Background,Centre,"sb/ring.png",0,0 M,0,57908,,172,284 S,1,57908,60058,0.25,0.5 F,1,57908,60058,0.9,0 C,0,57908,,255,255,255
Sprite,Background,Centre,"sb/ring.png",0,0 M,0,58208,,303,80 S,1,58208,60208,0.25,0.5 F,1,58208,60208,0.9,0 C,0,58208,,255,255,255
Sprite,Background,Centre,"sb/ring.png",0,0 M,0,58358,,357,137 S,1,58358,60358,0.25,0.5 F,1,58358,60358,0.9,0 C,0,58358,,255,255,255
Sprite,Background,Centre,"sb/ring.png",0,0 M,0,58508,,435,129 S,1,58508,60508,0.25,0.5 F,1,58508,60508,0.9,0 C,0,58508,,255,255,255
Sprite,Background,Centre,"sb/ring.png",0,0 M,0,58658,,576,81 S,1,58658,60658,0.25,0.5 F,1,58658,60658,0.9,0 C,0,58658,,255,255,255
Sprite,Background,Centre,"sb/ring.png",0,0 M,0,58808,,519,139 S,1,58808,60808,0.25,0.5 F,1,58808,60808,0.9,0 C,0,58808,,255,255,255
Sprite,Background,Centre,"sb/ring.png",0,0 M,0,58958,,498,62 S,1,58958,60958,0.25,0.5 F,1,58958,60958,0.9,0 C,0,58958,,255,255,255
Sprite,Background,Centre,"sb/ring.png",0,0 M,0,59108,,489,64 S,1,59108,61108,0.25,0.5 F,1,59108,61108,0.9,0 C,0,59108,,255,255,255
Sprite,Background,Centre,"sb/ring.png",0,0 M,0,59258,,407,221 S,1,59258,61258,0.25,0.5 F,1,59258,61258,0.9,0 C,0,59258,,255,255,255
Sprite,Background,Centre,"sb/ring.png",0,0 M,0,59408,,484,213 S,1,59408,61408,0.25,0.5 F,1,59408,61408,0.9,0 C,0,59408,,255,255,255
Sprite,Background,Centre,"sb/ring.png",0,0 M,0,59558,,538,269 S,1,59558,61558,0.25,0.5 F,1,59558,61558,0.9,0 C,0,59558,,255,255,255
Sprite,Background,Centre,"sb/ring.png",0,0 M,0,59708,,504,373 S,1,59708,62008,0.25,0.5 F,1,59708,62008,0.9,0 C,0,59708,,255,255,255
Sprite,Background,Centre,"sb/ring.png",0,0 M,0,60158,,213,323 S,1,60158,62308,0.25,0.5 F,1,60158,62308,0.9,0 C,0,60158,,255,255,255
Sprite,Background,Centre,"sb/ring.png",0,0 M,0,60458,,420,255 S,1,60458,62458,0.25,0.5 F,1,60458,62458,0.9,0 C,0,60458,,255,255,255
Sprite,Background,Centre,"sb/ring.png",0,0 M,0,60608,,348,153 S,1,60608,62758,0.25,0.5 F,1,60608,62758,0.9,0 C,0,60608,,255,255,255
Sprite,Background,Centre,"sb/ring.png",0,0 M,0,60908,,269,413 S,1,60908,62908,0.25,0.5 F,1,60908,62908,0.9,0 C,0,60908,,255,255,255
Sprite,Background,Centre,"sb/ring.png",0,0 M,0,60983,,269,413 S,1,60983,62983,0.25,0.5 F,1,60983,62983,0.9,0 C,0,60983,,255,255,255
Sprite,Background,Centre,"sb/ring.png",0,0 M,0,61058,,269,413 S,1,61058,63358,0.25,0.5 F,1,61058,63358,0.9,0 C,0,61058,,255,255,255
Sprite,Background,Centre,"sb/ring.png",0,0 M,0,61508,,64,214 S,1,61508,63508,0.25,0.5 F,1,61508,63508,0.9,0 C,0,61508,,255,255,255
Sprite,Background,Centre,"sb/ring.png",0,0 M,0,61658,,70,292 S,1,61658,63808,0.25,0.5 F,1,61658,63808,0.9,0 C,0,61658,,255,255,255
Sprite,Background,Centre,"sb/ring.png",0,0 M,0,61958,,287,177 S,1,61958,63958,0.25,0.5 F,1,61958,63958,0.9,0 C,0,61958,,255,255,255
Sprite,Background,Centre,"sb/ring.png",0,0 M,0,62108,,207,130 S,1,62108,64333,0.25,0.5 F,1,62108,64333,0.9,0 C,0,62108,,255,255,255
Sprite,Background,Centre,"sb/ring.png",0,0 M,0,62408,,227,266 S,1,62408,64408,0.25,0.5 F,1,62408,64408,0.9,0 C,0,62408,,255,255,255
Sprite,Background,Centre,"sb/ring.png",0,0 M,0,62558,,335,362 S,1,62558,64708,0.25,0.5 F,1,62558,64708,0.9,0 C,0,62558,,255,255,255
Sprite,Background,Centre,"sb/ring.png",0,0 M,0,62858,,361,193 S,1,62858,64858,0.25,0.5 F,1,62858,64858,0.9,0 C,0,62858,,255,255,255
Sprite,Background,Centre,"sb/ring.png",0,0 M,0,63008,,434,149 S,1,63008,65008,0.25,0.5 F,1,63008,65008,0.9,0 C,0,63008,,255,255,255
Sprite,Background,Centre,"sb/ring.png",0,0 M,0,63158,,516,168 S,1,63158,65158,0.25,0.5 F,1,63158,65158,0.9,0 C,0,63158,,255,255,255
Sprite,Background,Centre,"sb/ring.png",0,0 M,0,63308,,560,240 S,1,63308,65308,0.25,0.5 F,1,63308,65308,0.9,0 C,0,63308,,255,255,255
Sprite,Background,Centre,"sb/ring.png",0,0 M,0,63458,,543,323 S,1,63458,66058,0.25,0.5 F,1,63458,66058,0.9,0 C,0,63458,,255,255,255
Sprite,Background,Centre,"sb/ring.png",0,0 M,0,64208,,576,398 S,1,64208,66208,0.25,0.5 F,1,64208,66208,0.9,0 C,0,64208,,255,255,255
Sprite,Background,Centre,"sb/ring.png",0,0 M,0,64358,,505,440 S,1,64358,66358,0.25,0.5 F,1,64358,66358,0.9,0 C,0,64358,,255,255,255
Sprite,Background,Centre,"sb/ring.png",0,0 M,0,64508,,376,291 S,1,64508,66508,0.25,0.5 F,1,64508,66508,0.9,0 C,0,64508,,255,255,255
Sprite,Background,Centre,"sb/ring.png",0,0 M,0,64658,,350,437 S,1,64658,66808,0.25,0.5 F,1,64658,66808,0.9,0 C,0,64658,,255,255,255
Sprite,Background,Centre,"sb/ring.png",0,0 M,0,64958,,242,361 S,1,64958,66958,0.25,0.5 F,1,64958,66958,0.9,0 C,0,64958,,255,255,255
Sprite,Background,Centre,"sb/ring.png",0,0 M,0,65108,,406,211 S,1,65108,67408,0.25,0.5 F,1,65108,67408,0.9,0 C,0,65108,,255,255,255
Sprite,Background,Centre,"sb/ring.png",0,0 M,0,65558,,192,131 S,1,65558,67558,0.25,0.5 F,1,65558,67558,0.9,0 C,0,65558,,255,255,255
Sprite,Background,Centre,"sb/ring.png",0,0 M,0,65708,,155,208 S,1,65708,67708,0.25,0.5 F,1,65708,67708,0.9,0 C,0,65708,,255,255,255
Sprite,Background,Centre,"sb/ring.png",0,0 M,0,65858,,193,290 S,1,65858,68258,0.25,0.5 F,1,65858,68258,0.9,0 C,0,65858,,255,255,255
Sprite,Background,Centre,"sb/ring.png",0,0 M,0,66458,,105,288 S,1,66458,68858,0.25,0.5 F,1,66458,68858,0.9,0 C,0,66458,,255,255,255
Sprite,Background,Centre,"sb/ring.png",0,0 M,0,67058,,67,213 S,1,67058,69058,0.25,0.5 F,1,67058,69058,0.9,0 C,0,67058,,255,255,255
Sprite,Background,Centre,"sb/ring.png",0,0 M,0,67208,,72,199 S,1,67208,69208,0.25,0.5 F,1,67208,69208,0.9,0 C,0,67208,,255,255,255
Sprite,Background,Centre,"sb/ring.png",0,0 M,0,67358,,125,141 S,1,67358,69358,0.25,0.5 F,1,67358,69358,0.9,0 C,0,67358,,255,255,255
Sprite,Background,Centre,"sb/ring.png",0,0 M,0,67508,,77,75 S,1,67508,69508,0.25,0.5 F,1,67508,69508,0.9,0 C,0,67508,,255,255,255
Sprite,Background,Centre,"sb/ring.png",0,0 M,0,67658,,209,143 S,1,67658,69808,0.25,0.5 F,1,67658,69808,0.9,0 C,0,67658,,255,255,255
Sprite,Background,Centre,"sb/ring.png",0,0 M,0,67958,,357,84 S,1,67958,69958,0.25,0.5 F,1,67958,69958,0.9,0 C,0,67958,,255,255,255
Sprite,Background,Centre,"sb/ring.png",0,0 M,0,68108,,459,200 S,1,68108,70108,0.25,0.5 F,1,68108,70108,0.9,0 C,0,68108,,255,255,255
Sprite,Background,Centre,"sb/ring.png",0,0 M,0,68258,,320,248 S,1,68258,72508,0.25,0.5 F,1,68258,72508,0.9,0 C,0,68258,,255,255,255
Sprite,Background,Centre,"sb/ring.png",0,0 M,0,121058,,362,290 S,1,121058,123283,0.25,0.5 F,1,121058,123283,0.9,0 C,0,121058,,255,255,255
Sprite,Background,Centre,"sb/ring.png",0,0 M,0,121358,,192,206 S,1,121358,123433,0.25,0.5 F,1,121358,123433,0.9,0 C,0,121358,,255,255,255
Sprite,Background,Centre,"sb/ring.png",0,0 M,0,121508,,98,385 S,1,121508,123658,0.25,0.5 F,1,121508,123658,0.9,0 C,0,121508,,255,255,255
Sprite,Background,Centre,"sb/ring.png",0,0 M,0,121808,,203,286 S,1,121808,123808,0.25,0.5 F,1,121808,123808,0.9,0 C,0,121808,,255,255,255
Sprite,Background,Centre,"sb/ring.png",0,0 M,0,121958,,262,440 S,1,121958,123958,0.25,0.5 F,1,121958,123958,0.9,0 C,0,121958,,255,255,255
Sprite,Background,Centre,"sb/ring.png",0,0 M,0,122108,,312,364 S,1,122108,124408,0.25,0.5 F,1,122108,124408,0.9,0 C,0,122108,,255,255,255
Sprite,Background,Centre,"sb/ring.png",0,0 M,0,122558,,98,385 S,1,122558,124708,0.25,0.5 F,1,122558,124708,0.9,0 C,0,122558,,255,255,255
Sprite,Background,Centre,"sb/ring.png",0,0 M,0,122858,,78,215 S,1,122858,124858,0.25,0.5 F,1,122858,124858,0.9,0 C,0,122858,,255,255,255
Sprite,Background,Centre,"sb/ring.png",0,0 M,0,123008,,85,130 S,1,123008,125008,0.25,0.5 F,1,123008,125008,0.9,0 C,0,123008,,255,255,255
Sprite,Background,Centre,"sb/ring.png",0,0 M,0,123158,,158,86 S,1,123158,125158,0.25,0.5 F,1,123158,125158,0.9,0 C,0,123158,,255,255,255
Sprite,Background,Centre,"sb/ring.png",0,0 M,0,123308,,242,96 S,1,123308,125308,0.25,0.5 F,1,123308,125308,0.9,0 C,0,123308,,255,255,255
Sprite,Background,Centre,"sb/ring.png",0,0 M,0,123458,,281,171 S,1,123458,126058,0.25,0.5 F,1,123458,126058,0.9,0 C,0,123458,,255,255,255
Sprite,Background,Centre,"sb/ring.png",0,0 M,0,124208,,198,202 S,1,124208,126208,0.25,0.5 F,1,124208,126208,0.9,0 C,0,124208,,255,255,255
Sprite,Background,Centre,"sb/ring.png",0,0 M,0,124358,,292,326 S,1,124358,126508,0.25,0.5 F,1,124358,126508,0.9,0 C,0,124358,,255,255,255
Sprite,Background,Centre,"sb/ring.png",0,0 M,0,124658,,281,171 S,1,124658,126658,0.25,0.5 F,1,124658,126658,0.9,0 C,0,124658,,255,255,255
Sprite,Background,Centre,"sb/ring.png",0,0 M,0,124808,,281,171 S,1,124808,126808,0.25,0.5 F,1,124808,126808,0.9,0 C,0,124808,,255,255,255
Sprite,Background,Centre,"sb/ring.png",0,0 M,0,124958,,198,202 S,1,124958,126958,0.25,0.5 F,1,124958,126958,0.9,0 C,0,124958,,255,255,255
Sprite,Background,Centre,"sb/ring.png",0,0 M,0,125108,,208,118 S,1,125108,127108,0.25,0.5 F,1,125108,127108,0.9,0 C,0,125108,,255,255,255
Sprite,Background,Centre,"sb/ring.png",0,0 M,0,125258,,366,62 S,1,125258,127408,0.25,0.5 F,1,125258,127408,0.9,0 C,0,125258,,255,255,255
Sprite,Background,Centre,"sb/ring.png",0,0 M,0,125558,,441,201 S,1,125558,127708,0.25,0.5 F,1,125558,127708,0.9,0 C,0,125558,,255,255,255
Sprite,Background,Centre,"sb/ring.png",0,0 M,0,125858,,388,373 S,1,125858,128158,0.25,0.5 F,1,125858,128158,0.9,0 C,0,125858,,255,255,255
Sprite,Background,Centre,"sb/ring.png",0,0 M,0,126308,,119,309 S,1,126308,128308,0.25,0.5 F,1,126308,128308,0.9,0 C,0,126308,,255,255,255
Sprite,Background,Centre,"sb/ring.png",0,0 M,0,126458,,209,439 S,1,126458,128608,0.25,0.5 F,1,126458,128608,0.9,0 C,0,126458,,255,255,255
Sprite,Background,Centre,"sb/ring.png",0,0 M,0,126758,,327,203 S,1,126758,128758,0.25,0.5 F,1,126758,128758,0.9,0 C,0,126758,,255,255,255
Sprite,Background,Centre,"sb/ring.png",0,0 M,0,126908,,238,143 S,1,126908,129208,0.25,0.5 F,1,126908,129208,0.9,0 C,0,126908,,255,255,255
Sprite,Background,Centre,"sb/ring.png",0,0 M,0,127358,,388,400 S,1,127358,129358,0.25,0.5 F,1,127358,129358,0.9,0 C,0,127358,,255,255,255
Sprite,Background,Centre,"sb/ring.png",0,0 M,0,127508,,314,431 S,1,127508,129658,0.25,0.5 F,1,127508,129658,0.9,0 C,0,127508,,255,255,255
Sprite,Background,Centre,"sb/ring.png",0,0 M,0,127808,,455,292 S,1,127808,129808,0.25,0.5 F,1,127808,129808,0.9,0 C,0,127808,,255,255,255
Sprite,Background,Centre,"sb/ring.png",0,0 M,0,127958,,534,317 S,1,127958,129958,0.25,0.5 F,1,127958,129958,0.9,0 C,0,127958,,255,255,255
Sprite,Background,Centre,"sb/ring.png",0,0 M,0,128108,,515,238 S,1,128108,130108,0.25,0.5 F,1,128108,130108,0.9,0 C,0,128108,,255,255,255
Sprite,Background,Centre,"sb/ring.png",0,0 M,0,128258,,475,372 S,1,128258,130258,0.25,0.5 F,1,128258,130258,0.9,0 C,0,128258,,255,255,255
Sprite,Background,Centre,"sb/ring.png",0,0 M,0,128408,,475,372 S,1,128408,130408,0.25,0.5 F,1,128408,130408,0.9,0 C,0,128408,,255,255,255
Sprite,Background,Centre,"sb/ring.png",0,0 M,0,128558,,455,292 S,1,128558,130558,0.25,0.5 F,1,128558,130558,0.9,0 C,0,128558,,255,255,255
Sprite,Background,Centre,"sb/ring.png",0,0 M,0,128708,,385,255 S,1,128708,130708,0.25,0.5 F,1,128708,130708,0.9,0 C,0,128708,,255,255,255
Sprite,Background,Centre,"sb/ring.png",0,0 M,0,128858,,267,132 S,1,128858,130858,0.25,0.5 F,1,128858,130858,0.9,0 C,0,128858,,255,255,255
Sprite,Background,Centre,"sb/ring.png",0,0 M,0,129008,,302,218 S,1,129008,131008,0.25,0.5 F,1,129008,131008,0.9,0 C,0,129008,,255,255,255
Sprite,Background,Centre,"sb/ring.png",0,0 M,0,129158,,357,142 S,1,129158,131158,0.25,0.5 F,1,129158,131158,0.9,0 C,0,129158,,255,255,255
Sprite,Background,Centre,"sb/ring.png",0,0 M,0,129308,,173,90 S,1,129308,131608,0.25,0.5 F,1,129308,131608,0.9,0 C,0,129308,,255,255,255
Sprite,Background,Centre,"sb/ring.png",0,0 M,0,129758,,240,307 S,1,129758,131908,0.25,0.5 F,1,129758,131908,0.9,0 C,0,129758,,255,255,255
Sprite,Background,Centre,"sb/ring.png",0,0 M,0,130058,,73,227 S,1,130058,132058,0.25,0.5 F,1,130058,132058,0.9,0 C,0,130058,,255,255,255
Sprite,Background,Centre,"sb/ring.png",0,0 M,0,130208,,89,385 S,1,130208,132433,0.25,0.5 F,1,130208,132433,0.9,0 C,0,130208,,255,255,255
Sprite,Background,Centre,"sb/ring.png",0,0 M,0,130508,,82,305 S,1,130508,132733,0.25,0.5 F,1,130508,132733,0.9,0 C,0,130508,,255,255,255
Sprite,Background,Centre,"sb/ring.png",0,0 M,0,130808,,314,338 S,1,130808,132883,0.25,0.5 F,1,130808,132883,0.9,0 C,0,130808,,255,255,255
Sprite,Background,Centre,"sb/ring.png",0,0 M,0,130958,,188,219 S,1,130958,132958,0.25,0.5 F,1,130958,132958,0.9,0 C,0,130958,,255,255,255
Sprite,Background,Centre,"sb/ring.png",0,0 M,0,131108,,273,147 S,1,131108,133258,0.25,0.5 F,1,131108,133258,0.9,0 C,0,131108,,255,255,255
Sprite,Background,Centre,"sb/ring.png",0,0 M,0,131408,,395,268 S,1,131408,133408,0.25,0.5 F,1,131408,133408,0.9,0 C,0,131408,,255,255,255
Sprite,Background,Centre,"sb/ring.png",0,0 M,0,131558,,367,193 S,1,131558,133558,0.25,0.5 F,1,131558,133558,0.9,0 C,0,131558,,255,255,255
Sprite,Background,Centre,"sb/ring.png",0,0 M,0,131708,,412,128 S,1,131708,133933,0.25,0.5 F,1,131708,133933,0.9,0 C,0,131708,,255,255,255
Sprite,Background,Centre,"sb/ring.png",0,0 M,0,132008,,546,156 S,1,132008,134008,0.25,0.5 F,1,132008,134008,0.9,0 C,0,132008,,255,255,255
Sprite,Background,Centre,"sb/ring.png",0,0 M,0,132158,,478,243 S,1,132158,134308,0.25,0.5 F,1,132158,134308,0.9,0 C,0,132158,,255,255,255
Sprite,Background,Centre,"sb/ring.png",0,0 M,0,132458,,416,418 S,1,132458,134458,0.25,0.5 F,1,132458,134458,0.9,0 C,0,132458,,255,255,255
Sprite,Background,Centre,"sb/ring.png",0,0 M,0,132608,,381,340 S,1,132608,134608,0.25,0.5 F,1,132608,134608,0.9,0 C,0,132608,,255,255,255
Sprite,Background,Centre,"sb/ring.png",0,0 M,0,132758,,300,313 S,1,132758,134758,0.25,0.5 F,1,132758,134758,0.9,0 C,0,132758,,255,255,255
Sprite,Background,Centre,"sb/ring.png",0,0 M,0,132908,,217,333 S,1,132908,134908,0.25,0.5 F,1,132908,134908,0.9,0 C,0,132908,,255,255,255
Sprite,Background,Centre,"sb/ring.png",0,0 M,0,133058,,171,404 S,1,133058,135658,0.25,0.5 F,1,133058,135658,0.9,0 C,0,133058,,255,255,255
Sprite,Background,Centre,"sb/ring.png",0,0 M,0,133808,,329,423 S,1,133808,135958,0.25,0.5 F,1,133808,135958,0.9,0 C,0,133808,,255,255,255
Sprite,Background,Centre,"sb/ring.png",0,0 M,0,134108,,349,190 S,1,134108,136408,0.25,0.5 F,1,134108,136408,0.9,0 C,0,134108,,255,255,255
Sprite,Background,Centre,"sb/ring.png",0,0 M,0,134558,,431,361 S,1,134558,136558,0.25,0.5 F,1,134558,136558,0.9,0 C,0,134558,,255,255,255
Sprite,Background,Centre,"sb/ring.png",0,0 M,0,134708,,476,292 S,1,134708,136858,0.25,0.5 F,1,134708,136858,0.9,0 C,0,134708,,255,255,255
Sprite,Background,Centre,"sb/ring.png",0,0 M,0,135008,,343,108 S,1,135008,137008,0.25,0.5 F,1,135008,137008,0.9,0 C,0,135008,,255,255,255
Sprite,Background,Centre,"sb/ring.png",0,0 M,0,135158,,419,143 S,1,135158,137158,0.25,0.5 F,1,135158,137158,0.9,0 C,0,135158,,255,255,255
Sprite,Background,Centre,"sb/ring.png",0,0 M,0,135308,,410,61 S,1,135308,137308,0.25,0.5 F,1,135308,137308,0.9,0 C,0,135308,,255,255,255
Sprite,Background,Centre,"sb/ring.png",0,0 M,0,135458,,343,108 S,1,135458,137758,0.25,0.5 F,1,135458,137758,0.9,0 C,0,135458,,255,255,255
Sprite,Background,Centre,"sb/ring.png",0,0 M,0,136208,,181,73 S,1,136208,138208,0.25,0.5 F,1,136208,138208,0.9,0 C,0,136208,,255,255,255
Sprite,Background,Centre,"sb/ring.png",0,0 M,0,136358,,181,73 S,1,136358,138358,0.25,0.5 F,1,136358,138358,0.9,0 C,0,136358,,255,255,255
Sprite,Background,Centre,"sb/ring.png",0,0 M,0,136508,,246,133 S,1,136508,138583,0.25,0.5 F,1,136508,138583,0.9,0 C,0,136508,,255,255,255
Sprite,Background,Centre,"sb/ring.png",0,0 M,0,136808,,240,194 S,1,136808,138883,0.25,0.5 F,1,136808,138883,0.9,0 C,0,136808,,255,255,255
Sprite,Background,Centre,"sb/ring.png",0,0 M,0,137108,,346,197 S,1,137108,139183,0.25,0.5 F,1,137108,139183,0.9,0 C,0,137108,,255,255,255
Sprite,Background,Centre,"sb/ring.png",0,0 M,0,137408,,208,374 S,1,137408,139483,0.25,0.5 F,1,137408,139483,0.9,0 C,0,137408,,255,255,255
Sprite,Background,Centre,"sb/ring.png",0,0 M,0,137558,,234,299 S,1,137558,139633,0.25,0.5 F,1,137558,139633,0.9,0 C,0,137558,,255,255,255
Sprite,Background,Centre,"sb/ring.png",0,0 M,0,137708,,155,312 S,1,137708,139783,0.25,0.5 F,1,137708,139783,0.9,0 C,0,137708,,255,255,255
Sprite,Background,Centre,"sb/ring.png",0,0 M,0,137858,,293,410 S,1,137858,140083,0.25,0.5 F,1,137858,140083,0.9,0 C,0,137858,,255,255,255
Sprite,Background,Centre,"sb/ring.png",0,0 M,0,138158,,436,415 S,1,138158,140158,0.25,0.5 F,1,138158,140158,0.9,0 C,0,138158,,255,255,255
Sprite,Background,Centre,"sb/ring.png",0,0 M,0,138308,,538,348 S,1,138308,140458,0.25,0.5 F,1,138308,140458,0.9,0 C,0,138308,,255,255,255
Sprite,Background,Centre,"sb/ring.png",0,0 M,0,138608,,404,306 S,1,138608,140608,0.25,0.5 F,1,138608,140608,0.9,0 C,0,138608,,255,255,255
Sprite,Background,Centre,"sb/ring.png",0,0 M,0,138758,,483,276 S,1,138758,140908,0.25,0.5 F,1,138758,140908,0.9,0 C,0,138758,,255,255,255
Sprite,Background,Centre,"sb/ring.png",0,0 M,0,139058,,341,56 S,1,139058,141283,0.25,0.5 F,1,139058,141283,0.9,0 C,0,139058,,255,255,255
Sprite,Background,Centre,"sb/ring.png",0,0 M,0,139358,,339,173 S,1,139358,141358,0.25,0.5 F,1,139358,141358,0.9,0 C,0,139358,,255,255,255
Sprite,Background,Centre,"sb/ring.png",0,0 M,0,139508,,487,109 S,1,139508,141658,0.25,0.5 F,1,139508,141658,0.9,0 C,0,139508,,255,255,255
Sprite,Background,Centre,"sb/ring.png",0,0 M,0,139808,,246,250 S,1,139808,141958,0.25,0.5 F,1,139808,141958,0.9,0 C,0,139808,,255,255,255
Sprite,Background,Centre,"sb/ring.png",0,0 M,0,140108,,140,129 S,1,140108,142108,0.25,0.5 F,1,140108,142108,0.9,0 C,0,140108,,255,255,255
Sprite,Background,Centre,"sb/ring.png",0,0 M,0,140258,,221,119 S,1,140258,142258,0.25,0.5 F,1,140258,142258,0.9,0 C,0,140258,,255,255,255
Sprite,Background,Centre,"sb/ring.png",0,0 M,0,140408,,190,195 S,1,140408,142408,0.25,0.5 F,1,140408,142408,0.9,0 C,0,140408,,255,255,255
Sprite,Background,Centre,"sb/ring.png",0,0 M,0,140558,,109,204 S,1,140558,142558,0.25,0.5 F,1,140558,142558,0.9,0 C,0,140558,,255,255,255
Sprite,Background,Centre,"sb/ring.png",0,0 M,0,140708,,83,278 S,1,140708,142708,0.25,0.5 F,1,140708,142708,0.9,0 C,0,140708,,255,255,255
Sprite,Background,Centre,"sb/ring.png",0,0 M,0,140858,,157,417 S,1,140858,142858,0.25,0.5 F,1,140858,142858,0.9,0 C,0,140858,,255,255,255
Sprite,Background,Centre,"sb/ring.png",0,0 M,0,141008,,181,309 S,1,141008,143008,0.25,0.5 F,1,141008,143008,0.9,0 C,0,141008,,255,255,255
Sprite,Background,Centre,"sb/ring.png",0,0 M,0,141158,,263,380 S,1,141158,143158,0.25,0.5 F,1,141158,143158,0.9,0 C,0,141158,,255,255,255
Sprite,Background,Centre,"sb/ring.png",0,0 M,0,141308,,290,275 S,1,141308,143533,0.25,0.5 F,1,141308,143533,0.9,0 C,0,141308,,255,255,255
Sprite,Background,Centre,"sb/ring.png",0,0 M,0,141608,,430,292 S,1,141608,143608,0.25,0.5 F,1,141608,143608,0.9,0 C,0,141608,,255,255,255
Sprite,Background,Centre,"sb/ring.png",0,0 M,0,141758,,488,167 S,1,141758,143758,0.25,0.5 F,1,141758,143758,0.9,0 C,0,141758,,255,255,255
Sprite,Background,Centre,"sb/ring.png",0,0 M,0,141833,,480,172 S,1,141833,143833,0.25,0.5 F,1,141833,143833,0.9,0 C,0,141833,,255,255,255
Sprite,Background,Centre,"sb/ring.png",0,0 M,0,141908,,473,176 S,1,141908,143983,0.25,0.5 F,1,141908,143983,0.9,0 C,0,141908,,255,255,255
Sprite,Background,Centre,"sb/ring.png",0,0 M,0,142058,,576,391 S,1,142058,144283,0.25,0.5 F,1,142058,144283,0.9,0 C,0,142058,,255,255,255
Sprite,Background,Centre,"sb/ring.png",0,0 M,0,142358,,411,420 S,1,142358,144583,0.25,0.5 F,1,142358,144583,0.9,0 C,0,142358,,255,255,255
Sprite,Background,Centre,"sb/ring.png",0,0 M,0,142658,,147,424 S,1,142658,144658,0.25,0.5 F,1,142658,144658,0.9,0 C,0,142658,,255,255,255
Sprite,Background,Centre,"sb/ring.png",0,0 M,0,142808,,70,391 S,1,142808,144808,0.25,0.5 F,1,142808,144808,0.9,0 C,0,142808,,255,255,255
Sprite,Background,Centre,"sb/ring.png",0,0 M,0,142958,,101,310 S,1,142958,144958,0.25,0.5 F,1,142958,144958,0.9,0 C,0,142958,,255,255,255
Sprite,Background,Centre,"sb/ring.png",0,0 M,0,143108,,109,321 S,1,143108,145108,0.25,0.5 F,1,143108,145108,0.9,0 C,0,143108,,255,255,255
Sprite,Background,Centre,"sb/ring.png",0,0 M,0,143258,,235,273 S,1,143258,145258,0.25,0.5 F,1,143258,145258,0.9,0 C,0,143258,,255,255,255
Sprite,Background,Centre,"sb/ring.png",0,0 M,0,143408,,239,262 S,1,143408,145408,0.25,0.5 F,1,143408,145408,0.9,0 C,0,143408,,255,255,255
Sprite,Background,Centre,"sb/ring.png",0,0 M,0,143558,,147,234 S,1,143558,145783,0.25,0.5 F,1,143558,145783,0.9,0 C,0,143558,,255,255,255
Sprite,Background,Centre,"sb/ring.png",0,0 M,0,143858,,195,350 S,1,143858,145858,0.25,0.5 F,1,143858,145858,0.9,0 C,0,143858,,255,255,255
Sprite,Background,Centre,"sb/ring.png",0,0 M,0,144008,,375,331 S,1,144008,146008,0.25,0.5 F,1,144008,146008,0.9,0 C,0,144008,,255,255,255
Sprite,Background,Centre,"sb/ring.png",0,0 M,0,144158,,336,409 S,1,144158,146158,0.25,0.5 F,1,144158,146158,0.9,0 C,0,144158,,255,255,255
Sprite,Background,Centre,"sb/ring.png",0,0 M,0,144308,,250,419 S,1,144308,146308,0.25,0.5 F,1,144308,146308,0.9,0 C,0,144308,,255,255,255
Sprite,Background,Centre,"sb/ring.png",0,0 M,0,144458,,287,337 S,1,144458,146458,0.25,0.5 F,1,144458,146458,0.9,0 C,0,144458,,255,255,255
Sprite,Background,Centre,"sb/ring.png",0,0 M,0,144608,,428,407 S,1,144608,146608,0.25,0.5 F,1,144608,146608,0.9,0 C,0,144608,,255,255,255
Sprite,Background,Centre,"sb/ring.png",0,0 M,0,144758,,419,247 S,1,144758,146758,0.25,0.5 F,1,144758,146758,0.9,0 C,0,144758,,255,255,255
Sprite,Background,Centre,"sb/ring.png",0,0 M,0,144908,,375,331 S,1,144908,146908,0.25,0.5 F,1,144908,146908,0.9,0 C,0,144908,,255,255,255
Sprite,Background,Centre,"sb/ring.png",0,0 M,0,145058,,519,402 S,1,145058,147058,0.25,0.5 F,1,145058,147058,0.9,0 C,0,145058,,255,255,255
Sprite,Background,Centre,"sb/ring.png",0,0 M,0,145208,,563,314 S,1,145208,147508,0.25,0.5 F,1,145208,147508,0.9,0 C,0,145208,,255,255,255
Sprite,Background,Centre,"sb/ring.png",0,0 M,0,145658,,519,402 S,1,145658,147658,0.25,0.5 F,1,145658,147658,0.9,0 C,0,145658,,255,255,255
Sprite,Background,Centre,"sb/ring.png",0,0 M,0,145808,,526,415 S,1,145808,147808,0.25,0.5 F,1,145808,147808,0.9,0 C,0,145808,,255,255,255
Sprite,Background,Centre,"sb/ring.png",0,0 M,0,145958,,429,409 S,1,145958,147958,0.25,0.5 F,1,145958,147958,0.9,0 C,0,145958,,255,255,255
Sprite,Background,Centre,"sb/ring.png",0,0 M,0,146108,,333,404 S,1,146108,148108,0.25,0.5 F,1,146108,148108,0.9,0 C,0,146108,,255,255,255
Sprite,Background,Centre,"sb/ring.png",0,0 M,0,146258,,206,344 S,1,146258,148483,0.25,0.5 F,1,146258,148483,0.9,0 C,0,146258,,255,255,255
Sprite,Background,Centre,"sb/ring.png",0,0 M,0,146558,,375,331 S,1,146558,148633,0.25,0.5 F,1,146558,148633,0.9,0 C,0,146558,,255,255,255
Sprite,Background,Centre,"sb/ring.png",0,0 M,0,146708,,303,242 S,1,146708,148783,0.25,0.5 F,1,146708,148783,0.9,0 C,0,146708,,255,255,255
Sprite,Background,Centre,"sb/ring.png",0,0 M,0,146858,,446,175 S,1,146858,148858,0.25,0.5 F,1,146858,148858,0.9,0 C,0,146858,,255,255,255
Sprite,Background,Centre,"sb/ring.png",0,0 M,0,147008,,396,104 S,1,147008,149008,0.25,0.5 F,1,147008,149008,0.9,0 C,0,147008,,255,255,255
Sprite,Background,Centre,"sb/ring.png",0,0 M,0,147158,,519,128 S,1,147158,149158,0.25,0.5 F,1,147158,149158,0.9,0 C,0,147158,,255,255,255
Sprite,Background,Centre,"sb/ring.png",0,0 M,0,147308,,468,57 S,1,147308,149308,0.25,0.5 F,1,147308,149308,0.9,0 C,0,147308,,255,255,255
Sprite,Background,Centre,"sb/ring.png",0,0 M,0,147458,,314,103 S,1,147458,149608,0.25,0.5 F,1,147458,149608,0.9,0 C,0,147458,,255,255,255
Sprite,Background,Centre,"sb/ring.png",0,0 M,0,147758,,64,136 S,1,147758,149758,0.25,0.5 F,1,147758,149758,0.9,0 C,0,147758,,255,255,255
Sprite,Background,Centre,"sb/ring.png",0,0 M,0,147908,,69,151 S,1,147908,149908,0.25,0.5 F,1,147908,149908,0.9,0 C,0,147908,,255,255,255
Sprite,Background,Centre,"sb/ring.png",0,0 M,0,148058,,151,74 S,1,148058,150208,0.25,0.5 F,1,148058,150208,0.9,0 C,0,148058,,255,255,255
Sprite,Background,Centre,"sb/ring.png",0,0 M,0,148358,,184,324 S,1,148358,150358,0.25,0.5 F,1,148358,150358,0.9,0 C,0,148358,,255,255,255
Sprite,Background,Centre,"sb/ring.png",0,0 M,0,148508,,199,319 S,1,148508,150508,0.25,0.5 F,1,148508,150508,0.9,0 C,0,148508,,255,255,255
Sprite,Background,Centre,"sb/ring.png",0,0 M,0,148658,,119,238 S,1,148658,150808,0.25,0.5 F,1,148658,150808,0.9,0 C,0,148658,,255,255,255
Sprite,Background,Centre,"sb/ring.png",0,0 M,0,148958,,356,191 S,1,148958,150958,0.25,0.5 F,1,148958,150958,0.9,0 C,0,148958,,255,255,255
Sprite,Background,Centre,"sb/ring.png",0,0 M,0,149108,,283,380 S,1,149108,151333,0.25,0.5 F,1,149108,151333,0.9,0 C,0,149108,,255,255,255
Sprite,Background,Centre,"sb/ring.png",0,0 M,0,149408,,403,128 S,1,149408,151483,0.25,0.5 F,1,149408,151483,0.9,0 C,0,149408,,255,255,255
Sprite,Background,Centre,"sb/ring.png",0,0 M,0,149558,,375,269 S,1,149558,151558,0.25,0.5 F,1,149558,151558,0.9,0 C,0,149558,,255,255,255
Sprite,Background,Centre,"sb/ring.png",0,0 M,0,149708,,289,148 S,1,149708,151708,0.25,0.5 F,1,149708,151708,0.9,0 C,0,149708,,255,255,255
Sprite,Background,Centre,"sb/ring.png",0,0 M,0,149783,,289,148 S,1,149783,151783,0.25,0.5 F,1,149783,151783,0.9,0 C,0,149783,,255,255,255
Sprite,Background,Centre,"sb/ring.png",0,0 M,0,149858,,289,148 S,1,149858,151858,0.25,0.5 F,1,149858,151858,0.9,0 C,0,149858,,255,255,255
Sprite,Background,Centre,"sb/ring.png",0,0 M,0,150008,,356,191 S,1,150008,152008,0.25,0.5 F,1,150008,152008,0.9,0 C,0,150008,,255,255,255
Sprite,Background,Centre,"sb/ring.png",0,0 M,0,150158,,404,128 S,1,150158,152158,0.25,0.5 F,1,150158,152158,0.9,0 C,0,150158,,255,255,255
Sprite,Background,Centre,"sb/ring.png",0,0 M,0,150308,,337,82 S,1,150308,152308,0.25,0.5 F,1,150308,152308,0.9,0 C,0,150308,,255,255,255
Sprite,Background,Centre,"sb/ring.png",0,0 M,0,150458,,177,185 S,1,150458,152458,0.25,0.5 F,1,150458,152458,0.9,0 C,0,150458,,255,255,255
Sprite,Background,Centre,"sb/ring.png",0,0 M,0,150608,,198,102 S,1,150608,152608,0.25,0.5 F,1,150608,152608,0.9,0 C,0,150608,,255,255,255
Sprite,Background,Centre,"sb/ring.png",0,0 M,0,150758,,95,165 S,1,150758,152758,0.25,0.5 F,1,150758,152758,0.9,0 C,0,150758,,255,255,255
Sprite,Background,Centre,"sb/ring.png",0,0 M,0,150908,,116,82 S,1,150908,152908,0.25,0.5 F,1,150908,152908,0.9,0 C,0,150908,,255,255,255
Sprite,Background,Centre,"sb/ring.png",0,0 M,0,151058,,177,185 S,1,151058,153058,0.25,0.5 F,1,151058,153058,0.9,0 C,0,151058,,255,255,255
Sprite,Background,Centre,"sb/ring.png",0,0 M,0,151208,,80,285 S,1,151208,153433,0.25,0.5 F,1,151208,153433,0.9,0 C,0,151208,,255,255,255
Sprite,Background,Centre,"sb/ring.png",0,0 M,0,151508,,329,190 S,1,151508,153733,0.25,0.5 F,1,151508,153733,0.9,0 C,0,151508,,255,255,255
Sprite,Background,Centre,"sb/ring.png",0,0 M,0,151808,,204,387 S,1,151808,153808,0.25,0.5 F,1,151808,153808,0.9,0 C,0,151808,,255,255,255
Sprite,Background,Centre,"sb/ring.png",0,0 M,0,151958,,396,440 S,1,151958,153958,0.25,0.5 F,1,151958,153958,0.9,0 C,0,151958,,255,255,255
Sprite,Background,Centre,"sb/ring.png",0,0 M,0,152033,,396,440 S,1,152033,154033,0.25,0.5 F,1,152033,154033,0.9,0 C,0,152033,,255,255,255
Sprite,Background,Centre,"sb/ring.png",0,0 M,0,152108,,396,440 S,1,152108,154183,0.25,0.5 F,1,152108,154183,0.9,0 C,0,152108,,255,255,255
Sprite,Background,Centre,"sb/ring.png",0,0 M,0,152258,,466,352 S,1,152258,154658,0.25,0.5 F,1,152258,154658,0.9,0 C,0,152258,,255,255,255
Sprite,Background,Centre,"sb/ring.png",0,0 M,0,152858,,418,281 S,1,152858,155258,0.25,0.5 F,1,152858,155258,0.9,0 C,0,152858,,255,255,255
Sprite,Background,Centre,"sb/ring.png",0,0 M,0,153458,,504,158 S,1,153458,155458,0.25,0.5 F,1,153458,155458,0.9,0 C,0,153458,,255,255,255
Sprite,Background,Centre,"sb/ring.png",0,0 M,0,153608,,537,249 S,1,153608,155608,0.25,0.5 F,1,153608,155608,0.9,0 C,0,153608,,255,255,255
Sprite,Background,Centre,"sb/ring.png",0,0 M,0,153683,,537,249 S,1,153683,155683,0.25,0.5 F,1,153683,155683,0.9,0 C,0,153683,,255,255,255
Sprite,Background,Centre,"sb/ring.png",0,0 M,0,153758,,537,249 S,1,153758,155833,0.25,0.5 F,1,153758,155833,0.9,0 C,0,153758,,255,255,255
Sprite,Background,Centre,"sb/ring.png",0,0 M,0,153908,,432,115 S,1,153908,156133,0.25,0.5 F,1,153908,156133,0.9,0 C,0,153908,,255,255,255
Sprite,Background,Centre,"sb/ring.png",0,0 M,0,154208,,183,238 S,1,154208,156433,0.25,0.5 F,1,154208,156433,0.9,0 C,0,154208,,255,255,255
Sprite,Background,Centre,"sb/ring.png",0,0 M,0,154508,,64,274 S,1,154508,157783,0.25,0.5 F,1,154508,157783,0.9,0 C,0,154508,,255,255,255
Sprite,Background,Centre,"sb/ring.png",0,0 M,0,155858,,151,407 S,1,155858,157858,0.25,0.5 F,1,155858,157858,0.9,0 C,0,155858,,255,255,255
Sprite,Background,Centre,"sb/ring.png",0,0 M,0,156008,,154,419 S,1,156008,158008,0.25,0.5 F,1,156008,158008,0.9,0 C,0,156008,,255,255,255
Sprite,Background,Centre,"sb/ring.png",0,0 M,0,156158,,349,271 S,1,156158,158158,0.25,0.5 F,1,156158,158158,0.9,0 C,0,156158,,255,255,255
Sprite,Background,Centre,"sb/ring.png",0,0 M,0,156233,,343,278 S,1,156233,158308,0.25,0.5 F,1,156233,158308,0.9,0 C,0,156233,,255,255,255
Sprite,Background,Centre,"sb/ring.png",0,0 M,0,156383,,400,373 S,1,156383,158683,0.25,0.5 F,1,156383,158683,0.9,0 C,0,156383,,255,255,255
Sprite,Background,Centre,"sb/ring.png",0,0 M,0,156758,,498,285 S,1,156758,158758,0.25,0.5 F,1,156758,158758,0.9,0 C,0,156758,,255,255,255
Sprite,Background,Centre,"sb/ring.png",0,0 M,0,181058,,271,138 S,1,181058,183283,0.25,0.5 F,1,181058,183283,0.9,0 C,0,181058,,255,255,255
Sprite,Background,Centre,"sb/ring.png",0,0 M,0,181358,,261,263 S,1,181358,183358,0.25,0.5 F,1,181358,183358,0.9,0 C,0,181358,,255,255,255
Sprite,Background,Centre,"sb/ring.png",0,0 M,0,181508,,187,185 S,1,181508,183508,0.25,0.5 F,1,181508,183508,0.9,0 C,0,181508,,255,255,255
Sprite,Background,Centre,"sb/ring.png",0,0 M,0,181658,,348,238 S,1,181658,183808,0.25,0.5 F,1,181658,183808,0.9,0 C,0,181658,,255,255,255
Sprite,Background,Centre,"sb/ring.png",0,0 M,0,181958,,406,433 S,1,181958,183958,0.25,0.5 F,1,181958,183958,0.9,0 C,0,181958,,255,255,255
Sprite,Background,Centre,"sb/ring.png",0,0 M,0,182108,,276,368 S,1,182108,184333,0.25,0.5 F,1,182108,184333,0.9,0 C,0,182108,,255,255,255
Sprite,Background,Centre,"sb/ring.png",0,0 M,0,182408,,403,356 S,1,182408,184408,0.25,0.5 F,1,182408,184408,0.9,0 C,0,182408,,255,255,255
Sprite,Background,Centre,"sb/ring.png",0,0 M,0,182558,,529,326 S,1,182558,184708,0.25,0.5 F,1,182558,184708,0.9,0 C,0,182558,,255,255,255
Sprite,Background,Centre,"sb/ring.png",0,0 M,0,182858,,487,210 S,1,182858,184858,0.25,0.5 F,1,182858,184858,0.9,0 C,0,182858,,255,255,255
Sprite,Background,Centre,"sb/ring.png",0,0 M,0,183008,,524,133 S,1,183008,185008,0.25,0.5 F,1,183008,185008,0.9,0 C,0,183008,,255,255,255
Sprite,Background,Centre,"sb/ring.png",0,0 M,0,183158,,439,142 S,1,183158,185158,0.25,0.5 F,1,183158,185158,0.9,0 C,0,183158,,255,255,255
Sprite,Background,Centre,"sb/ring.png",0,0 M,0,183308,,473,64 S,1,183308,185308,0.25,0.5 F,1,183308,185308,0.9,0 C,0,183308,,255,255,255
Sprite,Background,Centre,"sb/ring.png",0,0 M,0,183458,,358,143 S,1,183458,186058,0.25,0.5 F,1,183458,186058,0.9,0 C,0,183458,,255,255,255
Sprite,Background,Centre,"sb/ring.png",0,0 M,0,184208,,326,225 S,1,184208,186208,0.25,0.5 F,1,184208,186208,0.9,0 C,0,184208,,255,255,255
Sprite,Background,Centre,"sb/ring.png",0,0 M,0,184358,,384,280 S,1,184358,186583,0.25,0.5 F,1,184358,186583,0.9,0 C,0,184358,,255,255,255
Sprite,Background,Centre,"sb/ring.png",0,0 M,0,184658,,377,407 S,1,184658,186658,0.25,0.5 F,1,184658,186658,0.9,0 C,0,184658,,255,255,255
Sprite,Background,Centre,"sb/ring.png",0,0 M,0,184808,,377,407 S,1,184808,186808,0.25,0.5 F,1,184808,186808,0.9,0 C,0,184808,,255,255,255
Sprite,Background,Centre,"sb/ring.png",0,0 M,0,184958,,461,368 S,1,184958,186958,0.25,0.5 F,1,184958,186958,0.9,0 C,0,184958,,255,255,255
Sprite,Background,Centre,"sb/ring.png",0,0 M,0,185108,,525,423 S,1,185108,187108,0.25,0.5 F,1,185108,187108,0.9,0 C,0,185108,,255,255,255
Sprite,Background,Centre,"sb/ring.png",0,0 M,0,185258,,576,291 S,1,185258,187408,0.25,0.5 F,1,185258,187408,0.9,0 C,0,185258,,255,255,255
Sprite,Background,Centre,"sb/ring.png",0,0 M,0,185558,,426,242 S,1,185558,187783,0.25,0.5 F,1,185558,187783,0.9,0 C,0,185558,,255,255,255
Sprite,Background,Centre,"sb/ring.png",0,0 M,0,185858,,533,96 S,1,185858,188083,0.25,0.5 F,1,185858,188083,0.9,0 C,0,185858,,255,255,255
Sprite,Background,Centre,"sb/ring.png",0,0 M,0,186158,,552,217 S,1,186158,188158,0.25,0.5 F,1,186158,188158,0.9,0 C,0,186158,,255,255,255
Sprite,Background,Centre,"sb/ring.png",0,0 M,0,186308,,451,73 S,1,186308,188608,0.25,0.5 F,1,186308,188608,0.9,0 C,0,186308,,255,255,255
Sprite,Background,Centre,"sb/ring.png",0,0 M,0,186758,,129,194 S,1,186758,188908,0.25,0.5 F,1,186758,188908,0.9,0 C,0,186758,,255,255,255
Sprite,Background,Centre,"sb/ring.png",0,0 M,0,187058,,193,82 S,1,187058,189058,0.25,0.5 F,1,187058,189058,0.9,0 C,0,187058,,255,255,255
Sprite,Background,Centre,"sb/ring.png",0,0 M,0,187208,,314,154 S,1,187208,189358,0.25,0.5 F,1,187208,189358,0.9,0 C,0,187208,,255,255,255
Sprite,Background,Centre,"sb/ring.png",0,0 M,0,187508,,243,302 S,1,187508,189733,0.25,0.5 F,1,187508,189733,0.9,0 C,0,187508,,255,255,255
Sprite,Background,Centre,"sb/ring.png",0,0 M,0,187808,,132,300 S,1,187808,189808,0.25,0.5 F,1,187808,189808,0.9,0 C,0,187808,,255,255,255
Sprite,Background,Centre,"sb/ring.png",0,0 M,0,187958,,150,382 S,1,187958,189958,0.25,0.5 F,1,187958,189958,0.9,0 C,0,187958,,255,255,255
Sprite,Background,Centre,"sb/ring.png",0,0 M,0,188108,,74,360 S,1,188108,190108,0.25,0.5 F,1,188108,190108,0.9,0 C,0,188108,,255,255,255
Sprite,Background,Centre,"sb/ring.png",0,0 M,0,188258,,216,432 S,1,188258,190258,0.25,0.5 F,1,188258,190258,0.9,0 C,0,188258,,255,255,255
Sprite,Background,Centre,"sb/ring.png",0,0 M,0,188408,,216,432 S,1,188408,190408,0.25,0.5 F,1,188408,190408,0.9,0 C,0,188408,,255,255,255
Sprite,Background,Centre,"sb/ring.png",0,0 M,0,188558,,291,422 S,1,188558,190558,0.25,0.5 F,1,188558,190558,0.9,0 C,0,188558,,255,255,255
Sprite,Background,Centre,"sb/ring.png",0,0 M,0,188708,,366,410 S,1,188708,190708,0.25,0.5 F,1,188708,190708,0.9,0 C,0,188708,,255,255,255
Sprite,Background,Centre,"sb/ring.png",0,0 M,0,188858,,460,303 S,1,188858,190858,0.25,0.5 F,1,188858,190858,0.9,0 C,0,188858,,255,255,255
Sprite,Background,Centre,"sb/ring.png",0,0 M,0,189008,,325,279 S,1,189008,191008,0.25,0.5 F,1,189008,191008,0.9,0 C,0,189008,,255,255,255
Sprite,Background,Centre,"sb/ring.png",0,0 M,0,189158,,366,410 S,1,189158,191158,0.25,0.5 F,1,189158,191158,0.9,0 C,0,189158,,255,255,255
Sprite,Background,Centre,"sb/ring.png",0,0 M,0,189308,,383,331 S,1,189308,191308,0.25,0.5 F,1,189308,191308,0.9,0 C,0,189308,,255,255,255
Sprite,Background,Centre,"sb/ring.png",0,0 M,0,189458,,512,408 S,1,189458,191608,0.25,0.5 F,1,189458,191608,0.9,0 C,0,189458,,255,255,255
Sprite,Background,Centre,"sb/ring.png",0,0 M,0,189758,,307,350 S,1,189758,191758,0.25,0.5 F,1,189758,191758,0.9,0 C,0,189758,,255,255,255
Sprite,Background,Centre,"sb/ring.png",0,0 M,0,189908,,291,422 S,1,189908,192208,0.25,0.5 F,1,189908,192208,0.9,0 C,0,189908,,255,255,255
Sprite,Background,Centre,"sb/ring.png",0,0 M,0,190358,,64,264 S,1,190358,192358,0.25,0.5 F,1,190358,192358,0.9,0 C,0,190358,,255,255,255
Sprite,Background,Centre,"sb/ring.png",0,0 M,0,190433,,64,264 S,1,190433,192433,0.25,0.5 F,1,190433,192433,0.9,0 C,0,190433,,255,255,255
Sprite,Background,Centre,"sb/ring.png",0,0 M,0,190508,,64,264 S,1,190508,192583,0.25,0.5 F,1,190508,192583,0.9,0 C,0,190508,,255,255,255
Sprite,Background,Centre,"sb/ring.png",0,0 M,0,190658,,137,340 S,1,190658,192658,0.25,0.5 F,1,190658,192658,0.9,0 C,0,190658,,255,255,255
Sprite,Background,Centre,"sb/ring.png",0,0 M,0,190808,,180,210 S,1,190808,192808,0.25,0.5 F,1,190808,192808,0.9,0 C,0,190808,,255,255,255
Sprite,Background,Centre,"sb/ring.png",0,0 M,0,190958,,268,319 S,1,190958,192958,0.25,0.5 F,1,190958,192958,0.9,0 C,0,190958,,255,255,255
Sprite,Background,Centre,"sb/ring.png",0,0 M,0,191108,,342,232 S,1,191108,193258,0.25,0.5 F,1,191108,193258,0.9,0 C,0,191108,,255,255,255
Sprite,Background,Centre,"sb/ring.png",0,0 M,0,191408,,391,169 S,1,191408,193408,0.25,0.5 F,1,191408,193408,0.9,0 C,0,191408,,255,255,255
Sprite,Background,Centre,"sb/ring.png",0,0 M,0,191558,,451,314 S,1,191558,193558,0.25,0.5 F,1,191558,193558,0.9,0 C,0,191558,,255,255,255
Sprite,Background,Centre,"sb/ring.png",0,0 M,0,191708,,546,250 S,1,191708,193933,0.25,0.5 F,1,191708,193933,0.9,0 C,0,191708,,255,255,255
Sprite,Background,Centre,"sb/ring.png",0,0 M,0,192008,,418,239 S,1,192008,194008,0.25,0.5 F,1,192008,194008,0.9,0 C,0,192008,,255,255,255
Sprite,Background,Centre,"sb/ring.png",0,0 M,0,192158,,373,350 S,1,192158,194383,0.25,0.5 F,1,192158,194383,0.9,0 C,0,192158,,255,255,255
Sprite,Background,Centre,"sb/ring.png",0,0 M,0,192458,,192,425 S,1,192458,194608,0.25,0.5 F,1,192458,194608,0.9,0 C,0,192458,,255,255,255
Sprite,Background,Centre,"sb/ring.png",0,0 M,0,192758,,69,236 S,1,192758,194758,0.25,0.5 F,1,192758,194758,0.9,0 C,0,192758,,255,255,255
Sprite,Background,Centre,"sb/ring.png",0,0 M,0,192908,,146,260 S,1,192908,194908,0.25,0.5 F,1,192908,194908,0.9,0 C,0,192908,,255,255,255
Sprite,Background,Centre,"sb/ring.png",0,0 M,0,193058,,83,315 S,1,193058,195358,0.25,0.5 F,1,193058,195358,0.9,0 C,0,193058,,255,255,255
Sprite,Background,Centre,"sb/ring.png",0,0 M,0,193508,,396,278 S,1,193508,195508,0.25,0.5 F,1,193508,195508,0.9,0 C,0,193508,,255,255,255
Sprite,Background,Centre,"sb/ring.png",0,0 M,0,193658,,310,225 S,1,193658,195808,0.25,0.5 F,1,193658,195808,0.9,0 C,0,193658,,255,255,255
Sprite,Background,Centre,"sb/ring.png",0,0 M,0,193958,,241,186 S,1,193958,195958,0.25,0.5 F,1,193958,195958,0.9,0 C,0,193958,,255,255,255
Sprite,Background,Centre,"sb/ring.png",0,0 M,0,194108,,309,67 S,1,194108,196108,0.25,0.5 F,1,194108,196108,0.9,0 C,0,194108,,255,255,255
Sprite,Background,Centre,"sb/ring.png",0,0 M,0,194258,,358,127 S,1,194258,196483,0.25,0.5 F,1,194258,196483,0.9,0 C,0,194258,,255,255,255
Sprite,Background,Centre,"sb/ring.png",0,0 M,0,194558,,461,93 S,1,194558,196558,0.25,0.5 F,1,194558,196558,0.9,0 C,0,194558,,255,255,255
Sprite,Background,Centre,"sb/ring.png",0,0 M,0,194708,,541,137 S,1,194708,196933,0.25,0.5 F,1,194708,196933,0.9,0 C,0,194708,,255,255,255
Sprite,Background,Centre,"sb/ring.png",0,0 M,0,195008,,574,240 S,1,195008,197008,0.25,0.5 F,1,195008,197008,0.9,0 C,0,195008,,255,255,255
Sprite,Background,Centre,"sb/ring.png",0,0 M,0,195158,,455,276 S,1,195158,197158,0.25,0.5 F,1,195158,197158,0.9,0 C,0,195158,,255,255,255
Sprite,Background,Centre,"sb/ring.png",0,0 M,0,195308,,426,399 S,1,195308,197308,0.25,0.5 F,1,195308,197308,0.9,0 C,0,195308,,255,255,255
Sprite,Background,Centre,"sb/ring.png",0,0 M,0,195458,,376,332 S,1,195458,197958,0.25,0.5 F,1,195458,197958,0.9,0 C,0,195458,,255,255,255
Sprite,Background,Centre,"sb/ring.png",0,0 M,0,196058,,144,435 S,1,196058,198158,0.25,0.5 F,1,196058,198158,0.9,0 C,0,196058,,255,255,255
Sprite,Background,Centre,"sb/ring.png",0,0 M,0,196258,,118,362 S,1,196258,198258,0.25,0.5 F,1,196258,198258,0.9,0 C,0,196258,,255,255,255
Sprite,Background,Centre,"sb/ring.png",0,0 M,0,196508,,64,316 S,1,196508,198733,0.25,0.5 F,1,196508,198733,0.9,0 C,0,196508,,255,255,255
Sprite,Background,Centre,"sb/ring.png",0,0 M,0,196808,,158,185 S,1,196808,198883,0.25,0.5 F,1,196808,198883,0.9,0 C,0,196808,,255,255,255
Sprite,Background,Centre,"sb/ring.png",0,0 M,0,196958,,350,175 S,1,196958,198958,0.25,0.5 F,1,196958,198958,0.9,0 C,0,196958,,255,255,255
Sprite,Background,Centre,"sb/ring.png",0,0 M,0,197108,,271,114 S,1,197108,199108,0.25,0.5 F,1,197108,199108,0.9,0 C,0,197108,,255,255,255
Sprite,Background,Centre,"sb/ring.png",0,0 M,0,197183,,271,126 S,1,197183,199183,0.25,0.5 F,1,197183,199183,0.9,0 C,0,197183,,255,255,255
Sprite,Background,Centre,"sb/ring.png",0,0 M,0,197258,,272,138 S,1,197258,199258,0.25,0.5 F,1,197258,199258,0.9,0 C,0,197258,,255,255,255
Sprite,Background,Centre,"sb/ring.png",0,0 M,0,197408,,273,218 S,1,197408,199408,0.25,0.5 F,1,197408,199408,0.9,0 C,0,197408,,255,255,255
Sprite,Background,Centre,"sb/ring.png",0,0 M,0,197558,,192,64 S,1,197558,199633,0.25,0.5 F,1,197558,199633,0.9,0 C,0,197558,,255,255,255
Sprite,Background,Centre,"sb/ring.png",0,0 M,0,197708,,352,98 S,1,197708,199783,0.25,0.5 F,1,197708,199783,0.9,0 C,0,197708,,255,255,255
Sprite,Background,Centre,"sb/ring.png",0,0 M,0,197858,,273,218 S,1,197858,200083,0.25,0.5 F,1,197858,200083,0.9,0 C,0,197858,,255,255,255
Sprite,Background,Centre,"sb/ring.png",0,0 M,0,198158,,516,176 S,1,198158,200158,0.25,0.5 F,1,198158,200158,0.9,0 C,0,198158,,255,255,255
Sprite,Background,Centre,"sb/ring.png",0,0 M,0,198308,,562,313 S,1,198308,200308,0.25,0.5 F,1,198308,200308,0.9,0 C,0,198308,,255,255,255
Sprite,Background,Centre,"sb/ring.png",0,0 M,0,198458,,413,383 S,1,198458,200458,0.25,0.5 F,1,198458,200458,0.9,0 C,0,198458,,255,255,255
Sprite,Background,Centre,"sb/ring.png",0,0 M,0,198608,,573,232 S,1,198608,200608,0.25,0.5 F,1,198608,200608,0.9,0 C,0,198608,,255,255,255
Sprite,Background,Centre,"sb/ring.png",0,0 M,0,198758,,430,301 S,1,198758,200758,0.25,0.5 F,1,198758,200758,0.9,0 C,0,198758,,255,255,255
Sprite,Background,Centre,"sb/ring.png",0,0 M,0,198908,,550,401 S,1,198908,200908,0.25,0.5 F,1,198908,200908,0.9,0 C,0,198908,,255,255,255
Sprite,Background,Centre,"sb/ring.png",0,0 M,0,199058,,342,440 S,1,199058,201208,0.25,0.5 F,1,199058,201208,0.9,0 C,0,199058,,255,255,255
Sprite,Background,Centre,"sb/ring.png",0,0 M,0,199358,,197,292 S,1,199358,201358,0.25,0.5 F,1,199358,201358,0.9,0 C,0,199358,,255,255,255
Sprite,Background,Centre,"sb/ring.png",0,0 M,0,199508,,281,179 S,1,199508,201733,0.25,0.5 F,1,199508,201733,0.9,0 C,0,199508,,255,255,255
Sprite,Background,Centre,"sb/ring.png",0,0 M,0,199808,,238,374 S,1,199808,202033,0.25,0.5 F,1,199808,202033,0.9,0 C,0,199808,,255,255,255
Sprite,Background,Centre,"sb/ring.png",0,0 M,0,200108,,81,247 S,1,200108,202333,0.25,0.5 F,1,200108,202333,0.9,0 C,0,200108,,255,255,255
Sprite,Background,Centre,"sb/ring.png",0,0 M,0,200408,,201,213 S,1,200408,202408,0.25,0.5 F,1,200408,202408,0.9,0 C,0,200408,,255,255,255
Sprite,Background,Centre,"sb/ring.png",0,0 M,0,200558,,358,153 S,1,200558,202708,0.25,0.5 F,1,200558,202708,0.9,0 C,0,200558,,255,255,255
Sprite,Background,Centre,"sb/ring.png",0,0 M,0,200858,,293,99 S,1,200858,202858,0.25,0.5 F,1,200858,202858,0.9,0 C,0,200858,,255,255,255
Sprite,Background,Centre,"sb/ring.png",0,0 M,0,201008,,441,154 S,1,201008,203008,0.25,0.5 F,1,201008,203008,0.9,0 C,0,201008,,255,255,255
Sprite,Background,Centre,"sb/ring.png",0,0 M,0,201083,,441,154 S,1,201083,203083,0.25,0.5 F,1,201083,203083,0.9,0 C,0,201083,,255,255,255
Sprite,Background,Centre,"sb/ring.png",0,0 M,0,201158,,441,154 S,1,201158,203308,0.25,0.5 F,1,201158,203308,0.9,0 C,0,201158,,255,255,255
Sprite,Background,Centre,"sb/ring.png",0,0 M,0,201458,,556,221 S,1,201458,203683,0.25,0.5 F,1,201458,203683,0.9,0 C,0,201458,,255,255,255
Sprite,Background,Centre,"sb/ring.png",0,0 M,0,201758,,429,238 S,1,201758,203758,0.25,0.5 F,1,201758,203758,0.9,0 C,0,201758,,255,255,255
Sprite,Background,Centre,"sb/ring.png",0,0 M,0,201908,,455,374 S,1,201908,203908,0.25,0.5 F,1,201908,203908,0.9,0 C,0,201908,,255,255,255
Sprite,Background,Centre,"sb/ring.png",0,0 M,0,202058,,333,362 S,1,202058,204208,0.25,0.5 F,1,202058,204208,0.9,0 C,0,202058,,255,255,255
Sprite,Background,Centre,"sb/ring.png",0,0 M,0,202358,,433,242 S,1,202358,204508,0.25,0.5 F,1,202358,204508,0.9,0 C,0,202358,,255,255,255
Sprite,Background,Centre,"sb/ring.png",0,0 M,0,202658,,516,424 S,1,202658,204883,0.25,0.5 F,1,202658,204883,0.9,0 C,0,202658,,255,255,255
Sprite,Background,Centre,"sb/ring.png",0,0 M,0,202958,,388,422 S,1,202958,204958,0.25,0.5 F,1,202958,204958,0.9,0 C,0,202958,,255,255,255
Sprite,Background,Centre,"sb/ring.png",0,0 M,0,203108,,250,440 S,1,203108,205408,0.25,0.5 F,1,203108,205408,0.9,0 C,0,203108,,255,255,255
Sprite,Background,Centre,"sb/ring.png",0,0 M,0,203558,,247,209 S,1,203558,205558,0.25,0.5 F,1,203558,205558,0.9,0 C,0,203558,,255,255,255
Sprite,Background,Centre,"sb/ring.png",0,0 M,0,203708,,172,234 S,1,203708,205858,0.25,0.5 F,1,203708,205858,0.9,0 C,0,203708,,255,255,255
Sprite,Background,Centre,"sb/ring.png",0,0 M,0,204008,,311,259 S,1,204008,206158,0.25,0.5 F,1,204008,206158,0.9,0 C,0,204008,,255,255,255
Sprite,Background,Centre,"sb/ring.png",0,0 M,0,204308,,321,177 S,1,204308,206533,0.25,0.5 F,1,204308,206533,0.9,0 C,0,204308,,255,255,255
Sprite,Background,Centre,"sb/ring.png",0,0 M,0,204608,,448,186 S,1,204608,206608,0.25,0.5 F,1,204608,206608,0.9,0 C,0,204608,,255,255,255
Sprite,Background,Centre,"sb/ring.png",0,0 M,0,204758,,480,111 S,1,204758,206758,0.25,0.5 F,1,204758,206758,0.9,0 C,0,204758,,255,255,255
Sprite,Background,Centre,"sb/ring.png",0,0 M,0,204908,,535,176 S,1,204908,206908,0.25,0.5 F,1,204908,206908,0.9,0 C,0,204908,,255,255,255
Sprite,Background,Centre,"sb/ring.png",0,0 M,0,205058,,506,251 S,1,205058,207058,0.25,0.5 F,1,205058,207058,0.9,0 C,0,205058,,255,255,255
Sprite,Background,Centre,"sb/ring.png",0,0 M,0,205208,,508,265 S,1,205208,207208,0.25,0.5 F,1,205208,207208,0.9,0 C,0,205208,,255,255,255
Sprite,Background,Centre,"sb/ring.png",0,0 M,0,205358,,511,280 S,1,205358,207358,0.25,0.5 F,1,205358,207358,0.9,0 C,0,205358,,255,255,255
Sprite,Background,Centre,"sb/ring.png",0,0 M,0,205508,,451,335 S,1,205508,207733,0.25,0.5 F,1,205508,207733,0.9,0 C,0,205508,,255,255,255
Sprite,Background,Centre,"sb/ring.png",0,0 M,0,205808,,323,328 S,1,205808,207808,0.25,0.5 F,1,205808,207808,0.9,0 C,0,205808,,255,255,255
Sprite,Background,Centre,"sb/ring.png",0,0 M,0,205958,,261,279 S,1,205958,208108,0.25,0.5 F,1,205958,208108,0.9,0 C,0,205958,,255,255,255
Sprite,Background,Centre,"sb/ring.png",0,0 M,0,206258,,309,412 S,1,206258,208258,0.25,0.5 F,1,206258,208258,0.9,0 C,0,206258,,255,255,255
Sprite,Background,Centre,"sb/ring.png",0,0 M,0,206408,,309,412 S,1,206408,208408,0.25,0.5 F,1,206408,208408,0.9,0 C,0,206408,,255,255,255
Sprite,Background,Centre,"sb/ring.png",0,0 M,0,206558,,171,380 S,1,206558,208558,0.25,0.5 F,1,206558,208558,0.9,0 C,0,206558,,255,255,255
Sprite,Background,Centre,"sb/ring.png",0,0 M,0,206708,,229,434 S,1,206708,208708,0.25,0.5 F,1,206708,208708,0.9,0 C,0,206708,,255,255,255
Sprite,Background,Centre,"sb/ring.png",0,0 M,0,206858,,97,406 S,1,206858,208858,0.25,0.5 F,1,206858,208858,0.9,0 C,0,206858,,255,255,255
Sprite,Background,Centre,"sb/ring.png",0,0 M,0,207008,,108,331 S,1,207008,209008,0.25,0.5 F,1,207008,209008,0.9,0 C,0,207008,,255,255,255
Sprite,Background,Centre,"sb/ring.png",0,0 M,0,207158,,64,264 S,1,207158,209158,0.25,0.5 F,1,207158,209158,0.9,0 C,0,207158,,255,255,255
Sprite,Background,Centre,"sb/ring.png",0,0 M,0,207308,,152,183 S,1,207308,209308,0.25,0.5 F,1,207308,209308,0.9,0 C,0,207308,,255,255,255
Sprite,Background,Centre,"sb/ring.png",0,0 M,0,207383,,152,183 S,1,207383,209383,0.25,0.5 F,1,207383,209383,0.9,0 C,0,207383,,255,255,255
Sprite,Background,Centre,"sb/ring.png",0,0 M,0,207458,,152,183 S,1,207458,209608,0.25,0.5 F,1,207458,209608,0.9,0 C,0,207458,,255,255,255
Sprite,Background,Centre,"sb/ring.png",0,0 M,0,207758,,89,124 S,1,207758,209758,0.25,0.5 F,1,207758,209758,0.9,0 C,0,207758,,255,255,255
Sprite,Background,Centre,"sb/ring.png",0,0 M,0,207908,,175,62 S,1,207908,210133,0.25,0.5 F,1,207908,210133,0.9,0 C,0,207908,,255,255,255
Sprite,Background,Centre,"sb/ring.png",0,0 M,0,208208,,294,89 S,1,208208,210208,0.25,0.5 F,1,208208,210208,0.9,0 C,0,208208,,255,255,255
Sprite,Background,Centre,"sb/ring.png",0,0 M,0,208358,,392,56 S,1,208358,210358,0.25,0.5 F,1,208358,210358,0.9,0 C,0,208358,,255,255,255
Sprite,Background,Centre,"sb/ring.png",0,0 M,0,208508,,463,151 S,1,208508,210808,0.25,0.5 F,1,208508,210808,0.9,0 C,0,208508,,255,255,255
Sprite,Background,Centre,"sb/ring.png",0,0 M,0,208958,,397,392 S,1,208958,211183,0.25,0.5 F,1,208958,211183,0.9,0 C,0,208958,,255,255,255
Sprite,Background,Centre,"sb/ring.png",0,0 M,0,209258,,372,285 S,1,209258,211408,0.25,0.5 F,1,209258,211408,0.9,0 C,0,209258,,255,255,255
Sprite,Background,Centre,"sb/ring.png",0,0 M,0,209558,,226,244 S,1,209558,211558,0.25,0.5 F,1,209558,211558,0.9,0 C,0,209558,,255,255,255
Sprite,Background,Centre,"sb/ring.png",0,0 M,0,209708,,281,379 S,1,209708,211708,0.25,0.5 F,1,209708,211708,0.9,0 C,0,209708,,255,255,255
Sprite,Background,Centre,"sb/ring.png",0,0 M,0,209858,,151,362 S,1,209858,212158,0.25,0.5 F,1,209858,212158,0.9,0 C,0,209858,,255,255,255
Sprite,Background,Centre,"sb/ring.png",0,0 M,0,210308,,143,440 S,1,210308,212308,0.25,0.5 F,1,210308,212308,0.9,0 C,0,210308,,255,255,255
Sprite,Background,Centre,"sb/ring.png",0,0 M,0,210458,,74,397 S,1,210458,212458,0.25,0.5 F,1,210458,212458,0.9,0 C,0,210458,,255,255,255
Sprite,Background,Centre,"sb/ring.png",0,0 M,0,210608,,77,384 S,1,210608,212608,0.25,0.5 F,1,210608,212608,0.9,0 C,0,210608,,255,255,255
Sprite,Background,Centre,"sb/ring.png",0,0 M,0,210758,,213,405 S,1,210758,212758,0.25,0.5 F,1,210758,212758,0.9,0 C,0,210758,,255,255,255
Sprite,Background,Centre,"sb/ring.png",0,0 M,0,210908,,151,362 S,1,210908,213133,0.25,0.5 F,1,210908,213133,0.9,0 C,0,210908,,255,255,255
Sprite,Background,Centre,"sb/ring.png",0,0 M,0,211208,,144,234 S,1,211208,213208,0.25,0.5 F,1,211208,213208,0.9,0 C,0,211208,,255,255,255
Sprite,Background,Centre,"sb/ring.png",0,0 M,0,211358,,92,100 S,1,211358,213358,0.25,0.5 F,1,211358,213358,0.9,0 C,0,211358,,255,255,255
Sprite,Background,Centre,"sb/ring.png",0,0 M,0,211508,,166,126 S,1,211508,213733,0.25,0.5 F,1,211508,213733,0.9,0 C,0,211508,,255,255,255
Sprite,Background,Centre,"sb/ring.png",0,0 M,0,211808,,274,145 S,1,211808,213808,0.25,0.5 F,1,211808,213808,0.9,0 C,0,211808,,255,255,255
Sprite,Background,Centre,"sb/ring.png",0,0 M,0,211958,,341,91 S,1,211958,213958,0.25,0.5 F,1,211958,213958,0.9,0 C,0,211958,,255,255,255
Sprite,Background,Centre,"sb/ring.png",0,0 M,0,212108,,361,171 S,1,212108,214108,0.25,0.5 F,1,212108,214108,0.9,0 C,0,212108,,255,255,255
Sprite,Background,Centre,"sb/ring.png",0,0 M,0,212258,,441,216 S,1,212258,214633,0.25,0.5 F,1,212258,214633,0.9,0 C,0,212258,,255,255,255
Sprite,Background,Centre,"sb/ring.png",0,0 M,0,212708,,219,266 S,1,212708,214933,0.25,0.5 F,1,212708,214933,0.9,0 C,0,212708,,255,255,255
Sprite,Background,Centre,"sb/ring.png",0,0 M,0,213008,,296,246 S,1,213008,215233,0.25,0.5 F,1,213008,215233,0.9,0 C,0,213008,,255,255,255
Sprite,Background,Centre,"sb/ring.png",0,0 M,0,213308,,237,186 S,1,213308,215308,0.25,0.5 F,1,213308,215308,0.9,0 C,0,213308,,255,255,255
Sprite,Background,Centre,"sb/ring.png",0,0 M,0,213458,,233,170 S,1,213458,215458,0.25,0.5 F,1,213458,215458,0.9,0 C,0,213458,,255,255,255
Sprite,Background,Centre,"sb/ring.png",0,0 M,0,213608,,154,188 S,1,213608,215608,0.25,0.5 F,1,213608,215608,0.9,0 C,0,213608,,255,255,255
Sprite,Background,Centre,"sb/ring.png",0,0 M,0,213758,,137,109 S,1,213758,215758,0.25,0.5 F,1,213758,215758,0.9,0 C,0,213758,,255,255,255
Sprite,Background,Centre,"sb/ring.png",0,0 M,0,213908,,270,58 S,1,213908,215908,0.25,0.5 F,1,213908,215908,0.9,0 C,0,213908,,255,255,255
Sprite,Background,Centre,"sb/ring.png",0,0 M,0,213983,,265,63 S,1,213983,215983,0.25,0.5 F,1,213983,215983,0.9,0 C,0,213983,,255,255,255
Sprite,Background,Centre,"sb/ring.png",0,0 M,0,214058,,260,67 S,1,214058,216133,0.25,0.5 F,1,214058,216133,0.9,0 C,0,214058,,255,255,255
Sprite,Background,Centre,"sb/ring.png",0,0 M,0,214208,,342,56 S,1,214208,216283,0.25,0.5 F,1,214208,216283,0.9,0 C,0,214208,,255,255,255
Sprite,Background,Centre,"sb/ring.png",0,0 M,0,214358,,421,198 S,1,214358,216358,0.25,0.5 F,1,214358,216358,0.9,0 C,0,214358,,255,255,255
Sprite,Background,Centre,"sb/ring.png",0,0 M,0,214508,,460,56 S,1,214508,216508,0.25,0.5 F,1,214508,216508,0.9,0 C,0,214508,,255,255,255
Sprite,Background,Centre,"sb/ring.png",0,0 M,0,214658,,546,128 S,1,214658,216808,0.25,0.5 F,1,214658,216808,0.9,0 C,0,214658,,255,255,255
Sprite,Background,Centre,"sb/ring.png",0,0 M,0,214958,,343,204 S,1,214958,216958,0.25,0.5 F,1,214958,216958,0.9,0 C,0,214958,,255,255,255
Sprite,Background,Centre,"sb/ring.png",0,0 M,0,215108,,341,190 S,1,215108,217108,0.25,0.5 F,1,215108,217108,0.9,0 C,0,215108,,255,255,255
Sprite,Background,Centre,"sb/ring.png",0,0 M,0,215258,,421,198 S,1,215258,217408,0.25,0.5 F,1,215258,217408,0.9,0 C,0,215258,,255,255,255
Sprite,Background,Centre,"sb/ring.png",0,0 M,0,215558,,353,317 S,1,215558,217708,0.25,0.5 F,1,215558,217708,0.9,0 C,0,215558,,255,255,255
Sprite,Background,Centre,"sb/ring.png",0,0 M,0,215858,,451,426 S,1,215858,217858,0.25,0.5 F,1,215858,217858,0.9,0 C,0,215858,,255,255,255
Sprite,Background,Centre,"sb/ring.png",0,0 M,0,216008,,446,411 S,1,216008,218008,0.25,0.5 F,1,216008,218008,0.9,0 C,0,216008,,255,255,255
Sprite,Background,Centre,"sb/ring.png",0,0 M,0,216158,,533,417 S,1,216158,218158,0.25,0.5 F,1,216158,218158,0.9,0 C,0,216158,,255,255,255
Sprite,Background,Centre,"sb/ring.png",0,0 M,0,216308,,496,340 S,1,216308,218308,0.25,0.5 F,1,216308,218308,0.9,0 C,0,216308,,255,255,255
Sprite,Background,Centre,"sb/ring.png",0,0 M,0,216458,,560,287 S,1,216458,218608,0.25,0.5 F,1,216458,218608,0.9,0 C,0,216458,,255,255,255
Sprite,Background,Centre,"sb/ring.png",0,0 M,0,216758,,478,177 S,1,216758,218908,0.25,0.5 F,1,216758,218908,0.9,0 C,0,216758,,255,255,255
Sprite,Background,Centre,"sb/ring.png",0,0 M,0,217058,,352,247 S,1,217058,219283,0.25,0.5 F,1,217058,219283,0.9,0 C,0,217058,,255,255,255
Sprite,Background,Centre,"sb/ring.png",0,0 M,0,217358,,479,256 S,1,217358,219358,0.25,0.5 F,1,217358,219358,0.9,0 C,0,217358,,255,255,255
Sprite,Background,Centre,"sb/ring.png",0,0 M,0,217508,,359,172 S,1,217508,219508,0.25,0.5 F,1,217508,219508,0.9,0 C,0,217508,,255,255,255
Sprite,Background,Centre,"sb/ring.png",0,0 M,0,217658,,291,302 S,1,217658,219883,0.25,0.5 F,1,217658,219883,0.9,0 C,0,217658,,255,255,255
Sprite,Background,Centre,"sb/ring.png",0,0 M,0,217958,,132,313 S,1,217958,219958,0.25,0.5 F,1,217958,219958,0.9,0 C,0,217958,,255,255,255
Sprite,Background,Centre,"sb/ring.png",0,0 M,0,218108,,272,229 S,1,218108,220108,0.25,0.5 F,1,218108,220108,0.9,0 C,0,218108,,255,255,255
Sprite,Background,Centre,"sb/ring.png",0,0 M,0,218258,,352,247 S,1,218258,220408,0.25,0.5 F,1,218258,220408,0.9,0 C,0,218258,,255,255,255
Sprite,Background,Centre,"sb/ring.png",0,0 M,0,218558,,272,229 S,1,218558,220708,0.25,0.5 F,1,218558,220708,0.9,0 C,0,218558,,255,255,255
Sprite,Background,Centre,"sb/ring.png",0,0 M,0,218858,,335,158 S,1,218858,220858,0.25,0.5 F,1,218858,220858,0.9,0 C,0,218858,,255,255,255
Sprite,Background,Centre,"sb/ring.png",0,0 M,0,219008,,409,124 S,1,219008,221008,0.25,0.5 F,1,219008,221008,0.9,0 C,0,219008,,255,255,255
Sprite,Background,Centre,"sb/ring.png",0,0 M,0,219158,,474,173 S,1,219158,221158,0.25,0.5 F,1,219158,221158,0.9,0 C,0,219158,,255,255,255
Sprite,Background,Centre,"sb/ring.png",0,0 M,0,219458,,335,158 S,1,219458,221683,0.25,0.5 F,1,219458,221683,0.9,0 C,0,219458,,255,255,255
Sprite,Background,Centre,"sb/ring.png",0,0 M,0,219758,,403,203 S,1,219758,221758,0.25,0.5 F,1,219758,221758,0.9,0 C,0,219758,,255,255,255
Sprite,Background,Centre,"sb/ring.png",0,0 M,0,219908,,403,203 S,1,219908,221908,0.25,0.5 F,1,219908,221908,0.9,0 C,0,219908,,255,255,255
Sprite,Background,Centre,"sb/ring.png",0,0 M,0,220058,,287,224 S,1,220058,222283,0.25,0.5 F,1,220058,222283,0.9,0 C,0,220058,,255,255,255
Sprite,Background,Centre,"sb/ring.png",0,0 M,0,220358,,358,273 S,1,220358,222358,0.25,0.5 F,1,220358,222358,0.9,0 C,0,220358,,255,255,255
Sprite,Background,Centre,"sb/ring.png",0,0 M,0,220508,,358,273 S,1,220508,222508,0.25,0.5 F,1,220508,222508,0.9,0 C,0,220508,,255,255,255
Sprite,Background,Centre,"sb/ring.png",0,0 M,0,220658,,279,308 S,1,220658,222883,0.25,0.5 F,1,220658,222883,0.9,0 C,0,220658,,255,255,255
Sprite,Background,Centre,"sb/ring.png",0,0 M,0,220958,,420,338 S,1,220958,222958,0.25,0.5 F,1,220958,222958,0.9,0 C,0,220958,,255,255,255
Sprite,Background,Centre,"sb/ring.png",0,0 M,0,221108,,420,338 S,1,221108,223108,0.25,0.5 F,1,221108,223108,0.9,0 C,0,221108,,255,255,255
Sprite,Background,Centre,"sb/ring.png",0,0 M,0,221258,,345,351 S,1,221258,223483,0.25,0.5 F,1,221258,223483,0.9,0 C,0,221258,,255,255,255
Sprite,Background,Centre,"sb/ring.png",0,0 M,0,221558,,490,296 S,1,221558,223558,0.25,0.5 F,1,221558,223558,0.9,0 C,0,221558,,255,255,255
Sprite,Background,Centre,"sb/ring.png",0,0 M,0,221708,,490,296 S,1,221708,223708,0.25,0.5 F,1,221708,223708,0.9,0 C,0,221708,,255,255,255
Sprite,Background,Centre,"sb/ring.png",0,0 M,0,221858,,547,353 S,1,221858,224158,0.25,0.5 F,1,221858,224158,0.9,0 C,0,221858,,255,255,255
Sprite,Background,Centre,"sb/ring.png",0,0 M,0,222308,,490,296 S,1,222308,224608,0.25,0.5 F,1,222308,224608,0.9,0 C,0,222308,,255,255,255
Sprite,Background,Centre,"sb/ring.png",0,0 M,0,222758,,420,335 S,1,222758,224908,0.25,0.5 F,1,222758,224908,0.9,0 C,0,222758,,255,255,255
Sprite,Background,Centre,"sb/ring.png",0,0 M,0,223058,,296,281 S,1,223058,225208,0.25,0.5 F,1,223058,225208,0.9,0 C,0,223058,,255,255,255
Sprite,Background,Centre,"sb/ring.png",0,0 M,0,223358,,374,258 S,1,223358,225508,0.25,0.5 F,1,223358,225508,0.9,0 C,0,223358,,255,255,255
Sprite,Background,Centre,"sb/ring.png",0,0 M,0,223658,,319,134 S,1,223658,225808,0.25,0.5 F,1,223658,225808,0.9,0 C,0,223658,,255,255,255
Sprite,Background,Centre,"sb/ring.png",0,0 M,0,223958,,226,65 S,1,223958,226108,0.25,0.5 F,1,223958,226108,0.9,0 C,0,223958,,255,255,255
Sprite,Background,Centre,"sb/ring.png",0,0 M,0,224258,,383,87 S,1,224258,226258,0.25,0.5 F,1,224258,226258,0.9,0 C,0,224258,,255,255,255
Sprite,Background,Centre,"sb/ring.png",0,0 M,0,224408,,456,60 S,1,224408,226408,0.25,0.5 F,1,224408,226408,0.9,0 C,0,224408,,255,255,255
Sprite,Background,Centre,"sb/ring.png",0,0 M,0,224558,,515,109 S,1,224558,226558,0.25,0.5 F,1,224558,226558,0.9,0 C,0,224558,,255,255,255
Sprite,Background,Centre,"sb/ring.png",0,0 M,0,224708,,576,212 S,1,224708,226708,0.25,0.5 F,1,224708,226708,0.9,0 C,0,224708,,255,255,255
Sprite,Background,Centre,"sb/ring.png",0,0 M,0,224858,,503,185 S,1,224858,226858,0.25,0.5 F,1,224858,226858,0.9,0 C,0,224858,,255,255,255
Sprite,Background,Centre,"sb/ring.png",0,0 M,0,225008,,444,234 S,1,225008,227008,0.25,0.5 F,1,225008,227008,0.9,0 C,0,225008,,255,255,255
Sprite,Background,Centre,"sb/ring.png",0,0 M,0,225158,,377,188 S,1,225158,227158,0.25,0.5 F,1,225158,227158,0.9,0 C,0,225158,,255,255,255
Sprite,Background,Centre,"sb/ring.png",0,0 M,0,225308,,502,294 S,1,225308,227308,0.25,0.5 F,1,225308,227308,0.9,0 C,0,225308,,255,255,255
Sprite,Background,Centre,"sb/ring.png",0,0 M,0,225458,,375,326 S,1,225458,227608,0.25,0.5 F,1,225458,227608,0.9,0 C,0,225458,,255,255,255
Sprite,Background,Centre,"sb/ring.png",0,0 M,0,225758,,448,357 S,1,225758,227758,0.25,0.5 F,1,225758,227758,0.9,0 C,0,225758,,255,255,255
Sprite,Background,Centre,"sb/ring.png",0,0 M,0,225908,,302,375 S,1,225908,228058,0.25,0.5 F,1,225908,228058,0.9,0 C,0,225908,,255,255,255
Sprite,Background,Centre,"sb/ring.png",0,0 M,0,226208,,379,405 S,1,226208,228208,0.25,0.5 F,1,226208,228208,0.9,0 C,0,226208,,255,255,255
Sprite,Background,Centre,"sb/ring.png",0,0 M,0,226358,,227,420 S,1,226358,228508,0.25,0.5 F,1,226358,228508,0.9,0 C,0,226358,,255,255,255
Sprite,Background,Centre,"sb/ring.png",0,0 M,0,226658,,130,297 S,1,226658,228658,0.25,0.5 F,1,226658,228658,0.9,0 C,0,226658,,255,255,255
Sprite,Background,Centre,"sb/ring.png",0,0 M,0,226808,,103,224 S,1,226808,228808,0.25,0.5 F,1,226808,228808,0.9,0 C,0,226808,,255,255,255
Sprite,Background,Centre,"sb/ring.png",0,0 M,0,226958,,152,165 S,1,226958,228958,0.25,0.5 F,1,226958,228958,0.9,0 C,0,226958,,255,255,255
Sprite,Background,Centre,"sb/ring.png",0,0 M,0,227108,,255,104 S,1,227108,229108,0.25,0.5 F,1,227108,229108,0.9,0 C,0,227108,,255,255,255
Sprite,Background,Centre,"sb/ring.png",0,0 M,0,227258,,228,177 S,1,227258,229258,0.25,0.5 F,1,227258,229258,0.9,0 C,0,227258,,255,255,255
Sprite,Background,Centre,"sb/ring.png",0,0 M,0,227408,,277,236 S,1,227408,229408,0.25,0.5 F,1,227408,229408,0.9,0 C,0,227408,,255,255,255
Sprite,Background,Centre,"sb/ring.png",0,0 M,0,227558,,373,277 S,1,227558,229558,0.25,0.5 F,1,227558,229558,0.9,0 C,0,227558,,255,255,255
Sprite,Background,Centre,"sb/ring.png",0,0 M,0,227708,,507,246 S,1,227708,229708,0.25,0.5 F,1,227708,229708,0.9,0 C,0,227708,,255,255,255
Sprite,Background,Centre,"sb/ring.png",0,0 M,0,227858,,440,158 S,1,227858,230008,0.25,0.5 F,1,227858,230008,0.9,0 C,0,227858,,255,255,255
Sprite,Background,Centre,"sb/ring.png",0,0 M,0,228158,,365,134 S,1,228158,230308,0.25,0.5 F,1,228158,230308,0.9,0 C,0,228158,,255,255,255
Sprite,Background,Centre,"sb/ring.png",0,0 M,0,228458,,283,299 S,1,228458,230608,0.25,0.5 F,1,228458,230608,0.9,0 C,0,228458,,255,255,255
Sprite,Background,Centre,"sb/ring.png",0,0 M,0,228758,,204,299 S,1,228758,230908,0.25,0.5 F,1,228758,230908,0.9,0 C,0,228758,,255,255,255
Sprite,Background,Centre,"sb/ring.png",0,0 M,0,229058,,121,200 S,1,229058,231058,0.25,0.5 F,1,229058,231058,0.9,0 C,0,229058,,255,255,255
Sprite,Background,Centre,"sb/ring.png",0,0 M,0,229208,,109,124 S,1,229208,231208,0.25,0.5 F,1,229208,231208,0.9,0 C,0,229208,,255,255,255
Sprite,Background,Centre,"sb/ring.png",0,0 M,0,229358,,182,110 S,1,229358,231358,0.25,0.5 F,1,229358,231358,0.9,0 C,0,229358,,255,255,255
Sprite,Background,Centre,"sb/ring.png",0,0 M,0,229508,,259,83 S,1,229508,231508,0.25,0.5 F,1,229508,231508,0.9,0 C,0,229508,,255,255,255
Sprite,Background,Centre,"sb/ring.png",0,0 M,0,229658,,247,159 S,1,229658,231658,0.25,0.5 F,1,229658,231658,0.9,0 C,0,229658,,255,255,255
Sprite,Background,Centre,"sb/ring.png",0,0 M,0,229808,,320,173 S,1,229808,231808,0.25,0.5 F,1,229808,231808,0.9,0 C,0,229808,,255,255,255
Sprite,Background,Centre,"sb/ring.png",0,0 M,0,229958,,327,164 S,1,229958,231958,0.25,0.5 F,1,229958,231958,0.9,0 C,0,229958,,255,255,255
Sprite,Background,Centre,"sb/ring.png",0,0 M,0,230108,,402,64 S,1,230108,232108,0.25,0.5 F,1,230108,232108,0.9,0 C,0,230108,,255,255,255
Sprite,Background,Centre,"sb/ring.png",0,0 M,0,230258,,475,147 S,1,230258,232408,0.25,0.5 F,1,230258,232408,0.9,0 C,0,230258,,255,255,255
Sprite,Background,Centre,"sb/ring.png",0,0 M,0,230558,,297,249 S,1,230558,232558,0.25,0.5 F,1,230558,232558,0.9,0 C,0,230558,,255,255,255
Sprite,Background,Centre,"sb/ring.png",0,0 M,0,230708,,386,225 S,1,230708,232708,0.25,0.5 F,1,230708,232708,0.9,0 C,0,230708,,255,255,255
Sprite,Background,Centre,"sb/ring.png",0,0 M,0,230783,,384,237 S,1,230783,232783,0.25,0.5 F,1,230783,232783,0.9,0 C,0,230783,,255,255,255
Sprite,Background,Centre,"sb/ring.png",0,0 M,0,230858,,383,250 S,1,230858,232858,0.25,0.5 F,1,230858,232858,0.9,0 C,0,230858,,255,255,255
Sprite,Background,Centre,"sb/ring.png",0,0 M,0,230933,,382,263 S,1,230933,232933,0.25,0.5 F,1,230933,232933,0.9,0 C,0,230933,,255,255,255
Sprite,Background,Centre,"sb/ring.png",0,0 M,0,231008,,381,275 S,1,231008,233008,0.25,0.5 F,1,231008,233008,0.9,0 C,0,231008,,255,255,255
Sprite,Background,Centre,"sb/ring.png",0,0 M,0,231083,,379,288 S,1,231083,233083,0.25,0.5 F,1,231083,233083,0.9,0 C,0,231083,,255,255,255
Sprite,Background,Centre,"sb/ring.png",0,0 M,0,231158,,378,301 S,1,231158,233383,0.25,0.5 F,1,231158,233383,0.9,0 C,0,231158,,255,255,255
//Storyboard Layer 1 (Fail)
//Storyboard Layer 2 (Pass)
//Storyboard Layer 3 (Foreground)
//Storyboard Layer 4 (Overlay)
//Storyboard Sound Samples

[TimingPoints]
1058,300,4,2,3,40,1,0
11558,-200,4,2,3,40,0,0
15458,-400,4,2,3,40,0,0
18758,-200,4,2,3,40,0,0
25058,-400,4,2,3,40,0,0
29558,-133.333333333333,4,2,3,40,0,0
29858,-133.333333333333,4,2,3,50,0,0
31358,-100,4,2,3,50,0,0
31958,-133.333333333333,4,2,3,50,0,0
33758,-100,4,2,3,50,0,0
34208,-133.333333333333,4,2,3,50,0,0
38558,-100,4,2,3,50,0,0
39008,-133.333333333333,4,2,3,50,0,0
40958,-100,4,2,3,50,0,0
41558,-133.333333333333,4,2,3,50,0,0
43358,-100,4,2,3,50,0,0
43958,-133.333333333333,4,2,3,50,0,0
45758,-100,4,2,3,50,0,0
50708,-200,4,2,3,50,0,0
51458,-100,4,2,3,70,0,0
68108,-133.333333333333,4,2,3,70,0,0
71558,-133.333333333333,4,2,3,50,0,0
72008,-133.333333333333,4,2,3,60,0,0
73058,-133.333333333333,4,2,3,70,0,0
73958,-133.333333333333,4,2,3,50,0,0
74558,-133.333333333333,4,2,3,60,0,0
74858,-100,4,2,3,60,0,0
75158,-80,4,2,3,70,0,0
76358,-133.333333333333,4,2,3,50,0,0
76808,-133.333333333333,4,2,3,60,0,0
77858,-133.333333333333,4,2,3,70,0,0
79808,-100,4,2,3,70,0,0
80258,-100,4,2,3,60,0,0
81158,-133.333333333333,4,2,3,60,0,0
81458,-100,4,2,3,60,0,0
83858,-133.333333333333,4,2,3,60,0,0
85058,-100,4,2,3,60,0,0
85508,-133.333333333333,4,2,3,60,0,0
86108,-100,4,2,3,60,0,0
90308,-133.333333333333,4,2,3,60,0,0
91058,-100,4,2,3,60,0,0
94658,-133.333333333333,4,2,3,60,0,0
95708,-100,4,2,3,60,0,0
99458,-100,4,2,3,55,0,0
100358,-133.333333333333,4,2,3,55,0,0
100808,-100,4,2,3,55,0,0
101558,-133.333333333333,4,2,3,55,0,0
101858,-100,4,2,3,55,0,0
102758,-133.333333333333,4,2,3,55,0,0
103208,-100,4,2,3,55,0,0
103658,-133.333333333333,4,2,3,55,0,0
104258,-100,4,2,3,55,0,0
105158,-133.333333333333,4,2,3,55,0,0
106658,-100,4,2,3,55,0,0
109958,-133.333333333333,4,2,3,55,0,0
110408,-100,4,2,3,55,0,0
112358,-133.333333333333,4,2,3,55,0,0
112808,-100,4,2,3,55,0,0
114758,-133.333333333333,4,2,3,55,0,0
115358,-100,4,2,3,55,0,0
120008,-133.333333333333,4,2,3,55,0,0
120158,-100,4,2,3,55,0,0
121058,-80,4,2,3,55,0,0
121508,-100,4,2,3,55,0,0
130508,-80,4,2,3,55,0,0
131108,-100,4,2,3,55,0,0
135458,-66.6666666666667,4,2,3,55,0,0
136058,-100,4,2,3,55,0,0
142358,-66.6666666666667,4,2,3,55,0,0
142658,-100,4,2,3,55,0,0
146258,-80,4,2,3,55,0,0
146558,-100,4,2,3,55,0,0
149108,-80,4,2,3,55,0,0
149408,-100,4,2,3,55,0,0
151508,-66.6666666666667,4,2,3,55,0,0
152108,-100,4,2,3,55,0,0
153908,-66.6666666666667,4,2,3,55,0,0
154208,-100,4,2,3,55,0,0
154508,-200,4,2,3,55,0,0
156164,-133.333333333333,4,2,3,55,0,0
156458,-133.333333333333,4,2,3,40,0,0
173708,-133.333333333333,4,2,3,30,0,0
180158,-100,4,2,3,30,0,0
180308,-100,4,2,3,40,0,0
180608,-100,4,2,3,50,0,0
180908,-100,4,2,3,60,0,0
181058,-100,4,2,3,70,0,0
195458,-133.333333333333,4,2,3,70,0,0
196058,-66.6666666666667,4,2,3,70,0,0
196808,-100,4,2,3,70,0,0
197858,-66.6666666666667,4,2,3,70,0,0
199058,-100,4,2,3,70,0,0
199808,-80,4,2,3,70,0,0
200108,-66.6666666666667,4,2,3,70,0,0
200558,-100,4,2,3,70,0,0
212258,-133.333333333333,4,2,3,70,0,0
214358,-100,4,2,3,70,0,0
217658,-80,4,2,3,70,0,0
218258,-100,4,2,3,70,0,0
219458,-66.6666666666667,4,2,3,70,0,0
220058,-80,4,2,3,70,0,0
220658,-100,4,2,3,70,0,0
221258,-133.333333333333,4,2,3,70,0,0
223058,-100,4,2,3,70,0,0
225458,-133.333333333333,4,2,3,70,0,0
231458,-133.333333333333,4,2,3,40,0,0
231908,-200,4,2,3,40,0,0
248743,526.315789473684,4,2,3,10,1,0
248874,555.555555555556,4,2,3,10,1,0
249012,659.340659340659,4,2,3,10,1,0
249176,615.384615384615,4,2,3,10,1,0
249252,300,4,2,3,10,1,0

[Colours]
Combo1 : 191,191,191
Combo2 : 204,165,248
Combo3 : 133,84,152
Combo4 : 142,198,204

[HitObjects]
265,254,11558,5,0,0:0:0:0:
215,368,11858,2,0,P|208:317|181:283,1,85
30,233,12458,1,0,0:0:0:0:
222,131,12758,1,0,0:0:0:0:
192,208,13058,6,0,P|112:190|87:106,1,170,2|0,0:0|0:0,0:0:0:0:
251,271,13958,1,0,0:0:0:0:
267,185,14258,6,0,P|218:185|184:222,1,85,2|0,0:0|0:0,0:0:0:0:
112,207,14708,2,0,P|96:252|108:303,1,85
169,334,15158,1,0,0:0:0:0:
273,112,15458,6,0,P|228:84|15:211,1,340,2|2,0:0|0:0,0:0:0:0:
97,356,18758,5,0,0:0:0:0:
4,288,19058,2,0,L|96:278,1,85
242,266,19658,1,0,0:0:0:0:
180,324,19958,1,0,0:0:0:0:
260,349,20258,6,0,P|279:312|408:293,1,170,2|0,0:0|0:0,0:0:0:0:
442,352,21158,1,0,0:0:0:0:
512,180,21458,6,0,P|483:210|429:220,1,85,0|8,0:0|0:0,0:0:0:0:
319,153,22058,1,0,0:0:0:0:
485,60,22358,1,0,0:0:0:0:
383,5,22658,5,2,0:0:0:0:
383,5,22958,2,0,L|394:147,1,127.5
341,279,23558,1,0,0:0:0:0:
412,249,23858,6,0,P|379:210|342:200,1,85,0|8,0:0|0:0,0:0:0:0:
289,143,24308,2,0,P|246:152|209:189,1,85
213,263,24758,1,0,0:0:0:0:
53,107,25058,6,0,P|80:119|119:282,1,212.5,2|8,0:0|0:0,0:0:0:0:
45,364,27158,5,0,0:0:0:0:
4,299,27458,2,0,L|9:283,1,10.625,2|0,0:0|0:0,0:0:0:0:
256,192,27608,12,8,28958,0:0:0:0:
66,159,29558,5,0,0:0:0:0:
149,67,29858,2,0,L|140:154,3,63.7500024318696,4|0|0|0,0:3|0:0|3:0|0:0,0:0:0:0:
115,293,30758,5,0,0:0:0:0:
130,214,30908,2,0,L|201:208,1,63.7500024318696,0|0,1:0|0:0,0:0:0:0:
343,281,31208,1,0,3:0:0:0:
274,119,31358,2,0,L|263:279,1,127.5,8|0,0:0|0:0,0:0:0:0:
265,246,31658,1,0,1:0:0:0:
413,365,31958,5,0,0:0:0:0:
343,281,32258,2,0,L|428:286,3,63.7500024318696,2|0|0|0,0:0|0:0|1:0|0:0,0:0:0:0:
469,231,33158,6,0,L|460:147,1,63.7500024318696,0|0,0:0|3:0,0:0:0:0:
494,27,33458,1,0,0:0:0:0:
494,27,33608,1,0,1:0:0:0:
423,94,33758,6,0,B|371:113|332:81|344:80|305:46|257:66,1,170,8|0,0:0|0:0,0:0:0:0:
142,167,34208,1,0,0:0:0:0:
126,86,34358,2,0,P|171:88|199:109,1,63.7500024318696,2|0,0:0|0:0,0:0:0:0:
297,151,34658,6,0,P|243:165|205:251,1,127.500004863739,0|0,3:0|1:0,0:0:0:0:
235,300,35108,1,0,0:0:0:0:
94,296,35258,6,0,P|119:271|127:236,1,63.7500024318696
21,178,35558,2,0,P|30:212|56:236,1,63.7500024318696,2|0,0:0|0:0,0:0:0:0:
141,168,35858,2,0,L|128:34,1,127.500004863739,0|8,0:0|0:0,0:0:0:0:
56,16,36308,1,0,0:0:0:0:
244,111,36758,5,0,1:0:0:0:
348,48,37058,2,0,L|254:41,3,63.7500024318696,0|0|0|0,0:0|0:0|1:0|0:0,0:0:0:0:
460,137,37808,5,0,3:0:0:0:
397,187,37958,2,0,L|413:320,1,127.500004863739
272,376,38408,2,0,L|276:340,1,31.8750012159348,0|0,1:0|0:0,0:0:0:0:
214,289,38558,6,0,P|155:260|72:312,1,170,8|2,0:0|0:0,0:0:0:0:
64,134,39008,1,0,0:0:0:0:
1,183,39158,2,0,P|29:208|75:212,1,63.7500024318696
168,183,39458,6,0,L|128:179,6,31.8750012159348,0|2|0|0|2|0|0,0:0|0:0|0:0|0:0|0:0|0:0|0:0,0:0:0:0:
317,120,40358,5,0,0:0:0:0:
317,120,40508,1,0,1:0:0:0:
254,232,40658,2,0,L|245:160,1,63.7500024318696,0|8,0:0|0:0,0:0:0:0:
345,19,40958,6,0,P|297:85|215:82,1,170,0|2,3:0|0:0,0:0:0:0:
163,22,41408,1,0,0:0:0:0:
92,156,41558,2,0,L|170:144,1,63.7500024318696,0|0,3:0|0:0,0:0:0:0:
254,232,41858,6,0,L|173:224,3,63.7500024318696,0|0|0|0,0:0|3:0|1:0|0:0,0:0:0:0:
57,286,42758,1,0,0:0:0:0:
57,286,42908,1,0,1:0:0:0:
144,351,43058,2,0,L|135:267,1,63.7500024318696,0|0,3:0|1:0,0:0:0:0:
14,218,43358,1,8,0:0:0:0:
109,89,43508,6,0,L|95:223,1,127.5
95,215,43808,1,2,0:0:0:0:
213,301,43958,2,0,L|294:294,1,63.7500024318696,0|0,3:0|0:0,0:0:0:0:
496,294,44258,6,0,P|476:265|442:253,1,63.7500024318696,0|0,3:0|0:0,0:0:0:0:
368,354,44558,2,0,P|403:351|430:327,1,63.7500024318696,0|0,1:0|0:0,0:0:0:0:
314,173,44858,2,0,P|356:199|363:287,1,127.500004863739,0|2,0:0|0:0,0:0:0:0:
215,304,45308,1,0,1:0:0:0:
288,384,45458,6,0,L|297:298,1,63.7500024318696,0|0,0:0|3:0,0:0:0:0:
207,176,45758,2,0,L|216:321,1,127.5,8|0,0:0|0:0,0:0:0:0:
215,304,46058,1,2,0:0:0:0:
218,322,46208,1,0,0:0:0:0:
369,271,46358,1,0,1:0:0:0:
440,340,46508,1,0,0:0:0:0:
511,210,46658,5,2,0:0:0:0:
256,192,46733,12,8,49058,0:3:0:0:
133,158,50858,5,0,0:0:0:0:
133,158,51008,2,0,L|197:154,1,63.75
309,207,51308,1,0,0:0:0:0:
405,84,51458,6,0,P|305:88|271:172,1,170,4|8,1:0|0:1,0:0:0:0:
156,254,51908,1,0,0:0:0:0:
251,303,52058,2,0,P|246:254|222:218,1,85,2|0,0:0|3:0,0:0:0:0:
54,111,52358,1,8,0:1:0:0:
77,186,52508,6,0,B|126:178|126:178|151:159|151:159|214:151,1,127.5,0|0,1:0|0:0,0:0:0:0:
202,135,52808,1,0,0:0:0:0:
321,229,52958,2,0,L|408:220,1,85,8|0,0:1|3:0,0:0:0:0:
470,150,53258,5,0,1:0:0:0:
464,65,53408,1,2,0:0:0:0:
397,12,53558,1,8,0:1:0:0:
313,28,53708,1,0,1:0:0:0:
282,107,53858,6,0,B|188:113|236:33|98:52,2,170,0|8|0,3:0|0:1|1:0,0:0:0:0:
415,166,54608,2,0,L|423:266,1,85,0|8,1:0|0:1,0:0:0:0:
489,126,54908,1,2,0:0:0:0:
360,100,55058,5,0,1:0:0:0:
360,100,55208,1,0,0:0:0:0:
370,16,55358,1,8,0:1:0:0:
435,66,55508,1,2,0:0:0:0:
271,17,55658,6,0,L|279:111,1,85,0|2,3:0|0:0,0:0:0:0:
216,186,55958,2,0,L|208:280,1,85,8|0,0:1|1:0,0:0:0:0:
272,354,56258,6,0,B|380:362|327:288|456:299,1,170,4|8,1:3|0:1,0:0:0:0:
498,342,56708,1,2,0:0:0:0:
509,178,56858,2,0,P|468:188|439:218,1,85,0|2,3:0|0:0,0:0:0:0:
425,297,57158,1,8,0:1:0:0:
364,172,57308,6,0,L|153:164,1,170
74,76,57758,1,8,0:1:0:0:
108,228,57908,2,0,L|120:122,1,85,0|0,0:0|3:0,0:0:0:0:
239,24,58208,5,0,0:0:0:0:
293,81,58358,1,8,0:1:0:0:
371,73,58508,1,0,0:0:0:0:
512,25,58658,5,0,1:0:0:0:
455,83,58808,1,2,0:0:0:0:
434,6,58958,1,8,0:1:0:0:
425,8,59108,1,2,0:0:0:0:
343,165,59258,5,0,3:0:0:0:
420,157,59408,1,0,3:0:0:0:
474,213,59558,1,8,0:1:0:0:
440,317,59708,6,0,B|341:326|376:256|279:267,1,170,2|0,0:0|0:0,0:0:0:0:
149,267,60158,2,0,P|198:253|220:222,1,85,8|2,0:1|0:0,0:0:0:0:
356,199,60458,1,0,3:0:0:0:
284,97,60608,2,0,L|278:215,1,85,0|8,3:0|0:1,0:0:0:0:
205,357,60908,1,2,0:0:0:0:
205,357,60983,1,0,0:0:0:0:
205,357,61058,6,0,P|158:298|57:304,1,170,4|8,1:0|0:1,0:0:0:0:
0,158,61508,1,0,0:0:0:0:
6,236,61658,2,0,P|55:216|74:181,1,85,2|0,0:0|3:0,0:0:0:0:
223,121,61958,1,8,0:1:0:0:
143,74,62108,6,0,L|151:216,1,127.5,0|0,1:0|0:0,0:0:0:0:
163,210,62408,1,0,0:0:0:0:
271,306,62558,2,0,L|284:217,1,85,8|0,0:1|3:0,0:0:0:0:
297,137,62858,5,0,1:0:0:0:
370,93,63008,1,2,0:0:0:0:
452,112,63158,1,8,0:1:0:0:
496,184,63308,1,0,1:0:0:0:
479,267,63458,6,0,P|432:274|362:369,2,170,0|8|0,3:0|0:1|1:0,0:0:0:0:
512,342,64208,1,0,1:0:0:0:
441,384,64358,1,8,0:1:0:0:
312,235,64508,1,2,0:0:0:0:
286,381,64658,6,0,P|280:339|257:305,1,85,0|0,1:0|0:0,0:0:0:0:
178,305,64958,1,8,0:1:0:0:
342,155,65108,2,0,P|287:216|205:208,1,170,2|2,0:0|0:0,0:0:0:0:
128,75,65558,1,8,0:1:0:0:
91,152,65708,1,0,1:0:0:0:
129,234,65858,6,0,P|173:191|172:121,2,113.333333333333,4|4|4,1:2|3:2|1:2,0:0:0:0:
41,232,66458,2,0,P|56:291|117:325,2,113.333333333333,4|4|8,1:2|3:2|0:1,0:0:0:0:
3,157,67058,5,0,1:0:0:0:
8,143,67208,1,2,0:0:0:0:
61,85,67358,1,8,0:1:0:0:
13,19,67508,1,2,0:0:0:0:
145,87,67658,6,0,P|181:64|238:74,1,85,0|0,3:0|3:0,0:0:0:0:
293,28,67958,1,8,0:1:0:0:
395,144,68108,5,8,0:3:0:0:
256,192,68258,12,0,70508,1:0:0:0:
416,84,70658,5,4,1:0:0:0:
438,129,70808,1,2,0:0:0:0:
434,179,70958,1,8,0:0:0:0:
406,220,71108,1,0,3:0:0:0:
230,307,71558,6,0,L|384:300,1,127.500004863739,2|0,0:0|0:0,0:0:0:0:
413,384,72008,1,2,0:0:0:0:
413,384,72083,1,0,0:0:0:0:
413,384,72158,2,0,L|424:329,3,31.8750012159348,0|0|0|0,3:0|0:0|3:0|3:0,0:0:0:0:
482,285,72458,1,8,3:2:0:0:
482,285,72533,1,0,3:0:0:0:
482,285,72608,2,0,L|488:316,3,31.8750012159348,0|0|0|0,3:0|3:0|3:0|3:0,0:0:0:0:
410,220,72908,5,0,1:0:0:0:
512,100,73058,1,0,1:0:0:0:
464,86,73208,1,2,0:0:0:0:
428,122,73358,1,8,0:0:0:0:
381,109,73508,1,0,1:0:0:0:
342,140,73658,1,8,0:1:0:0:
295,126,73808,1,0,1:0:0:0:
254,238,73958,6,0,L|124:228,1,127.500004863739,2|0,0:0|0:0,0:0:0:0:
8,262,74408,1,2,0:0:0:0:
52,164,74558,1,0,3:0:0:0:
52,164,74633,1,0,3:0:0:0:
52,164,74708,2,0,L|57:220,1,31.8750012159348,0|0,3:0|3:0,0:0:0:0:
49,335,74858,6,0,B|99:295|99:295|140:349,1,127.5,8|0,0:0|0:0,0:0:0:0:
138,360,75158,6,0,L|239:351,1,53.125,2|0,0:1|0:0,0:0:0:0:
267,346,75308,1,0,0:0:0:0:
399,375,75458,5,0,1:0:0:0:
392,329,75608,1,2,0:0:0:0:
403,285,75758,1,8,0:0:0:0:
432,249,75908,1,0,1:0:0:0:
309,158,76358,6,0,L|317:251,2,63.7500024318696,2|2|8,0:0|3:0|0:0,0:0:0:0:
251,101,76808,1,2,3:0:0:0:
251,101,77258,1,2,0:0:0:0:
251,101,77708,1,0,1:0:0:0:
127,26,77858,5,0,1:0:0:0:
113,74,78008,1,2,0:0:0:0:
149,110,78158,1,8,0:0:0:0:
136,157,78308,1,0,1:0:0:0:
167,196,78458,1,8,0:1:0:0:
153,243,78608,1,0,1:0:0:0:
38,297,78758,6,0,L|128:306,2,63.7500024318696,2|2|8,0:0|3:0|0:0,0:0:0:0:
153,243,79208,1,2,0:0:0:0:
216,371,79358,2,0,L|307:360,1,63.7500024318696,2|8,3:0|0:0,0:0:0:0:
328,297,79658,1,2,3:0:0:0:
458,357,79808,6,0,L|461:314,1,42.5,2|0,0:0|0:0,0:0:0:0:
383,234,79958,1,8,0:0:0:0:
391,154,80108,1,2,0:0:0:0:
509,168,80258,6,0,P|447:159|383:237,1,170,4|8,1:0|0:0,0:0:0:0:
251,268,80708,1,2,0:0:0:0:
335,381,80858,2,0,L|326:282,1,85,0|0,3:0|3:0,0:0:0:0:
414,183,81158,2,0,P|389:207|383:239,1,63.7500024318696,8|2,0:0|0:0,0:0:0:0:
476,348,81458,6,0,P|447:317|406:308,1,85,0|0,1:0|0:0,0:0:0:0:
476,348,81758,2,0,P|468:301|434:266,1,85,8|0,0:0|3:0,0:0:0:0:
414,183,82058,2,0,P|355:167|302:188,1,85,0|0,0:0|3:0,0:0:0:0:
248,96,82358,2,0,L|258:245,1,127.5,8|0,0:0|0:0,0:0:0:0:
250,238,82658,5,0,3:0:0:0:
171,207,82808,1,0,3:0:0:0:
84,331,82958,2,0,L|79:284,1,42.5,8|0,0:1|0:0,0:0:0:0:
60,256,83108,1,0,0:0:0:0:
8,373,83258,5,2,0:0:0:0:
8,373,83408,1,0,1:0:0:0:
166,313,83558,2,0,L|332:316,1,127.5,8|0,0:0|0:0,0:0:0:0:
306,335,83858,5,0,1:0:0:0:
368,281,84008,1,0,3:0:0:0:
389,358,84158,1,8,0:0:0:0:
442,183,84308,2,0,L|449:265,2,63.7500024318696,2|0|0,0:0|1:0|1:0,0:0:0:0:
509,62,84758,2,0,L|501:127,1,63.7500024318696,8|0,0:0|0:0,0:0:0:0:
293,95,85058,6,0,L|452:108,1,127.5,0|0,1:0|0:0,0:0:0:0:
428,94,85358,1,8,0:1:0:0:
355,238,85508,2,0,L|349:165,1,63.7500024318696,0|0,0:0|1:0,0:0:0:0:
421,299,85808,2,0,L|426:362,1,63.7500024318696,2|8,0:0|0:0,0:0:0:0:
274,368,86108,6,0,P|309:328|366:326,1,85,0|0,3:0|3:0,0:0:0:0:
493,330,86408,2,0,P|451:326|419:298,1,85,2|8,0:0|0:0,0:0:0:0:
345,157,86707,2,0,P|362:196|354:237,1,85,2|0,0:0|0:0,0:0:0:0:
274,368,87008,1,2,0:0:0:0:
215,309,87158,2,0,L|92:298,1,85,8|0,0:0|3:0,0:0:0:0:
37,243,87458,5,0,1:0:0:0:
40,258,87608,1,0,1:0:0:0:
166,215,87758,1,8,0:1:0:0:
140,184,87908,1,0,0:0:0:0:
151,139,88058,1,0,1:0:0:0:
125,108,88208,1,0,3:0:0:0:
255,2,88358,2,0,L|242:94,1,85,8|0,0:0|0:0,0:0:0:0:
303,184,88658,6,0,P|341:154|387:152,1,85,0|2,3:0|0:0,0:0:0:0:
436,284,88958,2,0,P|391:266|366:227,1,85,8|2,0:0|0:0,0:0:0:0:
454,120,89258,2,0,P|460:167|439:208,1,85,0|0,1:0|3:0,0:0:0:0:
328,317,89558,2,0,L|168:309,1,127.5,8|0,0:0|0:0,0:0:0:0:
206,325,89858,5,4,1:2:0:0:
191,229,90008,1,2,0:0:0:0:
112,341,90158,1,8,0:0:0:0:
93,242,90308,2,0,L|100:177,1,63.7500024318696,2|0,0:0|3:0,0:0:0:0:
201,56,90608,1,0,0:0:0:0:
267,113,90758,2,0,L|259:176,1,63.7500024318696,8|2,0:0|0:0,0:0:0:0:
99,145,91058,6,0,P|159:145|186:112,1,85,0|0,1:0|0:0,0:0:0:0:
148,0,91358,2,0,P|118:51|133:91,1,85,8|0,0:0|3:0,0:0:0:0:
251,115,91658,2,0,P|221:63|178:56,1,85,0|0,0:0|3:0,0:0:0:0:
17,82,91958,2,0,L|27:242,1,127.5,8|0,0:0|0:0,0:0:0:0:
16,231,92258,5,0,3:0:0:0:
16,231,92408,1,0,3:0:0:0:
99,145,92558,1,8,0:1:0:0:
134,219,92708,1,0,0:0:0:0:
170,291,92858,2,0,L|259:280,1,85,2|0,0:0|1:0,0:0:0:0:
310,346,93158,6,0,L|468:354,1,127.5,8|0,0:0|0:0,0:0:0:0:
455,341,93458,1,0,1:0:0:0:
340,225,93608,1,0,0:0:0:0:
425,181,93758,2,0,L|414:271,1,85,8|2,0:0|0:0,0:0:0:0:
271,185,94058,2,0,L|260:100,1,85,0|0,0:0|1:0,0:0:0:0:
370,24,94358,2,0,B|437:11|437:11|492:62,1,127.5,8|0,0:0|0:0,0:0:0:0:
477,76,94658,5,0,1:0:0:0:
479,78,94808,1,0,1:0:0:0:
399,103,94958,1,8,0:1:0:0:
291,17,95108,2,0,L|205:20,1,63.7500024318696,0|0,0:0|1:0,0:0:0:0:
293,98,95408,2,0,L|207:101,1,63.7500024318696,2|8,0:0|0:0,0:0:0:0:
93,31,95708,6,0,P|121:67|123:111,1,85,0|0,1:0|0:0,0:0:0:0:
0,163,96008,2,0,P|17:120|54:97,1,85,2|8,0:0|0:0,0:0:0:0:
160,182,96308,2,0,P|114:188|75:167,1,85,0|0,1:0|3:0,0:0:0:0:
95,338,96608,1,2,0:0:0:0:
152,270,96758,2,0,L|266:265,1,85,8|0,0:0|0:0,0:0:0:0:
308,214,97058,5,0,1:0:0:0:
310,203,97208,1,0,1:0:0:0:
394,194,97358,1,8,0:1:0:0:
437,265,97508,1,0,0:0:0:0:
313,373,97658,5,0,1:0:0:0:
299,293,97808,1,0,3:0:0:0:
374,320,97958,1,8,0:0:0:0:
224,370,98108,6,0,P|188:335|144:330,1,85
50,292,98408,2,0,P|98:278|124:242,1,85,2|8,0:0|0:0,0:0:0:0:
207,179,98708,2,0,P|194:227|212:268,1,85,2|0,0:0|1:0,0:0:0:0:
350,229,99008,1,0,3:0:0:0:
292,171,99158,2,0,L|304:73,1,85,8|0,0:0|0:0,0:0:0:0:
503,33,99458,6,0,P|484:84|357:97,2,170,12|0|8,1:3|1:0|0:0,0:0:0:0:
503,33,100358,2,0,L|498:103,1,63.7500024318696,0|0,3:0|1:0,0:0:0:0:
422,154,100658,1,2,0:0:0:0:
422,154,100808,2,0,L|431:289,1,127.5,0|0,3:0|0:0,0:0:0:0:
442,293,101108,1,0,3:0:0:0:
348,234,101258,2,0,P|292:226|238:281,1,127.5,0|0,1:0|0:0,0:0:0:0:
184,368,101558,2,0,P|178:330|163:305,1,63.7500024318696,8|0,0:0|0:0,0:0:0:0:
14,212,101858,6,0,L|215:199,2,170,0|0|8,1:0|3:0|0:0,0:0:0:0:
14,212,102758,2,0,P|33:180|34:147,1,63.7500024318696,0|2,3:0|0:0,0:0:0:0:
0,44,103058,1,0,1:0:0:0:
0,44,103208,2,0,L|164:38,1,127.5,0|0,3:0|0:0,0:0:0:0:
127,39,103508,1,0,3:0:0:0:
197,115,103658,2,0,P|244:109|275:78,1,63.7500024318696,8|2,0:0|0:0,0:0:0:0:
336,0,103958,2,0,P|329:32|353:77,1,63.7500024318696,0|0,3:0|0:0,0:0:0:0:
438,100,104258,6,0,L|425:276,2,170,0|0|8,1:0|1:0|0:0,0:0:0:0:
438,100,105158,2,0,P|404:105|381:128,1,63.7500024318696,0|0,3:0|1:0,0:0:0:0:
326,188,105458,6,0,L|336:281,2,85.0000032424928,2|0|0,0:0|0:0|0:0,0:0:0:0:
437,99,106058,2,0,L|447:15,2,85.0000032424928,0|0|0,1:0|0:0|0:0,0:0:0:0:
437,203,106658,6,0,P|384:201|344:242,1,85,0|0,1:0|0:0,0:0:0:0:
278,209,106958,2,0,P|250:248|249:300,1,85,0|0,3:0|0:0,0:0:0:0:
303,356,107258,1,8,0:0:0:0:
166,334,107558,1,0,3:0:0:0:
166,334,107708,2,0,L|340:322,1,170,2|0,0:0|3:0,0:0:0:0:
466,247,108158,2,0,L|378:243,1,85,0|0,0:0|3:0,0:0:0:0:
265,133,108458,2,0,P|281:178|328:202,1,85,8|2,0:0|0:0,0:0:0:0:
412,128,108758,2,0,P|396:83|349:59,1,85,0|0,3:0|0:0,0:0:0:0:
195,87,109058,6,0,P|150:96|51:7,2,170,0|0|8,1:0|1:0|0:0,0:0:0:0:
195,87,109958,2,0,L|187:178,1,63.7500024318696,0|0,3:0|1:0,0:0:0:0:
119,200,110258,1,2,0:0:0:0:
235,240,110408,2,0,L|249:376,1,127.5,0|0,3:0|0:0,0:0:0:0:
248,366,110708,1,0,3:0:0:0:
68,321,110858,2,0,P|109:317|147:271,1,85,0|2,1:0|0:0,0:0:0:0:
300,186,111158,2,0,P|266:161|225:158,1,85,8|0,0:0|0:0,0:0:0:0:
119,200,111458,6,0,P|127:118|34:65,2,170,0|0|8,1:0|3:0|0:0,0:0:0:0:
119,200,112358,2,0,P|140:200|182:232,1,63.7500024318696,0|2,3:0|0:0,0:0:0:0:
245,372,112658,1,0,1:0:0:0:
245,372,112808,2,0,L|256:244,1,127.500004863739,0|0,3:0|0:0,0:0:0:0:
255,244,113108,1,0,3:0:0:0:
407,319,113258,2,0,P|368:349|321:351,1,85,8|2,0:0|0:0,0:0:0:0:
161,374,113558,2,0,P|132:338|79:328,1,85,0|0,3:0|0:0,0:0:0:0:
0,244,113858,6,0,P|37:219|34:88,2,170,0|0|8,1:0|1:0|0:0,0:0:0:0:
0,244,114758,2,0,P|31:224|79:226,1,63.7500024318696,0|0,3:0|1:0,0:0:0:0:
115,339,115058,2,0,P|81:329|53:293,1,63.7500024318696,2|0,0:0|3:0,0:0:0:0:
236,200,115358,2,0,P|173:208|135:288,1,127.5
136,256,115658,1,0,1:0:0:0:
116,341,115808,1,2,0:0:0:0:
190,384,115958,2,0,L|296:371,1,85,8|0,0:0|0:0,0:0:0:0:
497,338,116258,5,2,0:0:0:0:
256,192,116333,12,8,118658,0:3:0:0:
512,178,120008,6,0,L|474:174,1,31.8750012159348,2|0,0:0|0:0,0:0:0:0:
418,258,120158,6,0,L|409:186,5,42.5,0|0|2|2|0|0,3:0|0:0|3:0|3:0|3:0|3:0,0:0:0:0:
350,126,120608,2,0,L|344:168,5,42.5,0|0|0|0|0|0,3:0|3:0|3:0|3:0|3:0|0:0,0:0:0:0:
298,234,121058,6,0,B|227:229|227:229|201:235|201:235|129:230,1,159.375,4|0,1:0|0:0,0:0:0:0:
128,150,121358,2,0,B|99:138|99:138|78:183,1,53.125,8|0,0:1|0:0,0:0:0:0:
34,329,121508,2,0,B|79:332|79:332|113:303,1,85,0|2,0:0|0:0,0:0:0:0:
139,230,121808,1,0,3:0:0:0:
198,384,121958,1,8,0:1:0:0:
248,308,122108,6,0,P|176:299|109:369,1,170,0|0,1:0|0:0,0:0:0:0:
34,329,122558,2,0,P|20:277|-15:243,1,85,8|0,0:1|3:0,0:0:0:0:
14,159,122858,5,0,1:0:0:0:
21,74,123008,1,0,0:0:0:0:
94,30,123158,1,8,0:1:0:0:
178,40,123308,1,0,1:0:0:0:
217,115,123458,6,0,P|271:114|349:11,2,170,0|8|0,3:0|0:1|1:0,0:0:0:0:
134,146,124208,1,0,1:0:0:0:
228,270,124358,2,0,P|234:219|262:186,1,85,8|2,0:1|0:0,0:0:0:0:
217,115,124658,5,0,1:0:0:0:
217,115,124808,1,0,0:0:0:0:
134,146,124958,1,8,0:1:0:0:
144,62,125108,1,2,0:0:0:0:
302,6,125258,6,0,L|295:122,1,85,0|0,3:0|0:0,0:0:0:0:
377,145,125558,2,0,L|385:250,1,85,8|0,0:1|1:0,0:0:0:0:
324,317,125858,6,0,P|286:262|159:284,1,170,4|8,1:3|0:1,0:0:0:0:
55,253,126308,1,2,0:0:0:0:
145,383,126458,2,0,P|145:341|106:298,1,85,0|2,3:0|0:0,0:0:0:0:
263,147,126758,1,8,0:1:0:0:
174,87,126908,6,0,L|191:273,1,170
324,344,127358,1,8,0:1:0:0:
250,375,127508,2,0,P|251:311|285:274,1,85,0|0,0:0|3:0,0:0:0:0:
391,236,127808,5,0,0:0:0:0:
470,261,127958,1,8,0:1:0:0:
451,182,128108,1,0,0:0:0:0:
411,316,128258,5,0,1:0:0:0:
411,316,128408,1,2,0:0:0:0:
391,236,128558,1,8,0:1:0:0:
321,199,128708,1,2,0:0:0:0:
203,76,128858,5,0,3:0:0:0:
238,162,129008,1,0,3:0:0:0:
293,86,129158,1,8,0:1:0:0:
109,34,129308,6,0,P|151:68|137:186,1,170,2|0,0:0|0:0,0:0:0:0:
176,251,129758,2,0,P|137:292|79:290,1,85,8|2,0:1|0:0,0:0:0:0:
9,171,130058,1,0,3:0:0:0:
25,329,130208,2,0,L|30:371,3,42.5,0|0|8|0,3:0|0:0|0:1|0:0,0:0:0:0:
18,249,130508,6,0,B|93:246|93:246|112:254|112:254|182:250,1,159.375,2|0,0:0|0:0,0:0:0:0:
250,282,130808,2,0,B|262:259|262:259|257:233,1,53.125
124,163,130958,1,8,0:1:0:0:
209,91,131108,2,0,L|199:213,1,85,0|2,0:0|0:0,0:0:0:0:
331,212,131408,1,0,3:0:0:0:
303,137,131558,1,8,0:1:0:0:
348,72,131708,6,0,B|399:79|399:79|422:103|422:103|479:112,1,127.5,0|0,1:0|0:0,0:0:0:0:
482,100,132008,1,0,0:0:0:0:
414,187,132158,2,0,L|431:296,1,85,8|0,0:1|3:0,0:0:0:0:
352,362,132458,5,0,1:0:0:0:
317,284,132608,1,2,0:0:0:0:
236,257,132758,1,8,0:1:0:0:
153,277,132908,1,0,1:0:0:0:
107,348,133058,6,0,L|94:162,2,170,0|8|0,3:0|0:1|1:0,0:0:0:0:
265,367,133808,2,0,B|237:343|237:343|151:353,1,85,0|8,1:0|0:1,0:0:0:0:
285,134,134108,6,0,P|234:149|218:265,1,170,2|0,0:0|0:0,0:0:0:0:
367,305,134558,1,8,0:1:0:0:
412,236,134708,2,0,P|410:182|386:150,1,85,2|0,0:0|3:0,0:0:0:0:
279,52,135008,5,2,0:0:0:0:
355,87,135158,1,8,0:1:0:0:
346,5,135308,1,0,0:0:0:0:
279,52,135458,6,0,L|439:41,2,127.500004863739,4|0|0,1:2|0:0|0:0,0:0:0:0:
117,17,136208,1,0,0:0:0:0:
117,17,136358,1,0,0:0:0:0:
182,77,136508,6,0,L|190:149,1,42.5,4|0,1:2|0:0,0:0:0:0:
176,138,136808,6,0,L|170:78,1,42.5
282,141,137108,6,0,L|271:218,1,42.5,0|0,1:0|0:0,0:0:0:0:
144,318,137408,6,0,L|154:382,1,42.5,0|0,3:0|0:0,0:0:0:0:
170,243,137558,2,0,L|220:202,1,42.5,8|0,0:1|0:0,0:0:0:0:
91,256,137708,2,0,L|30:232,1,42.5
229,354,137858,6,0,L|391:346,1,127.5,4|0,1:0|0:0,0:0:0:0:
372,359,138158,1,8,0:1:0:0:
474,292,138308,2,0,L|466:383,1,85,2|0,0:0|0:0,0:0:0:0:
340,250,138608,1,0,1:0:0:0:
419,220,138758,2,0,L|428:121,1,85,8|2,0:1|0:0,0:0:0:0:
277,0,139058,6,0,B|241:24|241:24|268:140,1,127.5,0|0,1:0|0:0,0:0:0:0:
275,117,139358,1,8,0:1:0:0:
423,53,139508,2,0,L|325:61,1,85,2|0,0:0|0:0,0:0:0:0:
182,194,139808,2,0,L|280:202,1,85,0|8,1:0|0:1,0:0:0:0:
76,73,140108,1,2,0:0:0:0:
157,63,140258,5,0,1:0:0:0:
126,139,140408,1,0,0:0:0:0:
45,148,140558,1,8,0:1:0:0:
19,222,140708,1,0,0:0:0:0:
93,361,140858,5,2,3:2:0:0:
117,253,141008,1,0,0:0:0:0:
199,324,141158,1,8,0:1:0:0:
226,219,141308,2,0,L|367:221,1,127.5,2|0,0:0|0:0,0:0:0:0:
366,236,141608,1,0,3:0:0:0:
424,111,141758,5,8,0:1:0:0:
416,116,141833,1,0,0:0:0:0:
409,120,141908,2,0,L|417:181,1,42.5,2|0,0:0|0:0,0:0:0:0:
512,335,142058,2,0,B|470:282|470:282|387:307,1,127.5,0|0,1:0|0:0,0:0:0:0:
347,364,142358,6,0,B|262:360|262:360|247:349|247:349|114:338,1,191.250007295609,10|0,0:1|0:0,0:0:0:0:
83,368,142658,5,0,1:0:0:0:
6,335,142808,1,2,0:0:0:0:
37,254,142958,1,8,0:1:0:0:
45,265,143108,1,0,1:0:0:0:
171,217,143258,5,0,0:0:0:0:
175,206,143408,1,0,3:0:0:0:
83,178,143558,2,0,B|134:210|134:210|120:280,1,127.5,8|0,0:1|0:0,0:0:0:0:
131,294,143858,5,0,1:0:0:0:
311,275,144008,1,2,0:0:0:0:
272,353,144158,1,8,0:1:0:0:
186,363,144308,1,0,3:0:0:0:
223,281,144458,5,0,1:0:0:0:
364,351,144608,1,0,3:0:0:0:
355,191,144758,1,8,0:1:0:0:
311,275,144908,1,2,0:0:0:0:
455,346,145058,5,0,1:0:0:0:
499,258,145208,2,0,L|485:138,2,85,0|8|2,3:0|0:1|0:0,0:0:0:0:
455,346,145658,1,0,3:0:0:0:
462,359,145808,5,0,3:0:0:0:
365,353,145958,1,8,0:1:0:0:
269,348,146108,1,2,0:0:0:0:
142,288,146258,6,0,B|216:282|216:282|231:269|231:269|307:262,1,159.375,0|0,1:0|0:0,0:0:0:0:
311,275,146558,2,0,L|317:208,1,42.5,8|0,0:1|0:0,0:0:0:0:
239,186,146708,2,0,L|245:119,1,42.5,2|0,0:0|0:0,0:0:0:0:
382,119,146858,5,0,3:0:0:0:
332,48,147008,1,0,3:0:0:0:
455,72,147158,1,8,0:1:0:0:
404,1,147308,1,2,0:0:0:0:
250,47,147458,6,0,L|154:41,1,85,4|0,1:0|3:0,0:0:0:0:
0,80,147758,1,8,0:1:0:0:
5,95,147908,1,2,0:0:0:0:
87,18,148058,6,0,L|81:114,1,85,0|0,0:0|1:0,0:0:0:0:
120,268,148358,1,8,0:1:0:0:
135,263,148508,1,2,0:0:0:0:
55,182,148658,6,0,L|151:188,1,85,0|0,1:0|3:0,0:0:0:0:
292,135,148958,1,8,0:1:0:0:
219,324,149108,2,0,B|213:257|213:257|222:235|222:235|217:158,1,159.375,2|0,0:0|0:0,0:0:0:0:
339,72,149408,6,0,B|362:87|362:87|363:118,1,42.5,0|0,1:0|0:0,0:0:0:0:
311,213,149558,1,8,0:1:0:0:
225,92,149708,1,2,0:0:0:0:
225,92,149783,1,0,0:0:0:0:
225,92,149858,5,0,1:0:0:0:
292,135,150008,1,0,0:0:0:0:
340,72,150158,1,8,0:1:0:0:
273,26,150308,1,0,0:0:0:0:
113,129,150458,5,2,3:2:0:0:
134,46,150608,1,0,0:0:0:0:
31,109,150758,1,8,0:1:0:0:
52,26,150908,1,2,0:0:0:0:
113,129,151058,1,0,1:0:0:0:
16,229,151208,6,0,L|158:217,1,127.5,0|0,3:0|0:0,0:0:0:0:
265,134,151508,6,0,B|257:212|257:212|218:234|218:234|209:332,1,191.250007295609,2|0,0:0|0:0,0:0:0:0:
140,331,151808,1,0,0:0:0:0:
332,384,151958,1,8,0:1:0:0:
332,384,152033,1,0,0:0:0:0:
332,384,152108,2,0,L|337:326,1,42.5,2|0,0:0|0:0,0:0:0:0:
402,296,152258,6,0,B|460:286|460:286|499:343,2,113.333333333333,4|4|4,1:2|1:2|1:2,0:0:0:0:
354,225,152858,2,0,B|296:215|296:215|257:272,2,113.333333333333,4|4|4,1:2|1:2|1:2,0:0:0:0:
440,102,153458,1,0,1:0:0:0:
473,193,153608,1,8,0:1:0:0:
473,193,153683,1,0,0:0:0:0:
473,193,153758,6,0,L|397:185,1,42.5,0|0,3:0|0:0,0:0:0:0:
368,59,153908,6,0,B|318:31|266:70|288:82|245:112|181:81,1,191.250007295609,8|0,0:0|0:0,0:0:0:0:
119,182,154208,6,0,P|99:172|136:174,1,127.5,2|0,0:0|0:0,0:0:0:0:
0,218,154508,6,0,B|89:177|195:221|224:325|224:325|178:290|136:303,1,361.25,2|0,0:0|0:0,0:0:0:0:
87,351,155858,5,2,0:0:0:0:
90,363,156008,1,0,0:0:0:0:
285,215,156158,5,0,0:0:0:0:
279,222,156233,2,0,L|284:271,1,31.8750012159348,0|0,1:0|0:0,0:0:0:0:
336,317,156383,6,0,P|384:337|371:281,1,127.500004863739
434,229,156758,5,0,0:0:0:0:
434,229,157058,1,2,0:0:0:0:
405,153,157508,1,0,0:0:0:0:
505,23,157958,5,0,0:0:0:0:
481,102,158258,1,2,0:0:0:0:
481,102,158708,1,2,0:0:0:0:
307,0,159158,2,0,L|316:77,1,63.7500024318696
278,134,159458,5,2,0:0:0:0:
442,246,160358,1,0,0:0:0:0:
426,167,160658,5,2,0:0:0:0:
385,307,161108,1,0,0:0:0:0:
381,317,161258,1,2,0:0:0:0:
306,286,161408,1,0,0:0:0:0:
148,354,161858,5,2,0:0:0:0:
151,341,162308,1,0,0:0:0:0:
73,268,163058,5,2,0:0:0:0:
66,109,163508,1,0,0:0:0:0:
0,237,163808,1,2,0:0:0:0:
59,188,163958,2,0,L|167:181,1,95.6250036478044
168,192,164258,5,2,0:0:0:0:
323,103,164558,1,0,0:0:0:0:
243,67,164708,2,0,L|253:215,1,127.500004863739
322,299,165158,1,0,0:0:0:0:
462,208,165458,5,2,0:0:0:0:
462,208,165608,2,0,L|316:216,1,127.500004863739
243,345,166058,2,0,P|228:302|201:286,1,63.7500024318696
182,207,166358,2,0,P|138:206|102:237,1,63.7500024318696
45,270,166658,5,2,0:0:0:0:
45,270,166958,2,0,L|25:55,1,191.250007295609
176,32,167558,5,0,0:0:0:0:
28,80,167858,2,0,P|107:86|143:144,1,127.500004863739,2|0,0:0|0:0,0:0:0:0:
180,219,168308,2,0,P|187:181|214:155,1,63.7500024318696,2|0,0:0|0:0,0:0:0:0:
333,45,168608,5,0,0:0:0:0:
311,120,168758,1,0,0:0:0:0:
257,66,168908,1,0,0:0:0:0:
373,170,169058,2,0,L|510:158,1,127.500004863739,2|0,0:0|0:0,0:0:0:0:
304,264,169508,2,0,L|298:200,1,63.7500024318696
411,303,169808,2,0,L|405:366,1,63.7500024318696
240,319,170108,1,0,0:0:0:0:
240,319,170258,6,0,P|155:314|126:369,1,127.500004863739,2|0,0:0|0:0,0:0:0:0:
55,297,170708,2,0,P|60:212|5:183,2,127.500004863739,2|0|0,0:0|0:0|0:0,0:0:0:0:
132,341,171458,6,0,L|396:327,1,255.000009727478,2|0,0:0|0:0,0:0:0:0:
502,274,172208,1,0,0:0:0:0:
412,192,172358,2,0,L|422:255,1,63.7500024318696
483,142,172658,6,0,P|490:92|423:33,1,127.500004863739,2|0,0:0|0:0,0:0:0:0:
368,72,173108,2,0,P|329:82|307:122,1,63.7500024318696,2|0,0:0|0:0,0:0:0:0:
317,182,173408,5,0,0:0:0:0:
317,182,173558,1,0,0:0:0:0:
239,137,173708,1,0,0:0:0:0:
240,223,173858,1,0,0:0:0:0:
256,192,174458,12,8,176258,0:3:0:0:
128,382,180008,6,0,L|124:344,1,31.8750012159348,2|0,0:0|0:0,0:0:0:0:
208,288,180158,6,0,L|136:279,5,42.5,0|0|2|2|0|0,3:0|0:0|3:0|3:0|3:0|3:0,0:0:0:0:
76,220,180608,2,0,L|118:214,5,42.5,0|0|0|0|0|0,3:0|3:0|3:0|3:0|3:0|0:0,0:0:0:0:
207,82,181058,6,0,B|199:141|199:141|204:162|204:162|192:243,1,127.5,4|0,1:0|0:0,0:0:0:0:
197,207,181358,1,8,0:1:0:0:
123,129,181508,1,0,0:0:0:0:
284,182,181658,2,0,B|294:222|294:222|261:284,1,85,2|0,0:0|3:0,0:0:0:0:
342,377,181958,1,8,0:1:0:0:
212,312,182108,6,0,L|359:299,1,127.5,0|0,1:0|0:0,0:0:0:0:
339,300,182408,1,0,0:0:0:0:
465,270,182558,2,0,P|419:261|395:225,1,85,8|0,0:1|3:0,0:0:0:0:
423,154,182858,5,0,1:0:0:0:
460,77,183008,1,2,0:0:0:0:
375,86,183158,1,8,0:1:0:0:
409,8,183308,1,0,1:0:0:0:
294,87,183458,6,0,P|250:39|130:78,2,170,0|8|0,3:0|0:1|1:0,0:0:0:0:
262,169,184208,1,0,1:0:0:0:
320,224,184358,2,0,P|314:282|314:361,1,127.5,8|0,0:1|0:0,0:0:0:0:
313,351,184658,5,0,1:0:0:0:
313,351,184808,1,0,0:0:0:0:
397,312,184958,1,8,0:1:0:0:
461,367,185108,1,2,0:0:0:0:
512,235,185258,6,0,L|422:238,1,85,0|2,3:0|0:0,0:0:0:0:
362,186,185558,2,0,P|374:130|460:118,1,127.5,8|0,0:1|0:0,0:0:0:0:
469,40,185858,6,0,B|446:109|513:99|481:193,1,127.5,4|0,1:3|0:0,0:0:0:0:
488,161,186158,1,8,0:1:0:0:
387,17,186308,2,0,L|186:24,1,170,2|2,0:0|0:0,0:0:0:0:
65,138,186758,2,0,P|113:133|140:102,1,85,8|0,0:1|0:0,0:0:0:0:
129,26,187058,5,2,1:2:0:0:
250,98,187208,2,0,L|239:209,1,85,0|8,0:0|0:1,0:0:0:0:
179,246,187508,2,0,B|124:213|124:213|45:258,1,127.5
68,244,187808,5,0,0:0:0:0:
86,326,187958,1,8,0:1:0:0:
10,304,188108,1,0,0:0:0:0:
152,376,188258,5,0,1:0:0:0:
152,376,188408,1,2,0:0:0:0:
227,366,188558,1,8,0:1:0:0:
302,354,188708,1,2,0:0:0:0:
396,247,188858,5,0,3:0:0:0:
261,223,189008,1,0,3:0:0:0:
302,354,189158,1,8,0:1:0:0:
319,275,189308,1,2,0:0:0:0:
448,352,189458,6,0,P|407:320|349:351,1,85,4|0,1:3|0:0,0:0:0:0:
243,294,189758,1,8,0:1:0:0:
227,366,189908,2,0,L|48:359,1,170,2|0,0:0|3:0,0:0:0:0:
0,208,190358,1,8,0:1:0:0:
0,208,190433,1,0,0:0:0:0:
0,208,190508,2,0,L|5:270,1,42.5,2|0,0:0|0:0,0:0:0:0:
73,284,190658,5,4,1:0:0:0:
116,154,190808,1,2,0:0:0:0:
204,263,190958,1,8,0:1:0:0:
278,176,191108,6,0,L|184:182,1,85,0|2,0:0|0:0,0:0:0:0:
327,113,191408,1,0,3:0:0:0:
387,258,191558,1,8,0:1:0:0:
482,194,191708,2,0,L|333:182,1,127.5,0|0,1:0|0:0,0:0:0:0:
354,183,192008,1,0,0:0:0:0:
309,294,192158,6,0,P|241:285|190:343,1,127.5,8|0,0:1|0:0,0:0:0:0:
128,369,192458,2,0,L|118:274,1,85,0|2,1:0|0:0,0:0:0:0:
5,180,192758,1,8,0:1:0:0:
82,204,192908,1,0,1:0:0:0:
19,259,193058,6,0,B|73:280|113:244|98:248|135:203|196:240,1,170,0|8,3:0|0:1,0:0:0:0:
332,222,193508,1,2,0:0:0:0:
246,169,193658,2,0,L|264:288,1,85,0|0,1:0|1:0,0:0:0:0:
177,130,193958,1,8,0:1:0:0:
245,11,194108,1,2,0:0:0:0:
294,71,194258,6,0,P|351:82|401:21,1,127.5,0|0,1:0|0:0,0:0:0:0:
397,37,194558,1,8,0:1:0:0:
477,81,194708,6,0,P|466:138|527:188,1,127.5,2|0,0:0|0:0,0:0:0:0:
510,184,195008,1,2,0:0:0:0:
391,220,195158,1,8,0:1:0:0:
362,343,195308,1,0,1:0:0:0:
312,276,195458,6,0,P|204:260|120:344,1,212.500008106232,4|0,1:2|0:0,0:0:0:0:
80,379,196058,6,0,B|50:348|50:348|58:281,1,85.0000032424928
54,306,196258,1,0,0:0:0:0:
0,260,196508,6,0,B|6:175|6:175|16:164|16:164|23:64,1,191.250007295609,4|0,1:0|0:0,0:0:0:0:
94,129,196808,2,0,L|155:125,1,42.5,8|0,0:0|0:0,0:0:0:0:
286,119,196958,1,0,0:0:0:0:
207,58,197108,5,8,0:1:0:0:
207,70,197183,1,0,0:0:0:0:
208,82,197258,1,2,0:0:0:0:
209,162,197408,1,0,3:0:0:0:
128,8,197558,2,0,L|130:50,1,42.5,2|0,0:0|0:0,0:0:0:0:
288,42,197708,2,0,L|285:0,1,42.5,0|0,1:0|0:0,0:0:0:0:
209,162,197858,6,0,B|249:184|249:184|352:149|352:149|395:177,1,191.250007295609,2|0,0:0|0:0,0:0:0:0:
452,120,198158,5,0,1:0:0:0:
498,257,198308,1,8,0:0:0:0:
349,327,198458,1,2,0:0:0:0:
509,176,198608,5,8,0:0:0:0:
366,245,198758,1,0,3:0:0:0:
486,345,198908,1,8,0:0:0:0:
278,384,199058,6,0,L|265:272,1,85,0|8,1:0|0:0,0:0:0:0:
133,236,199358,1,0,3:0:0:0:
217,123,199508,6,0,L|209:279,1,127.5,4|0,1:2|0:0,0:0:0:0:
174,318,199808,6,0,B|86:342|109:258|11:285,1,159.375,4|0,1:2|0:0,0:0:0:0:
17,191,200108,6,0,B|60:104|60:104|138:158,1,191.250007295609,4|0,1:2|0:0,0:0:0:0:
137,157,200408,1,0,0:0:0:0:
294,97,200558,6,0,L|288:185,1,85,8|0,0:1|0:0,0:0:0:0:
229,43,200858,1,0,1:0:0:0:
377,98,201008,1,0,1:0:0:0:
377,98,201083,1,0,0:0:0:0:
377,98,201158,2,0,B|463:86,1,85,8|0,0:1|0:0,0:0:0:0:
492,165,201458,6,0,L|351:184,1,127.5,0|0,1:0|0:0,0:0:0:0:
365,182,201758,1,8,0:1:0:0:
391,318,201908,1,2,0:0:0:0:
269,306,202058,2,0,P|296:268|354:269,1,85,0|2,3:0|0:0,0:0:0:0:
369,186,202358,2,0,P|422:203|442:265,1,85,8|0,0:1|1:0,0:0:0:0:
452,368,202658,6,0,L|305:366,1,127.5,4|0,1:3|0:0,0:0:0:0:
324,366,202958,1,8,0:1:0:0:
186,384,203108,2,0,B|194:335|194:335|155:284|155:284|170:210,1,170,2|2,0:0|0:0,0:0:0:0:
183,153,203558,5,8,0:1:0:0:
108,178,203708,2,0,B|93:138|93:138|114:80,1,85,0|2,0:0|1:2,0:0:0:0:
247,203,204008,2,0,B|262:243|262:243|241:301,1,85,0|8,0:0|0:1,0:0:0:0:
257,121,204308,2,0,L|423:134,1,127.5
384,130,204608,5,0,0:0:0:0:
416,55,204758,1,8,0:1:0:0:
471,120,204908,1,0,0:0:0:0:
442,195,205058,5,0,1:0:0:0:
444,209,205208,1,2,0:0:0:0:
447,224,205358,1,8,0:1:0:0:
387,279,205508,2,0,L|223:270,1,127.5,2|0,0:0|0:0,0:0:0:0:
259,272,205808,1,0,3:0:0:0:
197,223,205958,2,0,P|178:291|203:326,1,85,8|2,0:1|0:0,0:0:0:0:
245,356,206258,5,4,1:3:0:0:
245,356,206408,1,0,0:0:0:0:
107,324,206558,1,8,0:1:0:0:
165,378,206708,1,2,0:0:0:0:
33,350,206858,5,0,3:0:0:0:
44,275,207008,1,0,3:0:0:0:
0,208,207158,1,8,0:1:0:0:
88,127,207308,1,2,0:0:0:0:
88,127,207383,1,0,0:0:0:0:
88,127,207458,6,0,L|185:129,1,85,4|0,1:0|0:0,0:0:0:0:
25,68,207758,1,8,0:1:0:0:
111,6,207908,2,0,B|182:-6|167:48|232:32,1,127.5
230,33,208208,1,0,3:0:0:0:
328,0,208358,1,8,0:1:0:0:
399,95,208508,6,0,L|386:278,1,170,0|0,1:0|0:0,0:0:0:0:
333,336,208958,6,0,B|285:288|285:288|306:222,1,127.5,8|0,0:1|0:0,0:0:0:0:
308,229,209258,2,0,L|215:230,1,85,0|0,1:0|0:0,0:0:0:0:
162,188,209558,5,8,0:1:0:0:
217,323,209708,1,0,1:0:0:0:
87,306,209858,6,0,P|120:272|160:266,2,85,0|0|8,3:0|0:0|0:1,0:0:0:0:
79,384,210308,1,2,0:0:0:0:
10,341,210458,1,0,1:0:0:0:
13,328,210608,1,0,1:0:0:0:
149,349,210758,1,8,0:1:0:0:
87,306,210908,6,0,L|79:142,1,127.5,2|0,0:0|0:0,0:0:0:0:
80,178,211208,1,0,0:0:0:0:
28,44,211358,1,8,0:1:0:0:
102,70,211508,2,0,B|166:49|166:49|229:106,1,127.5,2|0,0:0|0:0,0:0:0:0:
210,89,211808,1,2,0:0:0:0:
277,35,211958,1,8,0:1:0:0:
297,115,212108,1,0,1:0:0:0:
377,160,212258,6,0,P|301:149|225:201,1,159.375006079674,4|0,1:2|0:0,0:0:0:0:
155,210,212708,2,0,P|172:247|224:266,1,95.6250036478044
232,190,213008,2,0,P|255:156|245:102,1,95.6250036478044
173,130,213308,1,4,1:2:0:0:
169,114,213458,5,0,0:0:0:0:
90,132,213608,1,0,0:0:0:0:
73,53,213758,1,0,3:0:0:0:
206,2,213908,5,8,0:1:0:0:
201,7,213983,1,0,0:0:0:0:
196,11,214058,2,0,L|206:71,1,31.8750012159348,2|2,0:0|0:0,0:0:0:0:
278,0,214208,2,0,L|288:60,1,31.8750012159348,0|0,1:0|0:0,0:0:0:0:
357,142,214358,1,8,0:1:0:0:
396,0,214508,1,8,0:1:0:0:
482,72,214658,6,0,L|397:77,1,85,4|0,1:0|3:0,0:0:0:0:
279,148,214958,1,8,0:1:0:0:
277,134,215108,1,2,0:0:0:0:
357,142,215258,6,0,B|379:176|379:176|362:241,1,85,0|0,0:0|1:0,0:0:0:0:
289,261,215558,2,0,B|277:304|277:304|299:338,1,85,8|2,0:1|0:0,0:0:0:0:
387,370,215858,5,0,1:0:0:0:
382,355,216008,1,0,3:0:0:0:
469,361,216158,1,8,0:1:0:0:
432,284,216308,1,2,0:0:0:0:
496,231,216458,6,0,L|490:141,1,85,0|0,0:0|1:0,0:0:0:0:
414,121,216758,2,0,L|408:31,1,85,8|2,0:1|0:0,0:0:0:0:
288,191,217058,6,0,L|441:202,1,127.5,0|0,1:0|0:0,0:0:0:0:
415,200,217358,1,8,0:1:0:0:
295,116,217508,1,0,0:0:0:0:
227,246,217658,6,0,L|45:259,1,159.375,2|0,3:2|0:0,0:0:0:0:
68,257,217958,1,8,0:1:0:0:
208,173,218108,1,2,0:0:0:0:
288,191,218258,6,0,B|310:227|310:227|299:288,1,85,0|0,1:0|3:0,0:0:0:0:
208,173,218558,2,0,B|185:136|185:136|196:75,1,85,8|2,0:1|0:0,0:0:0:0:
271,102,218858,5,0,1:0:0:0:
345,68,219008,1,0,0:0:0:0:
410,117,219158,1,8,0:1:0:0:
271,102,219458,6,0,P|236:41|119:28,1,191.250007295609,0|0,1:0|0:0,0:0:0:0:
339,147,219758,1,8,0:1:0:0:
339,147,219908,1,0,1:0:0:0:
223,168,220058,6,0,P|167:145|78:196,1,159.375
294,217,220358,1,8,0:1:0:0:
294,217,220508,1,0,0:0:0:0:
215,252,220658,6,0,P|176:273|149:352,1,127.5,0|0,1:0|0:0,0:0:0:0:
356,282,220958,1,8,0:1:0:0:
356,282,221108,1,0,3:0:0:0:
281,295,221258,6,0,P|277:329|307:383,1,95.6250036478044,0|0,1:0|0:0,0:0:0:0:
426,240,221558,1,8,0:1:0:0:
426,240,221708,1,2,0:0:0:0:
483,297,221858,6,0,L|475:380,2,63.7500024318696,0|0|8,1:0|3:0|0:1,0:0:0:0:
426,240,222308,2,0,L|434:157,2,63.7500024318696,2|0|0,0:0|3:0|3:0,0:0:0:0:
356,279,222758,2,0,L|271:269,1,63.7500024318696,8|2,0:1|0:0,0:0:0:0:
232,225,223058,6,0,B|211:263|211:263|227:326,1,85,0|0,1:0|3:0,0:0:0:0:
310,202,223358,2,0,B|331:164|331:164|315:101,1,85,8|2,0:1|0:0,0:0:0:0:
255,78,223658,6,0,L|157:85,1,85,0|0,3:0|3:0,0:0:0:0:
162,9,223958,2,0,L|260:2,1,85,8|2,0:1|0:0,0:0:0:0:
319,31,224258,5,4,1:0:0:0:
392,4,224408,1,0,3:0:0:0:
451,53,224558,1,8,0:1:0:0:
512,156,224708,5,2,0:0:0:0:
439,129,224858,1,0,0:0:0:0:
380,178,225008,1,0,1:0:0:0:
313,132,225158,5,8,0:1:0:0:
438,238,225308,1,2,0:0:0:0:
311,270,225458,6,0,L|302:189,1,63.7500024318696,0|0,1:0|3:0,0:0:0:0:
384,301,225758,1,8,0:1:0:0:
238,319,225908,6,0,L|229:238,1,63.7500024318696,2|0,0:0|0:0,0:0:0:0:
315,349,226208,1,0,1:0:0:0:
163,364,226358,6,0,L|154:283,1,63.7500024318696,8|2,0:1|0:0,0:0:0:0:
66,241,226658,5,0,1:0:0:0:
39,168,226808,1,0,0:0:0:0:
88,109,226958,1,8,0:1:0:0:
191,48,227108,5,0,0:0:0:0:
164,121,227258,1,2,3:2:0:0:
213,180,227408,1,0,0:0:0:0:
309,221,227558,5,8,0:1:0:0:
443,190,227708,1,2,0:0:0:0:
376,102,227858,6,0,L|366:194,1,63.7500024318696,0|0,1:0|3:0,0:0:0:0:
301,78,228158,2,0,L|291:170,1,63.7500024318696,8|2,0:1|0:0,0:0:0:0:
219,243,228458,6,0,L|209:151,1,63.7500024318696,0|0,1:0|0:0,0:0:0:0:
140,243,228758,2,0,L|130:151,1,63.7500024318696,8|2,0:1|0:0,0:0:0:0:
57,144,229058,5,0,1:0:0:0:
45,68,229208,1,2,0:0:0:0:
118,54,229358,1,2,0:0:0:0:
195,27,229508,5,0,0:0:0:0:
183,103,229658,1,2,0:0:0:0:
256,117,229808,1,2,0:0:0:0:
263,108,229958,1,0,3:0:0:0:
338,8,230108,5,4,1:3:0:0:
411,91,230258,2,0,L|319:87,1,63.7500024318696
233,193,230558,1,0,3:0:0:0:
322,169,230708,5,8,0:0:0:0:
320,181,230783,1,0,3:0:0:0:
319,194,230858,1,2,3:0:0:0:
318,207,230933,1,2,3:0:0:0:
317,219,231008,1,2,3:0:0:0:
315,232,231083,1,2,3:0:0:0:
314,245,231158,2,0,L|307:301,3,31.8750012159348,0|0|0|0,3:0|3:0|3:0|3:0,0:0:0:0:
294,353,231458,5,4,1:0:0:0:
232,295,231908,2,0,P|132:287|93:350,1,170,2|0,0:0|0:0,0:0:0:0:
95,336,232658,5,2,0:0:0:0:
13,285,233108,2,0,L|-2:101,1,170,2|0,0:0|0:0,0:0:0:0:
78,0,233858,5,2,0:0:0:0:
78,0,235058,5,2,0:0:0:0:
222,109,235508,1,0,0:0:0:0:
220,97,235658,1,2,0:0:0:0:
155,160,235808,1,0,0:0:0:0:
155,160,236258,5,2,0:0:0:0:
301,233,237458,6,0,L|295:143,1,85,2|0,0:0|0:0,0:0:0:0:
349,95,237908,1,0,0:0:0:0:
484,191,238208,1,2,0:0:0:0:
386,0,238658,1,2,0:0:0:0:
315,26,238958,5,0,0:0:0:0:
148,0,239408,1,2,0:0:0:0:
41,171,239858,6,0,P|119:159|184:235,2,170,2|2|2,0:0|0:0|0:0,0:0:0:0:
41,171,242258,5,2,0:0:0:0:
79,16,242708,1,2,0:0:0:0:
264,52,243458,5,2,0:0:0:0:
215,223,244658,5,2,0:0:0:0:
134,204,245108,1,2,0:0:0:0:
160,121,245858,5,2,0:0:0:0:
238,142,246908,5,2,0:0:0:0:
256,192,249252,12,0,255402,0:0:0:0:
