osu file format v14

[General]
AudioFilename: Ether.mp3
AudioLeadIn: 0
PreviewTime:50750
Countdown: 0
SampleSet: Soft
StackLeniency: 0.4
Mode: 0
LetterboxInBreaks: 0
EpilepsyWarning: 1
WidescreenStoryboard: 1

[Editor]
Bookmarks: 99458,137858,147458,179858,214658
DistanceSpacing: 0.8
BeatDivisor: 4
GridSize: 4
TimelineZoom: 2.1

[Metadata]
Title:Ether
TitleUnicode:エーテル
Artist:Feryquitous feat. Aitsuki Nakuru
ArtistUnicode:Feryquitous feat. 藍月なくる
Creator:Acyl
Version:Classic Collab Extreme
Source:
Tags:『JelLaboratory』 c95 female vocal japanese doujin pop artcore -tochi j1_ how2miss otosaka-yu necho reincarnation suzuki_1112 moecho neilperry sing toybot kalibe lit120 lami lmt firika fanzhen0019 skystar yusomi amamiya yuko _epreus bbj0920 len fast kawashiro heilia cococolaco 藍月なくる aitsuki nakuru _todestrieb coco
BeatmapID:1966699
BeatmapSetID:902425

[Difficulty]
HPDrainRate:6
CircleSize:4.5
OverallDifficulty:9
ApproachRate:9.5
SliderMultiplier:2
SliderTickRate:1

[Events]
//Background and Video events
0,0,"background.jpg",0,0
//Break Periods
2,176458,179333
//Storyboard Layer 0 (Background)
Sprite,Background,Centre,"background.jpg",320,240 F,0,0,,0
Sprite,Background,Centre,"sb\blank.jpg",0,0 F,0,-4025,-3682,0,1 F,0,-3682,-253,1 F,0,-253,3,1,0 M,0,3,,320,240 S,0,3,,0.6493149
Sprite,Background,Centre,"sb\tochi.png",320,240 S,0,-3532,,0.6 F,0,-3532,-3187,0,1 F,0,-3187,-596,1,0.9893727 F,0,-596,-253,0.9893727,0
Sprite,Background,Centre,"sb\bgblurbw.jpg",0,0 F,2,1058,10658,0,0.6487671 M,0,1058,50258,320,-18.8055,320,240 S,0,1058,50258,0.9298632,0.5160549 F,0,10658,49058,0.6487671 F,0,49058,50258,0.6487671,0
Sprite,Background,Centre,"sb\bgblur.jpg",320,240 S,0,51458,,0.5160547 F,0,51458,70658,1 F,0,70658,70958,1,0
Sprite,Background,Centre,"sb\blank.jpg",320,240 S,0,49058,,0.537096 F,0,49058,50258,0,1 F,0,50258,51458,1 F,0,51458,51758,1,0
Sprite,Background,Centre,"sb\blank.jpg",320,240 S,0,70658,,0.5230685 F,0,70658,70958,0,1 F,0,70958,80258,1,0.9966667 F,0,80258,80408,0.9966667,0
Sprite,Background,Centre,"sb\bgblurbw.jpg",320,240 S,0,80258,,0.5300821 F,0,80258,80408,0,1 F,0,80408,118658,1,0.9866667 F,0,118658,119258,0.9866667,0.2384657 F,0,119258,121058,0.2384657,0.2459477 F,0,121058,121358,0.2459477,0
Sprite,Background,Centre,"sb\bgblur.jpg",320,240 F,0,121058,137858,1 S,0,121058,137858,0.5160547,0.5230685 F,0,137858,138158,1,0
Sprite,Background,Centre,"background.jpg",320,240 S,0,137858,,0.5230684 F,0,137858,138158,0,1 F,0,138158,156758,1,0.9866667 F,0,156758,157358,0.9866667,0
Sprite,Background,Centre,"sb\bgblur.jpg",320,240 S,0,181058,,0.5160547 F,0,181058,214658,1 F,0,214658,214958,1,0
Sprite,Background,Centre,"sb\bgblurbw.jpg",0,0 S,0,156758,,0.6493151 P,0,156758,,V F,0,156758,157358,0,1 M,0,156758,179858,200.0658,240,384.526,240 F,0,157358,175058,1 F,0,175058,176258,1,0.2565479 F,0,176258,181058,0.2565479
Sprite,Background,Centre,"background.jpg",320,240 S,0,214658,,0.5160549 F,0,214658,214958,0,1 F,0,214958,231458,1 F,0,231458,232658,1,0
Sprite,Background,Centre,"sb\bgblurbw.jpg",0,0 P,0,231458,,H F,0,231458,232658,0,1 M,2,231458,255458,457.4685,148.8219,-109.9397,549.3041 S,0,231458,255458,0.6984109,1.140274 R,0,231458,255458,-0.01402771,-0.2665204 F,0,232658,249308,1 F,0,249308,255458,1,0
Sprite,Background,Centre,"sb\blank.jpg",0,0 F,0,51308,51458,0,0.5 M,0,51458,,320,240 F,0,51458,51758,0.5,0.1 V,1,51458,51758,0.42,0.51,0.4,0.05 R,0,51458,70658,0.08416412,-0.1402744 P,0,51758,,A F,0,51758,70658,0.1 F,0,70658,70958,0.1,0
Sprite,Background,Centre,"sb\blank.jpg",0,0 F,0,120608,120758,0,0.5 M,0,120758,,320,240 F,0,120758,121058,0.5,0.1 V,1,120758,121058,0.42,0.51,0.4,0.05 R,0,120758,157058,-0.1402744,0.08416412 P,0,121058,,A F,0,121058,157058,0.1 F,0,157058,157358,0.1,0
Sprite,Background,Centre,"sb\blank.jpg",0,0 F,0,180458,180608,0,0.5 M,0,180608,,320,240 F,0,180608,180908,0.5,0.1 V,1,180608,180908,0.42,0.51,0.4,0.05 R,0,180608,231458,0.08416412,-0.1402744 P,0,180908,,A F,0,180908,231458,0.1 F,0,231458,231758,0.1,0
Sprite,Background,Centre,"sb\ring.png",0,0 M,0,51458,,79,281 C,0,51458,,255,255,255 F,1,51458,53458,0.9,0 S,1,51458,53458,0.25,0.5
Sprite,Background,Centre,"sb\ring.png",0,0 M,0,51608,,245,212 C,0,51608,,255,255,255 F,1,51608,53608,0.9,0 S,1,51608,53608,0.25,0.5
Sprite,Background,Centre,"sb\ring.png",0,0 M,0,51758,,369,342 C,0,51758,,255,255,255 F,1,51758,53758,0.9,0 S,1,51758,53758,0.25,0.5
Sprite,Background,Centre,"sb\ring.png",0,0 M,0,51908,,149,377 C,0,51908,,255,255,255 F,1,51908,53908,0.9,0 S,1,51908,53908,0.25,0.5
Sprite,Background,Centre,"sb\ring.png",0,0 M,0,51983,,154,370 C,0,51983,,255,255,255 F,1,51983,53983,0.9,0 S,1,51983,53983,0.25,0.5
Sprite,Background,Centre,"sb\ring.png",0,0 M,0,52058,,156,362 C,0,52058,,255,255,255 F,1,52058,54133,0.9,0 S,1,52058,54133,0.25,0.5
Sprite,Background,Centre,"sb\ring.png",0,0 M,0,52208,,334,184 C,0,52208,,255,255,255 F,1,52208,54283,0.9,0 S,1,52208,54283,0.25,0.5
Sprite,Background,Centre,"sb\ring.png",0,0 M,0,52358,,291,422 C,0,52358,,255,255,255 F,1,52358,54358,0.9,0 S,1,52358,54358,0.25,0.5
Sprite,Background,Centre,"sb\ring.png",0,0 M,0,52508,,221,436 C,0,52508,,255,255,255 F,1,52508,54733,0.9,0 S,1,52508,54733,0.25,0.5
Sprite,Background,Centre,"sb\ring.png",0,0 M,0,52808,,307,300 C,0,52808,,255,255,255 F,1,52808,54808,0.9,0 S,1,52808,54808,0.25,0.5
Sprite,Background,Centre,"sb\ring.png",0,0 M,0,52958,,334,184 C,0,52958,,255,255,255 F,1,52958,55108,0.9,0 S,1,52958,55108,0.25,0.5
Sprite,Background,Centre,"sb\ring.png",0,0 M,0,53258,,147,56 C,0,53258,,255,255,255 F,1,53258,55258,0.9,0 S,1,53258,55258,0.25,0.5
Sprite,Background,Centre,"sb\ring.png",0,0 M,0,53408,,143,259 C,0,53408,,255,255,255 F,1,53408,55408,0.9,0 S,1,53408,55408,0.25,0.5
Sprite,Background,Centre,"sb\ring.png",0,0 M,0,53558,,146,56 C,0,53558,,255,255,255 F,1,53558,55633,0.9,0 S,1,53558,55633,0.25,0.5
Sprite,Background,Centre,"sb\ring.png",0,0 M,0,53708,,73,177 C,0,53708,,255,255,255 F,1,53708,55783,0.9,0 S,1,53708,55783,0.25,0.5
Sprite,Background,Centre,"sb\ring.png",0,0 M,0,53858,,145,351 C,0,53858,,255,255,255 F,1,53858,56083,0.9,0 S,1,53858,56083,0.25,0.5
Sprite,Background,Centre,"sb\ring.png",0,0 M,0,54158,,221,315 C,0,54158,,255,255,255 F,1,54158,56158,0.9,0 S,1,54158,56158,0.25,0.5
Sprite,Background,Centre,"sb\ring.png",0,0 M,0,54308,,292,424 C,0,54308,,255,255,255 F,1,54308,56308,0.9,0 S,1,54308,56308,0.25,0.5
Sprite,Background,Centre,"sb\ring.png",0,0 M,0,54458,,292,424 C,0,54458,,255,255,255 F,1,54458,56458,0.9,0 S,1,54458,56458,0.25,0.5
Sprite,Background,Centre,"sb\ring.png",0,0 M,0,54608,,320,284 C,0,54608,,255,255,255 F,1,54608,56608,0.9,0 S,1,54608,56608,0.25,0.5
Sprite,Background,Centre,"sb\ring.png",0,0 M,0,54758,,432,380 C,0,54758,,255,255,255 F,1,54758,56758,0.9,0 S,1,54758,56758,0.25,0.5
Sprite,Background,Centre,"sb\ring.png",0,0 M,0,54908,,520,176 C,0,54908,,255,255,255 F,1,54908,57133,0.9,0 S,1,54908,57133,0.25,0.5
Sprite,Background,Centre,"sb\ring.png",0,0 M,0,55208,,412,293 C,0,55208,,255,255,255 F,1,55208,57208,0.9,0 S,1,55208,57208,0.25,0.5
Sprite,Background,Centre,"sb\ring.png",0,0 M,0,55358,,356,148 C,0,55358,,255,255,255 F,1,55358,57508,0.9,0 S,1,55358,57508,0.25,0.5
Sprite,Background,Centre,"sb\ring.png",0,0 M,0,55658,,295,211 C,0,55658,,255,255,255 F,1,55658,57658,0.9,0 S,1,55658,57658,0.25,0.5
Sprite,Background,Centre,"sb\ring.png",0,0 M,0,55808,,187,73 C,0,55808,,255,255,255 F,1,55808,57808,0.9,0 S,1,55808,57808,0.25,0.5
Sprite,Background,Centre,"sb\ring.png",0,0 M,0,55958,,294,104 C,0,55958,,255,255,255 F,1,55958,58183,0.9,0 S,1,55958,58183,0.25,0.5
Sprite,Background,Centre,"sb\ring.png",0,0 M,0,56258,,64,112 C,0,56258,,255,255,255 F,1,56258,58408,0.9,0 S,1,56258,58408,0.25,0.5
Sprite,Background,Centre,"sb\ring.png",0,0 M,0,56483,,253,266 C,0,56483,,255,255,255 F,1,56483,58483,0.9,0 S,1,56483,58483,0.25,0.5
Sprite,Background,Centre,"sb\ring.png",0,0 M,0,56558,,252,253 C,0,56558,,255,255,255 F,1,56558,58633,0.9,0 S,1,56558,58633,0.25,0.5
Sprite,Background,Centre,"sb\ring.png",0,0 M,0,56708,,75,381 C,0,56708,,255,255,255 F,1,56708,58708,0.9,0 S,1,56708,58708,0.25,0.5
Sprite,Background,Centre,"sb\ring.png",0,0 M,0,56858,,236,440 C,0,56858,,255,255,255 F,1,56858,58933,0.9,0 S,1,56858,58933,0.25,0.5
Sprite,Background,Centre,"sb\ring.png",0,0 M,0,57008,,129,295 C,0,57008,,255,255,255 F,1,57008,59158,0.9,0 S,1,57008,59158,0.25,0.5
Sprite,Background,Centre,"sb\ring.png",0,0 M,0,57308,,278,234 C,0,57308,,255,255,255 F,1,57308,59533,0.9,0 S,1,57308,59533,0.25,0.5
Sprite,Background,Centre,"sb\ring.png",0,0 M,0,57608,,165,122 C,0,57608,,255,255,255 F,1,57608,59608,0.9,0 S,1,57608,59608,0.25,0.5
Sprite,Background,Centre,"sb\ring.png",0,0 M,0,57758,,331,284 C,0,57758,,255,255,255 F,1,57758,59908,0.9,0 S,1,57758,59908,0.25,0.5
Sprite,Background,Centre,"sb\ring.png",0,0 M,0,58058,,205,261 C,0,58058,,255,255,255 F,1,58058,60058,0.9,0 S,1,58058,60058,0.25,0.5
Sprite,Background,Centre,"sb\ring.png",0,0 M,0,58208,,357,144 C,0,58208,,255,255,255 F,1,58208,60208,0.9,0 S,1,58208,60208,0.25,0.5
Sprite,Background,Centre,"sb\ring.png",0,0 M,0,58358,,318,56 C,0,58358,,255,255,255 F,1,58358,60508,0.9,0 S,1,58358,60508,0.25,0.5
Sprite,Background,Centre,"sb\ring.png",0,0 M,0,58658,,301,198 C,0,58658,,255,255,255 F,1,58658,60658,0.9,0 S,1,58658,60658,0.25,0.5
Sprite,Background,Centre,"sb\ring.png",0,0 M,0,58808,,301,198 C,0,58808,,255,255,255 F,1,58808,60808,0.9,0 S,1,58808,60808,0.25,0.5
Sprite,Background,Centre,"sb\ring.png",0,0 M,0,58958,,485,159 C,0,58958,,255,255,255 F,1,58958,60958,0.9,0 S,1,58958,60958,0.25,0.5
Sprite,Background,Centre,"sb\ring.png",0,0 M,0,59108,,576,334 C,0,59108,,255,255,255 F,1,59108,61108,0.9,0 S,1,59108,61108,0.25,0.5
Sprite,Background,Centre,"sb\ring.png",0,0 M,0,59258,,367,248 C,0,59258,,255,255,255 F,1,59258,61333,0.9,0 S,1,59258,61333,0.25,0.5
Sprite,Background,Centre,"sb\ring.png",0,0 M,0,59408,,365,235 C,0,59408,,255,255,255 F,1,59408,61483,0.9,0 S,1,59408,61483,0.25,0.5
Sprite,Background,Centre,"sb\ring.png",0,0 M,0,59558,,565,65 C,0,59558,,255,255,255 F,1,59558,61558,0.9,0 S,1,59558,61558,0.25,0.5
Sprite,Background,Centre,"sb\ring.png",0,0 M,0,59708,,574,143 C,0,59708,,255,255,255 F,1,59708,61933,0.9,0 S,1,59708,61933,0.25,0.5
Sprite,Background,Centre,"sb\ring.png",0,0 M,0,60008,,193,168 C,0,60008,,255,255,255 F,1,60008,62083,0.9,0 S,1,60008,62083,0.25,0.5
Sprite,Background,Centre,"sb\ring.png",0,0 M,0,60158,,303,84 C,0,60158,,255,255,255 F,1,60158,62233,0.9,0 S,1,60158,62233,0.25,0.5
Sprite,Background,Centre,"sb\ring.png",0,0 M,0,60308,,298,261 C,0,60308,,255,255,255 F,1,60308,62383,0.9,0 S,1,60308,62383,0.25,0.5
Sprite,Background,Centre,"sb\ring.png",0,0 M,0,60458,,162,100 C,0,60458,,255,255,255 F,1,60458,62458,0.9,0 S,1,60458,62458,0.25,0.5
Sprite,Background,Centre,"sb\ring.png",0,0 M,0,60533,,145,106 C,0,60533,,255,255,255 F,1,60533,62533,0.9,0 S,1,60533,62533,0.25,0.5
Sprite,Background,Centre,"sb\ring.png",0,0 M,0,60608,,133,117 C,0,60608,,255,255,255 F,1,60608,62608,0.9,0 S,1,60608,62608,0.25,0.5
Sprite,Background,Centre,"sb\ring.png",0,0 M,0,60683,,125,132 C,0,60683,,255,255,255 F,1,60683,62683,0.9,0 S,1,60683,62683,0.25,0.5
Sprite,Background,Centre,"sb\ring.png",0,0 M,0,60758,,64,166 C,0,60758,,255,255,255 F,1,60758,62833,0.9,0 S,1,60758,62833,0.25,0.5
Sprite,Background,Centre,"sb\ring.png",0,0 M,0,60908,,92,283 C,0,60908,,255,255,255 F,1,60908,62983,0.9,0 S,1,60908,62983,0.25,0.5
Sprite,Background,Centre,"sb\ring.png",0,0 M,0,61058,,198,239 C,0,61058,,255,255,255 F,1,61058,63058,0.9,0 S,1,61058,63058,0.25,0.5
Sprite,Background,Centre,"sb\ring.png",0,0 M,0,61208,,236,440 C,0,61208,,255,255,255 F,1,61208,63208,0.9,0 S,1,61208,63208,0.25,0.5
Sprite,Background,Centre,"sb\ring.png",0,0 M,0,61358,,119,391 C,0,61358,,255,255,255 F,1,61358,63508,0.9,0 S,1,61358,63508,0.25,0.5
Sprite,Background,Centre,"sb\ring.png",0,0 M,0,61583,,325,408 C,0,61583,,255,255,255 F,1,61583,63583,0.9,0 S,1,61583,63583,0.25,0.5
Sprite,Background,Centre,"sb\ring.png",0,0 M,0,61658,,325,408 C,0,61658,,255,255,255 F,1,61658,63733,0.9,0 S,1,61658,63733,0.25,0.5
Sprite,Background,Centre,"sb\ring.png",0,0 M,0,61808,,447,277 C,0,61808,,255,255,255 F,1,61808,63883,0.9,0 S,1,61808,63883,0.25,0.5
Sprite,Background,Centre,"sb\ring.png",0,0 M,0,61958,,299,289 C,0,61958,,255,255,255 F,1,61958,63958,0.9,0 S,1,61958,63958,0.25,0.5
Sprite,Background,Centre,"sb\ring.png",0,0 M,0,62108,,465,421 C,0,62108,,255,255,255 F,1,62108,64333,0.9,0 S,1,62108,64333,0.25,0.5
Sprite,Background,Centre,"sb\ring.png",0,0 M,0,62408,,333,359 C,0,62408,,255,255,255 F,1,62408,64408,0.9,0 S,1,62408,64408,0.25,0.5
Sprite,Background,Centre,"sb\ring.png",0,0 M,0,62558,,216,253 C,0,62558,,255,255,255 F,1,62558,64633,0.9,0 S,1,62558,64633,0.25,0.5
Sprite,Background,Centre,"sb\ring.png",0,0 M,0,62708,,371,198 C,0,62708,,255,255,255 F,1,62708,64783,0.9,0 S,1,62708,64783,0.25,0.5
Sprite,Background,Centre,"sb\ring.png",0,0 M,0,62858,,296,140 C,0,62858,,255,255,255 F,1,62858,65008,0.9,0 S,1,62858,65008,0.25,0.5
Sprite,Background,Centre,"sb\ring.png",0,0 M,0,63083,,256,374 C,0,63083,,255,255,255 F,1,63083,65083,0.9,0 S,1,63083,65083,0.25,0.5
Sprite,Background,Centre,"sb\ring.png",0,0 M,0,63158,,248,380 C,0,63158,,255,255,255 F,1,63158,65233,0.9,0 S,1,63158,65233,0.25,0.5
Sprite,Background,Centre,"sb\ring.png",0,0 M,0,63308,,371,198 C,0,63308,,255,255,255 F,1,63308,65308,0.9,0 S,1,63308,65308,0.25,0.5
Sprite,Background,Centre,"sb\ring.png",0,0 M,0,63458,,428,310 C,0,63458,,255,255,255 F,1,63458,65608,0.9,0 S,1,63458,65608,0.25,0.5
Sprite,Background,Centre,"sb\ring.png",0,0 M,0,63683,,570,334 C,0,63683,,255,255,255 F,1,63683,65683,0.9,0 S,1,63683,65683,0.25,0.5
Sprite,Background,Centre,"sb\ring.png",0,0 M,0,63758,,576,319 C,0,63758,,255,255,255 F,1,63758,65983,0.9,0 S,1,63758,65983,0.25,0.5
Sprite,Background,Centre,"sb\ring.png",0,0 M,0,64058,,456,415 C,0,64058,,255,255,255 F,1,64058,66058,0.9,0 S,1,64058,66058,0.25,0.5
Sprite,Background,Centre,"sb\ring.png",0,0 M,0,64208,,527,392 C,0,64208,,255,255,255 F,1,64208,66283,0.9,0 S,1,64208,66283,0.25,0.5
Sprite,Background,Centre,"sb\ring.png",0,0 M,0,64358,,375,344 C,0,64358,,255,255,255 F,1,64358,66433,0.9,0 S,1,64358,66433,0.25,0.5
Sprite,Background,Centre,"sb\ring.png",0,0 M,0,64508,,496,140 C,0,64508,,255,255,255 F,1,64508,66658,0.9,0 S,1,64508,66658,0.25,0.5
Sprite,Background,Centre,"sb\ring.png",0,0 M,0,64733,,494,293 C,0,64733,,255,255,255 F,1,64733,66733,0.9,0 S,1,64733,66733,0.25,0.5
Sprite,Background,Centre,"sb\ring.png",0,0 M,0,64808,,494,293 C,0,64808,,255,255,255 F,1,64808,66808,0.9,0 S,1,64808,66808,0.25,0.5
Sprite,Background,Centre,"sb\ring.png",0,0 M,0,64958,,360,71 C,0,64958,,255,255,255 F,1,64958,66958,0.9,0 S,1,64958,66958,0.25,0.5
Sprite,Background,Centre,"sb\ring.png",0,0 M,0,65108,,204,254 C,0,65108,,255,255,255 F,1,65108,67333,0.9,0 S,1,65108,67333,0.25,0.5
Sprite,Background,Centre,"sb\ring.png",0,0 M,0,65408,,206,141 C,0,65408,,255,255,255 F,1,65408,67408,0.9,0 S,1,65408,67408,0.25,0.5
Sprite,Background,Centre,"sb\ring.png",0,0 M,0,65558,,248,383 C,0,65558,,255,255,255 F,1,65558,67558,0.9,0 S,1,65558,67558,0.25,0.5
Sprite,Background,Centre,"sb\ring.png",0,0 M,0,65708,,128,201 C,0,65708,,255,255,255 F,1,65708,67708,0.9,0 S,1,65708,67708,0.25,0.5
Sprite,Background,Centre,"sb\ring.png",0,0 M,0,65858,,269,261 C,0,65858,,255,255,255 F,1,65858,67958,0.9,0 S,1,65858,67958,0.25,0.5
Sprite,Background,Centre,"sb\ring.png",0,0 M,0,66058,,330,323 C,0,66058,,255,255,255 F,1,66058,68158,0.9,0 S,1,66058,68158,0.25,0.5
Sprite,Background,Centre,"sb\ring.png",0,0 M,0,66258,,353,246 C,0,66258,,255,255,255 F,1,66258,68358,0.9,0 S,1,66258,68358,0.25,0.5
Sprite,Background,Centre,"sb\ring.png",0,0 M,0,66458,,212,324 C,0,66458,,255,255,255 F,1,66458,68558,0.9,0 S,1,66458,68558,0.25,0.5
Sprite,Background,Centre,"sb\ring.png",0,0 M,0,66658,,414,347 C,0,66658,,255,255,255 F,1,66658,68758,0.9,0 S,1,66658,68758,0.25,0.5
Sprite,Background,Centre,"sb\ring.png",0,0 M,0,66858,,315,169 C,0,66858,,255,255,255 F,1,66858,68958,0.9,0 S,1,66858,68958,0.25,0.5
Sprite,Background,Centre,"sb\ring.png",0,0 M,0,67058,,275,377 C,0,67058,,255,255,255 F,1,67058,69058,0.9,0 S,1,67058,69058,0.25,0.5
Sprite,Background,Centre,"sb\ring.png",0,0 M,0,67208,,488,252 C,0,67208,,255,255,255 F,1,67208,69358,0.9,0 S,1,67208,69358,0.25,0.5
Sprite,Background,Centre,"sb\ring.png",0,0 M,0,67508,,224,164 C,0,67508,,255,255,255 F,1,67508,69508,0.9,0 S,1,67508,69508,0.25,0.5
Sprite,Background,Centre,"sb\ring.png",0,0 M,0,67658,,456,64 C,0,67658,,255,255,255 F,1,67658,69658,0.9,0 S,1,67658,69658,0.25,0.5
Sprite,Background,Centre,"sb\ring.png",0,0 M,0,67808,,315,169 C,0,67808,,255,255,255 F,1,67808,70108,0.9,0 S,1,67808,70108,0.25,0.5
Sprite,Background,Centre,"sb\ring.png",0,0 M,0,68183,,320,248 C,0,68183,,255,255,255 F,1,68183,72358,0.9,0 S,1,68183,72358,0.25,0.5
Sprite,Background,Centre,"sb\ring.png",0,0 M,0,121058,,88,275 C,0,121058,,255,255,255 F,1,121058,123283,0.9,0 S,1,121058,123283,0.25,0.5
Sprite,Background,Centre,"sb\ring.png",0,0 M,0,121358,,441,230 C,0,121358,,255,255,255 F,1,121358,123358,0.9,0 S,1,121358,123358,0.25,0.5
Sprite,Background,Centre,"sb\ring.png",0,0 M,0,121508,,409,394 C,0,121508,,255,255,255 F,1,121508,123508,0.9,0 S,1,121508,123508,0.25,0.5
Sprite,Background,Centre,"sb\ring.png",0,0 M,0,121583,,379,361 C,0,121583,,255,255,255 F,1,121583,123583,0.9,0 S,1,121583,123583,0.25,0.5
Sprite,Background,Centre,"sb\ring.png",0,0 M,0,121658,,376,317 C,0,121658,,255,255,255 F,1,121658,123658,0.9,0 S,1,121658,123658,0.25,0.5
Sprite,Background,Centre,"sb\ring.png",0,0 M,0,121808,,540,309 C,0,121808,,255,255,255 F,1,121808,123883,0.9,0 S,1,121808,123883,0.25,0.5
Sprite,Background,Centre,"sb\ring.png",0,0 M,0,121958,,302,165 C,0,121958,,255,255,255 F,1,121958,123958,0.9,0 S,1,121958,123958,0.25,0.5
Sprite,Background,Centre,"sb\ring.png",0,0 M,0,122108,,375,176 C,0,122108,,255,255,255 F,1,122108,124333,0.9,0 S,1,122108,124333,0.25,0.5
Sprite,Background,Centre,"sb\ring.png",0,0 M,0,122408,,288,286 C,0,122408,,255,255,255 F,1,122408,124408,0.9,0 S,1,122408,124408,0.25,0.5
Sprite,Background,Centre,"sb\ring.png",0,0 M,0,122558,,228,123 C,0,122558,,255,255,255 F,1,122558,124558,0.9,0 S,1,122558,124558,0.25,0.5
Sprite,Background,Centre,"sb\ring.png",0,0 M,0,122708,,347,61 C,0,122708,,255,255,255 F,1,122708,124783,0.9,0 S,1,122708,124783,0.25,0.5
Sprite,Background,Centre,"sb\ring.png",0,0 M,0,122858,,302,165 C,0,122858,,255,255,255 F,1,122858,124858,0.9,0 S,1,122858,124858,0.25,0.5
Sprite,Background,Centre,"sb\ring.png",0,0 M,0,123008,,427,119 C,0,123008,,255,255,255 F,1,123008,125008,0.9,0 S,1,123008,125008,0.25,0.5
Sprite,Background,Centre,"sb\ring.png",0,0 M,0,123158,,510,245 C,0,123158,,255,255,255 F,1,123158,125158,0.9,0 S,1,123158,125158,0.25,0.5
Sprite,Background,Centre,"sb\ring.png",0,0 M,0,123308,,411,344 C,0,123308,,255,255,255 F,1,123308,125308,0.9,0 S,1,123308,125308,0.25,0.5
Sprite,Background,Centre,"sb\ring.png",0,0 M,0,123458,,288,286 C,0,123458,,255,255,255 F,1,123458,126058,0.9,0 S,1,123458,126058,0.25,0.5
Sprite,Background,Centre,"sb\ring.png",0,0 M,0,124208,,265,357 C,0,124208,,255,255,255 F,1,124208,126208,0.9,0 S,1,124208,126208,0.25,0.5
Sprite,Background,Centre,"sb\ring.png",0,0 M,0,124358,,381,217 C,0,124358,,255,255,255 F,1,124358,126358,0.9,0 S,1,124358,126358,0.25,0.5
Sprite,Background,Centre,"sb\ring.png",0,0 M,0,124508,,353,148 C,0,124508,,255,255,255 F,1,124508,126508,0.9,0 S,1,124508,126508,0.25,0.5
Sprite,Background,Centre,"sb\ring.png",0,0 M,0,124658,,433,60 C,0,124658,,255,255,255 F,1,124658,126808,0.9,0 S,1,124658,126808,0.25,0.5
Sprite,Background,Centre,"sb\ring.png",0,0 M,0,124958,,292,194 C,0,124958,,255,255,255 F,1,124958,127108,0.9,0 S,1,124958,127108,0.25,0.5
Sprite,Background,Centre,"sb\ring.png",0,0 M,0,125258,,486,370 C,0,125258,,255,255,255 F,1,125258,127258,0.9,0 S,1,125258,127258,0.25,0.5
Sprite,Background,Centre,"sb\ring.png",0,0 M,0,125408,,467,293 C,0,125408,,255,255,255 F,1,125408,127408,0.9,0 S,1,125408,127408,0.25,0.5
Sprite,Background,Centre,"sb\ring.png",0,0 M,0,125558,,546,280 C,0,125558,,255,255,255 F,1,125558,127783,0.9,0 S,1,125558,127783,0.25,0.5
Sprite,Background,Centre,"sb\ring.png",0,0 M,0,125858,,287,285 C,0,125858,,255,255,255 F,1,125858,128083,0.9,0 S,1,125858,128083,0.25,0.5
Sprite,Background,Centre,"sb\ring.png",0,0 M,0,126158,,352,328 C,0,126158,,255,255,255 F,1,126158,128158,0.9,0 S,1,126158,128158,0.25,0.5
Sprite,Background,Centre,"sb\ring.png",0,0 M,0,126308,,205,315 C,0,126308,,255,255,255 F,1,126308,128533,0.9,0 S,1,126308,128533,0.25,0.5
Sprite,Background,Centre,"sb\ring.png",0,0 M,0,126608,,148,226 C,0,126608,,255,255,255 F,1,126608,128608,0.9,0 S,1,126608,128608,0.25,0.5
Sprite,Background,Centre,"sb\ring.png",0,0 M,0,126758,,381,95 C,0,126758,,255,255,255 F,1,126758,128758,0.9,0 S,1,126758,128758,0.25,0.5
Sprite,Background,Centre,"sb\ring.png",0,0 M,0,126908,,315,128 C,0,126908,,255,255,255 F,1,126908,129133,0.9,0 S,1,126908,129133,0.25,0.5
Sprite,Background,Centre,"sb\ring.png",0,0 M,0,127208,,281,199 C,0,127208,,255,255,255 F,1,127208,129208,0.9,0 S,1,127208,129208,0.25,0.5
Sprite,Background,Centre,"sb\ring.png",0,0 M,0,127358,,155,100 C,0,127358,,255,255,255 F,1,127358,129433,0.9,0 S,1,127358,129433,0.25,0.5
Sprite,Background,Centre,"sb\ring.png",0,0 M,0,127508,,337,262 C,0,127508,,255,255,255 F,1,127508,129733,0.9,0 S,1,127508,129733,0.25,0.5
Sprite,Background,Centre,"sb\ring.png",0,0 M,0,127808,,417,372 C,0,127808,,255,255,255 F,1,127808,129808,0.9,0 S,1,127808,129808,0.25,0.5
Sprite,Background,Centre,"sb\ring.png",0,0 M,0,127958,,524,364 C,0,127958,,255,255,255 F,1,127958,130108,0.9,0 S,1,127958,130108,0.25,0.5
Sprite,Background,Centre,"sb\ring.png",0,0 M,0,128258,,203,334 C,0,128258,,255,255,255 F,1,128258,130258,0.9,0 S,1,128258,130258,0.25,0.5
Sprite,Background,Centre,"sb\ring.png",0,0 M,0,128408,,203,334 C,0,128408,,255,255,255 F,1,128408,130408,0.9,0 S,1,128408,130408,0.25,0.5
Sprite,Background,Centre,"sb\ring.png",0,0 M,0,128558,,262,402 C,0,128558,,255,255,255 F,1,128558,130558,0.9,0 S,1,128558,130558,0.25,0.5
Sprite,Background,Centre,"sb\ring.png",0,0 M,0,128708,,288,195 C,0,128708,,255,255,255 F,1,128708,130708,0.9,0 S,1,128708,130708,0.25,0.5
Sprite,Background,Centre,"sb\ring.png",0,0 M,0,128858,,136,238 C,0,128858,,255,255,255 F,1,128858,130858,0.9,0 S,1,128858,130858,0.25,0.5
Sprite,Background,Centre,"sb\ring.png",0,0 M,0,129008,,337,262 C,0,129008,,255,255,255 F,1,129008,131008,0.9,0 S,1,129008,131008,0.25,0.5
Sprite,Background,Centre,"sb\ring.png",0,0 M,0,129158,,362,56 C,0,129158,,255,255,255 F,1,129158,131158,0.9,0 S,1,129158,131158,0.25,0.5
Sprite,Background,Centre,"sb\ring.png",0,0 M,0,129308,,562,104 C,0,129308,,255,255,255 F,1,129308,131533,0.9,0 S,1,129308,131533,0.25,0.5
Sprite,Background,Centre,"sb\ring.png",0,0 M,0,129608,,386,128 C,0,129608,,255,255,255 F,1,129608,131608,0.9,0 S,1,129608,131608,0.25,0.5
Sprite,Background,Centre,"sb\ring.png",0,0 M,0,129758,,217,100 C,0,129758,,255,255,255 F,1,129758,131833,0.9,0 S,1,129758,131833,0.25,0.5
Sprite,Background,Centre,"sb\ring.png",0,0 M,0,129908,,433,302 C,0,129908,,255,255,255 F,1,129908,131983,0.9,0 S,1,129908,131983,0.25,0.5
Sprite,Background,Centre,"sb\ring.png",0,0 M,0,130058,,392,132 C,0,130058,,255,255,255 F,1,130058,132058,0.9,0 S,1,130058,132058,0.25,0.5
Sprite,Background,Centre,"sb\ring.png",0,0 M,0,130133,,399,126 C,0,130133,,255,255,255 F,1,130133,132133,0.9,0 S,1,130133,132133,0.25,0.5
Sprite,Background,Centre,"sb\ring.png",0,0 M,0,130208,,401,117 C,0,130208,,255,255,255 F,1,130208,132208,0.9,0 S,1,130208,132208,0.25,0.5
Sprite,Background,Centre,"sb\ring.png",0,0 M,0,130283,,397,108 C,0,130283,,255,255,255 F,1,130283,132283,0.9,0 S,1,130283,132283,0.25,0.5
Sprite,Background,Centre,"sb\ring.png",0,0 M,0,130358,,389,104 C,0,130358,,255,255,255 F,1,130358,132358,0.9,0 S,1,130358,132358,0.25,0.5
Sprite,Background,Centre,"sb\ring.png",0,0 M,0,130433,,380,105 C,0,130433,,255,255,255 F,1,130433,132433,0.9,0 S,1,130433,132433,0.25,0.5
Sprite,Background,Centre,"sb\ring.png",0,0 M,0,130508,,364,120 C,0,130508,,255,255,255 F,1,130508,132583,0.9,0 S,1,130508,132583,0.25,0.5
Sprite,Background,Centre,"sb\ring.png",0,0 M,0,130658,,299,288 C,0,130658,,255,255,255 F,1,130658,132883,0.9,0 S,1,130658,132883,0.25,0.5
Sprite,Background,Centre,"sb\ring.png",0,0 M,0,130958,,264,189 C,0,130958,,255,255,255 F,1,130958,132958,0.9,0 S,1,130958,132958,0.25,0.5
Sprite,Background,Centre,"sb\ring.png",0,0 M,0,131108,,463,323 C,0,131108,,255,255,255 F,1,131108,133258,0.9,0 S,1,131108,133258,0.25,0.5
Sprite,Background,Centre,"sb\ring.png",0,0 M,0,131333,,239,408 C,0,131333,,255,255,255 F,1,131333,133333,0.9,0 S,1,131333,133333,0.25,0.5
Sprite,Background,Centre,"sb\ring.png",0,0 M,0,131408,,252,413 C,0,131408,,255,255,255 F,1,131408,133483,0.9,0 S,1,131408,133483,0.25,0.5
Sprite,Background,Centre,"sb\ring.png",0,0 M,0,131558,,371,249 C,0,131558,,255,255,255 F,1,131558,133633,0.9,0 S,1,131558,133633,0.25,0.5
Sprite,Background,Centre,"sb\ring.png",0,0 M,0,131708,,96,126 C,0,131708,,255,255,255 F,1,131708,133933,0.9,0 S,1,131708,133933,0.25,0.5
Sprite,Background,Centre,"sb\ring.png",0,0 M,0,132008,,163,240 C,0,132008,,255,255,255 F,1,132008,134008,0.9,0 S,1,132008,134008,0.25,0.5
Sprite,Background,Centre,"sb\ring.png",0,0 M,0,132158,,93,228 C,0,132158,,255,255,255 F,1,132158,134158,0.9,0 S,1,132158,134158,0.25,0.5
Sprite,Background,Centre,"sb\ring.png",0,0 M,0,132308,,182,375 C,0,132308,,255,255,255 F,1,132308,134383,0.9,0 S,1,132308,134383,0.25,0.5
Sprite,Background,Centre,"sb\ring.png",0,0 M,0,132458,,344,315 C,0,132458,,255,255,255 F,1,132458,134458,0.9,0 S,1,132458,134458,0.25,0.5
Sprite,Background,Centre,"sb\ring.png",0,0 M,0,132608,,313,244 C,0,132608,,255,255,255 F,1,132608,134758,0.9,0 S,1,132608,134758,0.25,0.5
Sprite,Background,Centre,"sb\ring.png",0,0 M,0,132908,,409,409 C,0,132908,,255,255,255 F,1,132908,134908,0.9,0 S,1,132908,134908,0.25,0.5
Sprite,Background,Centre,"sb\ring.png",0,0 M,0,132983,,407,394 C,0,132983,,255,255,255 F,1,132983,134983,0.9,0 S,1,132983,134983,0.25,0.5
Sprite,Background,Centre,"sb\ring.png",0,0 M,0,133058,,410,379 C,0,133058,,255,255,255 F,1,133058,135283,0.9,0 S,1,133058,135283,0.25,0.5
Sprite,Background,Centre,"sb\ring.png",0,0 M,0,133358,,548,348 C,0,133358,,255,255,255 F,1,133358,135358,0.9,0 S,1,133358,135358,0.25,0.5
Sprite,Background,Centre,"sb\ring.png",0,0 M,0,133508,,406,256 C,0,133508,,255,255,255 F,1,133508,135508,0.9,0 S,1,133508,135508,0.25,0.5
Sprite,Background,Centre,"sb\ring.png",0,0 M,0,133658,,476,233 C,0,133658,,255,255,255 F,1,133658,135808,0.9,0 S,1,133658,135808,0.25,0.5
Sprite,Background,Centre,"sb\ring.png",0,0 M,0,133958,,223,124 C,0,133958,,255,255,255 F,1,133958,135958,0.9,0 S,1,133958,135958,0.25,0.5
Sprite,Background,Centre,"sb\ring.png",0,0 M,0,134108,,291,82 C,0,134108,,255,255,255 F,1,134108,136333,0.9,0 S,1,134108,136333,0.25,0.5
Sprite,Background,Centre,"sb\ring.png",0,0 M,0,134408,,283,221 C,0,134408,,255,255,255 F,1,134408,136408,0.9,0 S,1,134408,136408,0.25,0.5
Sprite,Background,Centre,"sb\ring.png",0,0 M,0,134558,,106,279 C,0,134558,,255,255,255 F,1,134558,136558,0.9,0 S,1,134558,136558,0.25,0.5
Sprite,Background,Centre,"sb\ring.png",0,0 M,0,134708,,217,434 C,0,134708,,255,255,255 F,1,134708,136933,0.9,0 S,1,134708,136933,0.25,0.5
Sprite,Background,Centre,"sb\ring.png",0,0 M,0,135008,,159,332 C,0,135008,,255,255,255 F,1,135008,137008,0.9,0 S,1,135008,137008,0.25,0.5
Sprite,Background,Centre,"sb\ring.png",0,0 M,0,135158,,376,270 C,0,135158,,255,255,255 F,1,135158,137158,0.9,0 S,1,135158,137158,0.25,0.5
Sprite,Background,Centre,"sb\ring.png",0,0 M,0,135308,,500,431 C,0,135308,,255,255,255 F,1,135308,137308,0.9,0 S,1,135308,137308,0.25,0.5
Sprite,Background,Centre,"sb\ring.png",0,0 M,0,135458,,510,213 C,0,135458,,255,255,255 F,1,135458,137658,0.9,0 S,1,135458,137658,0.25,0.5
Sprite,Background,Centre,"sb\ring.png",0,0 M,0,135858,,421,332 C,0,135858,,255,255,255 F,1,135858,137858,0.9,0 S,1,135858,137858,0.25,0.5
Sprite,Background,Centre,"sb\ring.png",0,0 M,0,136058,,193,223 C,0,136058,,255,255,255 F,1,136058,138058,0.9,0 S,1,136058,138058,0.25,0.5
Sprite,Background,Centre,"sb\ring.png",0,0 M,0,136258,,395,98 C,0,136258,,255,255,255 F,1,136258,138258,0.9,0 S,1,136258,138258,0.25,0.5
Sprite,Background,Centre,"sb\ring.png",0,0 M,0,136508,,291,404 C,0,136508,,255,255,255 F,1,136508,138583,0.9,0 S,1,136508,138583,0.25,0.5
Sprite,Background,Centre,"sb\ring.png",0,0 M,0,136808,,300,330 C,0,136808,,255,255,255 F,1,136808,138883,0.9,0 S,1,136808,138883,0.25,0.5
Sprite,Background,Centre,"sb\ring.png",0,0 M,0,136958,,217,293 C,0,136958,,255,255,255 F,1,136958,139033,0.9,0 S,1,136958,139033,0.25,0.5
Sprite,Background,Centre,"sb\ring.png",0,0 M,0,137108,,357,214 C,0,137108,,255,255,255 F,1,137108,139333,0.9,0 S,1,137108,139333,0.25,0.5
Sprite,Background,Centre,"sb\ring.png",0,0 M,0,137408,,576,142 C,0,137408,,255,255,255 F,1,137408,139558,0.9,0 S,1,137408,139558,0.25,0.5
Sprite,Background,Centre,"sb\ring.png",0,0 M,0,137633,,420,399 C,0,137633,,255,255,255 F,1,137633,139633,0.9,0 S,1,137633,139633,0.25,0.5
Sprite,Background,Centre,"sb\ring.png",0,0 M,0,137708,,432,398 C,0,137708,,255,255,255 F,1,137708,139783,0.9,0 S,1,137708,139783,0.25,0.5
Sprite,Background,Centre,"sb\ring.png",0,0 M,0,137858,,354,314 C,0,137858,,255,255,255 F,1,137858,139858,0.9,0 S,1,137858,139858,0.25,0.5
Sprite,Background,Centre,"sb\ring.png",0,0 M,0,138008,,512,440 C,0,138008,,255,255,255 F,1,138008,140008,0.9,0 S,1,138008,140008,0.25,0.5
Sprite,Background,Centre,"sb\ring.png",0,0 M,0,138158,,553,375 C,0,138158,,255,255,255 F,1,138158,140158,0.9,0 S,1,138158,140158,0.25,0.5
Sprite,Background,Centre,"sb\ring.png",0,0 M,0,138308,,271,344 C,0,138308,,255,255,255 F,1,138308,140308,0.9,0 S,1,138308,140308,0.25,0.5
Sprite,Background,Centre,"sb\ring.png",0,0 M,0,138458,,307,424 C,0,138458,,255,255,255 F,1,138458,140458,0.9,0 S,1,138458,140458,0.25,0.5
Sprite,Background,Centre,"sb\ring.png",0,0 M,0,138608,,379,228 C,0,138608,,255,255,255 F,1,138608,140608,0.9,0 S,1,138608,140608,0.25,0.5
Sprite,Background,Centre,"sb\ring.png",0,0 M,0,138758,,172,360 C,0,138758,,255,255,255 F,1,138758,140758,0.9,0 S,1,138758,140758,0.25,0.5
Sprite,Background,Centre,"sb\ring.png",0,0 M,0,138908,,64,156 C,0,138908,,255,255,255 F,1,138908,140908,0.9,0 S,1,138908,140908,0.25,0.5
Sprite,Background,Centre,"sb\ring.png",0,0 M,0,139058,,137,215 C,0,139058,,255,255,255 F,1,139058,141282,0.9,0 S,1,139058,141282,0.25,0.5
Sprite,Background,Centre,"sb\ring.png",0,0 M,0,139358,,311,171 C,0,139358,,255,255,255 F,1,139358,141358,0.9,0 S,1,139358,141358,0.25,0.5
Sprite,Background,Centre,"sb\ring.png",0,0 M,0,139508,,173,92 C,0,139508,,255,255,255 F,1,139508,141508,0.9,0 S,1,139508,141508,0.25,0.5
Sprite,Background,Centre,"sb\ring.png",0,0 M,0,139583,,172,101 C,0,139583,,255,255,255 F,1,139583,141583,0.9,0 S,1,139583,141583,0.25,0.5
Sprite,Background,Centre,"sb\ring.png",0,0 M,0,139658,,170,111 C,0,139658,,255,255,255 F,1,139658,141658,0.9,0 S,1,139658,141658,0.25,0.5
Sprite,Background,Centre,"sb\ring.png",0,0 M,0,139808,,353,320 C,0,139808,,255,255,255 F,1,139808,141808,0.9,0 S,1,139808,141808,0.25,0.5
Sprite,Background,Centre,"sb\ring.png",0,0 M,0,139958,,276,387 C,0,139958,,255,255,255 F,1,139958,142033,0.9,0 S,1,139958,142033,0.25,0.5
Sprite,Background,Centre,"sb\ring.png",0,0 M,0,140108,,408,225 C,0,140108,,255,255,255 F,1,140108,142183,0.9,0 S,1,140108,142183,0.25,0.5
Sprite,Background,Centre,"sb\ring.png",0,0 M,0,140258,,479,307 C,0,140258,,255,255,255 F,1,140258,142258,0.9,0 S,1,140258,142258,0.25,0.5
Sprite,Background,Centre,"sb\ring.png",0,0 M,0,140408,,336,249 C,0,140408,,255,255,255 F,1,140408,142408,0.9,0 S,1,140408,142408,0.25,0.5
Sprite,Background,Centre,"sb\ring.png",0,0 M,0,140558,,353,320 C,0,140558,,255,255,255 F,1,140558,142558,0.9,0 S,1,140558,142558,0.25,0.5
Sprite,Background,Centre,"sb\ring.png",0,0 M,0,140708,,576,148 C,0,140708,,255,255,255 F,1,140708,142708,0.9,0 S,1,140708,142708,0.25,0.5
Sprite,Background,Centre,"sb\ring.png",0,0 M,0,140858,,565,228 C,0,140858,,255,255,255 F,1,140858,142858,0.9,0 S,1,140858,142858,0.25,0.5
Sprite,Background,Centre,"sb\ring.png",0,0 M,0,141008,,440,78 C,0,141008,,255,255,255 F,1,141008,143008,0.9,0 S,1,141008,143008,0.25,0.5
Sprite,Background,Centre,"sb\ring.png",0,0 M,0,141158,,228,159 C,0,141158,,255,255,255 F,1,141158,143158,0.9,0 S,1,141158,143158,0.25,0.5
Sprite,Background,Centre,"sb\ring.png",0,0 M,0,141308,,421,147 C,0,141308,,255,255,255 F,1,141308,143533,0.9,0 S,1,141308,143533,0.25,0.5
Sprite,Background,Centre,"sb\ring.png",0,0 M,0,141608,,314,111 C,0,141608,,255,255,255 F,1,141608,143608,0.9,0 S,1,141608,143608,0.25,0.5
Sprite,Background,Centre,"sb\ring.png",0,0 M,0,141758,,137,169 C,0,141758,,255,255,255 F,1,141758,143758,0.9,0 S,1,141758,143758,0.25,0.5
Sprite,Background,Centre,"sb\ring.png",0,0 M,0,141833,,141,161 C,0,141833,,255,255,255 F,1,141833,143833,0.9,0 S,1,141833,143833,0.25,0.5
Sprite,Background,Centre,"sb\ring.png",0,0 M,0,141908,,145,153 C,0,141908,,255,255,255 F,1,141908,143983,0.9,0 S,1,141908,143983,0.25,0.5
Sprite,Background,Centre,"sb\ring.png",0,0 M,0,142058,,225,69 C,0,142058,,255,255,255 F,1,142058,144282,0.9,0 S,1,142058,144282,0.25,0.5
Sprite,Background,Centre,"sb\ring.png",0,0 M,0,142358,,360,203 C,0,142358,,255,255,255 F,1,142358,144583,0.9,0 S,1,142358,144583,0.25,0.5
Sprite,Background,Centre,"sb\ring.png",0,0 M,0,142658,,296,283 C,0,142658,,255,255,255 F,1,142658,144658,0.9,0 S,1,142658,144658,0.25,0.5
Sprite,Background,Centre,"sb\ring.png",0,0 M,0,142808,,526,424 C,0,142808,,255,255,255 F,1,142808,144808,0.9,0 S,1,142808,144808,0.25,0.5
Sprite,Background,Centre,"sb\ring.png",0,0 M,0,142958,,574,358 C,0,142958,,255,255,255 F,1,142958,145108,0.9,0 S,1,142958,145108,0.25,0.5
Sprite,Background,Centre,"sb\ring.png",0,0 M,0,143258,,282,362 C,0,143258,,255,255,255 F,1,143258,145258,0.9,0 S,1,143258,145258,0.25,0.5
Sprite,Background,Centre,"sb\ring.png",0,0 M,0,143408,,348,410 C,0,143408,,255,255,255 F,1,143408,145558,0.9,0 S,1,143408,145558,0.25,0.5
Sprite,Background,Centre,"sb\ring.png",0,0 M,0,143708,,446,395 C,0,143708,,255,255,255 F,1,143708,145708,0.9,0 S,1,143708,145708,0.25,0.5
Sprite,Background,Centre,"sb\ring.png",0,0 M,0,143858,,222,315 C,0,143858,,255,255,255 F,1,143858,145858,0.9,0 S,1,143858,145858,0.25,0.5
Sprite,Background,Centre,"sb\ring.png",0,0 M,0,144008,,144,346 C,0,144008,,255,255,255 F,1,144008,146158,0.9,0 S,1,144008,146158,0.25,0.5
Sprite,Background,Centre,"sb\ring.png",0,0 M,0,144308,,355,108 C,0,144308,,255,255,255 F,1,144308,146308,0.9,0 S,1,144308,146308,0.25,0.5
Sprite,Background,Centre,"sb\ring.png",0,0 M,0,144458,,279,95 C,0,144458,,255,255,255 F,1,144458,146458,0.9,0 S,1,144458,146458,0.25,0.5
Sprite,Background,Centre,"sb\ring.png",0,0 M,0,144608,,306,286 C,0,144608,,255,255,255 F,1,144608,146608,0.9,0 S,1,144608,146608,0.25,0.5
Sprite,Background,Centre,"sb\ring.png",0,0 M,0,144758,,510,258 C,0,144758,,255,255,255 F,1,144758,146758,0.9,0 S,1,144758,146758,0.25,0.5
Sprite,Background,Centre,"sb\ring.png",0,0 M,0,144908,,483,67 C,0,144908,,255,255,255 F,1,144908,146908,0.9,0 S,1,144908,146908,0.25,0.5
Sprite,Background,Centre,"sb\ring.png",0,0 M,0,145058,,243,229 C,0,145058,,255,255,255 F,1,145058,147058,0.9,0 S,1,145058,147058,0.25,0.5
Sprite,Background,Centre,"sb\ring.png",0,0 M,0,145208,,412,340 C,0,145208,,255,255,255 F,1,145208,147358,0.9,0 S,1,145208,147358,0.25,0.5
Sprite,Background,Centre,"sb\ring.png",0,0 M,0,145508,,483,175 C,0,145508,,255,255,255 F,1,145508,147508,0.9,0 S,1,145508,147508,0.25,0.5
Sprite,Background,Centre,"sb\ring.png",0,0 M,0,145658,,365,414 C,0,145658,,255,255,255 F,1,145658,147658,0.9,0 S,1,145658,147658,0.25,0.5
Sprite,Background,Centre,"sb\ring.png",0,0 M,0,145808,,301,362 C,0,145808,,255,255,255 F,1,145808,147958,0.9,0 S,1,145808,147958,0.25,0.5
Sprite,Background,Centre,"sb\ring.png",0,0 M,0,146108,,80,436 C,0,146108,,255,255,255 F,1,146108,148108,0.9,0 S,1,146108,148108,0.25,0.5
Sprite,Background,Centre,"sb\ring.png",0,0 M,0,146258,,180,323 C,0,146258,,255,255,255 F,1,146258,148483,0.9,0 S,1,146258,148483,0.25,0.5
Sprite,Background,Centre,"sb\ring.png",0,0 M,0,146558,,465,416 C,0,146558,,255,255,255 F,1,146558,148558,0.9,0 S,1,146558,148558,0.25,0.5
Sprite,Background,Centre,"sb\ring.png",0,0 M,0,146708,,345,210 C,0,146708,,255,255,255 F,1,146708,148783,0.9,0 S,1,146708,148783,0.25,0.5
Sprite,Background,Centre,"sb\ring.png",0,0 M,0,146858,,292,440 C,0,146858,,255,255,255 F,1,146858,148858,0.9,0 S,1,146858,148858,0.25,0.5
Sprite,Background,Centre,"sb\ring.png",0,0 M,0,147008,,109,294 C,0,147008,,255,255,255 F,1,147008,149008,0.9,0 S,1,147008,149008,0.25,0.5
Sprite,Background,Centre,"sb\ring.png",0,0 M,0,147158,,281,116 C,0,147158,,255,255,255 F,1,147158,149158,0.9,0 S,1,147158,149158,0.25,0.5
Sprite,Background,Centre,"sb\ring.png",0,0 M,0,147308,,464,262 C,0,147308,,255,255,255 F,1,147308,149308,0.9,0 S,1,147308,149308,0.25,0.5
Sprite,Background,Centre,"sb\ring.png",0,0 M,0,147458,,504,188 C,0,147458,,255,255,255 F,1,147458,149458,0.9,0 S,1,147458,149458,0.25,0.5
Sprite,Background,Centre,"sb\ring.png",0,0 M,0,147608,,501,182 C,0,147608,,255,255,255 F,1,147608,149608,0.9,0 S,1,147608,149608,0.25,0.5
Sprite,Background,Centre,"sb\ring.png",0,0 M,0,147758,,385,290 C,0,147758,,255,255,255 F,1,147758,149833,0.9,0 S,1,147758,149833,0.25,0.5
Sprite,Background,Centre,"sb\ring.png",0,0 M,0,147908,,380,344 C,0,147908,,255,255,255 F,1,147908,149983,0.9,0 S,1,147908,149983,0.25,0.5
Sprite,Background,Centre,"sb\ring.png",0,0 M,0,148058,,551,434 C,0,148058,,255,255,255 F,1,148058,150058,0.9,0 S,1,148058,150058,0.25,0.5
Sprite,Background,Centre,"sb\ring.png",0,0 M,0,148208,,573,354 C,0,148208,,255,255,255 F,1,148208,150208,0.9,0 S,1,148208,150208,0.25,0.5
Sprite,Background,Centre,"sb\ring.png",0,0 M,0,148358,,276,240 C,0,148358,,255,255,255 F,1,148358,150358,0.9,0 S,1,148358,150358,0.25,0.5
Sprite,Background,Centre,"sb\ring.png",0,0 M,0,148508,,302,316 C,0,148508,,255,255,255 F,1,148508,150508,0.9,0 S,1,148508,150508,0.25,0.5
Sprite,Background,Centre,"sb\ring.png",0,0 M,0,148658,,466,111 C,0,148658,,255,255,255 F,1,148658,150658,0.9,0 S,1,148658,150658,0.25,0.5
Sprite,Background,Centre,"sb\ring.png",0,0 M,0,148808,,407,158 C,0,148808,,255,255,255 F,1,148808,150958,0.9,0 S,1,148808,150958,0.25,0.5
Sprite,Background,Centre,"sb\ring.png",0,0 M,0,149108,,95,195 C,0,149108,,255,255,255 F,1,149108,151333,0.9,0 S,1,149108,151333,0.25,0.5
Sprite,Background,Centre,"sb\ring.png",0,0 M,0,149408,,156,175 C,0,149408,,255,255,255 F,1,149408,151633,0.9,0 S,1,149408,151633,0.25,0.5
Sprite,Background,Centre,"sb\ring.png",0,0 M,0,149708,,184,354 C,0,149708,,255,255,255 F,1,149708,151783,0.9,0 S,1,149708,151783,0.25,0.5
Sprite,Background,Centre,"sb\ring.png",0,0 M,0,149858,,126,261 C,0,149858,,255,255,255 F,1,149858,151858,0.9,0 S,1,149858,151858,0.25,0.5
Sprite,Background,Centre,"sb\ring.png",0,0 M,0,150008,,118,263 C,0,150008,,255,255,255 F,1,150008,152008,0.9,0 S,1,150008,152008,0.25,0.5
Sprite,Background,Centre,"sb\ring.png",0,0 M,0,150158,,253,403 C,0,150158,,255,255,255 F,1,150158,152233,0.9,0 S,1,150158,152233,0.25,0.5
Sprite,Background,Centre,"sb\ring.png",0,0 M,0,150308,,307,398 C,0,150308,,255,255,255 F,1,150308,152383,0.9,0 S,1,150308,152383,0.25,0.5
Sprite,Background,Centre,"sb\ring.png",0,0 M,0,150458,,117,425 C,0,150458,,255,255,255 F,1,150458,152458,0.9,0 S,1,150458,152458,0.25,0.5
Sprite,Background,Centre,"sb\ring.png",0,0 M,0,150608,,93,354 C,0,150608,,255,255,255 F,1,150608,152608,0.9,0 S,1,150608,152608,0.25,0.5
Sprite,Background,Centre,"sb\ring.png",0,0 M,0,150758,,289,248 C,0,150758,,255,255,255 F,1,150758,152758,0.9,0 S,1,150758,152758,0.25,0.5
Sprite,Background,Centre,"sb\ring.png",0,0 M,0,150908,,313,177 C,0,150908,,255,255,255 F,1,150908,152908,0.9,0 S,1,150908,152908,0.25,0.5
Sprite,Background,Centre,"sb\ring.png",0,0 M,0,151058,,109,80 C,0,151058,,255,255,255 F,1,151058,153058,0.9,0 S,1,151058,153058,0.25,0.5
Sprite,Background,Centre,"sb\ring.png",0,0 M,0,151208,,170,128 C,0,151208,,255,255,255 F,1,151208,153283,0.9,0 S,1,151208,153283,0.25,0.5
Sprite,Background,Centre,"sb\ring.png",0,0 M,0,151508,,545,89 C,0,151508,,255,255,255 F,1,151508,153733,0.9,0 S,1,151508,153733,0.25,0.5
Sprite,Background,Centre,"sb\ring.png",0,0 M,0,151808,,458,246 C,0,151808,,255,255,255 F,1,151808,153808,0.9,0 S,1,151808,153808,0.25,0.5
Sprite,Background,Centre,"sb\ring.png",0,0 M,0,151958,,574,392 C,0,151958,,255,255,255 F,1,151958,153958,0.9,0 S,1,151958,153958,0.25,0.5
Sprite,Background,Centre,"sb\ring.png",0,0 M,0,152033,,574,386 C,0,152033,,255,255,255 F,1,152033,154033,0.9,0 S,1,152033,154033,0.25,0.5
Sprite,Background,Centre,"sb\ring.png",0,0 M,0,152108,,575,381 C,0,152108,,255,255,255 F,1,152108,154108,0.9,0 S,1,152108,154108,0.25,0.5
Sprite,Background,Centre,"sb\ring.png",0,0 M,0,152183,,575,376 C,0,152183,,255,255,255 F,1,152183,154183,0.9,0 S,1,152183,154183,0.25,0.5
Sprite,Background,Centre,"sb\ring.png",0,0 M,0,152258,,576,372 C,0,152258,,255,255,255 F,1,152258,154358,0.9,0 S,1,152258,154358,0.25,0.5
Sprite,Background,Centre,"sb\ring.png",0,0 M,0,152458,,433,161 C,0,152458,,255,255,255 F,1,152458,154558,0.9,0 S,1,152458,154558,0.25,0.5
Sprite,Background,Centre,"sb\ring.png",0,0 M,0,152658,,342,285 C,0,152658,,255,255,255 F,1,152658,154658,0.9,0 S,1,152658,154658,0.25,0.5
Sprite,Background,Centre,"sb\ring.png",0,0 M,0,152758,,344,294 C,0,152758,,255,255,255 F,1,152758,154758,0.9,0 S,1,152758,154758,0.25,0.5
Sprite,Background,Centre,"sb\ring.png",0,0 M,0,152858,,318,215 C,0,152858,,255,255,255 F,1,152858,154958,0.9,0 S,1,152858,154958,0.25,0.5
Sprite,Background,Centre,"sb\ring.png",0,0 M,0,153058,,207,339 C,0,153058,,255,255,255 F,1,153058,155158,0.9,0 S,1,153058,155158,0.25,0.5
Sprite,Background,Centre,"sb\ring.png",0,0 M,0,153258,,92,147 C,0,153258,,255,255,255 F,1,153258,155258,0.9,0 S,1,153258,155258,0.25,0.5
Sprite,Background,Centre,"sb\ring.png",0,0 M,0,153358,,100,145 C,0,153358,,255,255,255 F,1,153358,155358,0.9,0 S,1,153358,155358,0.25,0.5
Sprite,Background,Centre,"sb\ring.png",0,0 M,0,153458,,163,191 C,0,153458,,255,255,255 F,1,153458,155458,0.9,0 S,1,153458,155458,0.25,0.5
Sprite,Background,Centre,"sb\ring.png",0,0 M,0,153608,,65,339 C,0,153608,,255,255,255 F,1,153608,155758,0.9,0 S,1,153608,155758,0.25,0.5
Sprite,Background,Centre,"sb\ring.png",0,0 M,0,153908,,233,164 C,0,153908,,255,255,255 F,1,153908,155908,0.9,0 S,1,153908,155908,0.25,0.5
Sprite,Background,Centre,"sb\ring.png",0,0 M,0,153983,,239,166 C,0,153983,,255,255,255 F,1,153983,155983,0.9,0 S,1,153983,155983,0.25,0.5
Sprite,Background,Centre,"sb\ring.png",0,0 M,0,154058,,244,168 C,0,154058,,255,255,255 F,1,154058,156133,0.9,0 S,1,154058,156133,0.25,0.5
Sprite,Background,Centre,"sb\ring.png",0,0 M,0,154208,,115,274 C,0,154208,,255,255,255 F,1,154208,156208,0.9,0 S,1,154208,156208,0.25,0.5
Sprite,Background,Centre,"sb\ring.png",0,0 M,0,154283,,109,276 C,0,154283,,255,255,255 F,1,154283,156283,0.9,0 S,1,154283,156283,0.25,0.5
Sprite,Background,Centre,"sb\ring.png",0,0 M,0,154358,,104,278 C,0,154358,,255,255,255 F,1,154358,156433,0.9,0 S,1,154358,156433,0.25,0.5
Sprite,Background,Centre,"sb\ring.png",0,0 M,0,154508,,271,378 C,0,154508,,255,255,255 F,1,154508,156508,0.9,0 S,1,154508,156508,0.25,0.5
Sprite,Background,Centre,"sb\ring.png",0,0 M,0,154658,,269,386 C,0,154658,,255,255,255 F,1,154658,156658,0.9,0 S,1,154658,156658,0.25,0.5
Sprite,Background,Centre,"sb\ring.png",0,0 M,0,154808,,396,300 C,0,154808,,255,255,255 F,1,154808,156957,0.9,0 S,1,154808,156957,0.25,0.5
Sprite,Background,Centre,"sb\ring.png",0,0 M,0,155108,,217,285 C,0,155108,,255,255,255 F,1,155108,157108,0.9,0 S,1,155108,157108,0.25,0.5
Sprite,Background,Centre,"sb\ring.png",0,0 M,0,155258,,338,440 C,0,155258,,255,255,255 F,1,155258,157557,0.9,0 S,1,155258,157557,0.25,0.5
Sprite,Background,Centre,"sb\ring.png",0,0 M,0,155708,,420,372 C,0,155708,,255,255,255 F,1,155708,157708,0.9,0 S,1,155708,157708,0.25,0.5
Sprite,Background,Centre,"sb\ring.png",0,0 M,0,155858,,203,217 C,0,155858,,255,255,255 F,1,155858,158158,0.9,0 S,1,155858,158158,0.25,0.5
Sprite,Background,Centre,"sb\ring.png",0,0 M,0,156308,,459,200 C,0,156308,,255,255,255 F,1,156308,158308,0.9,0 S,1,156308,158308,0.25,0.5
Sprite,Background,Centre,"sb\ring.png",0,0 M,0,156383,,452,198 C,0,156383,,255,255,255 F,1,156383,158383,0.9,0 S,1,156383,158383,0.25,0.5
Sprite,Background,Centre,"sb\ring.png",0,0 M,0,156458,,445,196 C,0,156458,,255,255,255 F,1,156458,158608,0.9,0 S,1,156458,158608,0.25,0.5
Sprite,Background,Centre,"sb\ring.png",0,0 M,0,156758,,522,95 C,0,156758,,255,255,255 F,1,156758,158758,0.9,0 S,1,156758,158758,0.25,0.5
Sprite,Background,Centre,"sb\ring.png",0,0 M,0,156908,,523,100 C,0,156908,,255,255,255 F,1,156908,158908,0.9,0 S,1,156908,158908,0.25,0.5
Sprite,Background,Centre,"sb\ring.png",0,0 M,0,181058,,228,260 C,0,181058,,255,255,255 F,1,181058,183208,0.9,0 S,1,181058,183208,0.25,0.5
Sprite,Background,Centre,"sb\ring.png",0,0 M,0,181358,,239,359 C,0,181358,,255,255,255 F,1,181358,183358,0.9,0 S,1,181358,183358,0.25,0.5
Sprite,Background,Centre,"sb\ring.png",0,0 M,0,181508,,493,294 C,0,181508,,255,255,255 F,1,181508,183733,0.9,0 S,1,181508,183733,0.25,0.5
Sprite,Background,Centre,"sb\ring.png",0,0 M,0,181808,,320,304 C,0,181808,,255,255,255 F,1,181808,183808,0.9,0 S,1,181808,183808,0.25,0.5
Sprite,Background,Centre,"sb\ring.png",0,0 M,0,181958,,391,217 C,0,181958,,255,255,255 F,1,181958,184032,0.9,0 S,1,181958,184032,0.25,0.5
Sprite,Background,Centre,"sb\ring.png",0,0 M,0,182108,,473,376 C,0,182108,,255,255,255 F,1,182108,184257,0.9,0 S,1,182108,184257,0.25,0.5
Sprite,Background,Centre,"sb\ring.png",0,0 M,0,182408,,530,102 C,0,182408,,255,255,255 F,1,182408,184408,0.9,0 S,1,182408,184408,0.25,0.5
Sprite,Background,Centre,"sb\ring.png",0,0 M,0,182483,,530,102 C,0,182483,,255,255,255 F,1,182483,184483,0.9,0 S,1,182483,184483,0.25,0.5
Sprite,Background,Centre,"sb\ring.png",0,0 M,0,182558,,530,102 C,0,182558,,255,255,255 F,1,182558,184633,0.9,0 S,1,182558,184633,0.25,0.5
Sprite,Background,Centre,"sb\ring.png",0,0 M,0,182708,,335,74 C,0,182708,,255,255,255 F,1,182708,184783,0.9,0 S,1,182708,184783,0.25,0.5
Sprite,Background,Centre,"sb\ring.png",0,0 M,0,182858,,515,198 C,0,182858,,255,255,255 F,1,182858,184858,0.9,0 S,1,182858,184858,0.25,0.5
Sprite,Background,Centre,"sb\ring.png",0,0 M,0,183008,,515,198 C,0,183008,,255,255,255 F,1,183008,185083,0.9,0 S,1,183008,185083,0.25,0.5
Sprite,Background,Centre,"sb\ring.png",0,0 M,0,183158,,383,403 C,0,183158,,255,255,255 F,1,183158,185233,0.9,0 S,1,183158,185233,0.25,0.5
Sprite,Background,Centre,"sb\ring.png",0,0 M,0,183308,,311,215 C,0,183308,,255,255,255 F,1,183308,185382,0.9,0 S,1,183308,185382,0.25,0.5
Sprite,Background,Centre,"sb\ring.png",0,0 M,0,183458,,184,354 C,0,183458,,255,255,255 F,1,183458,185683,0.9,0 S,1,183458,185683,0.25,0.5
Sprite,Background,Centre,"sb\ring.png",0,0 M,0,183758,,71,437 C,0,183758,,255,255,255 F,1,183758,185758,0.9,0 S,1,183758,185758,0.25,0.5
Sprite,Background,Centre,"sb\ring.png",0,0 M,0,183908,,77,170 C,0,183908,,255,255,255 F,1,183908,186132,0.9,0 S,1,183908,186132,0.25,0.5
Sprite,Background,Centre,"sb\ring.png",0,0 M,0,184208,,85,267 C,0,184208,,255,255,255 F,1,184208,186283,0.9,0 S,1,184208,186283,0.25,0.5
Sprite,Background,Centre,"sb\ring.png",0,0 M,0,184358,,260,327 C,0,184358,,255,255,255 F,1,184358,186582,0.9,0 S,1,184358,186582,0.25,0.5
Sprite,Background,Centre,"sb\ring.png",0,0 M,0,184658,,264,166 C,0,184658,,255,255,255 F,1,184658,186658,0.9,0 S,1,184658,186658,0.25,0.5
Sprite,Background,Centre,"sb\ring.png",0,0 M,0,184808,,283,437 C,0,184808,,255,255,255 F,1,184808,186808,0.9,0 S,1,184808,186808,0.25,0.5
Sprite,Background,Centre,"sb\ring.png",0,0 M,0,184883,,283,437 C,0,184883,,255,255,255 F,1,184883,186883,0.9,0 S,1,184883,186883,0.25,0.5
Sprite,Background,Centre,"sb\ring.png",0,0 M,0,184958,,283,437 C,0,184958,,255,255,255 F,1,184958,187032,0.9,0 S,1,184958,187032,0.25,0.5
Sprite,Background,Centre,"sb\ring.png",0,0 M,0,185108,,378,255 C,0,185108,,255,255,255 F,1,185108,187183,0.9,0 S,1,185108,187183,0.25,0.5
Sprite,Background,Centre,"sb\ring.png",0,0 M,0,185258,,534,412 C,0,185258,,255,255,255 F,1,185258,187258,0.9,0 S,1,185258,187258,0.25,0.5
Sprite,Background,Centre,"sb\ring.png",0,0 M,0,185408,,542,204 C,0,185408,,255,255,255 F,1,185408,187483,0.9,0 S,1,185408,187483,0.25,0.5
Sprite,Background,Centre,"sb\ring.png",0,0 M,0,185558,,409,416 C,0,185558,,255,255,255 F,1,185558,187633,0.9,0 S,1,185558,187633,0.25,0.5
Sprite,Background,Centre,"sb\ring.png",0,0 M,0,185708,,537,330 C,0,185708,,255,255,255 F,1,185708,187782,0.9,0 S,1,185708,187782,0.25,0.5
Sprite,Background,Centre,"sb\ring.png",0,0 M,0,185858,,325,424 C,0,185858,,255,255,255 F,1,185858,188083,0.9,0 S,1,185858,188083,0.25,0.5
Sprite,Background,Centre,"sb\ring.png",0,0 M,0,186158,,152,410 C,0,186158,,255,255,255 F,1,186158,188158,0.9,0 S,1,186158,188158,0.25,0.5
Sprite,Background,Centre,"sb\ring.png",0,0 M,0,186308,,74,285 C,0,186308,,255,255,255 F,1,186308,188532,0.9,0 S,1,186308,188532,0.25,0.5
Sprite,Background,Centre,"sb\ring.png",0,0 M,0,186608,,241,314 C,0,186608,,255,255,255 F,1,186608,188608,0.9,0 S,1,186608,188608,0.25,0.5
Sprite,Background,Centre,"sb\ring.png",0,0 M,0,186758,,138,190 C,0,186758,,255,255,255 F,1,186758,188832,0.9,0 S,1,186758,188832,0.25,0.5
Sprite,Background,Centre,"sb\ring.png",0,0 M,0,186908,,313,81 C,0,186908,,255,255,255 F,1,186908,189058,0.9,0 S,1,186908,189058,0.25,0.5
Sprite,Background,Centre,"sb\ring.png",0,0 M,0,187133,,327,261 C,0,187133,,255,255,255 F,1,187133,189133,0.9,0 S,1,187133,189133,0.25,0.5
Sprite,Background,Centre,"sb\ring.png",0,0 M,0,187208,,334,272 C,0,187208,,255,255,255 F,1,187208,189208,0.9,0 S,1,187208,189208,0.25,0.5
Sprite,Background,Centre,"sb\ring.png",0,0 M,0,187358,,227,90 C,0,187358,,255,255,255 F,1,187358,189358,0.9,0 S,1,187358,189358,0.25,0.5
Sprite,Background,Centre,"sb\ring.png",0,0 M,0,187508,,521,220 C,0,187508,,255,255,255 F,1,187508,189733,0.9,0 S,1,187508,189733,0.25,0.5
Sprite,Background,Centre,"sb\ring.png",0,0 M,0,187808,,413,263 C,0,187808,,255,255,255 F,1,187808,189808,0.9,0 S,1,187808,189808,0.25,0.5
Sprite,Background,Centre,"sb\ring.png",0,0 M,0,187958,,539,127 C,0,187958,,255,255,255 F,1,187958,189958,0.9,0 S,1,187958,189958,0.25,0.5
Sprite,Background,Centre,"sb\ring.png",0,0 M,0,188108,,387,60 C,0,188108,,255,255,255 F,1,188108,190183,0.9,0 S,1,188108,190183,0.25,0.5
Sprite,Background,Centre,"sb\ring.png",0,0 M,0,188258,,300,190 C,0,188258,,255,255,255 F,1,188258,190407,0.9,0 S,1,188258,190407,0.25,0.5
Sprite,Background,Centre,"sb\ring.png",0,0 M,0,188558,,73,77 C,0,188558,,255,255,255 F,1,188558,190783,0.9,0 S,1,188558,190783,0.25,0.5
Sprite,Background,Centre,"sb\ring.png",0,0 M,0,188858,,72,318 C,0,188858,,255,255,255 F,1,188858,190933,0.9,0 S,1,188858,190933,0.25,0.5
Sprite,Background,Centre,"sb\ring.png",0,0 M,0,189008,,241,129 C,0,189008,,255,255,255 F,1,189008,191083,0.9,0 S,1,189008,191083,0.25,0.5
Sprite,Background,Centre,"sb\ring.png",0,0 M,0,189158,,238,312 C,0,189158,,255,255,255 F,1,189158,191233,0.9,0 S,1,189158,191233,0.25,0.5
Sprite,Background,Centre,"sb\ring.png",0,0 M,0,189308,,182,195 C,0,189308,,255,255,255 F,1,189308,191308,0.9,0 S,1,189308,191308,0.25,0.5
Sprite,Background,Centre,"sb\ring.png",0,0 M,0,189458,,335,67 C,0,189458,,255,255,255 F,1,189458,191683,0.9,0 S,1,189458,191683,0.25,0.5
Sprite,Background,Centre,"sb\ring.png",0,0 M,0,189758,,380,188 C,0,189758,,255,255,255 F,1,189758,191832,0.9,0 S,1,189758,191832,0.25,0.5
Sprite,Background,Centre,"sb\ring.png",0,0 M,0,189907,,534,144 C,0,189907,,255,255,255 F,1,189907,191981,0.9,0 S,1,189907,191981,0.25,0.5
Sprite,Background,Centre,"sb\ring.png",0,0 M,0,190058,,530,430 C,0,190058,,255,255,255 F,1,190058,192132,0.9,0 S,1,190058,192132,0.25,0.5
Sprite,Background,Centre,"sb\ring.png",0,0 M,0,190208,,387,269 C,0,190208,,255,255,255 F,1,190208,192282,0.9,0 S,1,190208,192282,0.25,0.5
Sprite,Background,Centre,"sb\ring.png",0,0 M,0,190358,,574,280 C,0,190358,,255,255,255 F,1,190358,192433,0.9,0 S,1,190358,192433,0.25,0.5
Sprite,Background,Centre,"sb\ring.png",0,0 M,0,190508,,392,433 C,0,190508,,255,255,255 F,1,190508,192582,0.9,0 S,1,190508,192582,0.25,0.5
Sprite,Background,Centre,"sb\ring.png",0,0 M,0,190658,,230,282 C,0,190658,,255,255,255 F,1,190658,192808,0.9,0 S,1,190658,192808,0.25,0.5
Sprite,Background,Centre,"sb\ring.png",0,0 M,0,190958,,131,292 C,0,190958,,255,255,255 F,1,190958,192958,0.9,0 S,1,190958,192958,0.25,0.5
Sprite,Background,Centre,"sb\ring.png",0,0 M,0,191108,,65,139 C,0,191108,,255,255,255 F,1,191108,193333,0.9,0 S,1,191108,193333,0.25,0.5
Sprite,Background,Centre,"sb\ring.png",0,0 M,0,191408,,221,169 C,0,191408,,255,255,255 F,1,191408,193408,0.9,0 S,1,191408,193408,0.25,0.5
Sprite,Background,Centre,"sb\ring.png",0,0 M,0,191558,,329,74 C,0,191558,,255,255,255 F,1,191558,193632,0.9,0 S,1,191558,193632,0.25,0.5
Sprite,Background,Centre,"sb\ring.png",0,0 M,0,191708,,299,301 C,0,191708,,255,255,255 F,1,191708,193857,0.9,0 S,1,191708,193857,0.25,0.5
Sprite,Background,Centre,"sb\ring.png",0,0 M,0,192008,,516,118 C,0,192008,,255,255,255 F,1,192008,194008,0.9,0 S,1,192008,194008,0.25,0.5
Sprite,Background,Centre,"sb\ring.png",0,0 M,0,192083,,516,118 C,0,192083,,255,255,255 F,1,192083,194083,0.9,0 S,1,192083,194083,0.25,0.5
Sprite,Background,Centre,"sb\ring.png",0,0 M,0,192158,,516,118 C,0,192158,,255,255,255 F,1,192158,194233,0.9,0 S,1,192158,194233,0.25,0.5
Sprite,Background,Centre,"sb\ring.png",0,0 M,0,192308,,565,297 C,0,192308,,255,255,255 F,1,192308,194383,0.9,0 S,1,192308,194383,0.25,0.5
Sprite,Background,Centre,"sb\ring.png",0,0 M,0,192458,,471,268 C,0,192458,,255,255,255 F,1,192458,194458,0.9,0 S,1,192458,194458,0.25,0.5
Sprite,Background,Centre,"sb\ring.png",0,0 M,0,192608,,471,268 C,0,192608,,255,255,255 F,1,192608,194683,0.9,0 S,1,192608,194683,0.25,0.5
Sprite,Background,Centre,"sb\ring.png",0,0 M,0,192758,,359,418 C,0,192758,,255,255,255 F,1,192758,194832,0.9,0 S,1,192758,194832,0.25,0.5
Sprite,Background,Centre,"sb\ring.png",0,0 M,0,192908,,164,364 C,0,192908,,255,255,255 F,1,192908,194982,0.9,0 S,1,192908,194982,0.25,0.5
Sprite,Background,Centre,"sb\ring.png",0,0 M,0,193058,,116,203 C,0,193058,,255,255,255 F,1,193058,195283,0.9,0 S,1,193058,195283,0.25,0.5
Sprite,Background,Centre,"sb\ring.png",0,0 M,0,193358,,167,59 C,0,193358,,255,255,255 F,1,193358,195358,0.9,0 S,1,193358,195358,0.25,0.5
Sprite,Background,Centre,"sb\ring.png",0,0 M,0,193508,,402,127 C,0,193508,,255,255,255 F,1,193508,195732,0.9,0 S,1,193508,195732,0.25,0.5
Sprite,Background,Centre,"sb\ring.png",0,0 M,0,193808,,229,202 C,0,193808,,255,255,255 F,1,193808,195883,0.9,0 S,1,193808,195883,0.25,0.5
Sprite,Background,Centre,"sb\ring.png",0,0 M,0,193958,,368,267 C,0,193958,,255,255,255 F,1,193958,196032,0.9,0 S,1,193958,196032,0.25,0.5
Sprite,Background,Centre,"sb\ring.png",0,0 M,0,194108,,297,431 C,0,194108,,255,255,255 F,1,194108,196108,0.9,0 S,1,194108,196108,0.25,0.5
Sprite,Background,Centre,"sb\ring.png",0,0 M,0,194258,,79,328 C,0,194258,,255,255,255 F,1,194258,196407,0.9,0 S,1,194258,196407,0.25,0.5
Sprite,Background,Centre,"sb\ring.png",0,0 M,0,194483,,285,341 C,0,194483,,255,255,255 F,1,194483,196483,0.9,0 S,1,194483,196483,0.25,0.5
Sprite,Background,Centre,"sb\ring.png",0,0 M,0,194558,,297,346 C,0,194558,,255,255,255 F,1,194558,196558,0.9,0 S,1,194558,196558,0.25,0.5
Sprite,Background,Centre,"sb\ring.png",0,0 M,0,194708,,576,171 C,0,194708,,255,255,255 F,1,194708,197007,0.9,0 S,1,194708,197007,0.25,0.5
Sprite,Background,Centre,"sb\ring.png",0,0 M,0,195158,,418,104 C,0,195158,,255,255,255 F,1,195158,197232,0.9,0 S,1,195158,197232,0.25,0.5
Sprite,Background,Centre,"sb\ring.png",0,0 M,0,195308,,547,261 C,0,195308,,255,255,255 F,1,195308,197383,0.9,0 S,1,195308,197383,0.25,0.5
Sprite,Background,Centre,"sb\ring.png",0,0 M,0,195458,,463,430 C,0,195458,,255,255,255 F,1,195458,197458,0.9,0 S,1,195458,197458,0.25,0.5
Sprite,Background,Centre,"sb\ring.png",0,0 M,0,195608,,478,428 C,0,195608,,255,255,255 F,1,195608,197608,0.9,0 S,1,195608,197608,0.25,0.5
Sprite,Background,Centre,"sb\ring.png",0,0 M,0,195758,,492,432 C,0,195758,,255,255,255 F,1,195758,197758,0.9,0 S,1,195758,197758,0.25,0.5
Sprite,Background,Centre,"sb\ring.png",0,0 M,0,196508,,492,432 C,0,196508,,255,255,255 F,1,196508,198658,0.9,0 S,1,196508,198658,0.25,0.5
Sprite,Background,Centre,"sb\ring.png",0,0 M,0,196808,,573,251 C,0,196808,,255,255,255 F,1,196808,198808,0.9,0 S,1,196808,198808,0.25,0.5
Sprite,Background,Centre,"sb\ring.png",0,0 M,0,197108,,466,354 C,0,197108,,255,255,255 F,1,197108,199183,0.9,0 S,1,197108,199183,0.25,0.5
Sprite,Background,Centre,"sb\ring.png",0,0 M,0,197258,,375,188 C,0,197258,,255,255,255 F,1,197258,199258,0.9,0 S,1,197258,199258,0.25,0.5
Sprite,Background,Centre,"sb\ring.png",0,0 M,0,197408,,484,285 C,0,197408,,255,255,255 F,1,197408,199482,0.9,0 S,1,197408,199482,0.25,0.5
Sprite,Background,Centre,"sb\ring.png",0,0 M,0,197558,,561,115 C,0,197558,,255,255,255 F,1,197558,199558,0.9,0 S,1,197558,199558,0.25,0.5
Sprite,Background,Centre,"sb\ring.png",0,0 M,0,197708,,464,206 C,0,197708,,255,255,255 F,1,197708,199782,0.9,0 S,1,197708,199782,0.25,0.5
Sprite,Background,Centre,"sb\ring.png",0,0 M,0,197858,,390,60 C,0,197858,,255,255,255 F,1,197858,199858,0.9,0 S,1,197858,199858,0.25,0.5
Sprite,Background,Centre,"sb\ring.png",0,0 M,0,198158,,390,60 C,0,198158,,255,255,255 F,1,198158,200158,0.9,0 S,1,198158,200158,0.25,0.5
Sprite,Background,Centre,"sb\ring.png",0,0 M,0,198308,,198,161 C,0,198308,,255,255,255 F,1,198308,200308,0.9,0 S,1,198308,200308,0.25,0.5
Sprite,Background,Centre,"sb\ring.png",0,0 M,0,198458,,341,329 C,0,198458,,255,255,255 F,1,198458,200458,0.9,0 S,1,198458,200458,0.25,0.5
Sprite,Background,Centre,"sb\ring.png",0,0 M,0,198608,,97,334 C,0,198608,,255,255,255 F,1,198608,200608,0.9,0 S,1,198608,200608,0.25,0.5
Sprite,Background,Centre,"sb\ring.png",0,0 M,0,198758,,292,235 C,0,198758,,255,255,255 F,1,198758,200758,0.9,0 S,1,198758,200758,0.25,0.5
Sprite,Background,Centre,"sb\ring.png",0,0 M,0,198908,,151,65 C,0,198908,,255,255,255 F,1,198908,200908,0.9,0 S,1,198908,200908,0.25,0.5
Sprite,Background,Centre,"sb\ring.png",0,0 M,0,199058,,178,265 C,0,199058,,255,255,255 F,1,199058,201058,0.9,0 S,1,199058,201058,0.25,0.5
Sprite,Background,Centre,"sb\ring.png",0,0 M,0,199208,,311,130 C,0,199208,,255,255,255 F,1,199208,201208,0.9,0 S,1,199208,201208,0.25,0.5
Sprite,Background,Centre,"sb\ring.png",0,0 M,0,199358,,151,65 C,0,199358,,255,255,255 F,1,199358,201358,0.9,0 S,1,199358,201358,0.25,0.5
Sprite,Background,Centre,"sb\ring.png",0,0 M,0,199508,,292,235 C,0,199508,,255,255,255 F,1,199508,201658,0.9,0 S,1,199508,201658,0.25,0.5
Sprite,Background,Centre,"sb\ring.png",0,0 M,0,199808,,546,81 C,0,199808,,255,255,255 F,1,199808,201958,0.9,0 S,1,199808,201958,0.25,0.5
Sprite,Background,Centre,"sb\ring.png",0,0 M,0,200108,,552,377 C,0,200108,,255,255,255 F,1,200108,202408,0.9,0 S,1,200108,202408,0.25,0.5
Sprite,Background,Centre,"sb\ring.png",0,0 M,0,200558,,282,389 C,0,200558,,255,255,255 F,1,200558,202782,0.9,0 S,1,200558,202782,0.25,0.5
Sprite,Background,Centre,"sb\ring.png",0,0 M,0,200858,,123,357 C,0,200858,,255,255,255 F,1,200858,202858,0.9,0 S,1,200858,202858,0.25,0.5
Sprite,Background,Centre,"sb\ring.png",0,0 M,0,201008,,258,224 C,0,201008,,255,255,255 F,1,201008,203008,0.9,0 S,1,201008,203008,0.25,0.5
Sprite,Background,Centre,"sb\ring.png",0,0 M,0,201158,,131,104 C,0,201158,,255,255,255 F,1,201158,203232,0.9,0 S,1,201158,203232,0.25,0.5
Sprite,Background,Centre,"sb\ring.png",0,0 M,0,201308,,123,357 C,0,201308,,255,255,255 F,1,201308,203308,0.9,0 S,1,201308,203308,0.25,0.5
Sprite,Background,Centre,"sb\ring.png",0,0 M,0,201458,,100,276 C,0,201458,,255,255,255 F,1,201458,203607,0.9,0 S,1,201458,203607,0.25,0.5
Sprite,Background,Centre,"sb\ring.png",0,0 M,0,201683,,261,309 C,0,201683,,255,255,255 F,1,201683,203683,0.9,0 S,1,201683,203683,0.25,0.5
Sprite,Background,Centre,"sb\ring.png",0,0 M,0,201758,,280,306 C,0,201758,,255,255,255 F,1,201758,203758,0.9,0 S,1,201758,203758,0.25,0.5
Sprite,Background,Centre,"sb\ring.png",0,0 M,0,201908,,360,79 C,0,201908,,255,255,255 F,1,201908,203982,0.9,0 S,1,201908,203982,0.25,0.5
Sprite,Background,Centre,"sb\ring.png",0,0 M,0,202058,,476,194 C,0,202058,,255,255,255 F,1,202058,204358,0.9,0 S,1,202058,204358,0.25,0.5
Sprite,Background,Centre,"sb\ring.png",0,0 M,0,202433,,550,142 C,0,202433,,255,255,255 F,1,202433,204433,0.9,0 S,1,202433,204433,0.25,0.5
Sprite,Background,Centre,"sb\ring.png",0,0 M,0,202508,,570,139 C,0,202508,,255,255,255 F,1,202508,204508,0.9,0 S,1,202508,204508,0.25,0.5
Sprite,Background,Centre,"sb\ring.png",0,0 M,0,202658,,561,338 C,0,202658,,255,255,255 F,1,202658,204883,0.9,0 S,1,202658,204883,0.25,0.5
Sprite,Background,Centre,"sb\ring.png",0,0 M,0,202958,,455,276 C,0,202958,,255,255,255 F,1,202958,204958,0.9,0 S,1,202958,204958,0.25,0.5
Sprite,Background,Centre,"sb\ring.png",0,0 M,0,203108,,254,416 C,0,203108,,255,255,255 F,1,203108,205333,0.9,0 S,1,203108,205333,0.25,0.5
Sprite,Background,Centre,"sb\ring.png",0,0 M,0,203408,,476,376 C,0,203408,,255,255,255 F,1,203408,205482,0.9,0 S,1,203408,205482,0.25,0.5
Sprite,Background,Centre,"sb\ring.png",0,0 M,0,203558,,254,416 C,0,203558,,255,255,255 F,1,203558,205708,0.9,0 S,1,203558,205708,0.25,0.5
Sprite,Background,Centre,"sb\ring.png",0,0 M,0,203783,,278,232 C,0,203783,,255,255,255 F,1,203783,205783,0.9,0 S,1,203783,205783,0.25,0.5
Sprite,Background,Centre,"sb\ring.png",0,0 M,0,203858,,284,209 C,0,203858,,255,255,255 F,1,203858,205858,0.9,0 S,1,203858,205858,0.25,0.5
Sprite,Background,Centre,"sb\ring.png",0,0 M,0,204008,,358,314 C,0,204008,,255,255,255 F,1,204008,206008,0.9,0 S,1,204008,206008,0.25,0.5
Sprite,Background,Centre,"sb\ring.png",0,0 M,0,204158,,215,122 C,0,204158,,255,255,255 F,1,204158,206232,0.9,0 S,1,204158,206232,0.25,0.5
Sprite,Background,Centre,"sb\ring.png",0,0 M,0,204308,,139,271 C,0,204308,,255,255,255 F,1,204308,206382,0.9,0 S,1,204308,206382,0.25,0.5
Sprite,Background,Centre,"sb\ring.png",0,0 M,0,204458,,358,314 C,0,204458,,255,255,255 F,1,204458,206458,0.9,0 S,1,204458,206458,0.25,0.5
Sprite,Background,Centre,"sb\ring.png",0,0 M,0,204608,,254,416 C,0,204608,,255,255,255 F,1,204608,206907,0.9,0 S,1,204608,206907,0.25,0.5
Sprite,Background,Centre,"sb\ring.png",0,0 M,0,205058,,526,299 C,0,205058,,255,255,255 F,1,205058,207282,0.9,0 S,1,205058,207282,0.25,0.5
Sprite,Background,Centre,"sb\ring.png",0,0 M,0,205358,,358,314 C,0,205358,,255,255,255 F,1,205358,207433,0.9,0 S,1,205358,207433,0.25,0.5
Sprite,Background,Centre,"sb\ring.png",0,0 M,0,205508,,379,139 C,0,205508,,255,255,255 F,1,205508,207508,0.9,0 S,1,205508,207508,0.25,0.5
Sprite,Background,Centre,"sb\ring.png",0,0 M,0,205583,,379,139 C,0,205583,,255,255,255 F,1,205583,207583,0.9,0 S,1,205583,207583,0.25,0.5
Sprite,Background,Centre,"sb\ring.png",0,0 M,0,205658,,379,139 C,0,205658,,255,255,255 F,1,205658,207732,0.9,0 S,1,205658,207732,0.25,0.5
Sprite,Background,Centre,"sb\ring.png",0,0 M,0,205808,,205,56 C,0,205808,,255,255,255 F,1,205808,207882,0.9,0 S,1,205808,207882,0.25,0.5
Sprite,Background,Centre,"sb\ring.png",0,0 M,0,205958,,284,211 C,0,205958,,255,255,255 F,1,205958,208107,0.9,0 S,1,205958,208107,0.25,0.5
Sprite,Background,Centre,"sb\ring.png",0,0 M,0,206183,,305,80 C,0,206183,,255,255,255 F,1,206183,208183,0.9,0 S,1,206183,208183,0.25,0.5
Sprite,Background,Centre,"sb\ring.png",0,0 M,0,206258,,307,67 C,0,206258,,255,255,255 F,1,206258,208258,0.9,0 S,1,206258,208258,0.25,0.5
Sprite,Background,Centre,"sb\ring.png",0,0 M,0,206408,,357,306 C,0,206408,,255,255,255 F,1,206408,208482,0.9,0 S,1,206408,208482,0.25,0.5
Sprite,Background,Centre,"sb\ring.png",0,0 M,0,206558,,490,168 C,0,206558,,255,255,255 F,1,206558,208558,0.9,0 S,1,206558,208558,0.25,0.5
Sprite,Background,Centre,"sb\ring.png",0,0 M,0,206708,,361,370 C,0,206708,,255,255,255 F,1,206708,208783,0.9,0 S,1,206708,208783,0.25,0.5
Sprite,Background,Centre,"sb\ring.png",0,0 M,0,206858,,195,295 C,0,206858,,255,255,255 F,1,206858,208858,0.9,0 S,1,206858,208858,0.25,0.5
Sprite,Background,Centre,"sb\ring.png",0,0 M,0,207008,,356,440 C,0,207008,,255,255,255 F,1,207008,209083,0.9,0 S,1,207008,209083,0.25,0.5
Sprite,Background,Centre,"sb\ring.png",0,0 M,0,207158,,465,304 C,0,207158,,255,255,255 F,1,207158,209158,0.9,0 S,1,207158,209158,0.25,0.5
Sprite,Background,Centre,"sb\ring.png",0,0 M,0,207308,,266,427 C,0,207308,,255,255,255 F,1,207308,209308,0.9,0 S,1,207308,209308,0.25,0.5
Sprite,Background,Centre,"sb\ring.png",0,0 M,0,207383,,266,427 C,0,207383,,255,255,255 F,1,207383,209383,0.9,0 S,1,207383,209383,0.25,0.5
Sprite,Background,Centre,"sb\ring.png",0,0 M,0,207458,,266,427 C,0,207458,,255,255,255 F,1,207458,209608,0.9,0 S,1,207458,209608,0.25,0.5
Sprite,Background,Centre,"sb\ring.png",0,0 M,0,207758,,71,431 C,0,207758,,255,255,255 F,1,207758,209758,0.9,0 S,1,207758,209758,0.25,0.5
Sprite,Background,Centre,"sb\ring.png",0,0 M,0,207908,,78,203 C,0,207908,,255,255,255 F,1,207908,209983,0.9,0 S,1,207908,209983,0.25,0.5
Sprite,Background,Centre,"sb\ring.png",0,0 M,0,208058,,273,270 C,0,208058,,255,255,255 F,1,208058,210058,0.9,0 S,1,208058,210058,0.25,0.5
Sprite,Background,Centre,"sb\ring.png",0,0 M,0,208133,,273,270 C,0,208133,,255,255,255 F,1,208133,210133,0.9,0 S,1,208133,210133,0.25,0.5
Sprite,Background,Centre,"sb\ring.png",0,0 M,0,208208,,273,270 C,0,208208,,255,255,255 F,1,208208,210208,0.9,0 S,1,208208,210208,0.25,0.5
Sprite,Background,Centre,"sb\ring.png",0,0 M,0,208358,,72,347 C,0,208358,,255,255,255 F,1,208358,210358,0.9,0 S,1,208358,210358,0.25,0.5
Sprite,Background,Centre,"sb\ring.png",0,0 M,0,208508,,200,161 C,0,208508,,255,255,255 F,1,208508,210508,0.9,0 S,1,208508,210508,0.25,0.5
Sprite,Background,Centre,"sb\ring.png",0,0 M,0,208658,,178,278 C,0,208658,,255,255,255 F,1,208658,210807,0.9,0 S,1,208658,210807,0.25,0.5
Sprite,Background,Centre,"sb\ring.png",0,0 M,0,208883,,176,85 C,0,208883,,255,255,255 F,1,208883,210883,0.9,0 S,1,208883,210883,0.25,0.5
Sprite,Background,Centre,"sb\ring.png",0,0 M,0,208958,,173,65 C,0,208958,,255,255,255 F,1,208958,210958,0.9,0 S,1,208958,210958,0.25,0.5
Sprite,Background,Centre,"sb\ring.png",0,0 M,0,209108,,300,173 C,0,209108,,255,255,255 F,1,209108,211108,0.9,0 S,1,209108,211108,0.25,0.5
Sprite,Background,Centre,"sb\ring.png",0,0 M,0,209258,,78,203 C,0,209258,,255,255,255 F,1,209258,211258,0.9,0 S,1,209258,211258,0.25,0.5
Sprite,Background,Centre,"sb\ring.png",0,0 M,0,209408,,327,94 C,0,209408,,255,255,255 F,1,209408,211408,0.9,0 S,1,209408,211408,0.25,0.5
Sprite,Background,Centre,"sb\ring.png",0,0 M,0,209558,,565,318 C,0,209558,,255,255,255 F,1,209558,211558,0.9,0 S,1,209558,211558,0.25,0.5
Sprite,Background,Centre,"sb\ring.png",0,0 M,0,209708,,345,244 C,0,209708,,255,255,255 F,1,209708,211708,0.9,0 S,1,209708,211708,0.25,0.5
Sprite,Background,Centre,"sb\ring.png",0,0 M,0,209858,,187,433 C,0,209858,,255,255,255 F,1,209858,211858,0.9,0 S,1,209858,211858,0.25,0.5
Sprite,Background,Centre,"sb\ring.png",0,0 M,0,210008,,331,369 C,0,210008,,255,255,255 F,1,210008,212083,0.9,0 S,1,210008,212083,0.25,0.5
Sprite,Background,Centre,"sb\ring.png",0,0 M,0,210158,,300,173 C,0,210158,,255,255,255 F,1,210158,212158,0.9,0 S,1,210158,212158,0.25,0.5
Sprite,Background,Centre,"sb\ring.png",0,0 M,0,210458,,300,173 C,0,210458,,255,255,255 F,1,210458,212532,0.9,0 S,1,210458,212532,0.25,0.5
Sprite,Background,Centre,"sb\ring.png",0,0 M,0,210608,,104,76 C,0,210608,,255,255,255 F,1,210608,212682,0.9,0 S,1,210608,212682,0.25,0.5
Sprite,Background,Centre,"sb\ring.png",0,0 M,0,210758,,129,325 C,0,210758,,255,255,255 F,1,210758,212758,0.9,0 S,1,210758,212758,0.25,0.5
Sprite,Background,Centre,"sb\ring.png",0,0 M,0,210908,,88,253 C,0,210908,,255,255,255 F,1,210908,213057,0.9,0 S,1,210908,213057,0.25,0.5
Sprite,Background,Centre,"sb\ring.png",0,0 M,0,211208,,352,296 C,0,211208,,255,255,255 F,1,211208,213282,0.9,0 S,1,211208,213282,0.25,0.5
Sprite,Background,Centre,"sb\ring.png",0,0 M,0,211358,,256,432 C,0,211358,,255,255,255 F,1,211358,213432,0.9,0 S,1,211358,213432,0.25,0.5
Sprite,Background,Centre,"sb\ring.png",0,0 M,0,211508,,403,407 C,0,211508,,255,255,255 F,1,211508,213582,0.9,0 S,1,211508,213582,0.25,0.5
Sprite,Background,Centre,"sb\ring.png",0,0 M,0,211658,,294,231 C,0,211658,,255,255,255 F,1,211658,213658,0.9,0 S,1,211658,213658,0.25,0.5
Sprite,Background,Centre,"sb\ring.png",0,0 M,0,211808,,519,170 C,0,211808,,255,255,255 F,1,211808,213882,0.9,0 S,1,211808,213882,0.25,0.5
Sprite,Background,Centre,"sb\ring.png",0,0 M,0,211958,,334,65 C,0,211958,,255,255,255 F,1,211958,214032,0.9,0 S,1,211958,214032,0.25,0.5
Sprite,Background,Centre,"sb\ring.png",0,0 M,0,212108,,294,231 C,0,212108,,255,255,255 F,1,212108,214108,0.9,0 S,1,212108,214108,0.25,0.5
Sprite,Background,Centre,"sb\ring.png",0,0 M,0,212258,,437,66 C,0,212258,,255,255,255 F,1,212258,214258,0.9,0 S,1,212258,214258,0.25,0.5
Sprite,Background,Centre,"sb\ring.png",0,0 M,0,212408,,352,295 C,0,212408,,255,255,255 F,1,212408,214408,0.9,0 S,1,212408,214408,0.25,0.5
Sprite,Background,Centre,"sb\ring.png",0,0 M,0,212708,,294,231 C,0,212708,,255,255,255 F,1,212708,214708,0.9,0 S,1,212708,214708,0.25,0.5
Sprite,Background,Centre,"sb\ring.png",0,0 M,0,213008,,216,308 C,0,213008,,255,255,255 F,1,213008,215008,0.9,0 S,1,213008,215008,0.25,0.5
Sprite,Background,Centre,"sb\ring.png",0,0 M,0,213308,,102,262 C,0,213308,,255,255,255 F,1,213308,215607,0.9,0 S,1,213308,215607,0.25,0.5
Sprite,Background,Centre,"sb\ring.png",0,0 M,0,213908,,97,183 C,0,213908,,255,255,255 F,1,213908,215908,0.9,0 S,1,213908,215908,0.25,0.5
Sprite,Background,Centre,"sb\ring.png",0,0 M,0,214058,,78,352 C,0,214058,,255,255,255 F,1,214058,216133,0.9,0 S,1,214058,216133,0.25,0.5
Sprite,Background,Centre,"sb\ring.png",0,0 M,0,214208,,357,231 C,0,214208,,255,255,255 F,1,214208,216208,0.9,0 S,1,214208,216208,0.25,0.5
Sprite,Background,Centre,"sb\ring.png",0,0 M,0,214283,,353,272 C,0,214283,,255,255,255 F,1,214283,216283,0.9,0 S,1,214283,216283,0.25,0.5
Sprite,Background,Centre,"sb\ring.png",0,0 M,0,214358,,349,314 C,0,214358,,255,255,255 F,1,214358,216358,0.9,0 S,1,214358,216358,0.25,0.5
Sprite,Background,Centre,"sb\ring.png",0,0 M,0,214433,,345,356 C,0,214433,,255,255,255 F,1,214433,216433,0.9,0 S,1,214433,216433,0.25,0.5
Sprite,Background,Centre,"sb\ring.png",0,0 M,0,214508,,341,397 C,0,214508,,255,255,255 F,1,214508,216583,0.9,0 S,1,214508,216583,0.25,0.5
Sprite,Background,Centre,"sb\ring.png",0,0 M,0,214658,,186,275 C,0,214658,,255,255,255 F,1,214658,216882,0.9,0 S,1,214658,216882,0.25,0.5
Sprite,Background,Centre,"sb\ring.png",0,0 M,0,214958,,154,119 C,0,214958,,255,255,255 F,1,214958,217033,0.9,0 S,1,214958,217033,0.25,0.5
Sprite,Background,Centre,"sb\ring.png",0,0 M,0,215108,,320,60 C,0,215108,,255,255,255 F,1,215108,217183,0.9,0 S,1,215108,217183,0.25,0.5
Sprite,Background,Centre,"sb\ring.png",0,0 M,0,215258,,267,254 C,0,215258,,255,255,255 F,1,215258,217258,0.9,0 S,1,215258,217258,0.25,0.5
Sprite,Background,Centre,"sb\ring.png",0,0 M,0,215408,,406,128 C,0,215408,,255,255,255 F,1,215408,217408,0.9,0 S,1,215408,217408,0.25,0.5
Sprite,Background,Centre,"sb\ring.png",0,0 M,0,215558,,182,202 C,0,215558,,255,255,255 F,1,215558,217558,0.9,0 S,1,215558,217558,0.25,0.5
Sprite,Background,Centre,"sb\ring.png",0,0 M,0,215708,,340,362 C,0,215708,,255,255,255 F,1,215708,217708,0.9,0 S,1,215708,217708,0.25,0.5
Sprite,Background,Centre,"sb\ring.png",0,0 M,0,215858,,407,299 C,0,215858,,255,255,255 F,1,215858,217858,0.9,0 S,1,215858,217858,0.25,0.5
Sprite,Background,Centre,"sb\ring.png",0,0 M,0,216008,,252,357 C,0,216008,,255,255,255 F,1,216008,218008,0.9,0 S,1,216008,218008,0.25,0.5
Sprite,Background,Centre,"sb\ring.png",0,0 M,0,216158,,311,195 C,0,216158,,255,255,255 F,1,216158,218308,0.9,0 S,1,216158,218308,0.25,0.5
Sprite,Background,Centre,"sb\ring.png",0,0 M,0,216458,,404,416 C,0,216458,,255,255,255 F,1,216458,218458,0.9,0 S,1,216458,218458,0.25,0.5
Sprite,Background,Centre,"sb\ring.png",0,0 M,0,216608,,404,416 C,0,216608,,255,255,255 F,1,216608,218608,0.9,0 S,1,216608,218608,0.25,0.5
Sprite,Background,Centre,"sb\ring.png",0,0 M,0,216758,,558,265 C,0,216758,,255,255,255 F,1,216758,218983,0.9,0 S,1,216758,218983,0.25,0.5
Sprite,Background,Centre,"sb\ring.png",0,0 M,0,217058,,407,299 C,0,217058,,255,255,255 F,1,217058,219132,0.9,0 S,1,217058,219132,0.25,0.5
Sprite,Background,Centre,"sb\ring.png",0,0 M,0,217208,,509,155 C,0,217208,,255,255,255 F,1,217208,219282,0.9,0 S,1,217208,219282,0.25,0.5
Sprite,Background,Centre,"sb\ring.png",0,0 M,0,217358,,563,357 C,0,217358,,255,255,255 F,1,217358,219358,0.9,0 S,1,217358,219358,0.25,0.5
Sprite,Background,Centre,"sb\ring.png",0,0 M,0,217658,,510,417 C,0,217658,,255,255,255 F,1,217658,219658,0.9,0 S,1,217658,219658,0.25,0.5
Sprite,Background,Centre,"sb\ring.png",0,0 M,0,217808,,328,159 C,0,217808,,255,255,255 F,1,217808,219808,0.9,0 S,1,217808,219808,0.25,0.5
Sprite,Background,Centre,"sb\ring.png",0,0 M,0,217958,,72,334 C,0,217958,,255,255,255 F,1,217958,219958,0.9,0 S,1,217958,219958,0.25,0.5
Sprite,Background,Centre,"sb\ring.png",0,0 M,0,218108,,314,239 C,0,218108,,255,255,255 F,1,218108,220108,0.9,0 S,1,218108,220108,0.25,0.5
Sprite,Background,Centre,"sb\ring.png",0,0 M,0,218258,,96,77 C,0,218258,,255,255,255 F,1,218258,220408,0.9,0 S,1,218258,220408,0.25,0.5
Sprite,Background,Centre,"sb\ring.png",0,0 M,0,218558,,252,303 C,0,218558,,255,255,255 F,1,218558,220558,0.9,0 S,1,218558,220558,0.25,0.5
Sprite,Background,Centre,"sb\ring.png",0,0 M,0,218708,,278,163 C,0,218708,,255,255,255 F,1,218708,220708,0.9,0 S,1,218708,220708,0.25,0.5
Sprite,Background,Centre,"sb\ring.png",0,0 M,0,218858,,391,260 C,0,218858,,255,255,255 F,1,218858,220858,0.9,0 S,1,218858,220858,0.25,0.5
Sprite,Background,Centre,"sb\ring.png",0,0 M,0,219008,,153,253 C,0,219008,,255,255,255 F,1,219008,221008,0.9,0 S,1,219008,221008,0.25,0.5
Sprite,Background,Centre,"sb\ring.png",0,0 M,0,219158,,328,85 C,0,219158,,255,255,255 F,1,219158,221158,0.9,0 S,1,219158,221158,0.25,0.5
Sprite,Background,Centre,"sb\ring.png",0,0 M,0,219308,,423,375 C,0,219308,,255,255,255 F,1,219308,221308,0.9,0 S,1,219308,221308,0.25,0.5
Sprite,Background,Centre,"sb\ring.png",0,0 M,0,219458,,573,170 C,0,219458,,255,255,255 F,1,219458,221682,0.9,0 S,1,219458,221682,0.25,0.5
Sprite,Background,Centre,"sb\ring.png",0,0 M,0,219758,,328,85 C,0,219758,,255,255,255 F,1,219758,221833,0.9,0 S,1,219758,221833,0.25,0.5
Sprite,Background,Centre,"sb\ring.png",0,0 M,0,219908,,438,213 C,0,219908,,255,255,255 F,1,219908,221983,0.9,0 S,1,219908,221983,0.25,0.5
Sprite,Background,Centre,"sb\ring.png",0,0 M,0,220058,,327,384 C,0,220058,,255,255,255 F,1,220058,222058,0.9,0 S,1,220058,222058,0.25,0.5
Sprite,Background,Centre,"sb\ring.png",0,0 M,0,220208,,205,263 C,0,220208,,255,255,255 F,1,220208,222282,0.9,0 S,1,220208,222282,0.25,0.5
Sprite,Background,Centre,"sb\ring.png",0,0 M,0,220358,,423,375 C,0,220358,,255,255,255 F,1,220358,222433,0.9,0 S,1,220358,222433,0.25,0.5
Sprite,Background,Centre,"sb\ring.png",0,0 M,0,220508,,253,437 C,0,220508,,255,255,255 F,1,220508,222508,0.9,0 S,1,220508,222508,0.25,0.5
Sprite,Background,Centre,"sb\ring.png",0,0 M,0,220658,,358,199 C,0,220658,,255,255,255 F,1,220658,222808,0.9,0 S,1,220658,222808,0.25,0.5
Sprite,Background,Centre,"sb\ring.png",0,0 M,0,220883,,327,384 C,0,220883,,255,255,255 F,1,220883,222883,0.9,0 S,1,220883,222883,0.25,0.5
Sprite,Background,Centre,"sb\ring.png",0,0 M,0,220958,,331,401 C,0,220958,,255,255,255 F,1,220958,222958,0.9,0 S,1,220958,222958,0.25,0.5
Sprite,Background,Centre,"sb\ring.png",0,0 M,0,221108,,509,290 C,0,221108,,255,255,255 F,1,221108,223182,0.9,0 S,1,221108,223182,0.25,0.5
Sprite,Background,Centre,"sb\ring.png",0,0 M,0,221258,,338,307 C,0,221258,,255,255,255 F,1,221258,223408,0.9,0 S,1,221258,223408,0.25,0.5
Sprite,Background,Centre,"sb\ring.png",0,0 M,0,221483,,103,277 C,0,221483,,255,255,255 F,1,221483,223483,0.9,0 S,1,221483,223483,0.25,0.5
Sprite,Background,Centre,"sb\ring.png",0,0 M,0,221558,,82,273 C,0,221558,,255,255,255 F,1,221558,223558,0.9,0 S,1,221558,223558,0.25,0.5
Sprite,Background,Centre,"sb\ring.png",0,0 M,0,221708,,115,435 C,0,221708,,255,255,255 F,1,221708,223783,0.9,0 S,1,221708,223783,0.25,0.5
Sprite,Background,Centre,"sb\ring.png",0,0 M,0,221858,,162,75 C,0,221858,,255,255,255 F,1,221858,224157,0.9,0 S,1,221858,224157,0.25,0.5
Sprite,Background,Centre,"sb\ring.png",0,0 M,0,222458,,162,75 C,0,222458,,255,255,255 F,1,222458,224533,0.9,0 S,1,222458,224533,0.25,0.5
Sprite,Background,Centre,"sb\ring.png",0,0 M,0,222608,,456,170 C,0,222608,,255,255,255 F,1,222608,224907,0.9,0 S,1,222608,224907,0.25,0.5
Sprite,Background,Centre,"sb\ring.png",0,0 M,0,222983,,527,124 C,0,222983,,255,255,255 F,1,222983,224983,0.9,0 S,1,222983,224983,0.25,0.5
Sprite,Background,Centre,"sb\ring.png",0,0 M,0,223058,,544,118 C,0,223058,,255,255,255 F,1,223058,225058,0.9,0 S,1,223058,225058,0.25,0.5
Sprite,Background,Centre,"sb\ring.png",0,0 M,0,223208,,415,265 C,0,223208,,255,255,255 F,1,223208,225208,0.9,0 S,1,223208,225208,0.25,0.5
Sprite,Background,Centre,"sb\ring.png",0,0 M,0,223358,,542,305 C,0,223358,,255,255,255 F,1,223358,225508,0.9,0 S,1,223358,225508,0.25,0.5
Sprite,Background,Centre,"sb\ring.png",0,0 M,0,223658,,404,285 C,0,223658,,255,255,255 F,1,223658,225808,0.9,0 S,1,223658,225808,0.25,0.5
Sprite,Background,Centre,"sb\ring.png",0,0 M,0,223958,,550,411 C,0,223958,,255,255,255 F,1,223958,226107,0.9,0 S,1,223958,226107,0.25,0.5
Sprite,Background,Centre,"sb\ring.png",0,0 M,0,224258,,102,304 C,0,224258,,255,255,255 F,1,224258,226258,0.9,0 S,1,224258,226258,0.25,0.5
Sprite,Background,Centre,"sb\ring.png",0,0 M,0,224408,,259,247 C,0,224408,,255,255,255 F,1,224408,226408,0.9,0 S,1,224408,226408,0.25,0.5
Sprite,Background,Centre,"sb\ring.png",0,0 M,0,224558,,232,411 C,0,224558,,255,255,255 F,1,224558,226558,0.9,0 S,1,224558,226558,0.25,0.5
Sprite,Background,Centre,"sb\ring.png",0,0 M,0,224858,,135,388 C,0,224858,,255,255,255 F,1,224858,226858,0.9,0 S,1,224858,226858,0.25,0.5
Sprite,Background,Centre,"sb\ring.png",0,0 M,0,225008,,111,107 C,0,225008,,255,255,255 F,1,225008,227008,0.9,0 S,1,225008,227008,0.25,0.5
Sprite,Background,Centre,"sb\ring.png",0,0 M,0,225158,,206,332 C,0,225158,,255,255,255 F,1,225158,227158,0.9,0 S,1,225158,227158,0.25,0.5
Sprite,Background,Centre,"sb\ring.png",0,0 M,0,225308,,257,92 C,0,225308,,255,255,255 F,1,225308,227308,0.9,0 S,1,225308,227308,0.25,0.5
Sprite,Background,Centre,"sb\ring.png",0,0 M,0,225458,,73,328 C,0,225458,,255,255,255 F,1,225458,227458,0.9,0 S,1,225458,227458,0.25,0.5
Sprite,Background,Centre,"sb\ring.png",0,0 M,0,225608,,331,119 C,0,225608,,255,255,255 F,1,225608,227608,0.9,0 S,1,225608,227608,0.25,0.5
Sprite,Background,Centre,"sb\ring.png",0,0 M,0,225758,,553,347 C,0,225758,,255,255,255 F,1,225758,227758,0.9,0 S,1,225758,227758,0.25,0.5
Sprite,Background,Centre,"sb\ring.png",0,0 M,0,225908,,303,191 C,0,225908,,255,255,255 F,1,225908,227908,0.9,0 S,1,225908,227908,0.25,0.5
Sprite,Background,Centre,"sb\ring.png",0,0 M,0,226058,,209,415 C,0,226058,,255,255,255 F,1,226058,228058,0.9,0 S,1,226058,228058,0.25,0.5
Sprite,Background,Centre,"sb\ring.png",0,0 M,0,226208,,377,222 C,0,226208,,255,255,255 F,1,226208,228208,0.9,0 S,1,226208,228208,0.25,0.5
Sprite,Background,Centre,"sb\ring.png",0,0 M,0,226358,,489,398 C,0,226358,,255,255,255 F,1,226358,228358,0.9,0 S,1,226358,228358,0.25,0.5
Sprite,Background,Centre,"sb\ring.png",0,0 M,0,226508,,339,293 C,0,226508,,255,255,255 F,1,226508,228508,0.9,0 S,1,226508,228508,0.25,0.5
Sprite,Background,Centre,"sb\ring.png",0,0 M,0,226658,,365,368 C,0,226658,,255,255,255 F,1,226658,228658,0.9,0 S,1,226658,228658,0.25,0.5
Sprite,Background,Centre,"sb\ring.png",0,0 M,0,226808,,429,83 C,0,226808,,255,255,255 F,1,226808,228808,0.9,0 S,1,226808,228808,0.25,0.5
Sprite,Background,Centre,"sb\ring.png",0,0 M,0,226958,,482,257 C,0,226958,,255,255,255 F,1,226958,228958,0.9,0 S,1,226958,228958,0.25,0.5
Sprite,Background,Centre,"sb\ring.png",0,0 M,0,227258,,551,208 C,0,227258,,255,255,255 F,1,227258,229258,0.9,0 S,1,227258,229258,0.25,0.5
Sprite,Background,Centre,"sb\ring.png",0,0 M,0,227408,,339,293 C,0,227408,,255,255,255 F,1,227408,229408,0.9,0 S,1,227408,229408,0.25,0.5
Sprite,Background,Centre,"sb\ring.png",0,0 M,0,227558,,507,136 C,0,227558,,255,255,255 F,1,227558,229558,0.9,0 S,1,227558,229558,0.25,0.5
Sprite,Background,Centre,"sb\ring.png",0,0 M,0,227708,,535,349 C,0,227708,,255,255,255 F,1,227708,229708,0.9,0 S,1,227708,229708,0.25,0.5
Sprite,Background,Centre,"sb\ring.png",0,0 M,0,227858,,377,222 C,0,227858,,255,255,255 F,1,227858,229858,0.9,0 S,1,227858,229858,0.25,0.5
Sprite,Background,Centre,"sb\ring.png",0,0 M,0,228008,,365,368 C,0,228008,,255,255,255 F,1,228008,230008,0.9,0 S,1,228008,230008,0.25,0.5
Sprite,Background,Centre,"sb\ring.png",0,0 M,0,228158,,275,84 C,0,228158,,255,255,255 F,1,228158,230158,0.9,0 S,1,228158,230158,0.25,0.5
Sprite,Background,Centre,"sb\ring.png",0,0 M,0,228308,,455,340 C,0,228308,,255,255,255 F,1,228308,230308,0.9,0 S,1,228308,230308,0.25,0.5
Sprite,Background,Centre,"sb\ring.png",0,0 M,0,228458,,465,66 C,0,228458,,255,255,255 F,1,228458,230458,0.9,0 S,1,228458,230458,0.25,0.5
Sprite,Background,Centre,"sb\ring.png",0,0 M,0,228608,,274,344 C,0,228608,,255,255,255 F,1,228608,230608,0.9,0 S,1,228608,230608,0.25,0.5
Sprite,Background,Centre,"sb\ring.png",0,0 M,0,228758,,180,66 C,0,228758,,255,255,255 F,1,228758,230758,0.9,0 S,1,228758,230758,0.25,0.5
Sprite,Background,Centre,"sb\ring.png",0,0 M,0,228908,,507,136 C,0,228908,,255,255,255 F,1,228908,230908,0.9,0 S,1,228908,230908,0.25,0.5
Sprite,Background,Centre,"sb\ring.png",0,0 M,0,229058,,335,280 C,0,229058,,255,255,255 F,1,229058,231058,0.9,0 S,1,229058,231058,0.25,0.5
Sprite,Background,Centre,"sb\ring.png",0,0 M,0,229208,,337,263 C,0,229208,,255,255,255 F,1,229208,231208,0.9,0 S,1,229208,231208,0.25,0.5
Sprite,Background,Centre,"sb\ring.png",0,0 M,0,229358,,340,247 C,0,229358,,255,255,255 F,1,229358,231358,0.9,0 S,1,229358,231358,0.25,0.5
Sprite,Background,Centre,"sb\ring.png",0,0 M,0,229658,,519,150 C,0,229658,,255,255,255 F,1,229658,231658,0.9,0 S,1,229658,231658,0.25,0.5
Sprite,Background,Centre,"sb\ring.png",0,0 M,0,229808,,454,123 C,0,229808,,255,255,255 F,1,229808,231808,0.9,0 S,1,229808,231808,0.25,0.5
Sprite,Background,Centre,"sb\ring.png",0,0 M,0,229958,,408,176 C,0,229958,,255,255,255 F,1,229958,231958,0.9,0 S,1,229958,231958,0.25,0.5
Sprite,Background,Centre,"sb\ring.png",0,0 M,0,230108,,444,236 C,0,230108,,255,255,255 F,1,230108,232108,0.9,0 S,1,230108,232108,0.25,0.5
Sprite,Background,Centre,"sb\ring.png",0,0 M,0,230258,,512,220 C,0,230258,,255,255,255 F,1,230258,232258,0.9,0 S,1,230258,232258,0.25,0.5
Sprite,Background,Centre,"sb\ring.png",0,0 M,0,230408,,548,279 C,0,230408,,255,255,255 F,1,230408,232408,0.9,0 S,1,230408,232408,0.25,0.5
Sprite,Background,Centre,"sb\ring.png",0,0 M,0,230558,,503,331 C,0,230558,,255,255,255 F,1,230558,232558,0.9,0 S,1,230558,232558,0.25,0.5
Sprite,Background,Centre,"sb\ring.png",0,0 M,0,230708,,439,304 C,0,230708,,255,255,255 F,1,230708,232708,0.9,0 S,1,230708,232708,0.25,0.5
Sprite,Background,Centre,"sb\ring.png",0,0 M,0,230858,,133,152 C,0,230858,,255,255,255 F,1,230858,232858,0.9,0 S,1,230858,232858,0.25,0.5
Sprite,Background,Centre,"sb\ring.png",0,0 M,0,230933,,207,120 C,0,230933,,255,255,255 F,1,230933,232933,0.9,0 S,1,230933,232933,0.25,0.5
Sprite,Background,Centre,"sb\ring.png",0,0 M,0,231008,,260,181 C,0,231008,,255,255,255 F,1,231008,233008,0.9,0 S,1,231008,233008,0.25,0.5
Sprite,Background,Centre,"sb\ring.png",0,0 M,0,231083,,219,251 C,0,231083,,255,255,255 F,1,231083,233083,0.9,0 S,1,231083,233083,0.25,0.5
Sprite,Background,Centre,"sb\ring.png",0,0 M,0,231158,,137,232 C,0,231158,,255,255,255 F,1,231158,233158,0.9,0 S,1,231158,233158,0.25,0.5
Sprite,Background,Centre,"sb\ring.png",0,0 M,0,231233,,90,302 C,0,231233,,255,255,255 F,1,231233,233233,0.9,0 S,1,231233,233233,0.25,0.5
Sprite,Background,Centre,"sb\ring.png",0,0 M,0,231308,,142,368 C,0,231308,,255,255,255 F,1,231308,233308,0.9,0 S,1,231308,233308,0.25,0.5
Sprite,Background,Centre,"sb\ring.png",0,0 M,0,231383,,220,335 C,0,231383,,255,255,255 F,1,231383,233383,0.9,0 S,1,231383,233383,0.25,0.5
//Storyboard Layer 1 (Fail)
//Storyboard Layer 2 (Pass)
//Storyboard Layer 3 (Foreground)
//Storyboard Layer 4 (Overlay)
//Storyboard Sound Samples

[TimingPoints]
1058,300,4,2,3,40,1,0
10658,-333.333333333333,4,2,3,40,0,0
11558,-333.333333333333,4,2,3,40,0,0
18758,-333.333333333333,4,2,3,40,0,0
29858,-333.333333333333,4,2,3,50,0,0
51458,-100,4,2,3,70,0,0
51758,-66.6666666666667,4,2,3,70,0,0
52058,-100,4,2,3,70,0,0
52508,-66.6666666666667,4,2,3,70,0,0
52808,-100,4,2,3,70,0,0
52958,-66.6666666666667,4,2,3,70,0,0
53258,-100,4,2,3,70,0,0
53858,-66.6666666666667,4,2,3,70,0,0
55358,-100,4,2,3,70,0,0
56258,-80,4,2,3,70,0,0
56708,-100,4,2,3,70,0,0
57308,-66.6666666666667,4,2,3,70,0,0
57758,-100,4,2,3,70,0,0
58358,-133.333333333333,4,2,3,70,0,0
58658,-100,4,2,3,70,0,0
59708,-66.6666666666667,4,2,3,70,0,0
60008,-100,4,2,3,70,0,0
61358,-66.6666666666667,4,2,3,70,0,0
61658,-100,4,2,3,70,0,0
62108,-80,4,2,3,70,0,0
62558,-100,4,2,3,70,0,0
62858,-66.6666666666667,4,2,3,70,0,0
63458,-100,4,2,3,70,0,0
63758,-66.6666666666667,4,2,3,70,0,0
64208,-100,4,2,3,70,0,0
64508,-66.6666666666667,4,2,3,70,0,0
65858,-100,4,2,3,70,0,0
68108,-200,4,2,3,70,0,0
70508,-100,4,2,3,70,0,0
71558,-100,4,2,3,50,0,0
72008,-100,4,2,3,60,0,0
73058,-100,4,2,3,70,0,0
73958,-100,4,2,3,50,0,0
74558,-100,4,2,3,60,0,0
74858,-66.6666666666667,4,2,3,60,0,0
75158,-50,4,2,3,70,0,0
75458,-100,4,2,3,70,0,0
76358,-200,4,2,3,50,0,0
76808,-200,4,2,3,60,0,0
77858,-100,4,2,3,70,0,0
80258,-133.333333333333,4,2,3,60,0,0
87758,-100,4,2,3,60,0,0
88358,-133.333333333333,4,2,3,60,0,0
99458,-133.333333333333,4,2,3,55,0,0
116258,-384.615384615385,4,2,3,55,0,0
118658,-125,4,2,3,55,0,0
121058,-80,4,2,3,55,0,0
122108,-100,4,2,3,55,0,0
125558,-80,4,2,3,55,0,0
127958,-100,4,2,3,55,0,0
129308,-66.6666666666667,4,2,3,55,0,0
130508,-133.333333333333,4,2,3,55,0,0
130658,-80,4,2,3,55,0,0
132458,-100,4,2,3,55,0,0
135458,-133.333333333333,4,2,3,55,0,0
136508,-66.6666666666667,4,2,3,55,0,0
137408,-100,4,2,3,55,0,0
137858,-100,4,2,3,55,0,0
138683,-90.9090909090909,4,2,3,55,0,0
139058,-83.3333333333333,4,2,3,55,0,0
139958,-100,4,2,3,55,0,0
141308,-133.333333333333,4,2,3,55,0,0
142058,-333.333333333333,4,2,3,55,0,0
142358,-66.6666666666667,4,2,3,55,0,0
142658,-100,4,2,3,55,0,0
149108,-80,4,2,3,55,0,0
149408,-100,4,2,3,55,0,0
149858,-80,4,2,3,55,0,0
150158,-100,4,2,3,55,0,0
150458,-80,4,2,3,55,0,0
152258,-100,4,2,3,55,0,0
154808,-166.666666666667,4,2,3,55,0,0
155858,-133.333333333333,4,2,3,55,0,0
156458,-133.333333333333,4,2,3,40,0,0
157358,-250,4,2,3,40,0,0
166658,-100,4,2,3,40,0,0
167258,-200,4,2,3,40,0,0
167858,-133.333333333333,4,2,3,40,0,0
173708,-133.333333333333,4,2,3,30,0,0
179858,-333.333333333334,4,2,3,30,0,0
180008,-142.857142857143,4,2,3,30,0,0
180233,-200,4,2,3,30,0,0
180308,-200,4,2,3,40,0,0
180458,-58.8235294117647,4,2,3,40,0,0
180608,-58.8235294117647,4,2,3,50,0,0
180908,-58.8235294117647,4,2,3,60,0,0
181058,-100,4,2,3,70,0,0
181508,-90.9090909090909,4,2,3,70,0,0
181958,-142.857142857143,4,2,3,70,0,0
182108,-71.4285714285714,4,2,3,70,0,0
182558,-90.9090909090909,4,2,3,70,0,0
182708,-66.6666666666667,4,2,3,70,0,0
182858,-100,4,2,3,70,0,0
183158,-90.9090909090909,4,2,3,70,0,0
183308,-83.3333333333333,4,2,3,70,0,0
183458,-90.9090909090909,4,2,3,70,0,0
183908,-71.4285714285714,4,2,3,70,0,0
184208,-62.5,4,2,3,70,0,0
184358,-83.3333333333333,4,2,3,70,0,0
184958,-111.111111111111,4,2,3,70,0,0
185108,-90.9090909090909,4,2,3,70,0,0
185258,-100,4,2,3,70,0,0
185558,-90.9090909090909,4,2,3,70,0,0
185708,-83.3333333333333,4,2,3,70,0,0
185858,-100,4,2,3,70,0,0
186308,-71.4285714285714,4,2,3,70,0,0
186758,-71.4285714285714,4,2,3,70,0,0
186908,-90.9090909090909,4,2,3,70,0,0
187508,-100,4,2,3,70,0,0
187808,-58.8235294117647,4,2,3,70,0,0
188108,-90.9090909090909,4,2,3,70,0,0
188258,-76.9230769230769,4,2,3,70,0,0
188558,-100,4,2,3,70,0,0
188858,-66.6666666666667,4,2,3,70,0,0
189008,-58.8235294117647,4,2,3,70,0,0
189158,-125,4,2,3,70,0,0
189458,-58.8235294117647,4,2,3,70,0,0
189758,-71.4285714285714,4,2,3,70,0,0
190058,-83.3333333333333,4,2,3,70,0,0
190208,-76.9230769230769,4,2,3,70,0,0
190358,-58.8235294117647,4,2,3,70,0,0
190508,-83.3333333333333,4,2,3,70,0,0
190658,-100,4,2,3,70,0,0
191108,-90.9090909090909,4,2,3,70,0,0
191558,-83.3333333333333,4,2,3,70,0,0
191708,-71.4285714285714,4,2,3,70,0,0
192158,-90.9090909090909,4,2,3,70,0,0
192308,-66.6666666666667,4,2,3,70,0,0
192608,-90.9090909090909,4,2,3,70,0,0
192758,-83.3333333333333,4,2,3,70,0,0
192908,-76.9230769230769,4,2,3,70,0,0
193058,-90.9090909090909,4,2,3,70,0,0
193508,-71.4285714285714,4,2,3,70,0,0
193808,-62.5,4,2,3,70,0,0
193958,-83.3333333333333,4,2,3,70,0,0
194258,-71.4285714285714,4,2,3,70,0,0
194708,-52.6315789473684,4,2,3,70,0,0
195158,-71.4285714285714,4,2,3,70,0,0
195308,-58.8235294117647,4,2,3,70,0,0
196508,-181.818181818182,4,2,3,70,0,0
197108,-90.9090909090909,4,2,3,70,0,0
197408,-83.3333333333333,4,2,3,70,0,0
197708,-76.9230769230769,4,2,3,70,0,0
198158,-1000,4,2,3,70,0,0
199508,-50,4,2,3,70,0,0
200108,-100,4,2,3,70,0,0
200558,-76.9230769230769,4,2,3,70,0,0
200858,-62.5,4,2,3,70,0,0
201158,-71.4285714285714,4,2,3,70,0,0
201908,-83.3333333333333,4,2,3,70,0,0
202058,-62.5,4,2,3,70,0,0
202658,-100,4,2,3,70,0,0
203408,-76.9230769230769,4,2,3,70,0,0
203558,-90.9090909090909,4,2,3,70,0,0
203858,-83.3333333333333,4,2,3,70,0,0
204308,-76.9230769230769,4,2,3,70,0,0
204608,-71.4285714285714,4,2,3,70,0,0
205058,-83.3333333333333,4,2,3,70,0,0
205358,-62.5,4,2,3,70,0,0
205658,-76.9230769230769,4,2,3,70,0,0
205808,-71.4285714285714,4,2,3,70,0,0
205958,-83.3333333333333,4,2,3,70,0,0
206408,-111.111111111111,4,2,3,70,0,0
206708,-100,4,2,3,70,0,0
207008,-90.909090909091,4,2,3,70,0,0
207458,-100,4,2,3,70,0,0
207908,-62.5,4,2,3,70,0,0
208508,-83.3333333333333,4,2,3,70,0,0
210008,-100,4,2,3,70,0,0
210458,-76.9230769230769,4,2,3,70,0,0
210608,-83.3333333333333,4,2,3,70,0,0
210908,-71.4285714285714,4,2,3,70,0,0
211208,-83.3333333333333,4,2,3,70,0,0
211508,-76.9230769230769,4,2,3,70,0,0
211808,-83.3333333333333,4,2,3,70,0,0
213308,-333.333333333333,4,2,3,70,0,0
214058,-58.8235294117647,4,2,3,70,0,0
214658,-83.3333333333333,4,2,3,70,0,0
214958,-62.5,4,2,3,70,0,0
215108,-90.9090909090909,4,2,3,70,0,0
216158,-125,4,2,3,70,0,0
217058,-83.3333333333333,4,2,3,70,0,0
218258,-100,4,2,3,70,0,0
219458,-83.3333333333333,4,2,3,70,0,0
219758,-62.5,4,2,3,70,0,0
219908,-90.9090909090909,4,2,3,70,0,0
220208,-83.3333333333333,4,2,3,70,0,0
220358,-100,4,2,3,70,0,0
220658,-90.9090909090909,4,2,3,70,0,0
221108,-71.4285714285714,4,2,3,70,0,0
221258,-66.6666666666667,4,2,3,70,0,0
221708,-58.8235294117647,4,2,3,70,0,0
221858,-71.4285714285714,4,2,3,70,0,0
222458,-66.6666666666667,4,2,3,70,0,0
222608,-76.9230769230769,4,2,3,70,0,0
223358,-100,4,2,3,70,0,0
223658,-125,4,2,3,70,0,0
223958,-166.666666666667,4,2,3,70,0,0
224258,-100,4,2,3,70,0,0
229058,-200,4,2,3,70,0,0
231458,-200,4,2,3,40,0,0
235508,-142.857142857143,4,2,3,40,0,0
237908,-333.333333333334,4,2,3,40,0,0
239858,-250.000000000001,4,2,3,40,0,0
248743,526.315789473684,4,2,3,10,1,0
248874,555.555555555556,4,2,3,10,1,0
249012,659.340659340659,4,2,3,10,1,0
249176,615.384615384615,4,2,3,10,1,0
249252,300,4,2,3,10,1,0
251052,-100,4,2,3,5,0,0

[Colours]
Combo1 : 191,191,191
Combo2 : 204,165,248
Combo3 : 133,84,152
Combo4 : 142,198,204

[HitObjects]
360,52,10658,5,2,0:0:0:0:
360,52,11558,5,0,0:0:0:0:
299,107,11858,1,0,0:0:0:0:
355,155,12158,1,0,0:0:0:0:
315,191,12458,1,0,0:0:0:0:
331,227,12758,1,0,0:0:0:0:
319,251,13058,5,2,0:0:0:0:
232,168,13358,2,0,L|224:48,1,119.999996337891
170,217,14258,2,0,L|163:280,1,59.9999981689454,2|0,0:0|0:0,0:0:0:0:
160,292,14708,2,0,P|141:270|113:261,1,59.9999981689454
48,296,15158,1,0,0:0:0:0:
239,248,15458,5,2,0:0:0:0:
239,248,17858,1,2,0:0:0:0:
239,248,18758,5,0,0:0:0:0:
294,309,19058,1,0,0:0:0:0:
342,253,19358,1,0,0:0:0:0:
378,293,19658,1,0,0:0:0:0:
414,277,19958,1,0,0:0:0:0:
438,289,20258,5,2,0:0:0:0:
480,80,21158,1,0,0:0:0:0:
412,128,21458,6,0,P|408:152|420:192,1,59.9999981689454,0|8,0:0|0:0,0:0:0:0:
392,48,22058,2,0,P|369:56|340:86,1,59.9999981689454
332,164,22658,1,2,0:0:0:0:
168,72,22958,6,0,P|212:60|264:108,1,119.999996337891
160,192,23858,2,0,L|167:255,1,59.9999981689454,0|8,0:0|0:0,0:0:0:0:
169,267,24308,2,0,P|188:244|216:235,1,59.9999981689454
282,271,24758,1,0,0:0:0:0:
271,142,25058,6,0,P|132:161|99:248,1,239.999992675781,2|0,0:0|0:0,0:0:0:0:
245,295,26558,1,8,0:0:0:0:
184,373,27158,6,0,P|189:358|188:341,1,29.9999990844727
176,260,27458,1,2,0:0:0:0:
256,192,27608,12,0,29558,0:0:0:0:
48,340,29858,5,4,0:3:0:0:
48,340,30008,1,0,0:0:0:0:
112,232,30158,2,0,L|116:296,1,59.9999981689454,0|0,3:0|0:0,0:0:0:0:
280,360,30758,2,0,P|267:351|252:348,1,29.9999990844727,0|0,0:0|1:0,0:0:0:0:
172,364,31058,1,0,0:0:0:0:
312,288,31208,1,0,3:0:0:0:
192,192,31358,2,0,L|196:256,1,59.9999981689454,8|0,0:0|1:0,0:0:0:0:
195,251,31958,1,0,0:0:0:0:
464,340,32258,5,2,0:0:0:0:
464,340,32408,1,0,0:0:0:0:
400,232,32558,2,0,L|396:296,1,59.9999981689454,0|0,1:0|0:0,0:0:0:0:
232,360,33158,2,0,P|244:351|259:348,1,29.9999990844727,0|0,0:0|3:0,0:0:0:0:
340,364,33458,1,0,0:0:0:0:
200,288,33608,1,0,1:0:0:0:
320,192,33758,2,0,L|316:256,1,59.9999981689454,8|0,0:0|0:0,0:0:0:0:
268,32,34358,1,2,0:0:0:0:
152,168,34658,6,0,L|96:160,1,29.9999990844727,0|0,3:0|0:0,0:0:0:0:
48,156,34958,1,0,1:0:0:0:
208,224,35108,1,0,0:0:0:0:
156,292,35258,2,0,P|135:270|126:242,1,59.9999981689454,0|2,0:0|0:0,0:0:0:0:
360,168,35858,6,0,L|416:160,1,29.9999990844727,0|0,0:0|3:0,0:0:0:0:
464,156,36158,1,8,0:0:0:0:
464,156,36308,1,0,0:0:0:0:
420,288,36458,2,0,P|396:264|388:236,1,59.9999981689454,0|0,0:0|1:0,0:0:0:0:
300,52,37058,6,0,L|304:16,2,29.9999990844727,0|0|0,0:0|0:0|1:0,0:0:0:0:
232,104,37508,2,0,L|236:164,1,59.9999981689454,0|0,0:0|3:0,0:0:0:0:
104,172,37958,2,0,P|132:152|156:148,1,59.9999981689454
308,192,38408,2,0,L|312:156,2,29.9999990844727,0|8|0,1:0|0:0|3:0,0:0:0:0:
252,252,38858,2,0,L|256:288,1,29.9999990844727,2|0,0:0|0:0,0:0:0:0:
308,344,39158,2,0,L|304:380,1,29.9999990844727
464,340,39458,5,0,0:0:0:0:
464,340,39608,1,0,0:0:0:0:
400,232,39758,2,0,L|396:296,1,59.9999981689454,2|0,0:0|0:0,0:0:0:0:
232,360,40358,2,0,P|245:351|260:348,1,29.9999990844727,0|0,0:0|1:0,0:0:0:0:
340,364,40658,1,0,0:0:0:0:
200,288,40808,1,8,0:0:0:0:
320,192,40958,2,0,L|316:256,1,59.9999981689454,0|2,3:0|0:0,0:0:0:0:
316,251,41558,1,0,3:0:0:0:
48,340,41858,5,0,0:0:0:0:
48,340,42008,1,0,3:0:0:0:
112,232,42158,2,0,L|116:296,1,59.9999981689454,0|0,1:0|0:0,0:0:0:0:
280,360,42758,2,0,P|268:351|253:348,1,29.9999990844727,0|0,0:0|1:0,0:0:0:0:
172,364,43058,1,0,3:0:0:0:
312,288,43208,1,0,1:0:0:0:
184,184,43358,2,0,L|187:213,1,29.9999990844727,8|0,0:0|0:0,0:0:0:0:
224,280,43658,1,0,0:0:0:0:
268,152,43958,1,0,3:0:0:0:
84,164,44258,6,0,L|120:168,1,29.9999990844727,0|0,3:0|0:0,0:0:0:0:
204,100,44558,2,0,L|168:104,1,29.9999990844727,0|0,1:0|0:0,0:0:0:0:
140,28,44858,1,0,0:0:0:0:
136,36,45158,1,2,0:0:0:0:
88,92,45308,1,0,1:0:0:0:
196,176,45458,2,0,L|232:172,1,29.9999990844727,0|0,0:0|3:0,0:0:0:0:
88,248,45758,2,0,L|58:244,1,29.9999990844727,8|0,0:0|0:0,0:0:0:0:
152,304,46058,1,2,0:0:0:0:
316,184,46358,6,0,L|318:154,1,29.9999990844727,0|0,1:0|0:0,0:0:0:0:
372,236,46658,1,2,0:0:0:0:
256,192,46808,12,8,49058,0:3:0:0:
66,110,50858,5,0,0:0:0:0:
66,110,51008,2,0,P|44:143|47:163,1,59.9999981689454
15,225,51458,5,4,1:0:0:0:
181,156,51608,1,2,0:0:0:0:
305,286,51758,1,8,0:1:0:0:
85,321,51908,5,0,0:0:0:0:
90,314,51983,1,0,0:0:0:0:
92,306,52058,2,0,P|92:282|77:249,1,50,2|0,0:0|0:0,0:0:0:0:
270,128,52208,2,0,P|261:150|264:186,1,50,0|0,3:0|0:0,0:0:0:0:
227,366,52358,1,8,0:1:0:0:
157,380,52508,6,0,P|141:283|270:262,1,225.000008583069,0|0,1:0|0:0,0:0:0:0:
243,244,52808,1,0,0:0:0:0:
270,128,52958,2,0,P|195:122|168:208,1,150.000005722046,8|0,0:1|3:0,0:0:0:0:
83,0,53258,5,0,1:0:0:0:
79,203,53408,1,2,0:0:0:0:
82,0,53558,6,0,L|87:49,1,50,8|0,0:1|0:0,0:0:0:0:
9,121,53708,2,0,L|14:171,1,50,0|0,1:0|0:0,0:0:0:0:
81,295,53858,6,0,B|58:267|19:267|19:267|66:216|142:228|172:278,1,225.000008583069,0|0,3:0|0:0,0:0:0:0:
157,259,54158,1,8,0:1:0:0:
228,368,54308,1,2,0:0:0:0:
228,368,54458,1,0,1:0:0:0:
256,228,54608,1,0,1:0:0:0:
368,324,54758,1,8,0:1:0:0:
456,120,54908,6,0,P|460:212|340:232,1,225.000008583069,2|0,0:0|0:0,0:0:0:0:
348,237,55208,1,0,0:0:0:0:
292,92,55358,2,0,P|372:108|372:140,1,100,8|2,0:1|0:0,0:0:0:0:
231,155,55658,1,0,3:0:0:0:
123,17,55808,5,2,0:0:0:0:
230,48,55958,2,0,B|160:42|160:42|150:48|150:48|35:39,1,150,8|0,0:1|0:0,0:0:0:0:
0,56,56258,6,0,B|34:109|34:109|11:179,1,125,4|0,1:3|0:0,0:0:0:0:
189,210,56483,1,0,0:0:0:0:
188,197,56558,2,0,P|163:188|125:216,1,62.5,8|0,0:1|0:0,0:0:0:0:
11,325,56708,1,2,0:0:0:0:
172,384,56858,6,0,P|177:351|158:324,1,50,0|0,3:0|0:0,0:0:0:0:
65,239,57008,2,0,P|83:283|83:382,1,100,2|8,0:0|0:1,0:0:0:0:
214,178,57308,6,0,P|206:73|103:52,1,225.000008583069
101,66,57608,1,0,0:0:0:0:
267,228,57758,2,0,P|303:211|318:133,1,100,8|0,0:1|0:0,0:0:0:0:
141,205,58058,1,0,3:0:0:0:
293,88,58208,5,0,0:0:0:0:
254,0,58358,2,0,B|231:17|231:17|227:74,1,75.0000028610231,8|0,0:1|0:0,0:0:0:0:
237,142,58658,5,0,1:0:0:0:
237,142,58808,1,2,0:0:0:0:
421,103,58958,1,8,0:1:0:0:
512,278,59108,1,2,0:0:0:0:
303,192,59258,6,0,L|368:186,1,50,0|0,3:0|0:0,0:0:0:0:
301,179,59408,2,0,L|366:173,1,50,0|0,3:0|0:0,0:0:0:0:
501,9,59558,1,8,0:1:0:0:
510,87,59708,6,0,B|422:79|422:79|413:73|413:73|315:63|315:63|372:111,1,225.000008583069,2|0,0:0|0:0,0:0:0:0:
129,112,60008,2,0,L|209:118,1,50
239,28,60158,6,0,B|252:32|252:32|225:113,1,50,8|0,0:1|0:0,0:0:0:0:
234,205,60308,2,0,B|221:201|221:201|248:120,1,50,2|0,0:0|0:0,0:0:0:0:
98,44,60458,5,0,3:0:0:0:
81,50,60533,1,0,0:0:0:0:
69,61,60608,1,0,3:0:0:0:
61,76,60683,1,0,0:0:0:0:
0,110,60758,6,0,P|4:140|32:168,1,50,8|0,0:1|0:0,0:0:0:0:
28,227,60908,2,0,P|53:233|85:224,1,50,2|0,0:0|0:0,0:0:0:0:
134,183,61058,5,4,1:0:0:0:
172,384,61208,1,2,0:0:0:0:
55,335,61358,6,0,B|93:352|125:325|115:319|155:290|197:313,1,150.000005722046,8|0,0:1|0:0,0:0:0:0:
261,352,61583,1,0,0:0:0:0:
261,352,61658,2,0,P|272:317|250:270,1,50,2|0,0:0|0:0,0:0:0:0:
383,221,61808,2,0,P|372:256|394:303,1,50,0|0,3:0|0:0,0:0:0:0:
235,233,61958,1,8,0:1:0:0:
401,365,62108,6,0,B|358:339|354:285|354:285|316:321|260:301,1,187.5,0|0,1:0|0:0,0:0:0:0:
269,303,62408,1,0,0:0:0:0:
152,197,62558,2,0,P|152:169|180:129,1,50,8|0,0:1|0:0,0:0:0:0:
307,142,62708,2,0,P|307:170|279:210,1,50,0|0,3:0|0:0,0:0:0:0:
232,84,62858,6,0,B|236:136|236:136|228:172|228:172|236:244,1,150.000005722046,0|2,1:0|0:0,0:0:0:0:
192,318,63083,1,0,0:0:0:0:
184,324,63158,2,0,B|160:317|160:317|174:254,1,75.0000028610231,8|0,0:1|0:0,0:0:0:0:
307,142,63308,1,0,1:0:0:0:
364,254,63458,6,0,P|395:217|380:172,1,100,0|0,3:0|0:0,0:0:0:0:
506,278,63683,1,0,0:0:0:0:
512,263,63758,2,0,P|452:241|443:394,1,225.000008583069,8|0,0:1|0:0,0:0:0:0:
392,359,64058,1,0,1:0:0:0:
463,336,64208,2,0,P|471:368|463:396,1,50,0|0,1:0|0:0,0:0:0:0:
311,288,64358,2,0,P|303:256|311:228,1,50,8|0,0:1|0:0,0:0:0:0:
432,84,64508,6,0,B|424:148|424:148|436:180|436:180|416:296,1,150.000005722046,2|0,0:0|1:0,0:0:0:0:
430,237,64733,1,0,0:0:0:0:
430,237,64808,1,0,0:0:0:0:
296,15,64958,1,8,0:1:0:0:
140,198,65108,6,0,B|208:241|256:195|243:186|289:133|363:189,1,225.000008583069,2|0,0:0|0:0,0:0:0:0:
142,85,65408,5,2,0:0:0:0:
184,327,65558,1,8,0:1:0:0:
64,145,65708,1,0,1:0:0:0:
205,205,65858,6,0,P|173:197|125:205,1,66.6666666666667,4|0,1:2|0:0,0:0:0:0:
266,267,66058,2,0,P|275:298|306:336,1,66.6666666666667,4|0,3:2|0:0,0:0:0:0:
289,190,66258,2,0,P|311:166|328:120,1,66.6666666666667,4|0,1:2|0:0,0:0:0:0:
148,268,66458,6,0,B|116:288|116:288|84:356,1,66.6666666666667,4|0,1:2|0:0,0:0:0:0:
350,291,66658,2,0,B|383:308|383:308|458:302,1,66.6666666666667,4|0,3:2|0:0,0:0:0:0:
251,113,66858,2,0,B|249:75|249:75|206:13,1,66.6666666666667,8|0,0:1|0:0,0:0:0:0:
211,321,67058,5,0,1:0:0:0:
424,196,67208,2,0,L|308:208,1,100,2|8,0:0|0:1,0:0:0:0:
160,108,67508,1,2,0:0:0:0:
392,8,67658,1,0,3:0:0:0:
251,113,67808,6,0,B|315:129|315:129|367:185|367:185|438:198,1,200,0|8,3:0|0:3,0:0:0:0:
256,192,68183,12,0,70358,0:0:0:0:
128,320,70508,5,0,1:0:0:0:
128,320,70658,2,0,P|116:292|120:252,1,50,4|0,1:0|0:0,0:0:0:0:
112,196,70808,2,0,P|142:199|174:223,1,50,2|0,0:0|0:0,0:0:0:0:
228,244,70958,2,0,P|209:268|173:284,1,50,8|0,0:0|0:0,0:0:0:0:
36,240,71108,1,0,3:0:0:0:
32,248,71558,5,2,0:0:0:0:
28,256,72008,6,0,P|56:244|72:184,1,50,2|0,0:0|0:0,0:0:0:0:
144,244,72158,2,0,P|152:220|144:164,1,50,0|0,3:0|0:0,0:0:0:0:
24,32,72308,6,0,P|36:60|96:76,1,50,0|0,3:0|3:0,0:0:0:0:
36,148,72458,2,0,P|60:156|116:148,1,50,8|0,3:2|3:0,0:0:0:0:
224,76,72608,5,0,3:0:0:0:
224,76,72683,1,0,3:0:0:0:
224,76,72758,1,0,3:0:0:0:
248,103,72833,1,0,3:0:0:0:
282,118,72908,1,0,1:0:0:0:
319,116,72983,1,0,0:0:0:0:
352,98,73058,6,0,B|357:74|357:74|340:26,1,50,0|0,1:0|0:0,0:0:0:0:
431,173,73208,6,0,L|488:182,1,50,2|0,0:0|0:0,0:0:0:0:
478,194,73358,2,0,L|428:186,1,50,8|0,0:0|0:0,0:0:0:0:
352,289,73508,6,0,L|295:298,1,50,0|0,1:0|0:0,0:0:0:0:
305,310,73658,2,0,L|354:302,1,50,8|0,0:1|0:0,0:0:0:0:
430,103,73808,1,0,1:0:0:0:
495,268,73958,6,0,B|455:284|424:241|434:246|404:199|339:222,1,150,2|0,0:0|0:0,0:0:0:0:
362,216,74258,1,0,0:0:0:0:
255,361,74408,5,2,0:0:0:0:
435,380,74558,6,0,L|426:323,1,50,0|0,3:0|3:0,0:0:0:0:
421,382,74708,2,0,L|413:332,1,50,0|0,3:0|3:0,0:0:0:0:
347,181,74858,6,0,P|403:235|339:186,1,225.000008583069,8|0,0:0|0:0,0:0:0:0:
313,185,75158,6,0,B|263:172|263:172|229:224,1,100,2|0,0:1|0:0,0:0:0:0:
164,240,75458,6,0,L|159:172,1,50,0|0,1:0|0:0,0:0:0:0:
194,312,75608,2,0,L|144:316,1,50,2|0,0:0|0:0,0:0:0:0:
268,284,75758,2,0,L|273:352,1,50,8|0,0:0|0:0,0:0:0:0:
236,212,75908,1,0,1:0:0:0:
340,358,76358,6,0,L|397:362,2,50,2|2|8,0:0|3:0|0:0,0:0:0:0:
466,384,76808,2,0,L|453:274,1,100,2|0,3:0|0:0,0:0:0:0:
437,155,77258,1,2,0:0:0:0:
437,155,77708,1,0,1:0:0:0:
509,138,77858,6,0,B|513:167|513:167|497:203,1,50,0|0,1:0|0:0,0:0:0:0:
374,208,78008,6,0,L|382:272,1,50,2|0,0:0|0:0,0:0:0:0:
354,198,78158,2,0,L|304:204,1,50,8|0,0:0|0:0,0:0:0:0:
328,316,78308,6,0,L|336:380,1,50,0|0,1:0|0:0,0:0:0:0:
263,268,78458,2,0,L|213:274,1,50,8|0,0:1|0:0,0:0:0:0:
126,345,78608,6,0,B|154:353|154:353|182:345,1,50,0|0,1:0|0:0,0:0:0:0:
69,290,78758,1,2,0:0:0:0:
24,357,78908,1,2,3:0:0:0:
73,294,79058,1,8,0:0:0:0:
16,170,79208,2,0,P|68:186|96:262,2,100,2|2|8,0:0|3:0|0:0,0:0:0:0:
29,89,79658,1,2,3:0:0:0:
165,241,79808,6,0,P|216:222|284:266,1,100,2|8,0:0|0:0,0:0:0:0:
373,146,80108,1,2,0:0:0:0:
342,220,80258,6,0,L|340:324,1,75.0000028610231,4|2,1:0|0:0,0:0:0:0:
361,73,80558,1,8,0:0:0:0:
512,185,80708,2,0,B|463:201|432:169|441:169|410:127|342:155,1,150.000005722046,2|0,0:0|3:0,0:0:0:0:
242,141,81158,2,0,P|283:141|312:106,1,75.0000028610231,8|2,0:0|0:0,0:0:0:0:
439,69,81458,5,0,1:0:0:0:
512,86,81608,1,0,0:0:0:0:
439,69,81758,2,0,L|447:161,1,75.0000028610231,8|0,0:0|3:0,0:0:0:0:
380,184,82058,5,0,0:0:0:0:
306,205,82208,1,0,3:0:0:0:
380,184,82358,2,0,L|372:276,1,75.0000028610231,8|0,0:0|1:0,0:0:0:0:
500,348,82658,6,0,P|444:336|431:304,1,75.0000028610231,0|0,3:0|3:0,0:0:0:0:
436,324,82883,1,0,0:0:0:0:
436,324,82958,2,0,L|442:278,1,37.5000014305115,8|0,0:1|0:0,0:0:0:0:
200,248,83108,2,0,B|275:231|275:231|319:306,1,150.000005722046,0|0,0:0|1:0,0:0:0:0:
300,369,83558,2,0,L|196:361,1,75.0000028610231,8|0,0:0|0:0,0:0:0:0:
59,309,83858,5,0,1:0:0:0:
135,379,84008,2,0,P|144:334|128:305,1,75.0000028610231,0|8,3:0|0:0,0:0:0:0:
35,240,84308,2,0,P|27:187|87:104,1,150.000005722046,2|0,0:0|1:0,0:0:0:0:
196,91,84758,2,0,P|168:61|114:67,1,75.0000028610231,8|0,0:0|0:0,0:0:0:0:
134,163,85058,5,0,1:0:0:0:
136,149,85208,1,0,1:0:0:0:
207,208,85358,1,8,0:1:0:0:
271,159,85508,2,0,P|300:137|362:153,1,75.0000028610231,0|0,0:0|1:0,0:0:0:0:
315,31,85808,2,0,P|359:54|379:105,1,75.0000028610231,2|8,0:0|0:0,0:0:0:0:
386,200,86108,1,0,3:0:0:0:
453,135,86258,5,0,3:0:0:0:
510,224,86408,2,0,L|499:317,1,75.0000028610231,2|8,0:0|0:0,0:0:0:0:
386,200,86708,2,0,L|375:107,1,75.0000028610231,2|0,0:0|0:0,0:0:0:0:
510,75,87008,1,2,0:0:0:0:
364,41,87158,2,0,L|452:33,1,75.0000028610231,8|0,0:0|3:0,0:0:0:0:
303,2,87458,5,0,1:0:0:0:
278,193,87608,1,0,1:0:0:0:
240,56,87758,6,0,P|212:66|197:109,1,50,8|0,0:1|0:0,0:0:0:0:
240,56,87908,2,0,P|210:51|180:69,1,50
146,145,88058,6,0,P|118:135|103:92,1,50,0|0,1:0|0:0,0:0:0:0:
146,145,88208,2,0,P|116:150|86:132,1,50,0|0,3:0|0:0,0:0:0:0:
0,24,88358,6,0,L|16:167,1,112.500004291535,8|0,0:0|0:0,0:0:0:0:
81,289,88658,5,0,3:0:0:0:
14,256,88808,2,0,P|18:226|60:191,1,75.0000028610231,2|8,0:0|0:0,0:0:0:0:
154,260,89108,1,2,0:0:0:0:
81,289,89258,2,0,P|97:329|101:385,1,75.0000028610231,0|0,1:0|3:0,0:0:0:0:
226,282,89558,2,0,P|231:238|253:189,1,75.0000028610231,8|0,0:0|0:0,0:0:0:0:
306,178,89858,5,4,1:2:0:0:
358,345,90008,1,2,0:0:0:0:
405,219,90158,2,0,P|377:223|349:227,1,37.5000014305115,8|0,0:0|0:0,0:0:0:0:
372,239,90308,2,0,P|400:235|428:231,1,37.5000014305115,2|0,0:0|0:0,0:0:0:0:
497,330,90458,6,0,P|442:324|421:284,1,75.0000028610231,0|0,3:0|0:0,0:0:0:0:
453,105,90758,2,0,B|492:143|492:143|469:207,1,112.500004291535,8|0,0:0|0:0,0:0:0:0:
385,132,91058,6,0,B|322:139|322:139|301:132|301:132|209:140,1,150.000005722046,0|8,1:0|0:0,0:0:0:0:
220,204,91508,1,0,3:0:0:0:
182,89,91658,2,0,P|161:127|190:182,1,75.0000028610231,0|0,0:0|3:0,0:0:0:0:
289,201,91958,2,0,P|292:237|273:268,1,75.0000028610231,8|0,0:0|1:0,0:0:0:0:
147,355,92258,6,0,P|112:289|166:224,1,150.000005722046,0|8,3:0|0:1,0:0:0:0:
149,231,92633,1,0,0:0:0:0:
149,231,92708,1,0,0:0:0:0:
214,384,92858,1,2,0:0:0:0:
221,312,93008,1,0,1:0:0:0:
357,350,93158,2,0,L|249:362,1,75.0000028610231,8|0,0:0|0:0,0:0:0:0:
223,221,93458,6,0,P|286:208|343:278,1,150.000005722046,0|8,1:0|0:0,0:0:0:0:
443,296,93908,1,2,0:0:0:0:
490,240,94058,2,0,L|476:153,1,75.0000028610231,0|0,0:0|1:0,0:0:0:0:
367,154,94358,2,0,L|353:67,1,75.0000028610231,8|0,0:0|0:0,0:0:0:0:
427,50,94658,6,0,P|471:45|498:-4,2,75.0000028610231,0|0|8,1:0|1:0|0:1,0:0:0:0:
356,80,95108,2,0,P|321:52|267:67,1,75.0000028610231,0|0,0:0|1:0,0:0:0:0:
219,28,95408,2,0,P|182:61|185:119,1,75.0000028610231,2|8,0:0|0:0,0:0:0:0:
103,121,95708,6,0,P|144:178|149:273,1,150.000005722046,0|2,1:0|0:0,0:0:0:0:
101,317,96158,1,8,0:0:0:0:
198,384,96308,2,0,P|183:356|202:306,1,75.0000028610231,0|0,1:0|3:0,0:0:0:0:
257,290,96608,1,2,0:0:0:0:
153,256,96758,2,0,P|173:228|240:225,1,75.0000028610231,8|0,0:0|0:0,0:0:0:0:
309,236,97058,6,0,L|296:80,1,150.000005722046,0|8,1:0|0:1,0:0:0:0:
413,55,97508,2,0,P|372:33|320:51,1,75.0000028610231,0|0,0:0|1:0,0:0:0:0:
170,67,97808,2,0,P|211:45|263:63,1,75.0000028610231,0|8,3:0|0:0,0:0:0:0:
289,0,98108,5,0,0:0:0:0:
220,122,98258,1,0,0:0:0:0:
111,31,98408,2,0,P|68:28|30:8,1,75.0000028610231,2|8,0:0|0:0,0:0:0:0:
149,136,98708,6,0,L|163:297,1,150.000005722046,2|0,0:0|3:0,0:0:0:0:
171,356,99158,5,8,0:0:0:0:
311,262,99308,1,0,0:0:0:0:
366,381,99458,6,0,P|328:360|316:321,1,75.0000028610231,12|0,1:3|0:0,0:0:0:0:
242,321,99758,2,0,P|232:274|269:227,1,75.0000028610231,0|0,1:0|0:0,0:0:0:0:
429,177,100058,6,0,L|424:335,1,150.000005722046,8|0,0:0|3:0,0:0:0:0:
424,326,100508,1,0,1:0:0:0:
493,300,100658,5,2,0:0:0:0:
359,235,100808,2,0,P|333:199|347:127,1,112.500004291535,0|0,3:0|0:0,0:0:0:0:
353,125,101108,1,0,3:0:0:0:
489,100,101258,6,0,P|446:98|441:64,1,75.0000028610231,0|2,1:0|0:0,0:0:0:0:
482,0,101558,1,8,0:0:0:0:
487,12,101708,1,0,0:0:0:0:
346,44,101858,6,0,L|497:32,2,150.000005722046,0|0|8,1:0|3:0|0:0,0:0:0:0:
142,67,102758,1,0,3:0:0:0:
138,79,102908,1,2,0:0:0:0:
238,27,103058,5,0,1:0:0:0:
241,162,103208,2,0,P|213:123|215:84,1,75.0000028610231,0|0,3:0|0:0,0:0:0:0:
313,150,103508,1,0,3:0:0:0:
363,205,103658,2,0,P|360:245|325:278,1,75.0000028610231,8|2,0:0|0:0,0:0:0:0:
216,228,103958,2,0,P|217:191|240:161,1,75.0000028610231,0|0,3:0|0:0,0:0:0:0:
140,266,104258,6,0,P|139:311|137:345,1,75.0000028610231,0|0,1:0|0:0,0:0:0:0:
19,186,104558,2,0,P|20:231|22:265,1,75.0000028610231,0|0,1:0|0:0,0:0:0:0:
80,138,104858,1,8,0:0:0:0:
9,23,105158,1,0,3:0:0:0:
6,34,105308,1,0,1:0:0:0:
74,64,105458,6,0,P|123:58|159:7,2,100.000003814697,2|0|0,0:0|0:0|0:0,0:0:0:0:
204,141,106058,2,0,P|228:88|218:40,2,100.000003814697,0|0|0,1:0|0:0|0:0,0:0:0:0:
137,186,106658,6,0,L|151:368,2,150.000005722046,0|0|8,1:0|3:0|0:0,0:0:0:0:
130,109,107558,1,0,3:0:0:0:
204,141,107708,6,0,P|239:179|206:248,1,112.500004291535,2|0,0:0|0:0,0:0:0:0:
217,240,108008,1,0,3:0:0:0:
143,271,108158,1,0,0:0:0:0:
140,258,108308,1,0,3:0:0:0:
257,306,108458,2,0,P|306:309|339:352,1,75.0000028610231,8|2,0:0|0:0,0:0:0:0:
181,353,108758,2,0,P|132:350|99:307,1,75.0000028610231,0|0,3:0|0:0,0:0:0:0:
30,286,109058,6,0,L|40:396,1,75.0000028610231,0|0,1:0|0:0,0:0:0:0:
140,258,109358,2,0,L|150:148,1,75.0000028610231,0|0,1:0|0:0,0:0:0:0:
55,135,109658,1,8,0:0:0:0:
212,94,109958,5,0,3:0:0:0:
213,108,110108,1,0,1:0:0:0:
305,144,110258,2,0,P|260:157|241:199,1,75.0000028610231,2|0,0:0|3:0,0:0:0:0:
397,131,110558,2,0,P|371:91|325:82,1,75.0000028610231,0|0,0:0|3:0,0:0:0:0:
462,176,110858,6,0,P|432:230|427:344,1,150.000005722046,0|8,1:0|0:0,0:0:0:0:
359,355,111308,1,0,0:0:0:0:
299,311,111458,6,0,P|288:277|307:235,1,75.0000028610231,0|0,1:0|0:0,0:0:0:0:
423,246,111758,2,0,P|434:280|415:322,1,75.0000028610231,0|0,3:0|0:0,0:0:0:0:
250,368,112058,2,0,P|194:329|94:331,1,150.000005722046,8|0,0:0|3:0,0:0:0:0:
44,284,112508,1,2,0:0:0:0:
134,179,112658,5,0,1:0:0:0:
174,246,112808,2,0,P|219:245|252:203,1,75.0000028610231,0|0,3:0|0:0,0:0:0:0:
386,201,113108,1,0,3:0:0:0:
318,157,113258,2,0,L|314:254,2,75.0000028610231,8|2|0,0:0|0:0|3:0,0:0:0:0:
250,124,113708,1,0,0:0:0:0:
384,118,113858,6,0,P|357:68|265:58,2,150.000005722046,0|0|8,1:0|1:0|0:0,0:0:0:0:
136,113,114758,1,0,3:0:0:0:
131,99,114908,1,0,1:0:0:0:
215,3,115058,6,0,P|198:40|206:105,1,75.0000028610231,2|0,0:0|3:0,0:0:0:0:
69,150,115358,2,0,P|103:198|151:214,1,75.0000028610231,0|0,0:0|3:0,0:0:0:0:
189,195,115658,1,0,1:0:0:0:
111,323,115808,2,0,P|203:311|252:270,1,150.000005722046,2|0,0:0|0:0,0:0:0:0:
256,192,116258,12,8,118658,0:3:0:0:
344,293,120008,5,2,0:0:0:0:
342,308,120083,1,0,0:0:0:0:
281,361,120158,5,0,3:0:0:0:
260,343,120233,1,0,0:0:0:0:
249,319,120308,2,0,P|248:293|266:259,1,40,2|2,3:0|3:0,0:0:0:0:
237,156,120458,5,0,3:0:0:0:
234,183,120533,1,0,3:0:0:0:
220,206,120608,1,0,3:0:0:0:
198,220,120683,1,0,3:0:0:0:
154,291,120758,5,0,3:0:0:0:
127,294,120833,1,0,3:0:0:0:
102,286,120908,1,0,3:0:0:0:
81,269,120983,1,0,0:0:0:0:
24,219,121058,6,0,B|60:237|60:237|163:202|163:202|200:221,1,187.5,4|0,1:0|0:0,0:0:0:0:
377,174,121358,1,8,0:1:0:0:
345,338,121508,1,0,0:0:0:0:
315,305,121583,1,0,0:0:0:0:
312,261,121658,1,2,0:0:0:0:
476,253,121808,2,0,P|441:250|374:227,1,62.5,0|0,3:0|0:0,0:0:0:0:
238,109,121958,1,8,0:1:0:0:
311,120,122108,6,0,B|316:191|208:167|227:249,1,150,0|0,1:0|0:0,0:0:0:0:
224,230,122408,1,0,0:0:0:0:
164,67,122558,1,8,0:1:0:0:
283,5,122708,2,0,P|290:39|278:76,1,50,0|0,3:0|0:0,0:0:0:0:
238,109,122858,5,0,1:0:0:0:
363,63,123008,1,0,0:0:0:0:
446,189,123158,1,8,0:1:0:0:
347,288,123308,1,0,1:0:0:0:
224,230,123458,6,0,P|158:211|81:307,2,200,0|8|0,3:0|0:1|1:0,0:0:0:0:
201,301,124208,1,0,1:0:0:0:
317,161,124358,5,8,0:1:0:0:
289,92,124508,1,2,0:0:0:0:
369,4,124658,6,0,B|391:58|391:58|366:105,1,100,0|0,1:0|0:0,0:0:0:0:
228,138,124958,2,0,B|206:185|206:185|226:235,1,100,8|2,0:1|0:0,0:0:0:0:
422,314,125258,1,0,3:0:0:0:
403,237,125408,1,0,0:0:0:0:
482,224,125558,6,0,B|432:241|391:189|406:190|370:138|284:167,1,187.5,8|0,0:1|0:0,0:0:0:0:
223,229,125858,6,0,B|272:223|287:286|268:325|268:325|306:289|277:245,1,187.5,4|0,1:3|0:0,0:0:0:0:
288,272,126158,1,8,0:1:0:0:
141,259,126308,2,0,B|143:303|76:302|51:253|56:203|94:158,1,187.5,2|0,0:0|0:0,0:0:0:0:
84,170,126608,1,2,0:0:0:0:
317,39,126758,1,8,0:1:0:0:
251,72,126908,6,0,B|225:64|208:27|208:27|227:64|250:115|202:162,1,187.5
217,143,127208,1,0,0:0:0:0:
91,44,127358,2,0,P|103:57|146:67,1,62.5,8|0,0:1|0:0,0:0:0:0:
273,206,127508,6,0,B|305:155|368:139|409:156|409:156|384:185,1,187.5
353,316,127808,1,0,0:0:0:0:
460,308,127958,2,0,P|447:269|381:265,1,100,8|0,0:1|0:0,0:0:0:0:
139,278,128258,5,0,1:0:0:0:
139,278,128408,1,2,0:0:0:0:
198,346,128558,1,8,0:1:0:0:
224,139,128708,1,2,0:0:0:0:
72,182,128858,5,0,3:0:0:0:
273,206,129008,1,0,3:0:0:0:
298,0,129158,1,8,0:1:0:0:
498,48,129308,6,0,B|488:103|488:103|323:72,1,225.000008583069,2|0,0:0|0:0,0:0:0:0:
322,72,129608,1,0,0:0:0:0:
153,44,129758,2,0,L|251:37,1,75.0000028610231,8|0,0:1|0:0,0:0:0:0:
369,246,129908,2,0,L|362:148,1,75.0000028610231,2|0,0:0|0:0,0:0:0:0:
328,76,130058,5,0,3:0:0:0:
335,70,130133,1,0,0:0:0:0:
337,61,130208,1,0,3:0:0:0:
333,52,130283,1,0,0:0:0:0:
325,48,130358,1,8,0:1:0:0:
316,49,130433,1,0,0:0:0:0:
300,64,130508,6,0,P|305:83|293:127,1,37.5000014305115,2|0,0:0|0:0,0:0:0:0:
235,232,130658,6,0,B|223:239|217:264|217:264|171:228|160:167|207:128,1,187.5,4|0,1:0|0:0,0:0:0:0:
200,133,130958,1,8,0:1:0:0:
399,267,131108,2,0,P|321:260|270:317,1,125,0|2,0:0|0:0,0:0:0:0:
175,352,131333,1,0,0:0:0:0:
188,357,131408,6,0,P|192:335|171:280,1,62.5,0|0,3:0|0:0,0:0:0:0:
307,193,131558,2,0,P|308:156|331:119,1,62.5,8|0,0:1|0:0,0:0:0:0:
32,70,131708,6,0,P|89:75|86:194,1,187.5,0|0,1:0|0:0,0:0:0:0:
99,184,132008,1,0,0:0:0:0:
29,172,132158,5,8,0:1:0:0:
118,319,132308,2,0,P|109:307|115:257,1,62.5,0|0,3:0|0:0,0:0:0:0:
280,259,132458,5,0,1:0:0:0:
249,188,132608,2,0,P|195:189|172:233,1,100,2|8,0:0|0:1,0:0:0:0:
345,353,132908,1,0,1:0:0:0:
343,338,132983,1,0,0:0:0:0:
346,323,133058,6,0,P|399:290|511:307,1,150,0|0,3:0|0:0,0:0:0:0:
484,292,133358,1,8,0:1:0:0:
342,200,133508,1,2,0:0:0:0:
412,177,133658,2,0,P|430:126|375:75,1,100,0|0,1:0|1:0,0:0:0:0:
159,68,133958,1,8,0:1:0:0:
227,26,134108,6,0,B|241:49|241:49|210:144|210:144|227:181,1,150,2|0,0:0|0:0,0:0:0:0:
219,165,134408,1,0,0:0:0:0:
42,223,134558,1,8,0:1:0:0:
153,378,134708,6,0,P|159:308|80:281,1,150,2|0,0:0|0:0,0:0:0:0:
95,276,135008,5,2,0:0:0:0:
312,214,135158,1,8,0:1:0:0:
436,375,135308,1,0,0:0:0:0:
446,157,135458,6,0,P|410:158|404:234,1,100.000003814697,4|0,1:2|0:0,0:0:0:0:
357,276,135858,5,0,0:0:0:0:
129,167,136058,5,0,0:0:0:0:
331,42,136258,5,0,0:0:0:0:
227,348,136508,6,0,B|213:287|213:287|241:250,1,75.0000028610231,4|0,1:2|0:0,0:0:0:0:
236,274,136808,6,0,B|250:335|250:335|222:372,1,75.0000028610231
153,237,136958,2,0,B|92:251|92:251|55:223,1,75.0000028610231,2|0,0:0|0:0,0:0:0:0:
293,158,137108,6,0,B|333:170|333:170|421:238|421:238|467:246|467:246|451:235|423:203,1,225.000008583069,0|0,1:0|0:0,0:0:0:0:
512,86,137408,2,0,B|481:114|481:114|494:200,1,100,0|8,3:0|0:1,0:0:0:0:
356,343,137633,1,0,0:0:0:0:
368,342,137708,2,0,L|354:273,1,50
290,258,137858,5,4,1:0:0:0:
448,384,138008,1,0,3:0:0:0:
489,319,138158,1,8,0:1:0:0:
207,288,138308,1,2,0:0:0:0:
243,368,138458,1,0,0:0:0:0:
315,172,138608,5,0,1:0:0:0:
108,304,138758,1,8,0:1:0:0:
0,100,138908,1,2,0:0:0:0:
73,159,139058,6,0,P|168:135|284:106,1,179.999994506836,0|0,1:0|0:0,0:0:0:0:
247,115,139358,1,8,0:1:0:0:
109,36,139508,1,2,0:0:0:0:
108,45,139583,1,0,0:0:0:0:
106,55,139658,1,0,0:0:0:0:
289,264,139808,1,0,1:0:0:0:
212,331,139958,2,0,P|215:311|218:243,1,50,8|0,0:1|0:0,0:0:0:0:
344,169,140108,2,0,P|346:194|350:219,1,50,2|0,0:0|0:0,0:0:0:0:
415,251,140258,5,0,1:0:0:0:
272,193,140408,1,0,0:0:0:0:
289,264,140558,1,8,0:1:0:0:
512,92,140708,1,0,0:0:0:0:
501,172,140858,5,2,3:2:0:0:
376,22,141008,1,0,0:0:0:0:
164,103,141158,1,8,0:1:0:0:
357,91,141308,6,0,P|301:77|232:46,1,112.500004291535,2|0,0:0|0:0,0:0:0:0:
250,55,141608,1,0,3:0:0:0:
73,113,141758,1,8,0:1:0:0:
77,105,141833,1,0,0:0:0:0:
81,97,141908,2,0,P|90:66|93:35,1,37.5000014305115,2|0,0:0|0:0,0:0:0:0:
161,13,142058,6,0,L|165:38,3,14.9999995422363,0|0|0|0,1:0|0:0|0:0|0:0,0:0:0:0:
296,147,142358,6,0,L|289:216,6,37.5000014305115,10|0|0|0|0|0|0,0:1|0:0|0:0|0:0|0:0|0:0|0:0,0:0:0:0:
232,227,142658,5,0,1:0:0:0:
462,368,142808,1,2,0:0:0:0:
510,302,142958,2,0,L|494:196,1,100,8|0,0:1|1:0,0:0:0:0:
218,306,143258,1,0,0:0:0:0:
284,354,143408,2,0,L|390:338,1,100,0|8,3:0|0:1,0:0:0:0:
382,339,143708,1,0,0:0:0:0:
158,259,143858,5,0,1:0:0:0:
80,290,144008,2,0,P|71:209|67:174,1,100,2|8,0:0|0:1,0:0:0:0:
291,52,144308,1,0,3:0:0:0:
215,39,144458,5,0,1:0:0:0:
242,230,144608,1,0,3:0:0:0:
446,202,144758,1,8,0:1:0:0:
419,11,144908,1,2,0:0:0:0:
179,173,145058,5,0,1:0:0:0:
348,284,145208,2,0,P|356:226|374:161,1,100,0|8,3:0|0:1,0:0:0:0:
419,119,145508,1,2,0:0:0:0:
301,358,145658,5,0,3:0:0:0:
237,306,145808,2,0,P|162:294|109:292,1,100,0|8,3:0|0:1,0:0:0:0:
16,380,146108,1,2,0:0:0:0:
116,267,146258,6,0,P|242:285|300:302,1,150,0|0,1:0|0:0,0:0:0:0:
401,360,146558,1,8,0:1:0:0:
281,154,146708,2,0,P|260:180|243:216,1,50,2|0,0:0|0:0,0:0:0:0:
228,384,146858,5,0,3:0:0:0:
45,238,147008,1,0,3:0:0:0:
217,60,147158,1,8,0:1:0:0:
400,206,147308,1,2,0:0:0:0:
440,132,147458,5,4,1:0:0:0:
437,126,147608,1,0,3:0:0:0:
321,234,147758,6,0,L|332:310,1,50,8|0,0:1|0:0,0:0:0:0:
316,288,147908,2,0,L|308:238,1,50,2|0,0:0|0:0,0:0:0:0:
487,378,148058,5,0,0:0:0:0:
509,298,148208,1,0,1:0:0:0:
212,184,148358,5,8,0:1:0:0:
238,260,148508,1,2,0:0:0:0:
402,55,148658,5,0,1:0:0:0:
343,102,148808,2,0,P|284:95|201:84,1,100,0|8,3:0|0:1,0:0:0:0:
31,139,149108,6,0,P|17:105|98:128,1,187.5,2|0,0:0|0:0,0:0:0:0:
92,119,149408,6,0,P|53:73|38:132,1,150,0|0,1:0|0:0,0:0:0:0:
120,298,149708,2,0,P|124:273|128:245,1,50,2|0,0:0|0:0,0:0:0:0:
62,205,149858,5,0,1:0:0:0:
54,207,150008,1,0,0:0:0:0:
189,347,150158,6,0,L|265:358,1,50,8|0,0:1|0:0,0:0:0:0:
243,342,150308,2,0,L|193:334,1,50
53,369,150458,5,2,3:2:0:0:
29,298,150608,1,0,0:0:0:0:
225,192,150758,5,8,0:1:0:0:
249,121,150908,1,2,0:0:0:0:
45,24,151058,5,0,1:0:0:0:
106,72,151208,2,0,L|199:63,1,62.5,0|0,3:0|0:0,0:0:0:0:
481,33,151508,6,0,B|448:53|448:53|436:166|436:166|403:189,1,187.5,2|0,0:0|0:0,0:0:0:0:
394,190,151808,1,0,0:0:0:0:
510,336,151958,1,8,0:1:0:0:
510,330,152033,1,0,0:0:0:0:
511,325,152108,1,2,0:0:0:0:
511,320,152183,1,0,0:0:0:0:
512,316,152258,6,0,L|505:238,1,66.6666666666667,4|0,1:2|0:0,0:0:0:0:
369,105,152458,2,0,L|362:27,1,66.6666666666667,4|0,1:2|0:0,0:0:0:0:
278,229,152658,1,4,1:2:0:0:
280,238,152758,1,0,0:0:0:0:
254,159,152858,6,0,B|274:150|274:150|346:176,1,66.6666666666667,4|0,1:2|0:0,0:0:0:0:
143,283,153058,2,0,B|123:292|123:292|51:266,1,66.6666666666667,4|0,1:2|0:0,0:0:0:0:
28,91,153258,1,4,1:2:0:0:
36,89,153358,1,0,0:0:0:0:
99,135,153458,5,0,1:0:0:0:
1,283,153608,2,0,L|15:384,1,100,8|0,0:1|3:0,0:0:0:0:
169,108,153908,5,8,0:0:0:0:
175,110,153983,1,0,0:0:0:0:
180,112,154058,2,0,L|190:45,1,50,8|0,0:1|0:0,0:0:0:0:
51,218,154208,1,2,0:0:0:0:
45,220,154283,1,0,0:0:0:0:
40,222,154358,2,0,L|30:155,1,50,0|0,1:0|0:0,0:0:0:0:
207,322,154508,5,2,0:0:0:0:
205,330,154658,1,0,0:0:0:0:
332,244,154808,2,0,L|267:251,1,59.9999981689454
153,229,155108,5,0,0:0:0:0:
274,384,155258,2,0,L|283:310,2,59.9999981689454
356,316,155708,1,0,0:0:0:0:
139,161,155858,6,0,B|183:147|218:182|204:187|235:220|283:203,1,150.000005722046,2|0,0:0|0:0,0:0:0:0:
395,144,156308,1,0,0:0:0:0:
388,142,156383,1,0,0:0:0:0:
381,140,156458,2,0,B|369:101|369:101|387:56,1,75.0000028610231,8|0,0:0|0:0,0:0:0:0:
458,39,156758,1,0,0:0:0:0:
459,44,156908,1,0,0:0:0:0:
294,128,157058,5,2,0:0:0:0:
221,50,157508,2,0,P|260:60|290:144,1,120
254,200,158258,5,2,0:0:0:0:
358,175,158708,2,0,P|329:203|242:187,1,120,2|0,0:0|0:0,0:0:0:0:
199,136,159458,5,2,0:0:0:0:
183,254,160658,2,0,P|190:174|201:123,1,120,2|0,0:0|0:0,0:0:0:0:
125,71,161258,5,2,0:0:0:0:
120,81,161408,2,0,L|125:133,1,40
261,218,161858,2,0,P|325:213|396:206,1,120,2|0,0:0|0:0,0:0:0:0:
380,207,163058,5,2,0:0:0:0:
379,135,163508,2,0,P|393:167|376:212,1,80,0|2,0:0|0:0,0:0:0:0:
357,280,163958,5,0,0:0:0:0:
447,230,164258,2,0,P|401:227|356:286,1,120,2|0,0:0|0:0,0:0:0:0:
301,344,165008,1,0,0:0:0:0:
297,351,165158,2,0,P|251:354|206:295,1,120
375,358,165908,1,0,0:0:0:0:
378,365,166058,6,0,P|403:357|429:300,1,80
504,298,166658,6,0,B|520:254|489:219|478:233|451:189|483:136,1,150,2|0,0:0|0:0,0:0:0:0:
477,151,166958,1,0,0:0:0:0:
477,151,167258,6,0,L|406:160,1,50
356,169,167558,1,0,0:0:0:0:
235,232,167858,6,0,B|265:267|265:267|238:355,1,112.500004291535,2|0,0:0|0:0,0:0:0:0:
245,330,168158,1,0,0:0:0:0:
149,384,168308,2,0,L|161:224,1,150.000005722046,2|0,0:0|0:0,0:0:0:0:
90,197,168758,1,0,0:0:0:0:
189,77,168908,1,0,0:0:0:0:
219,154,169058,6,0,P|172:149|125:138,1,75.0000028610231,2|0,0:0|0:0,0:0:0:0:
21,65,169358,1,0,0:0:0:0:
77,10,169508,2,0,P|122:9|171:2,1,75.0000028610231
23,142,169808,2,0,P|18:207|15:238,1,75.0000028610231
119,316,170108,1,0,0:0:0:0:
120,325,170183,1,0,0:0:0:0:
123,336,170258,6,0,P|160:330|280:316,1,150.000005722046,2|0,0:0|0:0,0:0:0:0:
414,363,170708,2,0,P|441:324|427:274,1,75.0000028610231,2|0,0:0|0:0,0:0:0:0:
299,250,171008,2,0,P|283:199|299:160,1,75.0000028610231
412,134,171308,1,0,0:0:0:0:
409,140,171383,1,0,0:0:0:0:
407,146,171458,5,2,0:0:0:0:
377,14,171908,2,0,L|389:81,1,37.5000014305115
389,61,172058,1,0,0:0:0:0:
308,51,172208,5,0,0:0:0:0:
302,56,172358,1,0,0:0:0:0:
465,94,172508,1,0,0:0:0:0:
331,174,172658,6,0,P|282:166|240:161,1,75.0000028610231,2|0,0:0|0:0,0:0:0:0:
383,234,172958,1,0,0:0:0:0:
292,317,173108,2,0,P|274:261|196:288,1,150.000005722046,2|0,0:0|0:0,0:0:0:0:
198,288,173558,1,0,0:0:0:0:
130,236,173708,1,0,0:0:0:0:
225,98,173858,5,0,0:0:0:0:
256,192,174458,12,8,176258,0:3:0:0:
41,27,179858,6,0,P|38:19|32:14,1,14.9999995422363
123,80,180008,2,0,P|140:83|157:81,2,34.9999989318848,2|0|0,0:0|0:0|3:0,0:0:0:0:
59,146,180233,6,0,P|55:158|51:170,2,25,0|2|2,0:0|3:0|3:0,0:0:0:0:
243,22,180458,2,0,B|268:13|268:13|257:70,1,85.0000016212464,0|0,3:0|3:0,0:0:0:0:
170,180,180608,5,0,3:0:0:0:
168,184,180683,1,0,3:0:0:0:
168,188,180758,1,0,3:0:0:0:
167,192,180833,1,0,3:0:0:0:
166,196,180908,1,0,3:0:0:0:
165,200,180983,1,0,0:0:0:0:
164,204,181058,6,0,P|171:261|179:338,1,100,4|2,1:0|0:0,0:0:0:0:
175,303,181358,1,8,0:1:0:0:
429,238,181508,2,0,B|334:222|372:276|265:260,1,165.000005035401
256,248,181808,1,0,3:0:0:0:
327,161,181958,2,0,P|327:143|329:126,1,34.9999989318848,8|0,0:1|0:0,0:0:0:0:
409,320,182108,6,0,B|470:346|470:346|505:281,1,139.999995727539,0|0,1:0|3:0,0:0:0:0:
466,46,182408,1,0,0:0:0:0:
466,46,182483,1,0,0:0:0:0:
466,46,182558,2,0,P|431:52|394:59,1,55.0000016784668,8|0,0:1|0:0,0:0:0:0:
271,18,182708,2,0,B|249:35|249:35|268:95,1,75.0000028610231,0|0,3:0|0:0,0:0:0:0:
451,142,182858,5,0,1:0:0:0:
451,142,183008,2,0,L|439:190,1,50,2|0,0:0|0:0,0:0:0:0:
319,347,183158,2,0,P|306:306|278:277,1,55.0000016784668,8|0,0:1|0:0,0:0:0:0:
247,159,183308,2,0,P|213:181|180:188,1,59.9999981689454,0|0,1:0|0:0,0:0:0:0:
120,298,183458,6,0,B|14:269|14:269|38:290|40:322,1,165.000005035401,0|0,3:0|0:0,0:0:0:0:
7,381,183758,1,8,0:1:0:0:
13,114,183908,2,0,B|73:117|105:74|105:74|72:121|111:200,1,209.999993591309,2|0,0:0|0:0,0:0:0:0:
21,211,184208,6,0,B|21:233|1:248|1:248|-1:222|12:214,1,80,0|0,1:0|0:0,0:0:0:0:
196,271,184358,2,0,B|252:296|252:296|214:148,1,179.999994506836,8|0,0:1|0:0,0:0:0:0:
200,110,184658,1,0,1:0:0:0:
219,381,184808,5,0,0:0:0:0:
219,381,184883,1,0,0:0:0:0:
219,381,184958,2,0,P|249:369|278:371,1,44.999998626709,8|0,0:1|0:0,0:0:0:0:
314,199,185108,2,0,P|352:219|363:248,1,55.0000016784668,2|0,0:0|0:0,0:0:0:0:
470,356,185258,1,0,3:0:0:0:
478,148,185408,6,0,L|469:197,1,50,2|0,0:0|0:0,0:0:0:0:
345,360,185558,2,0,P|336:319|321:297,1,55.0000016784668,8|0,0:1|0:0,0:0:0:0:
473,274,185708,2,0,P|432:284|414:301,1,59.9999981689454,0|0,1:0|0:0,0:0:0:0:
261,368,185858,6,0,L|97:356,1,150,4|0,1:3|0:0,0:0:0:0:
88,354,186158,1,8,0:1:0:0:
10,229,186308,2,0,B|77:213|142:195|142:195|97:216|104:283,1,209.999993591309,2|0,0:0|0:0,0:0:0:0:
177,258,186608,1,2,0:0:0:0:
74,134,186758,6,0,B|60:104|60:104|93:89,1,69.9999978637696,8|0,0:1|0:0,0:0:0:0:
249,25,186908,2,0,P|240:79|237:134,1,110.000003356934,0|2,0:0|1:2,0:0:0:0:
263,205,187133,1,0,0:0:0:0:
270,216,187208,5,0,0:0:0:0:
163,34,187358,1,8,0:1:0:0:
457,164,187508,2,0,P|360:223|343:203,1,150
349,207,187808,1,0,0:0:0:0:
475,71,187958,5,8,0:1:0:0:
323,4,188108,2,0,B|339:13|339:13|331:79,1,55.0000016784668
236,134,188258,6,0,B|222:155|222:155|63:131,1,129.999994049073,0|2,1:0|0:0,0:0:0:0:
9,21,188558,2,0,B|18:88|18:88|31:96|31:96|44:196,1,150,8|0,0:1|0:0,0:0:0:0:
8,262,188858,6,0,B|3:235|3:235|62:245,1,75.0000028610231,0|0,3:0|0:0,0:0:0:0:
177,73,189008,2,0,B|153:40|153:40|111:50,1,85.0000016212464,0|0,3:0|0:0,0:0:0:0:
174,256,189158,2,0,L|183:217,1,40,8|0,0:1|0:0,0:0:0:0:
118,139,189308,5,2,0:0:0:0:
271,11,189458,2,0,B|268:28|258:45|258:45|423:22|423:22|394:38|387:90,1,255.000004863739,4|0,1:3|0:0,0:0:0:0:
316,132,189758,6,0,P|351:136|379:157,1,69.9999978637696,8|0,0:1|0:0,0:0:0:0:
470,88,189907,2,0,P|484:121|479:155,1,69.9999978637696,2|0,0:0|0:0,0:0:0:0:
466,374,190058,6,0,P|479:341|475:310,1,59.9999981689454,0|0,3:0|0:0,0:0:0:0:
323,213,190208,2,0,P|327:243|332:282,1,64.9999970245363,0|0,3:0|0:0,0:0:0:0:
510,224,190358,6,0,B|503:241|503:241|411:230,1,85.0000016212464,8|0,0:1|0:0,0:0:0:0:
328,377,190508,2,0,P|304:352|261:342,1,59.9999981689454,2|0,0:0|0:0,0:0:0:0:
166,226,190658,6,0,L|60:236,1,100,4|2,1:0|0:0,0:0:0:0:
67,236,190958,1,8,0:1:0:0:
1,83,191108,2,0,B|70:93|70:93|75:119|75:119|167:131,1,165.000005035401
157,113,191408,1,0,3:0:0:0:
265,18,191558,2,0,B|293:7|293:7|281:73,1,59.9999981689454,8|0,0:1|0:0,0:0:0:0:
235,245,191708,6,0,B|210:179|210:179|285:164,1,139.999995727539,0|0,1:0|3:0,0:0:0:0:
452,62,192008,1,0,0:0:0:0:
452,62,192083,1,0,0:0:0:0:
452,62,192158,2,0,L|446:135,1,55.0000016784668,8|0,0:1|0:0,0:0:0:0:
501,241,192308,2,0,B|486:254|486:254|503:336,1,75.0000028610231,0|0,3:0|0:0,0:0:0:0:
407,212,192458,5,0,1:0:0:0:
407,212,192608,2,0,P|369:218|315:231,1,55.0000016784668,2|0,0:0|0:0,0:0:0:0:
295,362,192758,2,0,P|266:356|243:338,1,59.9999981689454,8|0,0:1|0:0,0:0:0:0:
100,308,192908,2,0,P|115:280|122:248,1,64.9999970245363,0|0,1:0|0:0,0:0:0:0:
52,147,193058,6,0,B|45:92|45:92|37:38|37:38|51:65|82:75,1,165.000005035401,0|0,3:0|0:0,0:0:0:0:
103,3,193358,1,8,0:1:0:0:
338,71,193508,2,0,B|278:74|246:31|246:31|279:78|240:157,1,209.999993591309,2|0,0:0|0:0,0:0:0:0:
165,146,193808,6,0,B|157:135|134:135|134:135|139:155|169:160,1,80,0|0,1:0|0:0,0:0:0:0:
304,211,193958,2,0,P|306:241|312:271,1,59.9999981689454,8|0,0:1|0:0,0:0:0:0:
233,375,194108,1,2,0:0:0:0:
15,272,194258,6,0,B|84:264|84:264|84:270|84:270|166:261,1,139.999995727539,0|0,1:0|0:0,0:0:0:0:
221,285,194483,1,0,0:0:0:0:
233,290,194558,1,8,0:1:0:0:
512,115,194708,2,0,B|444:108|444:108|421:149|421:149|329:140,2,189.999994926453,2|0|2,0:0|3:0|0:0,0:0:0:0:
354,48,195158,6,0,B|365:20|365:20|372:59,1,69.9999978637696,8|0,0:1|0:0,0:0:0:0:
483,205,195308,2,0,B|460:226|460:226|484:303,1,85.0000016212464,0|0,1:0|0:0,0:0:0:0:
399,374,195458,5,4,1:2:0:0:
414,372,195608,1,0,0:0:0:0:
428,376,195758,1,0,0:0:0:0:
428,376,196508,6,0,L|417:301,1,55.0000016784668,4|0,1:0|0:0,0:0:0:0:
509,195,196808,1,8,0:0:0:0:
402,298,197108,6,0,L|412:224,1,55.0000016784668,8|0,0:1|0:0,0:0:0:0:
311,132,197258,1,2,0:0:0:0:
420,229,197408,6,0,L|411:156,1,59.9999981689454,0|0,3:0|0:0,0:0:0:0:
497,59,197558,1,2,0:0:0:0:
400,150,197708,6,0,L|406:80,1,64.9999970245363,0|0,1:0|0:0,0:0:0:0:
326,4,197858,1,2,0:0:0:0:
326,4,198158,5,0,1:0:0:0:
134,105,198308,1,8,0:0:0:0:
277,273,198458,1,2,0:0:0:0:
33,278,198608,5,8,0:0:0:0:
228,179,198758,1,0,3:0:0:0:
87,9,198908,1,8,0:0:0:0:
114,209,199058,5,0,1:0:0:0:
247,74,199208,1,8,0:0:0:0:
87,9,199358,1,0,3:0:0:0:
228,179,199508,6,0,B|269:242|340:231|367:179|364:124|276:145,1,200,4|0,1:2|0:0,0:0:0:0:
482,25,199808,2,0,B|406:29|380:95|412:145|461:170|487:83,1,200,4|0,1:2|0:0,0:0:0:0:
488,321,200108,6,0,B|522:253|477:198|418:200|372:230|434:296,1,200,4|0,1:2|0:0,0:0:0:0:
218,333,200558,6,0,B|96:367|96:367|138:344|132:289,1,194.999991073609,8|0,0:1|0:0,0:0:0:0:
59,301,200858,1,0,1:0:0:0:
194,168,201008,1,0,1:0:0:0:
67,48,201158,6,0,P|85:76|89:111,1,69.9999978637696,8|0,0:1|0:0,0:0:0:0:
59,301,201308,1,0,0:0:0:0:
36,220,201458,6,0,B|23:180|23:180|156:223,1,139.999995727539,0|0,1:0|0:0,0:0:0:0:
197,253,201683,1,0,0:0:0:0:
216,250,201758,1,8,0:1:0:0:
296,23,201908,6,0,B|273:43|273:43|290:85,1,59.9999981689454,2|0,0:0|0:0,0:0:0:0:
412,138,202058,2,0,B|351:132|351:132|329:157|329:157|243:148,2,160,0|2|8,3:0|0:0|0:1,0:0:0:0:
486,86,202433,1,0,0:0:0:0:
506,83,202508,1,0,1:0:0:0:
497,282,202658,6,0,P|459:217|375:235,1,150,4|0,1:3|0:0,0:0:0:0:
391,220,202958,1,8,0:1:0:0:
190,360,203108,2,0,B|256:356|256:356|271:373|271:373|359:368,1,150,2|0,0:0|0:0,0:0:0:0:
412,320,203408,6,0,B|428:346|428:346|413:387,1,64.9999970245363,2|0,0:0|0:0,0:0:0:0:
190,360,203558,2,0,P|187:318|180:224,1,110.000003356934,8|0,0:1|0:0,0:0:0:0:
214,176,203783,1,2,0:0:0:0:
220,153,203858,1,2,1:2:0:0:
294,258,204008,5,0,0:0:0:0:
151,66,204158,2,0,B|118:60|118:60|149:102,1,59.9999981689454,8|0,0:1|0:0,0:0:0:0:
75,215,204308,2,0,P|110:188|157:192,1,64.9999970245363
294,258,204458,1,0,3:0:0:0:
190,360,204608,6,0,B|199:297|199:297|190:291|190:291|198:226,2,139.999995727539,0|8|0,0:0|0:1|0:0,0:0:0:0:
462,243,205058,2,0,P|419:169|334:175,1,179.999994506836,0|0,1:0|0:0,0:0:0:0:
294,258,205358,2,0,B|289:279|308:299|308:299|313:277|295:248,1,80,8|0,0:1|0:0,0:0:0:0:
315,83,205508,5,2,0:0:0:0:
315,83,205583,1,0,0:0:0:0:
315,83,205658,2,0,P|329:41|347:20,1,64.9999970245363,0|0,3:0|0:0,0:0:0:0:
141,0,205808,2,0,P|153:34|156:66,1,69.9999978637696,0|0,3:0|0:0,0:0:0:0:
220,155,205958,6,0,P|231:97|240:37,1,119.999996337891,8|2,0:1|0:0,0:0:0:0:
241,24,206183,1,0,0:0:0:0:
243,11,206258,1,4,1:3:0:0:
293,250,206408,6,0,L|288:200,1,44.999998626709
426,112,206558,1,8,0:1:0:0:
297,314,206708,6,0,L|303:265,1,50,2|0,0:0|0:0,0:0:0:0:
131,239,206858,5,0,3:0:0:0:
292,384,207008,6,0,L|286:324,1,55.0000016784668,0|0,3:0|0:0,0:0:0:0:
401,248,207158,1,8,0:1:0:0:
202,371,207308,5,2,0:0:0:0:
202,371,207383,1,0,0:0:0:0:
202,371,207458,2,0,P|160:357|95:351,1,100,4|0,1:0|0:0,0:0:0:0:
7,375,207758,1,8,0:1:0:0:
14,147,207908,6,0,B|34:155|34:155|26:219,1,80
209,214,208058,1,2,0:0:0:0:
209,214,208133,1,0,0:0:0:0:
209,214,208208,1,0,3:0:0:0:
8,291,208358,1,8,0:1:0:0:
136,105,208508,1,0,1:0:0:0:
114,222,208658,6,0,P|122:163|136:105,1,119.999996337891,0|0,3:0|0:0,0:0:0:0:
112,29,208883,1,0,0:0:0:0:
109,9,208958,1,8,0:1:0:0:
236,117,209108,1,0,0:0:0:0:
14,147,209258,5,0,1:0:0:0:
263,38,209408,1,0,0:0:0:0:
501,262,209558,5,8,0:1:0:0:
281,188,209708,1,0,1:0:0:0:
123,377,209858,5,0,3:0:0:0:
267,313,210008,2,0,L|255:257,1,50
236,117,210158,1,8,0:1:0:0:
236,117,210458,6,0,P|192:112|162:99,1,64.9999970245363,0|0,1:0|0:0,0:0:0:0:
40,20,210608,2,0,P|58:44|69:72,1,59.9999981689454,0|0,1:0|0:0,0:0:0:0:
65,269,210758,1,8,0:1:0:0:
24,197,210908,6,0,B|20:193|10:150|10:150|128:187,1,139.999995727539,2|0,0:0|1:0,0:0:0:0:
288,240,211208,2,0,P|256:248|227:270,1,59.9999981689454
192,376,211358,6,0,P|180:336|156:306,1,59.9999981689454,8|0,0:1|0:0,0:0:0:0:
339,351,211508,2,0,P|340:318|353:289,1,64.9999970245363,2|0,0:0|0:0,0:0:0:0:
230,175,211658,1,0,3:0:0:0:
455,114,211808,6,0,P|416:104|388:80,1,59.9999981689454,2|0,0:0|0:0,0:0:0:0:
270,9,211958,2,0,P|285:34|292:63,1,59.9999981689454,8|0,0:1|0:0,0:0:0:0:
230,175,212108,1,0,1:0:0:0:
373,10,212258,5,4,1:2:0:0:
288,239,212408,1,0,0:0:0:0:
230,175,212708,1,0,0:0:0:0:
152,252,213008,1,0,0:0:0:0:
38,206,213308,6,0,L|31:142,1,59.9999981689454,4|0,1:2|0:0,0:0:0:0:
33,127,213908,5,8,0:1:0:0:
14,296,214058,2,0,B|32:320|32:320|100:300,1,85.0000016212464,2|2,0:0|0:0,0:0:0:0:
293,175,214208,1,0,1:0:0:0:
289,216,214283,1,0,0:0:0:0:
285,258,214358,1,8,0:1:0:0:
281,300,214433,1,8,0:1:0:0:
277,341,214508,2,0,B|259:365|259:365|191:345,1,85.0000016212464,8|8,0:1|0:1,0:0:0:0:
122,219,214658,6,0,B|119:114|177:171|175:42,1,179.999994506836,4|0,1:0|0:0,0:0:0:0:
90,63,214958,2,0,B|65:44|43:53|43:53|55:67|73:65,1,80,8|0,0:1|0:0,0:0:0:0:
256,4,215108,2,0,B|253:27|260:64,1,55.0000016784668,2|0,0:0|0:0,0:0:0:0:
203,198,215258,1,0,0:0:0:0:
342,72,215408,5,0,1:0:0:0:
118,146,215558,1,8,0:1:0:0:
276,306,215708,1,2,0:0:0:0:
343,243,215858,5,0,1:0:0:0:
188,301,216008,1,0,3:0:0:0:
247,139,216158,2,0,P|248:173|256:228,1,80,8|2,0:1|0:0,0:0:0:0:
340,360,216458,1,0,0:0:0:0:
340,360,216608,1,0,1:0:0:0:
494,209,216758,2,0,P|447:214|350:236,1,120,8|0,0:1|0:0,0:0:0:0:
343,243,217058,6,0,B|331:208|331:208|358:172,1,59.9999981689454,0|0,1:0|0:0,0:0:0:0:
445,99,217208,2,0,B|471:103|471:103|489:144,1,59.9999981689454
499,301,217358,1,8,0:1:0:0:
446,361,217658,5,2,3:2:0:0:
264,103,217808,1,0,0:0:0:0:
8,278,217958,1,8,0:1:0:0:
250,183,218108,1,2,0:0:0:0:
32,21,218258,6,0,B|49:135,1,100,0|0,1:0|3:0,0:0:0:0:
188,247,218558,1,8,0:1:0:0:
214,107,218708,1,2,0:0:0:0:
327,204,218858,5,0,1:0:0:0:
89,197,219008,1,0,0:0:0:0:
264,29,219158,1,8,0:1:0:0:
359,319,219308,1,0,0:0:0:0:
509,114,219458,6,0,B|395:117|449:61|334:72,1,179.999994506836,0|0,1:0|0:0,0:0:0:0:
264,29,219758,2,0,B|260:25|244:45|247:68|247:68|265:55|261:39,1,80,8|0,0:1|0:0,0:0:0:0:
374,157,219908,2,0,P|389:186|390:217,1,55.0000016784668,0|0,1:0|0:0,0:0:0:0:
263,328,220058,1,0,0:0:0:0:
141,207,220208,6,0,B|137:203|172:222|207:229,1,59.9999981689454,0|0,3:0|0:0,0:0:0:0:
359,319,220358,2,0,P|348:344|341:378,1,50,8|0,0:1|0:0,0:0:0:0:
189,381,220508,1,0,0:0:0:0:
294,143,220658,6,0,P|280:208|273:270,1,110.000003356934,0|2,1:0|0:0,0:0:0:0:
263,328,220883,1,0,0:0:0:0:
267,345,220958,1,8,0:1:0:0:
445,234,221108,6,0,B|441:230|420:204|387:203,1,69.9999978637696,0|0,3:0|0:0,0:0:0:0:
274,251,221258,2,0,B|205:253|205:253|198:262|198:262|128:266,1,150.000005722046,0|0,1:0|3:0,0:0:0:0:
39,221,221483,1,0,0:0:0:0:
18,217,221558,1,8,0:1:0:0:
51,379,221708,6,0,B|83:363|83:363|68:303,1,85.0000016212464,2|0,0:0|0:0,0:0:0:0:
98,19,221858,2,0,B|106:83|106:83|93:94|93:94|110:190,2,139.999995727539,0|0|8,1:0|3:0|0:1,0:0:0:0:
98,19,222458,6,0,B|115:34|115:34|177:18,1,75.0000028610231,0|0,3:0|0:0,0:0:0:0:
392,114,222608,2,0,B|340:117|340:117|329:127|329:127|261:132,2,129.999994049073,0|8|2,3:0|0:1|0:0,0:0:0:0:
463,68,222983,1,0,0:0:0:0:
480,62,223058,1,0,1:0:0:0:
351,209,223208,5,0,3:0:0:0:
478,249,223358,2,0,B|508:213|508:213|491:163,1,100,8|2,0:1|0:0,0:0:0:0:
340,229,223658,2,0,P|343:265|352:330,1,80,0|0,3:0|3:0,0:0:0:0:
486,355,223958,2,0,P|456:340|410:338,1,59.9999981689454,8|2,0:1|0:0,0:0:0:0:
38,248,224258,5,4,1:0:0:0:
195,191,224408,1,0,3:0:0:0:
168,355,224558,1,8,0:1:0:0:
71,332,224858,5,0,0:0:0:0:
47,51,225008,1,0,1:0:0:0:
142,276,225158,1,8,0:1:0:0:
193,36,225308,1,2,0:0:0:0:
9,272,225458,5,0,1:0:0:0:
267,63,225608,1,0,3:0:0:0:
489,291,225758,1,8,0:1:0:0:
239,135,225908,1,2,0:0:0:0:
145,359,226058,5,0,0:0:0:0:
313,166,226208,1,0,1:0:0:0:
425,342,226358,1,8,0:1:0:0:
275,237,226508,1,2,0:0:0:0:
301,312,226658,5,0,1:0:0:0:
365,27,226808,1,0,0:0:0:0:
418,201,226958,1,8,0:1:0:0:
487,152,227258,5,2,3:2:0:0:
275,237,227408,1,0,0:0:0:0:
443,80,227558,1,8,0:1:0:0:
471,293,227708,1,2,0:0:0:0:
313,166,227858,5,0,1:0:0:0:
301,312,228008,1,0,3:0:0:0:
211,28,228158,1,8,0:1:0:0:
391,284,228308,1,2,0:0:0:0:
401,10,228458,5,0,1:0:0:0:
210,288,228608,1,0,0:0:0:0:
116,10,228758,1,8,0:1:0:0:
443,80,228908,1,2,0:0:0:0:
271,224,229058,5,0,1:0:0:0:
273,207,229208,1,2,0:0:0:0:
276,191,229358,1,2,0:0:0:0:
455,94,229658,5,2,0:0:0:0:
390,67,229808,1,2,0:0:0:0:
344,120,229958,1,0,3:0:0:0:
380,180,230108,5,4,1:3:0:0:
448,164,230258,1,0,0:0:0:0:
484,223,230408,1,0,0:0:0:0:
439,275,230558,1,0,3:0:0:0:
375,248,230708,1,8,0:0:0:0:
69,96,230858,5,2,3:0:0:0:
143,64,230933,1,2,3:0:0:0:
196,125,231008,1,2,3:0:0:0:
155,195,231083,1,2,3:0:0:0:
73,176,231158,1,0,3:0:0:0:
26,246,231233,1,0,3:0:0:0:
78,312,231308,1,0,3:0:0:0:
156,279,231383,1,0,3:0:0:0:
152,269,231458,5,4,1:0:0:0:
256,192,231533,12,2,233858,0:0:0:0:
115,95,235058,5,2,0:0:0:0:
201,59,235508,2,0,B|222:35|222:35|230:93,2,69.9999978637696,0|2|0,0:0|0:0|0:0,0:0:0:0:
115,95,236258,5,2,0:0:0:0:
100,172,237458,1,2,0:0:0:0:
100,172,237908,2,0,P|120:217|126:238,1,59.9999981689454,0|2,0:0|0:0,0:0:0:0:
272,233,238658,6,0,L|264:300,1,59.9999981689454,2|0,0:0|0:0,0:0:0:0:
404,187,239408,1,2,0:0:0:0:
450,325,239858,6,0,P|467:368|462:314,2,160,2|2|2,0:0|0:0|0:0,0:0:0:0:
35,255,242258,6,0,L|41:375,1,120,2|2,0:0|0:0,0:0:0:0:
489,47,243458,6,0,B|460:54|411:39|411:39|457:65|457:123|457:123|407:154|354:121|347:62,1,320,2|2,0:0|0:0,0:0:0:0:
349,74,245108,1,2,0:0:0:0:
283,16,245858,5,2,0:0:0:0:
256,186,246908,1,2,0:0:0:0:
256,192,249252,12,0,251052,0:0:0:0:
