osu file format v14

[General]
AudioFilename: audio.mp3
AudioLeadIn: 0
PreviewTime: 257794
Countdown: 0
SampleSet: Soft
StackLeniency: 0.7
Mode: 0
LetterboxInBreaks: 0
WidescreenStoryboard: 0

[Editor]
Bookmarks: 7937,23365,37080,50794,64508,78222,91937,105651,119365,133080,146794,160508,174222,187937,201651,215365,229080,242794,258222,271937,285651,299365,313080,326794,340508,354222,361080,367937
DistanceSpacing: 1.3
BeatDivisor: 4
GridSize: 8
TimelineZoom: 3.7

[Metadata]
Title:Zvwva - remix by An
TitleUnicode:Zvwva - remix by An
Artist:Feryquitous
ArtistUnicode:Feryquitous
Creator:-PC
Version:- Waylscz -
Source:
Tags:waefwerf arbane yokespai liiraye sebu cxu zer0 -gn diverse system c87 limited remixes
BeatmapID:1752371
BeatmapSetID:836857

[Difficulty]
HPDrainRate:6
CircleSize:4.6
OverallDifficulty:8.5
ApproachRate:9.2
SliderMultiplier:3.2
SliderTickRate:1

[Events]
//Background and Video events
0,0,"bg3.jpg",0,0
//Break Periods
//Storyboard Layer 0 (Background)
//Storyboard Layer 1 (Fail)
//Storyboard Layer 2 (Pass)
//Storyboard Layer 3 (Foreground)
//Storyboard Layer 4 (Overlay)
//Storyboard Sound Samples

[TimingPoints]
1080,428.571428571429,4,2,0,30,1,0
1080,-200,4,2,0,30,0,0
1401,-133.333333333333,4,2,0,30,0,0
2580,-200,4,2,0,30,0,0
4294,-100,4,2,0,30,0,0
4508,-200,4,2,0,30,0,0
4830,-133.333333333333,4,2,0,30,0,0
6008,-200,4,2,0,30,0,0
7722,-100,4,2,0,30,0,0
7937,-133.333333333333,4,2,0,30,0,0
8044,-200,4,2,0,30,0,0
8258,-133.333333333333,4,2,0,30,0,0
9437,-200,4,2,0,30,0,0
9972,-133.333333333333,4,2,0,30,0,0
11151,-100,4,2,0,30,0,0
11365,-200,4,2,0,30,0,0
11687,-133.333333333333,4,2,0,30,0,0
12865,-200,4,2,0,30,0,0
13401,-133.333333333333,4,2,0,30,0,0
14365,-285.714285714286,4,2,0,30,0,0
14580,-100,4,2,0,30,0,0
14794,-200,4,2,0,30,0,0
15115,-133.333333333333,4,2,0,30,0,0
16294,-200,4,2,0,30,0,0
16830,-133.333333333333,4,2,0,30,0,0
17580,-285.714285714286,4,2,0,30,0,0
18008,-100,4,2,0,30,0,0
18222,-200,4,2,0,30,0,0
18544,-133.333333333333,4,2,0,30,0,0
19722,-200,4,2,0,30,0,0
20258,-133.333333333333,4,2,0,30,0,0
20794,-285.714285714286,4,2,0,30,0,0
21437,-100,4,2,0,30,0,0
23365,-133.333333333333,4,2,0,30,0,0
24222,-100,4,2,0,30,0,0
24651,-133.333333333333,4,2,0,30,0,0
25080,-153.846153846153,4,2,0,30,0,0
25722,-133.333333333333,4,2,0,30,0,0
25937,-100,4,2,0,30,0,0
26151,-125,4,2,0,30,0,0
26794,-133.333333333333,4,2,0,30,0,0
27651,-100,4,2,0,30,0,0
28080,-133.333333333333,4,2,0,30,0,0
28508,-153.846153846154,4,2,0,30,0,0
29151,-133.333333333333,4,2,0,30,0,0
29365,-100,4,2,0,30,0,0
29580,-125,4,2,0,30,0,0
30222,-133.333333333333,4,2,0,30,0,0
31080,-100,4,2,0,30,0,0
31508,-133.333333333333,4,2,0,30,0,0
31937,-153.846153846153,4,2,0,30,0,0
32580,-133.333333333333,4,2,0,30,0,0
32794,-100,4,2,0,30,0,0
33008,-125,4,2,0,30,0,0
33651,-133.333333333333,4,2,0,30,0,0
34508,-100,4,2,0,30,0,0
34937,-133.333333333333,4,2,0,30,0,0
35365,-153.846153846153,4,2,0,30,0,0
36008,-133.333333333333,4,2,0,30,0,0
36222,-100,4,2,0,30,0,0
36437,-125,4,2,0,30,0,0
37080,-133.333333333333,4,2,0,30,0,0
37937,-100,4,2,0,30,0,0
38366,-133.333333333333,4,2,0,30,0,0
38794,-153.846153846153,4,2,0,30,0,0
39437,-133.333333333333,4,2,0,30,0,0
39651,-100,4,2,0,30,0,0
40080,-125,4,2,0,30,0,0
40509,-133.333333333333,4,2,0,30,0,0
41365,-100,4,2,0,30,0,0
41794,-133.333333333333,4,2,0,30,0,0
42222,-153.846153846153,4,2,0,30,0,0
42865,-133.333333333333,4,2,0,30,0,0
43080,-100,4,2,0,30,0,0
43294,-83.3333333333333,4,2,0,30,0,0
43937,-133.333333333333,4,2,0,30,0,0
44794,-100,4,2,0,30,0,0
45222,-133.333333333333,4,2,0,30,0,0
45651,-153.846153846153,4,2,0,30,0,0
46294,-133.333333333333,4,2,0,30,0,0
46508,-100,4,2,0,30,0,0
46937,-125,4,2,0,30,0,0
47365,-133.333333333333,4,2,0,30,0,0
48222,-100,4,2,0,30,0,0
48651,-133.333333333333,4,2,0,30,0,0
49080,-153.846153846153,4,2,0,30,0,0
49722,-133.333333333333,4,2,0,30,0,0
49937,-100,4,2,0,30,0,0
50365,-125,4,2,0,30,0,0
50794,-153.846153846154,4,2,0,30,0,0
58508,-104.166666666667,4,2,0,30,0,0
59151,-153.846153846154,4,2,0,5,0,0
59365,-153.846153846154,4,2,0,30,0,0
60758,-80,4,2,0,30,0,0
61080,-153.846153846154,4,2,0,30,0,0
65151,-125,4,2,0,30,0,0
65365,-100,4,2,0,30,0,0
65687,-166.666666666667,4,2,0,30,0,0
66222,-133.333333333333,4,2,0,30,0,0
68258,-153.846153846153,4,2,0,30,0,0
68580,-125,4,2,0,30,0,0
68794,-100,4,2,0,30,0,0
69115,-117.647058823529,4,2,0,30,0,0
69651,-125,4,2,0,30,0,0
70294,-100,4,2,0,30,0,0
70937,-125,4,2,0,30,0,0
71365,-153.846153846154,4,2,0,30,0,0
72008,-125,4,2,0,30,0,0
72222,-100,4,2,0,30,0,0
72544,-153.846153846154,4,2,0,30,0,0
73080,-133.333333333333,4,2,0,30,0,0
73937,-166.666666666667,4,2,0,30,0,0
74365,-86.9565217391304,4,2,0,30,0,0
74580,-100,4,2,0,30,0,0
75437,-125,4,2,0,30,0,0
75651,-100,4,2,0,30,0,0
75972,-125,4,2,0,30,0,0
78222,-66.6666666666667,4,2,0,30,0,0
78330,-153.846153846154,4,2,0,30,0,0
78544,-125,4,2,0,30,0,0
79187,-83.3333333333333,4,2,0,30,0,0
79401,-153.846153846154,4,2,0,30,0,0
80258,-125,4,2,0,30,0,0
80901,-83.3333333333333,4,2,0,30,0,0
81008,-153.846153846154,4,2,0,30,0,0
81972,-125,4,2,0,30,0,0
82294,-153.846153846154,4,2,0,30,0,0
82615,-83.3333333333333,4,2,0,30,0,0
82722,-153.846153846154,4,2,0,30,0,0
84437,-153.846153846154,4,2,0,30,0,0
85401,-125,4,2,0,30,0,0
86044,-83.3333333333333,4,2,0,30,0,0
86151,-153.846153846154,4,2,0,30,0,0
87758,-83.3333333333333,4,2,0,30,0,0
87972,-153.846153846154,4,2,0,30,0,0
88830,-125,4,2,0,30,0,0
89472,-83.3333333333333,4,2,0,30,0,0
89687,-153.846153846154,4,2,0,30,0,0
91937,-66.6666666666667,4,2,0,30,0,0
92151,-100,4,2,0,30,0,0
94937,-153.846153846154,4,2,0,30,0,0
95365,-100,4,2,0,30,0,0
97937,-153.846153846154,4,2,0,30,0,0
98044,-100,4,2,0,30,0,0
101794,-153.846153846154,4,2,0,30,0,0
102222,-100,4,2,0,30,0,0
105651,-153.846153846154,4,2,0,30,0,0
107258,-66.6666666666667,4,2,0,30,0,0
107580,-100,4,2,0,30,0,0
110580,-153.846153846154,4,2,0,30,0,0
110794,-100,4,2,0,30,0,0
114008,-153.846153846154,4,2,0,30,0,0
114222,-100,4,2,0,30,0,0
117437,-153.846153846154,4,2,0,30,0,0
117651,-100,4,2,0,30,0,0
119365,-78.125,4,2,0,30,0,0
119687,-100,4,2,0,30,0,0
120651,-117.647058823529,4,2,0,30,0,0
121080,-100,4,2,0,30,0,0
122472,-83.3333333333333,4,2,0,30,0,0
122794,-100,4,2,0,30,0,0
124080,-117.647058823529,4,2,0,30,0,0
124508,-100,4,2,0,30,0,0
127508,-117.647058823529,4,2,0,30,0,0
127937,-100,4,2,0,30,0,0
130937,-117.647058823529,4,2,0,30,0,0
131365,-100,4,2,0,30,0,0
133080,-117.647058823529,4,2,0,30,0,0
133401,-105.263157894737,4,2,0,30,0,0
133722,-95.238095238095,4,2,0,30,0,0
134044,-86.9565217391304,4,2,0,30,0,0
136080,-100,4,2,0,30,0,0
136508,-86.9565217391304,4,2,0,30,0,0
137794,-100,4,2,0,30,0,0
138222,-86.9565217391304,4,2,0,30,0,0
141222,-100,4,2,0,30,0,0
141651,-86.9565217391304,4,2,0,30,0,0
145080,-100,4,2,0,30,0,0
146472,-400,4,2,0,30,0,0
146794,-66.6666666666667,4,2,0,30,0,0
147115,-400,4,2,0,30,0,0
148508,-83.3333333333333,4,2,0,30,0,0
152794,-66.6666666666667,4,2,0,30,0,0
153651,-83.3333333333333,4,2,0,30,0,0
160508,-90.9090909090909,4,2,0,30,0,0
162222,-83.3333333333333,4,2,0,30,0,0
163937,-100,4,2,0,30,0,0
166722,-90.9090909090909,4,2,0,30,0,0
167365,-90.9090909090909,4,2,0,30,0,0
169080,-83.3333333333333,4,2,0,30,0,0
170044,-100,4,2,0,30,0,0
170794,-83.3333333333333,4,2,0,30,0,0
172508,-100,4,2,0,30,0,0
173044,-125,4,2,0,30,0,0
173365,-166.666666666667,4,2,0,30,0,0
173580,-250,4,2,0,30,0,0
174222,-100,4,2,0,30,0,0
174544,-105.263157894737,4,2,0,30,0,0
174865,-111.111111111111,4,2,0,30,0,0
175187,-117.647058823529,4,2,0,30,0,0
175937,-83.3333333333333,4,2,0,30,0,0
177651,-90.9090909090909,4,2,0,30,0,0
179365,-100,4,2,0,30,0,0
182794,-83.3333333333333,4,2,0,30,0,0
184508,-90.9090909090909,4,2,0,30,0,0
186222,-100,4,2,0,30,0,0
189651,-90.9090909090909,4,2,0,30,0,0
191365,-100,4,2,0,30,0,0
194794,-90.9090909090909,4,2,0,30,0,0
196508,-100,4,2,0,30,0,0
199937,-133.333333333333,4,2,0,30,0,0
201651,-200,4,2,0,30,0,0
205080,-166.666666666667,4,2,0,30,0,0
205401,-153.846153846154,4,2,0,30,0,0
205722,-142.857142857143,4,2,0,30,0,0
215044,-333.333333333333,4,2,0,30,0,0
215365,-142.857142857143,4,2,0,30,0,0
216222,-125,4,2,0,30,0,0
219865,-111.111111111111,4,2,0,30,0,0
222222,-99.9999999999999,4,2,0,30,0,0
223937,-111.111111111111,4,2,0,30,0,0
225651,-125,4,2,0,30,0,0
229080,-66.6666666666667,4,2,0,80,0,0
229294,-133.333333333333,4,2,0,80,0,0
229937,-100,4,2,0,80,0,0
230794,-133.333333333333,4,2,0,80,0,0
231115,-333.333333333333,4,2,0,80,0,0
231651,-80,4,2,0,80,0,0
232508,-200,4,2,0,80,0,0
232830,-80,4,2,0,80,0,0
233151,-133.333333333333,4,2,0,80,0,0
233580,-200,4,2,0,80,0,0
234222,-133.333333333333,4,2,0,80,0,0
235080,-333.333333333333,4,2,0,80,0,0
235187,-333.333333333333,4,2,0,5,0,0
235294,-285.714285714286,4,2,0,80,0,0
235401,-285.714285714286,4,2,0,80,0,0
235508,-250,4,2,0,80,0,0
235615,-200,4,2,0,80,0,0
235722,-166.666666666667,4,2,0,80,0,0
235830,-133.333333333333,4,2,0,80,0,0
235937,-200,4,2,0,80,0,0
236258,-80,4,2,0,80,0,0
236580,-133.333333333333,4,2,0,80,0,0
236901,-100,4,2,0,80,0,0
237222,-200,4,2,0,80,0,0
237651,-133.333333333333,4,2,0,80,0,0
238508,-200,4,2,0,80,0,0
238830,-80,4,2,0,80,0,0
239151,-200,4,2,0,80,0,0
239901,-66.6666666666667,4,2,0,80,0,0
240222,-100,4,2,0,80,0,0
240651,-133.333333333333,4,2,0,80,0,0
242151,-100,4,2,0,80,0,0
242794,-100,4,2,0,80,0,0
243758,-133.333333333333,4,2,0,80,0,0
244615,-100,4,2,0,80,0,0
245472,-133.333333333333,4,2,0,80,0,0
246222,-100,4,2,0,80,0,0
247187,-133.333333333333,4,2,0,80,0,0
247937,-100,4,2,0,80,0,0
253080,-133.333333333333,4,2,0,80,0,0
254794,-200,4,2,0,80,0,0
256508,-71.4285714285714,4,2,0,80,0,0
257151,-125,4,2,0,80,0,0
257472,-111.111111111111,4,2,0,80,0,0
257794,-400,4,2,0,80,0,0
258222,-66.6666666666667,4,2,0,80,0,0
259187,-100,4,2,0,80,0,0
260258,-200,4,2,0,80,0,0
260472,-80,4,2,0,80,0,0
260901,-200,4,2,0,80,0,0
264437,-80,4,2,0,80,0,0
265080,-200,4,2,0,80,0,0
271937,-66.6666666666667,4,2,0,80,0,0
272365,-133.333333333333,4,2,0,80,0,0
277937,-200,4,2,0,80,0,0
278151,-66.6666666666667,4,2,0,80,0,0
278365,-100,4,2,0,80,0,0
279222,-133.333333333333,4,2,0,80,0,0
279437,-100,4,2,0,80,0,0
279758,-133.333333333333,4,2,0,80,0,0
283937,-66.6666666666667,4,2,0,80,0,0
284258,-200,4,2,0,80,0,0
285008,-333.333333333333,4,2,0,80,0,0
285330,-200,4,2,0,80,0,0
285651,-66.6666666666667,4,2,0,80,0,0
285972,-133.333333333333,4,2,0,80,0,0
286615,-57.1428571428571,4,2,0,80,0,0
287258,-50,4,2,0,80,0,0
287580,-100,4,2,0,80,0,0
287740,-100,4,2,0,5,0,0
287794,-100,4,2,0,80,0,0
287901,-100,4,2,0,80,0,0
288008,-100,4,2,0,80,0,0
288222,-133.333333333333,4,2,0,80,0,0
288437,-133.333333333333,4,2,0,80,0,0
289080,-200,4,2,0,80,0,0
289401,-133.333333333333,4,2,0,80,0,0
289722,-200,4,2,0,80,0,0
290365,-100,4,2,0,80,0,0
291437,-200,4,2,0,80,0,0
291651,-100,4,2,0,80,0,0
294115,-133.333333333333,4,2,0,80,0,0
295401,-66.6666666666667,4,2,0,80,0,0
295501,-133.333333333333,4,2,0,80,0,0
296312,-133.333333333333,4,2,0,5,0,0
296472,-133.333333333333,4,2,0,80,0,0
299365,-100,4,2,0,80,0,0
301080,-133.333333333333,4,2,0,80,0,0
302794,-100,4,2,0,80,0,0
303651,-133.333333333333,4,2,0,80,0,0
304080,-80,4,2,0,80,0,0
304508,-76.9230769230769,4,2,0,80,0,0
305365,-100,4,2,0,80,0,0
306222,-76.9230769230769,4,2,0,80,0,0
306544,-66.6666666666667,4,2,0,80,0,0
306865,-83.3333333333333,4,2,0,80,0,0
307187,-71.4285714285714,4,2,0,80,0,0
307830,-76.9230769230769,4,2,0,80,0,0
308151,-100,4,2,0,80,0,0
308472,-83.3333333333333,4,2,0,80,0,0
308794,-111.111111111111,4,2,0,80,0,0
309115,-90.9090909090909,4,2,0,80,0,0
309437,-125,4,2,0,80,0,0
310508,-133.333333333333,4,2,0,80,0,0
311365,-200,4,2,0,80,0,0
313080,-100,4,2,0,80,0,0
314044,-83.3333333333333,4,2,0,80,0,0
314151,-100,4,2,0,80,0,0
315758,-83.3333333333333,4,2,0,80,0,0
315972,-100,4,2,0,80,0,0
317472,-83.3333333333333,4,2,0,80,0,0
317794,-100,4,2,0,80,0,0
319187,-83.3333333333333,4,2,0,80,0,0
319615,-100,4,2,0,80,0,0
320901,-83.3333333333333,4,2,0,80,0,0
321437,-100,4,2,0,80,0,0
322615,-83.3333333333333,4,2,0,80,0,0
323258,-100,4,2,0,80,0,0
324330,-83.3333333333333,4,2,0,80,0,0
324972,-100,4,2,0,80,0,0
326044,-83.3333333333333,4,2,0,80,0,0
326365,-133.333333333333,4,2,0,80,0,0
326794,-90.9090909090909,4,2,0,80,0,0
327758,-111.111111111111,4,2,0,80,0,0
328080,-90.9090909090909,4,2,0,80,0,0
329472,-111.111111111111,4,2,0,80,0,0
329794,-90.9090909090909,4,2,0,80,0,0
331187,-111.111111111111,4,2,0,80,0,0
331509,-90.9090909090909,4,2,0,80,0,0
332901,-111.111111111111,4,2,0,80,0,0
333223,-90.9090909090909,4,2,0,80,0,0
334615,-111.111111111111,4,2,0,80,0,0
334937,-90.9090909090909,4,2,0,80,0,0
336330,-111.111111111111,4,2,0,80,0,0
336652,-90.9090909090909,4,2,0,80,0,0
338794,-200,4,2,0,30,0,0
340508,-133.333333333333,4,2,0,40,0,0
364508,-166.666666666667,4,2,0,40,0,0
366222,-200,4,2,0,40,0,0

[HitObjects]
69,22,1080,6,0,P|110:29|172:56,1,80
232,16,1401,2,0,P|217:70|216:157,1,120.000004577637,2|0,0:0|0:0,0:0:0:0:
282,168,1722,1,2,0:0:0:0:
406,96,1937,1,0,0:0:0:0:
391,85,2044,1,2,0:0:0:0:
373,88,2151,1,0,0:0:0:0:
455,206,2365,1,2,0:0:0:0:
324,269,2580,2,0,B|363:224|363:224|374:285,1,120,2|0,3:2|0:0,0:0:0:0:
262,309,3008,6,0,P|228:298|139:293,1,120,0|2,0:0|0:0,0:0:0:0:
87,336,3437,1,2,0:0:0:0:
160,221,3651,1,0,0:0:0:0:
163,203,3758,1,2,0:0:0:0:
152,188,3865,1,0,0:0:0:0:
45,273,4080,1,2,0:0:0:0:
115,104,4294,6,0,B|95:85|95:85|103:155,1,80,2|0,3:0|0:0,0:0:0:0:
235,195,4508,6,0,P|276:188|338:161,1,80
332,99,4830,1,2,0:0:0:0:
360,293,5044,2,0,P|302:277|242:275,1,120.000004577637,2|0,0:0|0:0,0:0:0:0:
202,338,5365,1,0,0:0:0:0:
213,351,5472,1,2,0:0:0:0:
231,351,5579,1,0,0:0:0:0:
272,202,5794,1,2,0:0:0:0:
116,267,6008,2,0,B|175:256|175:256|130:217,1,120,2|0,3:2|0:0,0:0:0:0:
22,158,6437,6,0,P|81:156|139:140,1,120.000004577637,0|2,0:0|0:0,0:0:0:0:
160,68,6865,1,2,0:0:0:0:
198,192,7080,1,0,0:0:0:0:
213,203,7187,1,2,0:0:0:0:
231,200,7294,1,0,0:0:0:0:
323,108,7508,1,2,0:0:0:0:
267,291,7722,6,0,B|287:310|287:310|279:240,1,80,2|0,3:0|0:0,0:0:0:0:
129,216,7937,5,0,0:0:0:0:
137,224,8044,2,0,L|143:263,1,40
187,336,8258,2,0,B|131:330|64:345,1,120.000004577637
3,384,8580,1,0,0:0:0:0:
69,264,8794,1,0,0:0:0:0:
53,254,8901,1,0,0:0:0:0:
35,254,9008,1,0,0:0:0:0:
167,202,9222,1,0,0:0:0:0:
45,165,9437,2,0,B|95:196|95:196|88:135,1,120,2|0,3:2|0:0,0:0:0:0:
18,71,9865,5,0,0:0:0:0:
29,74,9972,2,0,P|93:67|143:46,1,120.000004577637
204,2,10294,1,0,0:0:0:0:
253,153,10508,1,0,0:0:0:0:
267,166,10615,1,0,0:0:0:0:
285,170,10722,1,0,0:0:0:0:
436,129,10937,1,0,0:0:0:0:
318,65,11151,6,0,B|298:46|298:46|306:116,1,80,2|0,3:0|0:0,0:0:0:0:
468,223,11365,5,0,0:0:0:0:
458,217,11472,2,0,L|410:214,1,40
344,214,11687,2,0,P|363:265|362:335,1,120.000004577637
310,384,12008,1,0,0:0:0:0:
439,299,12222,1,0,0:0:0:0:
455,291,12330,1,0,0:0:0:0:
472,291,12437,1,0,0:0:0:0:
287,270,12651,1,0,0:0:0:0:
182,345,12865,2,0,B|122:355|122:355|151:303,1,120,2|0,3:2|0:0,0:0:0:0:
208,182,13294,5,0,0:0:0:0:
201,193,13401,2,0,P|203:239|238:307,1,120.000004577637
305,328,13722,1,0,0:0:0:0:
375,199,13937,1,0,0:0:0:0:
357,198,14044,1,0,0:0:0:0:
341,208,14151,1,0,0:0:0:0:
486,247,14365,6,0,L|482:274,1,27.9999991455078,2|0,0:0|0:0,0:0:0:0:
480,294,14580,6,0,B|466:273|466:273|477:215,1,80,2|0,1:3|0:0,0:0:0:0:
493,98,14794,5,0,0:0:0:0:
483,91,14901,2,0,L|432:85,1,40
394,20,15115,2,0,P|342:48|272:52,1,120.000004577637
213,32,15437,1,0,0:0:0:0:
305,160,15651,1,0,0:0:0:0:
304,177,15758,1,0,0:0:0:0:
293,192,15865,1,0,0:0:0:0:
136,217,16080,1,0,0:0:0:0:
218,99,16294,2,0,B|228:159|228:159|176:130,1,120,2|0,3:2|0:0,0:0:0:0:
73,74,16722,5,0,0:0:0:0:
82,78,16830,2,0,P|107:131|110:191,1,120.000004577637
76,255,17151,1,0,0:0:0:0:
182,338,17365,1,0,0:0:0:0:
179,321,17473,1,0,0:0:0:0:
167,304,17580,2,0,P|152:289|142:285,2,27.9999991455078
31,340,18008,6,0,B|12:360|12:360|82:352,1,80,2|0,3:0|0:0,0:0:0:0:
175,220,18222,5,0,0:0:0:0:
183,211,18330,2,0,L|179:172,1,40
113,110,18544,2,0,P|162:103|222:65,1,120.000004577637
261,2,18865,1,0,0:0:0:0:
101,13,19080,1,0,0:0:0:0:
90,27,19187,1,0,0:0:0:0:
85,44,19294,1,0,0:0:0:0:
113,199,19508,1,0,0:0:0:0:
272,142,19722,2,0,B|213:135|213:135|246:187,1,120,2|0,3:2|0:0,0:0:0:0:
336,203,20151,5,0,0:0:0:0:
326,210,20258,2,0,P|309:272|314:334,1,120.000004577637
367,380,20580,1,0,0:0:0:0:
222,317,20794,2,0,L|189:322,2,27.9999991455078
38,195,21222,5,0,0:0:0:0:
87,201,21330,1,0,0:0:0:0:
137,208,21437,2,0,B|117:223|117:223|58:216,1,80,2|0,1:3|0:0,0:0:0:0:
153,117,23365,6,0,B|127:68|127:68|129:252,1,240
226,317,24008,1,0,0:0:0:0:
241,322,24115,1,0,0:0:0:0:
270,304,24222,2,0,L|349:310,1,80
425,227,24437,1,0,0:0:0:0:
430,212,24544,1,0,0:0:0:0:
436,195,24651,2,0,L|436:135,1,60.0000022888184
361,130,24865,2,0,L|360:189,1,60.0000022888184
392,256,25080,6,0,B|349:238|349:238|292:249,1,103.999995239258
240,311,25401,2,0,B|283:329|283:329|339:317,1,103.999995239258
402,244,25722,2,0,P|398:214|401:184,1,60.0000022888184
466,138,25937,2,0,P|427:146|389:134,1,80
271,34,26151,2,0,P|291:58|301:88,1,64
235,131,26365,2,0,P|224:160|202:184,1,64
132,148,26580,2,0,P|100:153|69:147,1,64
104,73,26794,6,0,B|158:94|222:71|222:71|285:44|338:66,1,240.000009155274
436,205,27437,1,0,0:0:0:0:
434,224,27544,1,0,0:0:0:0:
460,253,27651,2,0,P|421:250|381:253,1,80
287,314,27865,1,0,0:0:0:0:
263,314,27972,1,0,0:0:0:0:
237,315,28080,2,0,P|208:316|178:320,1,60.0000022888184
94,245,28294,2,0,P|123:246|153:250,1,60.0000022888184
223,217,28508,6,0,B|243:168|243:168|230:118,1,103.999995239258
171,62,28830,2,0,B|151:111|151:111|163:160,1,103.999995239258
228,228,29151,2,0,P|257:233|287:231,1,60.0000022888184
352,258,29365,2,0,P|332:223|330:183,1,80
324,58,29580,2,0,P|292:61|265:77,1,64
189,32,29794,2,0,P|176:61|176:92,1,64
98,136,30008,2,0,P|116:161|144:177,1,64
224,286,30222,6,0,P|140:226|222:164,1,240.000009155274
380,314,30865,1,0,0:0:0:0:
399,314,30972,1,0,0:0:0:0:
430,343,31080,2,0,L|350:341,1,80
231,332,31294,1,0,0:0:0:0:
224,309,31401,1,0,0:0:0:0:
224,285,31508,2,0,P|227:256|237:227,1,60.0000022888184
301,184,31722,2,0,P|297:154|287:125,1,60.0000022888184
213,116,31937,6,0,L|109:125,1,103.999995239258
101,53,32258,2,0,L|204:43,1,103.999995239258
270,14,32580,2,0,P|298:21|324:37,1,60.0000022888184
405,24,32794,2,0,P|370:42|355:78,1,80
310,162,33008,2,0,P|278:167|247:159,1,64
181,192,33223,2,0,P|160:167|152:136,1,64
91,96,33437,2,0,P|102:66|124:43,1,64
7,71,33651,6,0,B|36:126|6:187|6:187|-26:256|6:310,1,240.000009155274
88,351,34294,1,0,0:0:0:0:
105,351,34401,1,0,0:0:0:0:
126,325,34508,2,0,L|205:334,1,80
252,224,34722,1,0,0:0:0:0:
276,216,34830,1,0,0:0:0:0:
297,209,34937,2,0,L|299:149,1,60.0000022888184
230,88,35151,2,0,L|227:147,1,60.0000022888184
172,200,35365,6,0,B|137:209|137:209|72:187,1,103.999995239258
40,118,35687,2,0,B|75:109|75:109|139:130,1,103.999995239258
185,211,36008,2,0,P|188:240|182:270,1,60.0000022888184
131,317,36222,2,0,P|170:310|208:321,1,80
305,333,36437,2,0,P|333:319|353:294,1,64
425,313,36651,2,0,P|427:281|416:251,1,64
468,199,36865,2,0,P|442:180|410:176,1,64
228,239,37080,6,0,B|174:242|174:242|162:234|162:234|100:237,2,120.000004577637
287,172,37615,1,0,0:0:0:0:
313,188,37722,2,0,B|372:184,1,60.0000022888184
331,29,37937,6,0,B|411:33,2,80
255,93,38258,1,0,0:0:0:0:
255,93,38365,2,0,P|199:93|158:78,1,80
110,25,38580,1,0,0:0:0:0:
5,201,38794,6,0,B|60:186|60:186|123:201,1,103.999995239258
143,280,39115,2,0,B|198:295|198:295|261:280,1,103.999995239258
302,203,39437,1,0,0:0:0:0:
486,296,39651,5,0,0:0:0:0:
430,300,39758,1,0,0:0:0:0:
374,305,39865,2,0,L|369:384,1,80
271,211,40080,2,0,L|276:290,1,64
430,186,40294,2,0,L|435:107,1,64
222,73,40508,6,0,B|251:84|285:71|285:71|320:57|348:69,2,128,0|0|0,2:0|2:0|2:0,2:0:0:0:
144,14,41044,1,0,0:0:0:0:
127,40,41151,2,0,P|120:77|123:117,1,60.0000022888184
79,254,41365,6,0,P|42:261|-22:253,2,80
177,319,41687,1,0,0:0:0:0:
177,319,41794,2,0,L|253:324,1,60.0000022888184
278,235,42008,2,0,L|354:240,1,60.0000022888184
431,374,42222,6,0,P|425:311|433:253,1,103.999995239258
506,193,42544,2,0,P|512:142|507:90,1,103.999995239258
408,16,42865,1,0,0:0:0:0:
246,157,43080,5,0,0:0:0:0:
249,212,43187,1,0,0:0:0:0:
252,268,43294,1,0,0:0:0:0:
243,296,43401,6,0,L|258:346,8,47.9999985351563
139,290,43937,6,0,B|98:300|73:280|73:280|38:267|2:285,2,120.000004577637
139,140,44472,1,0,0:0:0:0:
128,156,44580,2,0,P|116:188|119:222,1,60.0000022888184
260,331,44794,2,0,L|264:235,2,80
365,369,45115,1,0,0:0:0:0:
365,369,45222,2,0,L|361:282,1,60.0000022888184
342,226,45437,2,0,L|345:139,1,60.0000022888184
469,30,45651,6,0,P|394:38|351:14,1,103.999995239258
313,89,45972,2,0,P|262:79|213:95,1,103.999995239258
131,33,46294,1,0,0:0:0:0:
60,227,46508,5,0,0:0:0:0:
61,282,46615,1,0,0:0:0:0:
62,338,46722,2,0,L|147:344,1,80
155,194,46937,2,0,L|221:198,1,64
322,364,47151,2,0,L|258:367,1,64
425,253,47365,6,0,P|464:300|461:364,2,120.000004577637
325,270,47901,1,0,0:0:0:0:
303,252,48008,2,0,P|298:219|300:184,1,60.0000022888184
173,283,48222,2,0,P|178:316|169:392,2,80
53,238,48544,1,0,0:0:0:0:
53,238,48651,2,0,L|56:154,1,60.0000022888184
165,54,48865,2,0,L|162:113,1,60.0000022888184
153,245,49080,6,0,B|211:229|211:229|274:244,1,103.999995239258
293,323,49401,2,0,B|351:339|351:339|414:324,1,103.999995239258
448,255,49722,1,0,0:0:0:0:
411,43,49937,1,0,0:0:0:0:
404,98,50044,1,0,0:0:0:0:
398,154,50151,2,0,L|311:164,1,80
251,16,50365,2,0,L|164:5,1,64
164,219,50580,2,0,L|77:229,1,64
33,169,50794,5,0,0:0:0:0:
33,169,51008,1,0,0:0:0:0:
33,169,51222,2,0,P|57:176|83:174,1,51.999997619629
171,122,51437,2,0,P|184:144|193:168,1,51.999997619629
217,261,51651,2,0,B|302:251|302:251|339:269,2,103.999995239258
113,308,52294,1,0,0:0:0:0:
146,105,52508,6,0,L|138:56,6,25.9999988098145
119,210,53044,1,0,0:0:0:0:
134,213,53151,1,0,0:0:0:0:
149,216,53258,1,0,0:0:0:0:
177,203,53365,1,0,0:0:0:0:
353,169,53580,1,0,0:0:0:0:
267,264,53794,1,0,0:0:0:0:
267,264,53901,2,0,B|257:295|257:295|269:321,1,51.999997619629
423,267,54222,5,0,0:0:0:0:
428,252,54330,1,0,0:0:0:0:
433,237,54437,2,0,B|459:228|459:228|493:237,2,51.999997619629
184,264,54865,1,0,0:0:0:0:
98,233,55080,1,0,0:0:0:0:
219,137,55294,2,0,P|257:153|285:156,1,51.999997619629
353,103,55508,2,0,L|362:71,2,25.9999988098145
421,158,55722,2,0,L|437:198,2,25.9999988098145
469,73,55937,1,0,0:0:0:0:
421,158,56365,5,0,0:0:0:0:
469,73,56580,1,0,0:0:0:0:
299,111,56794,1,0,0:0:0:0:
419,298,57008,1,0,0:0:0:0:
393,282,57115,1,0,0:0:0:0:
389,249,57222,1,0,0:0:0:0:
375,254,57330,1,0,0:0:0:0:
361,259,57437,1,0,0:0:0:0:
332,248,57544,1,0,0:0:0:0:
305,234,57651,6,0,P|232:209|161:235,1,155.999992858887
305,117,58294,1,0,0:0:0:0:
305,117,58401,1,0,0:0:0:0:
305,117,58508,1,0,0:0:0:0:
271,136,58615,1,0,0:0:0:0:
233,143,58722,1,0,0:0:0:0:
195,134,58830,1,0,0:0:0:0:
162,118,58937,6,0,P|233:142|305:118,1,154.000004699707
323,341,59365,2,0,B|363:256|363:256|355:195,1,155.999992858887
440,129,59901,1,0,0:0:0:0:
440,129,60008,1,0,0:0:0:0:
440,129,60115,1,0,0:0:0:0:
440,129,60222,2,0,L|446:180,2,51.999997619629
285,132,60544,2,0,L|279:81,1,51.999997619629
206,248,60758,6,0,B|264:240|264:240|312:265|312:265|341:215|341:215|370:216,1,200
430,275,61080,5,0,0:0:0:0:
425,284,61187,1,0,0:0:0:0:
421,294,61294,1,0,0:0:0:0:
417,304,61401,1,0,0:0:0:0:
413,314,61508,2,0,L|395:355,2,25.9999988098145
322,293,61722,2,0,L|317:268,2,25.9999988098145
322,293,62151,2,0,P|286:268|302:168,1,155.999992858887
165,48,62687,1,0,0:0:0:0:
152,71,62794,6,0,P|170:111|179:120,2,51.999997619629
76,146,63115,1,0,0:0:0:0:
91,166,63222,2,0,P|93:198|84:234,2,51.999997619629
211,313,63544,1,0,0:0:0:0:
189,298,63651,2,0,P|157:289|125:291,2,51.999997619629
331,260,63972,1,0,0:0:0:0:
325,233,64080,2,0,P|309:201|292:179,2,51.999997619629
459,327,64401,1,0,0:0:0:0:
469,302,64508,6,0,L|482:191,1,103.999995239258
470,207,65151,6,0,L|462:270,1,64
395,69,65365,2,0,B|364:38|364:38|350:154,1,160
334,253,65687,2,0,L|275:258,1,47.9999985351563
251,162,65901,2,0,L|192:157,1,47.9999985351563
28,335,66222,6,0,B|55:358|55:358|113:363|147:304,1,120.000004577637
181,218,66544,2,0,B|147:229|147:229|114:277|148:336,1,120.000004577637
209,361,66865,1,0,0:0:0:0:
238,367,66972,1,0,0:0:0:0:
267,359,67080,1,0,0:0:0:0:
496,280,67294,5,0,0:0:0:0:
496,280,67401,2,0,L|408:287,1,60.0000022888184
393,203,67615,2,0,L|334:199,1,60.0000022888184
202,255,67830,1,0,0:0:0:0:
202,255,67937,5,0,0:0:0:0:
176,224,68044,1,0,0:0:0:0:
170,185,68151,1,0,0:0:0:0:
184,148,68258,2,0,P|235:156|286:152,1,103.999995239258
298,146,68580,6,0,L|305:82,1,64
410,243,68794,2,0,B|396:359|396:359|365:328,1,160
261,303,69115,2,0,L|266:379,1,68.0000012969971
147,220,69330,2,0,L|141:295,1,68.0000012969971
284,147,69544,1,0,0:0:0:0:
284,147,69651,6,0,B|312:171|362:170|362:170|394:139,1,128
430,25,69972,2,0,B|394:37|370:81|370:81|381:124,1,128
462,212,70294,2,0,B|466:189|450:162|450:162|423:154,1,80
327,339,70508,6,0,P|357:369|415:363,1,80
268,223,70722,1,0,0:0:0:0:
225,200,70830,1,0,0:0:0:0:
188,231,70937,2,0,L|183:320,1,64
86,359,71151,2,0,L|81:270,1,64
86,129,71365,6,0,L|79:16,1,103.999995239258
79,25,72008,2,0,B|72:89,1,64
10,303,72222,2,0,B|41:334|41:334|55:218,1,160
122,169,72544,2,0,L|175:166,1,51.999997619629
184,260,72758,2,0,L|237:263,1,51.999997619629
382,163,73080,6,0,B|470:148|470:148|454:174,1,120.000004577637
308,128,73401,2,0,B|251:59|251:59|281:59,1,120.000004577637
269,266,73722,1,0,0:0:0:0:
233,256,73830,1,0,0:0:0:0:
198,265,73937,2,0,L|35:258,1,143.999995605469
12,177,74365,6,0,B|0:134|0:134|12:86,1,92.0000017547608
214,0,74580,2,0,B|224:38|224:38|214:81,1,80
155,185,74794,5,0,0:0:0:0:
199,145,74901,1,0,0:0:0:0:
257,140,75008,1,0,0:0:0:0:
308,170,75115,1,0,0:0:0:0:
332,224,75222,6,0,L|385:214,2,40
312,249,75437,2,0,P|276:260|230:233,1,64
155,47,75651,2,0,B|217:73|264:32|264:32|269:56|290:78,1,160
323,141,75972,2,0,P|378:143|403:136,1,64
471,10,76187,2,0,P|441:56|435:81,1,64
439,222,76401,1,0,0:0:0:0:
446,264,76508,5,0,0:0:0:0:
446,264,77151,6,0,L|457:231,1,32
232,178,77580,1,0,0:0:0:0:
232,178,78222,6,0,B|281:174|281:174|292:181|292:181|300:172|300:172|354:167,1,120.000004577637
374,160,78544,6,0,B|354:143|354:143|243:154,1,128,2|0,1:3|0:0,0:0:0:0:
236,327,78865,1,0,0:0:0:0:
210,346,78972,2,0,P|189:315|189:268,1,64
95,265,79187,2,0,B|118:266|118:266|150:287|150:287|184:288,1,95.9999970703126
232,178,79401,1,0,0:0:0:0:
236,152,79508,2,0,P|210:146|185:149,2,51.999997619629
385,230,79937,6,0,L|378:178,1,51.999997619629
375,152,80258,2,0,B|395:167|395:167|410:278,1,128,2|0,1:3|0:0,0:0:0:0:
200,305,80580,1,0,0:0:0:0:
214,330,80687,2,0,P|268:337|285:333,1,64
281,242,80901,2,0,B|285:269|285:269|271:306|271:306|276:335,1,95.9999970703126
406,302,81115,1,0,0:0:0:0:
430,292,81222,2,0,L|436:335,2,25.9999988098145
476,214,81437,2,0,L|480:189,2,25.9999988098145
311,154,81651,6,0,L|258:148,1,51.999997619629
231,143,81972,2,0,B|250:127|250:127|362:138,1,128,2|0,1:3|0:0,0:0:0:0:
179,78,82294,1,0,0:0:0:0:
152,59,82401,2,0,P|139:82|132:107,1,51.999997619629
205,211,82615,2,0,B|174:215|174:215|142:201|142:201|112:206,1,95.9999970703126
112,232,82830,1,0,0:0:0:0:
109,257,82937,1,0,0:0:0:0:
109,257,83365,6,0,L|116:317,2,51.999997619629
233,356,83687,2,0,L|226:304,1,51.999997619629
310,177,83901,2,0,L|316:228,1,51.999997619629
396,328,84115,1,0,0:0:0:0:
420,332,84222,2,0,L|435:291,4,25.9999988098145
301,247,84544,1,0,0:0:0:0:
283,265,84651,2,0,P|272:241|268:215,2,51.999997619629
152,296,85080,6,0,L|100:308,1,51.999997619629
66,324,85294,1,0,0:0:0:0:
66,324,85401,2,0,B|87:337|87:337|196:312,1,128,2|0,1:3|0:0,0:0:0:0:
97,160,85722,1,0,0:0:0:0:
69,177,85830,2,0,P|94:195|126:201,1,64
275,205,86044,2,0,B|266:180|266:180|278:139|278:139|267:115,1,95.9999970703126
241,111,86258,1,0,0:0:0:0:
215,105,86365,1,0,0:0:0:0:
215,105,86794,6,0,P|206:60|208:38,2,51.999997619629
305,144,87115,2,0,L|357:148,1,51.999997619629
154,281,87330,2,0,L|206:285,1,51.999997619629
276,347,87544,1,0,0:0:0:0:
280,321,87651,1,0,0:0:0:0:
285,295,87758,2,0,B|287:261|287:261|268:230|268:230|269:183,1,95.9999970703126
357,148,87972,1,0,0:0:0:0:
385,164,88080,2,0,P|385:138|379:113,2,51.999997619629
111,142,88508,6,0,L|163:136,1,51.999997619629
188,137,88722,1,0,0:0:0:0:
188,137,88830,2,0,B|172:156|172:156|60:168,1,128,2|0,1:3|0:0,0:0:0:0:
237,48,89151,1,0,0:0:0:0:
268,43,89258,2,0,P|275:98|264:120,1,64
256,214,89472,2,0,B|285:208|285:208|319:221|319:221|348:213,1,95.9999970703126
350,242,89687,1,0,0:0:0:0:
354,267,89794,1,0,0:0:0:0:
354,267,90222,6,0,P|386:263|423:270,2,51.999997619629
185,350,90544,2,0,L|217:281,1,51.999997619629
82,225,90758,2,0,L|165:201,1,51.999997619629
351,141,90972,2,0,L|300:131,1,51.999997619629
145,76,91187,1,0,0:0:0:0:
138,143,91294,1,0,0:0:0:0:
131,210,91401,1,0,0:0:0:0:
374,331,91937,6,0,B|368:364|344:376|344:376|344:380|344:380|342:376|342:376|324:377|300:344,1,120.000004577637
186,216,92151,6,0,P|227:214|263:226,1,80
324,270,92365,1,0,0:0:0:0:
380,186,92472,2,0,P|373:224|351:258,2,80
330,18,92794,5,0,0:0:0:0:
275,30,92901,1,0,0:0:0:0:
220,42,93008,1,0,0:0:0:0:
165,54,93115,1,0,0:0:0:0:
218,71,93222,2,0,P|264:87|309:198,1,160
245,320,93544,1,0,0:0:0:0:
245,320,93651,6,0,L|162:316,1,80
27,380,93865,2,0,P|59:366|94:326,1,80
115,258,94080,1,0,0:0:0:0:
69,173,94187,2,0,P|70:212|87:248,2,80
103,62,94508,5,0,0:0:0:0:
166,24,94615,1,0,0:0:0:0:
202,64,94722,1,0,0:0:0:0:
248,50,94830,1,0,0:0:0:0:
264,64,94937,2,0,L|321:61,1,51.999997619629
432,30,95151,2,0,L|380:32,1,51.999997619629
283,154,95365,6,0,L|372:167,1,80
504,109,95580,2,0,P|472:116|432:151,1,80
420,218,95794,1,0,0:0:0:0:
467,300,95901,2,0,P|466:260|448:224,2,80
323,341,96222,5,0,0:0:0:0:
330,285,96330,1,0,0:0:0:0:
337,229,96437,1,0,0:0:0:0:
344,173,96544,1,0,0:0:0:0:
312,219,96651,2,0,P|258:267|174:255,1,160
24,159,96972,1,0,0:0:0:0:
24,159,97080,6,0,L|106:149,1,80
242,76,97294,2,0,P|209:91|174:127,1,80
162,191,97508,1,0,0:0:0:0:
216,281,97615,2,0,P|185:259|155:220,2,80
342,258,97937,6,0,L|321:256,2,12.9999994049073
405,296,98044,1,0,0:0:0:0:
441,256,98151,1,0,0:0:0:0:
487,270,98259,1,0,0:0:0:0:
503,256,98366,2,0,P|461:248|436:210,1,80
297,193,98580,1,0,2:0:0:0:
261,253,98687,1,0,2:0:0:0:
261,323,98794,6,0,L|179:312,1,80
31,340,99008,2,0,P|72:336|107:315,1,80
140,250,99222,1,0,0:0:0:0:
65,177,99330,2,0,P|81:212|112:238,2,80
164,43,99651,5,0,0:0:0:0:
218,53,99758,1,0,0:0:0:0:
272,63,99865,1,0,0:0:0:0:
326,74,99972,1,0,0:0:0:0:
270,85,100080,2,0,P|190:130|186:202,1,160
321,310,100401,1,0,0:0:0:0:
321,310,100508,6,0,L|309:224,1,80
361,87,100722,2,0,P|352:140|325:168,1,80
265,170,100937,1,0,0:0:0:0:
191,98,101044,2,0,P|226:114|249:147,2,80
92,209,101365,5,0,0:0:0:0:
139,153,101472,1,0,0:0:0:0:
105,111,101579,1,0,0:0:0:0:
126,68,101687,1,0,0:0:0:0:
115,50,101794,2,0,L|126:-5,1,51.999997619629
37,15,102008,2,0,L|26:65,1,51.999997619629
139,153,102222,6,0,L|154:250,1,80
35,322,102437,2,0,P|65:296|108:284,1,80
172,301,102651,1,0,0:0:0:0:
253,366,102758,2,0,P|215:354|185:328,2,80
456,283,103080,5,0,0:0:0:0:
400,288,103187,1,0,0:0:0:0:
344,294,103294,1,0,0:0:0:0:
288,300,103401,1,0,0:0:0:0:
335,269,103508,2,0,P|373:240|394:135,1,160
268,53,103830,1,0,0:0:0:0:
268,53,103937,6,0,L|175:61,1,80
45,18,104151,2,0,P|98:22|128:46,1,80
135,111,104366,1,0,0:0:0:0:
126,208,104473,2,0,P|110:172|115:132,2,80
251,278,104794,5,0,0:0:0:0:
186,242,104901,1,0,0:0:0:0:
152,283,105008,1,0,0:0:0:0:
105,271,105116,1,0,0:0:0:0:
90,285,105223,2,0,P|132:291|158:328,1,80
302,384,105437,1,0,2:0:0:0:
338,324,105544,1,0,2:0:0:0:
404,308,105651,6,0,P|433:280|392:282,1,103.999995239258
300,267,105972,2,0,P|273:231|313:209,1,103.999995239258
418,229,106294,2,0,P|422:180|376:162,1,103.999995239258
264,189,106615,2,0,P|260:137|283:92,1,103.999995239258
376,162,106937,5,0,0:0:0:0:
418,229,107044,1,0,0:0:0:0:
404,308,107151,1,0,0:0:0:0:
298,266,107258,6,0,B|269:257|240:270|240:270|251:239|243:211,1,120.000004577637
172,145,107472,5,0,0:0:0:0:
183,155,107580,2,0,P|196:192|202:232,1,80
154,293,107794,1,0,0:0:0:0:
59,231,107901,2,0,P|64:271|78:309,2,80
107,171,108222,5,0,0:0:0:0:
145,163,108330,1,0,0:0:0:0:
208,112,108437,1,0,0:0:0:0:
222,186,108543,1,0,0:0:0:0:
280,137,108651,2,0,P|296:172|294:212,1,80
177,241,108865,2,0,P|160:276|162:316,1,80
339,302,109079,5,0,0:0:0:0:
325,308,109186,1,0,0:0:0:0:
309,309,109294,2,0,P|269:304|231:290,1,80
181,232,109508,1,0,0:0:0:0:
295,210,109615,2,0,P|257:196|217:191,1,80
345,268,109830,1,0,0:0:0:0:
345,268,109937,5,0,0:0:0:0:
339,302,110044,1,0,0:0:0:0:
371,290,110151,1,0,0:0:0:0:
403,278,110258,1,0,0:0:0:0:
455,320,110365,2,0,P|471:284|463:245,1,80
371,196,110580,2,0,L|381:142,1,51.999997619629
386,119,110794,5,0,0:0:0:0:
380,104,110901,1,0,0:0:0:0:
369,92,111008,2,0,P|337:67|301:50,1,80
223,61,111222,1,0,0:0:0:0:
263,178,111330,2,0,P|227:161|196:137,2,80
342,168,111651,5,0,0:0:0:0:
361,136,111758,1,0,0:0:0:0:
360,61,111865,1,0,0:0:0:0:
425,99,111972,1,0,0:0:0:0:
422,22,112080,2,0,P|394:-4|356:-13,1,80
296,98,112294,1,0,0:0:0:0:
295,23,112401,1,0,0:0:0:0:
284,60,112508,5,0,0:0:0:0:
275,73,112615,1,0,0:0:0:0:
262,83,112722,2,0,P|226:102|187:112,1,80
111,97,112937,1,0,0:0:0:0:
190,12,113044,2,0,P|150:22|115:41,1,80
267,26,113258,1,0,0:0:0:0:
267,26,113365,5,0,0:0:0:0:
284,60,113472,1,0,0:0:0:0:
246,57,113580,1,0,0:0:0:0:
208,55,113687,1,0,0:0:0:0:
165,118,113794,2,0,P|172:156|198:186,1,80
295,249,114008,2,0,L|317:296,1,51.999997619629
329,320,114223,5,0,0:0:0:0:
321,333,114330,1,0,0:0:0:0:
309,344,114437,2,0,P|274:366|237:379,1,80
165,354,114651,1,0,0:0:0:0:
207,244,114758,2,0,P|169:257|136:279,2,80
280,269,115080,5,0,0:0:0:0:
300,301,115187,1,0,0:0:0:0:
367,336,115294,1,0,0:0:0:0:
303,376,115401,1,0,0:0:0:0:
235,339,115508,2,0,P|209:310|197:273,1,80
324,199,115722,2,0,P|350:228|362:265,1,80
220,345,115937,5,0,0:0:0:0:
204,347,116044,1,0,0:0:0:0:
188,345,116151,2,0,P|148:332|114:312,1,80
89,240,116365,1,0,0:0:0:0:
193,225,116472,2,0,P|158:204|120:192,1,80
219,297,116687,1,0,0:0:0:0:
219,297,116794,5,0,0:0:0:0:
254,305,116901,1,0,0:0:0:0:
243,270,117008,1,0,0:0:0:0:
232,236,117115,1,0,0:0:0:0:
280,182,117222,2,0,P|319:182|353:202,1,80
322,319,117437,2,0,L|373:333,1,51.999997619629
398,341,117651,5,0,0:0:0:0:
412,335,117758,1,0,0:0:0:0:
426,326,117865,2,0,P|457:298|480:267,1,80
477,189,118080,1,0,0:0:0:0:
353,202,118187,2,0,P|376:169|407:143,2,80
356,280,118508,5,0,0:0:0:0:
384,307,118615,1,0,0:0:0:0:
459,326,118722,1,0,0:0:0:0:
404,382,118830,1,0,0:0:0:0:
327,361,118937,2,0,P|307:327|307:288,1,80
439,251,119151,1,0,0:0:0:0:
364,232,119258,1,0,0:0:0:0:
240,355,119365,6,0,B|194:327|194:274|194:274|194:327|139:361,1,204.8
25,270,119687,2,0,P|64:268|103:279,1,80
361,269,119901,2,0,P|323:281|283:280,1,80
246,120,120115,2,0,P|285:118|324:129,1,80
173,188,120330,5,0,0:0:0:0:
107,142,120437,1,0,0:0:0:0:
109,62,120544,1,0,0:0:0:0:
179,20,120651,2,0,B|262:6|228:66|324:47,1,136.000002593994
446,6,120972,1,0,0:0:0:0:
446,6,121080,6,0,L|451:107,1,80
361,210,121294,2,0,L|364:130,1,80
407,299,121508,1,0,0:0:0:0:
300,306,121615,2,0,P|294:345|303:384,1,80
246,213,121830,2,0,P|251:173|242:134,1,80
59,281,122044,1,0,0:0:0:0:
117,229,122151,5,0,0:0:0:0:
168,289,122258,1,0,3:0:0:0:
109,339,122365,1,0,3:0:0:0:
90,334,122472,6,0,B|65:334|65:334|28:344,4,47.9999985351563
107,321,122794,6,0,B|115:281|115:281|107:236,1,80
35,91,123008,2,0,B|27:131|27:131|35:176,1,80
255,173,123222,1,0,0:0:0:0:
188,116,123330,2,0,L|109:122,1,80
239,46,123544,2,0,L|318:51,1,80
434,9,123758,5,0,0:0:0:0:
499,55,123865,1,0,0:0:0:0:
490,134,123972,1,0,0:0:0:0:
413,164,124080,2,0,P|347:206|333:273,1,136.000002593994
478,321,124401,1,0,0:0:0:0:
478,321,124508,6,0,P|438:313|400:320,1,80
261,381,124722,2,0,P|221:388|182:383,1,80
78,205,124937,1,0,0:0:0:0:
172,175,125044,2,0,P|198:206|213:242,1,80
101,111,125258,1,0,0:0:0:0:
199,84,125365,6,0,L|245:72,2,40
253,169,125580,1,0,0:0:0:0:
168,194,125687,1,0,0:0:0:0:
93,144,125794,6,0,P|56:137|-1:146,1,80
56,348,126008,1,0,0:0:0:0:
141,323,126115,1,0,0:0:0:0:
216,373,126222,6,0,P|253:380|310:371,1,80
406,275,126437,2,0,P|443:268|500:277,1,80
238,263,126651,1,0,0:0:0:0:
221,177,126758,2,0,L|204:94,1,80
322,109,126972,2,0,L|348:28,1,80
489,225,127187,5,0,0:0:0:0:
436,164,127294,1,0,0:0:0:0:
356,169,127401,1,0,0:0:0:0:
311,241,127508,2,0,L|307:385,1,136.000002593994
216,178,127830,1,0,0:0:0:0:
216,178,127937,6,0,L|218:257,1,80
106,367,128151,2,0,L|103:287,1,80
98,94,128365,1,0,0:0:0:0:
24,153,128472,2,0,P|10:219|14:240,1,80
183,117,128687,2,0,P|183:77|170:39,1,80
277,214,128901,5,0,0:0:0:0:
354,196,129008,1,0,0:0:0:0:
386,122,129115,1,0,0:0:0:0:
336,59,129222,2,0,L|230:55,2,80
493,133,129544,1,0,0:0:0:0:
493,133,129651,6,0,L|387:137,1,80
418,300,129865,2,0,L|312:296,1,80
255,202,130080,1,0,0:0:0:0:
186,274,130187,2,0,L|195:375,1,80
104,214,130401,2,0,L|113:113,1,80
50,49,130615,5,0,0:0:0:0:
129,54,130722,1,0,0:0:0:0:
209,59,130829,1,0,0:0:0:0:
289,64,130937,2,0,P|356:101|372:156,1,136.000002593994
363,260,131258,1,0,0:0:0:0:
363,260,131365,6,0,P|414:267|458:262,1,80
269,204,131580,2,0,P|218:197|174:202,1,80
123,272,131793,1,0,0:0:0:0:
75,193,131901,2,0,L|78:108,1,80
182,97,132115,2,0,L|179:12,1,80
426,109,132330,5,0,0:0:0:0:
373,49,132437,1,0,0:0:0:0:
294,62,132544,1,0,0:0:0:0:
259,133,132651,2,0,L|269:240,1,80
160,375,132865,1,0,0:0:0:0:
152,295,132972,1,0,0:0:0:0:
144,214,133080,6,0,P|109:158|126:94,1,136.000002593994
194,64,133401,2,0,P|157:127|84:139,1,151.999995941162
33,91,133722,2,0,P|106:91|161:161,1,167.999994873047
144,214,134044,2,0,B|187:190|187:190|331:223,1,184.000003509522
332,224,134365,1,0,0:0:0:0:
400,136,134472,1,0,0:0:0:0:
368,53,134580,1,0,0:0:0:0:
297,37,134687,6,0,B|275:78|275:78|297:117,1,92.0000017547608
332,224,134901,5,0,0:0:0:0:
361,287,135009,2,0,P|370:331|362:376,1,92.0000017547608
266,273,135222,1,0,0:0:0:0:
226,330,135330,2,0,P|192:360|149:375,2,92.0000017547608
92,96,135651,1,0,0:0:0:0:
105,166,135758,1,0,0:0:0:0:
162,211,135865,1,0,0:0:0:0:
234,207,135972,1,0,0:0:0:0:
285,156,136080,2,0,P|210:177|170:251,1,160
284,384,136401,1,0,0:0:0:0:
283,384,136508,6,0,P|294:339|284:295,1,92.0000017547608
374,143,136722,2,0,P|362:187|372:231,1,92.0000017547608
421,306,136937,1,0,0:0:0:0:
207,341,137044,2,0,P|162:348|117:339,1,92.0000017547608
79,178,137258,2,0,P|124:170|169:179,1,92.0000017547608
489,166,137472,1,0,0:0:0:0:
443,221,137579,1,0,0:0:0:0:
372,231,137686,1,0,0:0:0:0:
313,189,137794,2,0,P|280:120|309:48,1,160
306,292,138115,1,0,0:0:0:0:
306,292,138222,6,0,L|214:285,1,92.0000017547608
170,180,138437,2,0,L|78:186,1,92.0000017547608
205,298,138651,1,0,0:0:0:0:
268,114,138758,2,0,P|275:68|266:23,1,92.0000017547608
452,171,138972,2,0,P|444:216|453:261,1,92.0000017547608
494,366,139187,1,0,0:0:0:0:
420,358,139294,1,0,0:0:0:0:
347,352,139401,1,0,0:0:0:0:
274,343,139508,2,0,L|182:335,1,92.0000017547608
78,186,139722,1,0,0:0:0:0:
72,259,139829,1,0,0:0:0:0:
55,332,139937,6,0,L|62:240,1,92.0000017547608
0,77,140151,2,0,L|7:168,1,92.0000017547608
136,272,140365,1,0,0:0:0:0:
228,159,140472,2,0,P|272:150|316:163,1,92.0000017547608
410,139,140687,2,0,P|453:152|498:143,1,92.0000017547608
192,31,140901,1,0,0:0:0:0:
235,88,141008,1,0,0:0:0:0:
228,159,141115,1,0,0:0:0:0:
173,206,141222,2,0,L|13:203,1,160
95,289,141544,1,0,0:0:0:0:
95,289,141651,6,0,L|186:290,1,92.0000017547608
357,214,141865,2,0,L|266:213,1,92.0000017547608
250,359,142080,1,0,0:0:0:0:
256,199,142187,2,0,P|258:154|269:109,1,92.0000017547608
152,7,142401,2,0,P|162:51|164:97,1,92.0000017547608
126,331,142615,1,0,0:0:0:0:
153,263,142722,1,0,0:0:0:0:
132,195,142829,1,0,0:0:0:0:
75,150,142937,2,0,P|59:193|72:236,2,92.0000017547608
164,97,143258,1,0,0:0:0:0:
164,97,143365,6,0,L|255:105,1,92.0000017547608
466,193,143580,2,0,L|374:201,1,92.0000017547608
243,197,143794,1,0,0:0:0:0:
347,123,143901,2,0,L|355:31,1,92.0000017547608
246,213,144115,2,0,L|254:304,1,92.0000017547608
466,193,144330,1,0,0:0:0:0:
392,199,144437,1,0,0:0:0:0:
319,206,144544,1,0,0:0:0:0:
246,213,144651,2,0,B|200:228|153:214|153:214|100:197|62:212,1,184.000003509522
37,126,144972,1,0,0:0:0:0:
37,126,145080,6,0,P|36:86|52:49,2,80
65,210,145401,2,0,P|65:249|49:286,1,80
1,355,145615,1,0,0:0:0:0:
1,354,145722,2,0,P|73:326|145:356,1,160
199,280,146044,1,0,0:0:0:0:
253,317,146151,1,0,0:0:0:0:
317,330,146258,1,0,0:0:0:0:
381,318,146365,1,0,0:0:0:0:
436,281,146472,2,0,P|438:262|435:242,1,40
359,92,146794,6,0,B|333:162|333:162|361:204,1,120.000004577637
474,246,147008,1,0,0:0:0:0:
474,246,147115,2,0,L|425:240,1,40
209,196,147437,1,0,0:0:0:0:
209,196,147544,2,0,L|258:190,1,40
359,92,147865,5,0,0:0:0:0:
348,166,147972,1,0,0:0:0:0:
272,189,148080,1,0,0:0:0:0:
215,109,148187,5,0,0:0:0:0:
140,110,148294,1,0,0:0:0:0:
113,177,148401,1,0,0:0:0:0:
95,190,148508,6,0,L|0:179,1,95.9999970703126
5,38,148722,2,0,L|110:48,1,95.9999970703126
302,44,148937,5,0,0:0:0:0:
239,100,149044,1,0,0:0:0:0:
213,21,149151,1,0,0:0:0:0:
302,44,149258,2,0,B|271:51|271:51|261:217,1,191.999994140625
469,287,149580,5,0,0:0:0:0:
392,307,149687,1,0,0:0:0:0:
331,261,149794,1,0,0:0:0:0:
341,163,149901,5,0,0:0:0:0:
262,211,150008,1,0,0:0:0:0:
190,158,150115,1,0,0:0:0:0:
158,177,150222,6,0,L|44:177,1,95.9999970703126
163,294,150437,2,0,L|277:294,1,95.9999970703126
403,330,150651,5,0,0:0:0:0:
479,299,150758,1,0,0:0:0:0:
509,371,150865,1,0,0:0:0:0:
403,330,150972,2,0,P|422:232|400:135,1,191.999994140625
466,100,151294,6,0,B|470:120|470:120|474:93,2,47.9999985351563
411,47,151508,5,0,0:0:0:0:
396,122,151615,1,0,0:0:0:0:
322,144,151722,1,0,0:0:0:0:
250,77,151830,5,0,0:0:0:0:
213,88,151937,2,0,L|87:78,1,95.9999970703126
327,247,152151,2,0,L|231:239,1,95.9999970703126
13,203,152365,5,0,0:0:0:0:
2,279,152473,1,0,0:0:0:0:
63,324,152580,1,0,0:0:0:0:
154,249,152687,5,0,0:0:0:0:
154,249,152794,2,0,B|165:266|165:266|160:247|160:247|163:223,6,60.0000022888184
231,239,153222,5,0,0:0:0:0:
308,325,153330,1,0,0:0:0:0:
369,194,153437,1,0,0:0:0:0:
422,242,153544,5,0,0:0:0:0:
422,242,153651,2,0,L|314:247,1,95.9999970703126
499,316,153865,2,0,L|391:321,1,95.9999970703126
111,361,154080,5,0,0:0:0:0:
164,268,154187,1,0,0:0:0:0:
181,333,154294,1,0,0:0:0:0:
111,361,154401,2,0,P|141:277|122:169,1,191.999994140625
49,47,154722,5,0,0:0:0:0:
52,124,154830,1,0,0:0:0:0:
120,158,154937,1,0,0:0:0:0:
202,108,155044,5,0,0:0:0:0:
279,126,155151,1,0,0:0:0:0:
289,200,155258,1,0,0:0:0:0:
311,230,155365,6,0,L|430:225,1,95.9999970703126
379,129,155580,2,0,L|498:124,1,95.9999970703126
393,384,155794,5,0,0:0:0:0:
347,310,155901,1,0,0:0:0:0:
438,315,156008,1,0,0:0:0:0:
393,384,156115,2,0,B|432:377|432:377|404:204,1,191.999994140625
417,127,156437,5,0,0:0:0:0:
404,202,156544,1,0,0:0:0:0:
335,235,156651,1,0,0:0:0:0:
262,173,156758,5,0,0:0:0:0:
198,247,156865,1,0,0:0:0:0:
132,178,156972,1,0,0:0:0:0:
98,196,157080,6,0,L|2:188,1,95.9999970703126
143,96,157294,2,0,L|47:88,1,95.9999970703126
190,351,157508,5,0,0:0:0:0:
123,290,157615,1,0,0:0:0:0:
105,373,157722,1,0,0:0:0:0:
190,351,157830,2,0,P|166:272|192:155,1,191.999994140625
143,96,158152,6,0,B|136:115|136:115|135:88,2,47.9999985351563
209,72,158365,5,0,0:0:0:0:
250,136,158472,1,0,0:0:0:0:
327,132,158580,1,0,0:0:0:0:
365,44,158687,5,0,0:0:0:0:
397,65,158794,2,0,L|505:62,1,95.9999970703126
505,186,159008,2,0,L|397:183,1,95.9999970703126
299,380,159222,5,0,0:0:0:0:
246,287,159330,1,0,0:0:0:0:
229,352,159437,1,0,0:0:0:0:
299,380,159544,2,0,P|270:284|289:186,1,191.999994140625
413,121,159865,5,0,0:0:0:0:
368,182,159972,1,0,0:0:0:0:
292,174,160080,1,0,0:0:0:0:
264,82,160187,5,0,0:0:0:0:
177,158,160294,1,0,0:0:0:0:
139,32,160401,1,0,0:0:0:0:
107,54,160508,6,0,L|5:56,1,88.000002685547
199,141,160722,2,0,L|307:138,1,88.000002685547
426,10,160937,1,0,0:0:0:0:
408,83,161044,1,0,0:0:0:0:
440,151,161151,1,0,0:0:0:0:
509,181,161258,2,0,P|511:226|493:275,1,88.000002685547
360,253,161472,5,0,0:0:0:0:
393,357,161580,2,0,B|453:327|453:327|481:326,1,88.000002685547
294,294,161794,5,0,0:0:0:0:
296,373,161901,1,0,0:0:0:0:
293,215,162008,1,0,0:0:0:0:
225,335,162115,1,0,0:0:0:0:
150,342,162222,6,0,B|93:316|93:316|58:318,1,95.9999970703126,4|0,0:0|0:0,0:0:0:0:
156,157,162437,2,0,B|166:216|166:216|161:252,1,95.9999970703126,0|4,0:0|0:0,0:0:0:0:
293,146,162651,1,0,0:0:0:0:
224,177,162758,1,0,0:0:0:0:
156,157,162865,1,4,0:0:0:0:
116,97,162972,2,0,P|132:46|126:0,1,95.9999970703126
145,232,163187,5,0,0:0:0:0:
22,199,163294,2,0,B|28:247|28:247|66:285,1,95.9999970703126
175,120,163508,5,0,0:0:0:0:
52,87,163615,1,0,0:0:0:0:
130,41,163723,1,0,0:0:0:0:
97,166,163830,1,0,0:0:0:0:
159,223,163937,6,0,B|249:259,1,80
296,88,164151,2,0,B|256:186,1,80
294,360,164365,1,0,0:0:0:0:
312,288,164472,1,0,0:0:0:0:
369,241,164580,1,0,0:0:0:0:
441,227,164687,2,0,B|479:225|503:243|503:243|485:271,1,80
255,223,164901,5,0,0:0:0:0:
204,210,165008,2,0,P|170:216|134:217,4,40
363,160,165330,5,0,0:0:0:0:
337,62,165437,1,0,0:0:0:0:
242,54,165544,1,0,0:0:0:0:
212,87,165651,6,0,B|158:100|158:100|113:94,1,80
363,160,165865,2,0,B|420:153|420:153|457:132,1,80
285,14,166080,1,0,0:0:0:0:
302,87,166187,1,0,0:0:0:0:
275,156,166294,1,0,0:0:0:0:
213,198,166401,2,0,P|157:208|119:202,1,80
259,357,166615,5,0,0:0:0:0:
306,245,166722,2,0,B|341:213|341:213|384:202,1,88.000002685547
391,82,166937,5,0,0:0:0:0:
456,92,167044,1,0,0:0:0:0:
384,18,167151,1,0,0:0:0:0:
306,102,167258,1,0,0:0:0:0:
227,69,167365,5,0,0:0:0:0:
219,79,167472,2,0,B|176:98|117:88,2,88.000002685547
447,151,167794,1,0,0:0:0:0:
397,202,167901,1,0,0:0:0:0:
325,210,168008,1,0,0:0:0:0:
276,262,168115,2,0,B|229:268|229:268|153:246,1,88.000002685547
35,78,168330,5,0,0:0:0:0:
136,63,168437,2,0,B|179:111|179:111|173:154,1,88.000002685547
61,202,168651,5,0,0:0:0:0:
7,244,168758,1,0,0:0:0:0:
86,135,168865,1,0,0:0:0:0:
68,274,168972,1,0,0:0:0:0:
113,326,169080,6,0,P|161:300|206:296,1,95.9999970703126
388,375,169295,2,0,P|356:325|349:279,1,95.9999970703126
277,138,169509,5,0,0:0:0:0:
211,136,169615,1,0,0:0:0:0:
188,199,169722,1,0,0:0:0:0:
241,241,169830,2,0,B|275:252|275:252|333:222,1,95.9999970703126
512,164,170044,5,0,0:0:0:0:
446,76,170151,2,0,B|394:55|394:55|349:57,1,80
199,47,170365,5,0,0:0:0:0:
119,89,170472,1,0,0:0:0:0:
255,109,170580,1,0,0:0:0:0:
119,89,170687,1,0,0:0:0:0:
67,148,170794,6,0,B|66:209|66:209|92:242,1,95.9999970703126
267,333,171008,2,0,B|278:300|278:300|257:242,1,95.9999970703126
175,43,171223,1,0,0:0:0:0:
210,106,171330,1,0,0:0:0:0:
282,114,171437,1,0,0:0:0:0:
325,172,171544,2,0,B|365:160|365:160|423:168,1,95.9999970703126
487,320,171758,5,0,0:0:0:0:
465,349,171865,2,0,P|431:356|401:373,4,47.9999985351563
391,267,172187,1,0,0:0:0:0:
290,261,172294,1,0,0:0:0:0:
252,349,172401,1,0,0:0:0:0:
190,372,172508,5,0,0:0:0:0:
153,330,172615,1,0,0:0:0:0:
176,280,172722,2,0,P|173:235|152:190,2,80
12,193,173044,2,0,P|35:152|62:133,2,64
183,99,173365,2,0,P|225:57|233:31,1,47.9999985351563
286,0,173580,6,0,B|303:30|293:63|293:63|279:96|293:128,1,128
378,98,174115,5,0,0:0:0:0:
378,98,174222,2,0,P|449:162|454:241,1,160
232,235,174544,2,0,P|315:188|387:207,1,151.999995941162
134,384,174865,2,0,P|87:333|78:262,1,143.999995605469
301,291,175187,2,0,P|209:320|164:297,1,136.000002593994
150,235,175508,1,0,0:0:0:0:
142,193,175615,1,0,0:0:0:0:
207,154,175722,1,0,0:0:0:0:
199,112,175829,1,0,0:0:0:0:
260,62,175937,6,0,P|308:42|354:49,1,95.9999970703126
424,27,176151,1,0,0:0:0:0:
315,121,176258,2,0,L|318:217,1,95.9999970703126
366,278,176472,1,0,0:0:0:0:
239,213,176580,2,0,B|192:206|144:240,1,95.9999970703126
119,320,176794,1,0,0:0:0:0:
84,190,176901,2,0,L|59:85,1,95.9999970703126
114,31,177115,1,0,0:0:0:0:
169,83,177222,5,0,0:0:0:0:
216,21,177330,1,0,0:0:0:0:
279,93,177437,1,0,0:0:0:0:
346,22,177544,1,0,0:0:0:0:
406,78,177651,5,0,0:0:0:0:
473,27,177758,1,0,0:0:0:0:
473,27,177865,2,0,P|488:64|477:122,1,88.000002685547
376,207,178080,1,0,0:0:0:0:
376,207,178187,2,0,L|273:219,1,88.000002685547
201,229,178401,1,0,0:0:0:0:
335,315,178508,2,0,L|438:303,1,88.000002685547
497,256,178722,2,0,B|510:236|510:236|505:209,3,44.0000013427735
497,193,178937,6,0,P|483:142|483:98,1,88.000002685547
492,0,179151,1,0,0:0:0:0:
399,63,179258,1,0,0:0:0:0:
321,0,179365,5,0,0:0:0:0:
253,7,179472,1,0,0:0:0:0:
192,32,179580,1,0,0:0:0:0:
145,81,179687,2,0,P|126:142|126:181,1,80
219,280,179901,1,0,0:0:0:0:
156,258,180008,1,0,0:0:0:0:
93,285,180115,2,0,P|74:346|74:385,1,80
274,340,180330,1,0,0:0:0:0:
274,340,180437,2,0,P|297:288|289:239,1,80
230,211,180651,5,0,0:0:0:0:
311,169,180758,1,0,0:0:0:0:
202,116,180865,1,0,0:0:0:0:
337,71,180972,1,0,0:0:0:0:
233,31,181080,5,0,0:0:0:0:
233,31,181187,2,0,P|177:29|111:112,1,160
120,179,181508,1,0,0:0:0:0:
93,249,181615,1,0,0:0:0:0:
35,294,181722,1,0,0:0:0:0:
99,324,181830,2,0,P|147:322|191:290,1,80
264,210,182044,1,0,0:0:0:0:
264,210,182151,2,0,P|312:212|356:244,1,80
278,384,182365,6,0,L|283:273,1,80
339,226,182580,1,0,0:0:0:0:
362,311,182687,1,0,0:0:0:0:
254,218,182794,6,0,P|232:214|151:229,1,95.9999970703126
99,289,183008,1,0,0:0:0:0:
134,151,183115,2,0,L|129:33,1,95.9999970703126
57,29,183329,1,0,0:0:0:0:
210,73,183437,2,0,B|257:83|304:64,1,95.9999970703126
361,6,183651,1,0,0:0:0:0:
330,133,183758,2,0,L|343:247,1,95.9999970703126
401,281,183972,1,0,0:0:0:0:
339,337,184079,5,0,0:0:0:0:
267,304,184187,1,0,0:0:0:0:
194,369,184294,1,0,0:0:0:0:
125,305,184401,1,0,0:0:0:0:
53,338,184508,5,0,0:0:0:0:
9,279,184615,1,0,0:0:0:0:
9,279,184722,2,0,P|-4:232|2:185,1,88.000002685547
192,86,184937,1,0,0:0:0:0:
192,86,185044,2,0,L|88:84,1,88.000002685547
23,83,185258,1,0,0:0:0:0:
129,180,185365,2,0,L|232:168,1,88.000002685547
299,137,185579,2,0,B|308:158|308:158|307:184,3,44.0000013427735
302,214,185794,6,0,P|337:231|397:228,1,88.000002685547
459,181,186008,1,0,0:0:0:0:
475,294,186115,1,0,0:0:0:0:
400,351,186222,5,0,0:0:0:0:
332,356,186329,1,0,0:0:0:0:
268,337,186437,1,0,0:0:0:0:
211,297,186544,2,0,P|181:274|161:233,1,80
137,24,186758,1,0,0:0:0:0:
84,68,186865,1,0,0:0:0:0:
48,131,186972,2,0,P|35:170|41:232,1,80
207,156,187187,1,0,0:0:0:0:
207,156,187294,2,0,P|220:117|214:55,1,80
181,7,187508,5,0,0:0:0:0:
282,36,187615,1,0,0:0:0:0:
143,104,187722,1,0,0:0:0:0:
301,130,187829,1,0,0:0:0:0:
207,156,187937,5,0,0:0:0:0:
207,156,188044,2,0,P|194:195|200:257,1,80
371,120,188258,1,0,0:0:0:0:
301,130,188365,2,0,P|278:164|268:225,1,80
342,300,188580,1,0,0:0:0:0:
410,299,188687,1,0,0:0:0:0:
444,240,188794,5,0,0:0:0:0:
444,240,188901,2,0,P|409:217|348:207,1,80
240,242,189115,1,0,0:0:0:0:
274,300,189222,1,0,0:0:0:0:
342,300,189330,1,0,0:0:0:0:
274,183,189437,1,0,0:0:0:0:
342,183,189544,1,0,0:0:0:0:
307,124,189651,6,0,P|265:116|226:135,1,88.000002685547
232,237,189865,1,0,0:0:0:0:
213,143,189972,2,0,P|241:175|244:218,1,88.000002685547
149,259,190187,1,0,0:0:0:0:
118,168,190294,2,0,P|109:209|128:248,1,88.000002685547
239,228,190508,1,0,0:0:0:0:
149,259,190615,2,0,P|181:231|224:228,1,88.000002685547
270,318,190830,1,0,0:0:0:0:
180,349,190937,5,0,0:0:0:0:
225,334,191044,1,0,0:0:0:0:
239,228,191151,1,0,0:0:0:0:
270,318,191258,1,0,0:0:0:0:
341,246,191365,5,0,0:0:0:0:
334,255,191473,1,0,0:0:0:0:
325,248,191580,1,0,0:0:0:0:
332,239,191687,1,0,0:0:0:0:
396,317,191794,5,0,0:0:0:0:
426,265,191901,2,0,P|425:226|409:189,1,80
276,366,192115,5,0,0:0:0:0:
328,317,192222,1,0,0:0:0:0:
332,246,192330,1,0,0:0:0:0:
332,246,192437,2,0,P|319:229|303:217,3,40
276,207,192651,5,0,0:0:0:0:
205,216,192758,1,0,0:0:0:0:
254,89,192865,1,0,0:0:0:0:
162,161,192972,1,0,0:0:0:0:
233,151,193080,5,0,0:0:0:0:
260,126,193187,1,0,0:0:0:0:
254,89,193294,2,0,P|215:88|182:110,1,80
93,182,193508,1,0,0:0:0:0:
143,233,193615,2,0,P|163:199|161:160,1,80
138,51,193830,5,0,0:0:0:0:
93,1,193937,1,0,0:0:0:0:
73,65,194044,2,0,P|91:99|127:116,1,80
254,89,194258,1,0,0:0:0:0:
269,70,194365,5,0,0:0:0:0:
336,95,194472,1,0,0:0:0:0:
442,75,194580,1,0,0:0:0:0:
406,176,194687,1,0,0:0:0:0:
415,199,194794,6,0,P|404:240|370:267,1,88.000002685547
248,218,195008,1,0,0:0:0:0:
345,202,195115,2,0,P|304:186|263:197,1,88.000002685547
193,258,195330,1,0,0:0:0:0:
290,274,195437,2,0,P|249:289|208:278,1,88.000002685547
184,190,195651,1,0,0:0:0:0:
121,266,195758,2,0,P|127:223|158:192,1,88.000002685547
263,197,195972,1,0,0:0:0:0:
175,122,196080,5,0,0:0:0:0:
219,160,196187,1,0,0:0:0:0:
338,109,196294,1,0,0:0:0:0:
263,197,196402,1,0,0:0:0:0:
184,263,196508,5,0,0:0:0:0:
187,249,196615,1,0,0:0:0:0:
201,252,196722,1,0,0:0:0:0:
198,266,196830,1,0,0:0:0:0:
83,296,196937,5,0,0:0:0:0:
81,259,197044,2,0,P|88:220|110:187,1,80
219,154,197258,1,0,0:0:0:0:
276,195,197365,1,0,0:0:0:0:
235,253,197472,5,0,0:0:0:0:
234,253,197580,2,0,P|216:259|196:258,3,40
164,246,197794,5,0,0:0:0:0:
134,181,197901,1,0,0:0:0:0:
276,195,198008,1,0,0:0:0:0:
175,123,198115,1,0,0:0:0:0:
205,188,198222,5,0,0:0:0:0:
240,201,198330,1,0,0:0:0:0:
276,194,198437,2,0,P|306:170|319:133,1,80
274,65,198651,5,0,0:0:0:0:
245,128,198758,2,0,P|208:142|169:135,1,80
90,25,198972,5,0,0:0:0:0:
62,88,199079,1,0,0:0:0:0:
102,144,199187,2,0,P|95:183|70:213,1,80
38,282,199401,1,0,0:0:0:0:
78,338,199508,1,0,0:0:0:0:
147,331,199615,1,0,0:0:0:0:
66,220,199723,1,0,0:0:0:0:
134,212,199830,1,0,0:0:0:0:
141,228,199937,5,0,0:0:0:0:
154,240,200044,2,0,P|179:255|208:255,1,60.0000022888184
312,226,200258,1,0,0:0:0:0:
301,240,200365,1,0,0:0:0:0:
297,257,200472,6,0,P|296:286|311:311,1,60.0000022888184
413,348,200687,1,0,0:0:0:0:
430,349,200794,1,0,0:0:0:0:
447,344,200901,6,0,P|472:329|486:304,1,60.0000022888184
468,199,201115,1,0,0:0:0:0:
460,184,201223,5,0,0:0:0:0:
417,142,201330,1,0,0:0:0:0:
385,57,201437,1,0,0:0:0:0:
359,158,201544,1,0,0:0:0:0:
315,105,201651,6,0,P|287:102|266:147,1,80
273,172,201972,1,0,0:0:0:0:
180,110,202187,1,0,0:0:0:0:
154,125,202294,2,0,P|120:135|75:123,1,80
53,107,202615,1,0,0:0:0:0:
36,81,202722,1,0,0:0:0:0:
124,17,202937,1,0,0:0:0:0:
124,17,203044,1,0,0:0:0:0:
124,17,203151,2,0,L|118:62,1,40
192,43,203365,5,0,0:0:0:0:
192,43,203472,1,0,0:0:0:0:
272,48,203687,1,0,0:0:0:0:
351,54,203901,1,0,0:0:0:0:
431,60,204115,1,0,0:0:0:0:
431,60,204222,2,0,P|451:112|430:187,1,120
420,197,204651,1,0,0:0:0:0:
390,217,204758,1,0,0:0:0:0:
349,225,204865,1,0,0:0:0:0:
303,212,204972,1,0,0:0:0:0:
255,174,205080,6,0,P|206:165|124:202,1,95.9999970703126
273,64,205401,2,0,P|310:98|361:104,1,103.999995239258
194,91,205722,2,0,P|143:67|72:70,1,111.999996582031
13,39,206044,1,0,0:0:0:0:
13,39,206151,2,0,P|3:76|9:98,1,55.9999982910157
80,195,206365,2,0,P|83:167|73:141,1,55.9999982910157
6,236,206580,6,0,P|-6:292|6:349,1,111.999996582031
44,365,206901,1,0,0:0:0:0:
88,368,207008,1,0,0:0:0:0:
130,353,207115,1,0,0:0:0:0:
242,264,207330,1,0,0:0:0:0:
277,236,207437,2,0,P|327:233|383:261,1,111.999996582031
411,292,207758,2,0,L|410:313,4,13.9999995727539
454,281,207972,1,0,0:0:0:0:
477,242,208080,1,0,0:0:0:0:
485,198,208187,2,0,P|481:164|470:139,1,55.9999982910157
444,109,208401,1,0,0:0:0:0:
406,84,208508,6,0,L|417:25,2,55.9999982910157
337,53,208830,2,0,P|270:41|220:59,1,111.999996582031
297,237,209151,6,0,P|298:178|278:129,1,111.999996582031
110,214,209472,2,0,P|158:193|233:203,1,111.999996582031
175,333,209794,6,0,P|169:305|174:275,2,55.9999982910157
257,308,210115,2,0,P|262:335|258:366,2,55.9999982910157
286,232,210437,6,0,P|334:246|394:225,1,111.999996582031
496,184,210758,2,0,P|468:231|472:287,1,111.999996582031
421,152,211080,6,0,P|392:104|396:49,1,111.999996582031
305,126,211401,2,0,P|251:125|197:94,1,111.999996582031
90,27,211722,6,0,L|94:93,1,55.9999982910157
123,194,212044,1,0,0:0:0:0:
117,227,212151,1,0,0:0:0:0:
111,260,212258,2,0,L|114:304,1,27.9999991455078
223,297,212472,2,0,L|226:341,1,27.9999991455078
259,311,212580,2,0,L|262:355,1,27.9999991455078
364,318,212794,2,0,P|413:287|431:223,1,111.999996582031
423,42,213222,5,0,0:0:0:0:
383,45,213330,2,0,L|311:51,1,55.9999982910157
288,53,213544,1,0,0:0:0:0:
201,200,213812,2,0,P|258:193|289:109,1,139.999995727539
129,150,214294,6,0,P|114:205|131:262,1,111.999996582031
134,264,214722,1,0,0:0:0:0:
134,264,214830,2,0,P|107:260|68:263,1,55.9999982910157
129,341,215044,6,0,P|168:339|187:326,1,47.9999985351563
229,352,215365,5,0,0:0:0:0:
277,291,215472,1,0,0:0:0:0:
258,215,215580,2,0,P|228:192|201:187,1,55.9999982910157
1,77,215901,1,0,0:0:0:0:
71,106,216008,2,0,P|100:110|125:105,1,55.9999982910157
220,26,216222,2,0,P|285:3|378:4,1,128
507,57,216544,1,0,2:3:0:0:
466,104,216651,1,0,2:3:0:0:
404,117,216758,1,0,2:3:0:0:
346,92,216865,1,0,2:3:0:0:
284,100,216972,1,0,2:3:0:0:
247,151,217080,6,0,P|249:201|262:236,1,64
399,229,217401,1,0,0:0:0:0:
165,287,217615,1,0,2:0:0:0:
471,317,217830,1,0,0:0:0:0:
407,291,217937,2,0,B|380:273|322:266|313:339|255:332|227:316,1,192,0|0,2:0|0:0,0:0:0:0:
141,363,218365,1,0,0:0:0:0:
79,376,218472,1,0,0:0:0:0:
24,347,218579,1,0,0:0:0:0:
0,289,218686,1,0,0:0:0:0:
20,229,218794,6,0,P|100:212|134:172,1,128
17,2,219115,2,0,P|23:65|55:121,1,128,0|0,2:0|2:0,2:0:0:0:
203,73,219437,2,0,P|266:79|321:110,1,128,0|0,2:0|2:0,2:0:0:0:
512,283,219865,2,0,P|477:269|437:262,1,71.9999978027344
271,291,220080,2,0,P|303:308|342:316,1,71.9999978027344
425,178,220294,5,0,0:0:0:0:
276,107,220508,1,0,0:0:0:0:
225,159,220615,2,0,P|191:156|154:142,1,71.9999978027344
88,88,220830,1,0,0:0:0:0:
367,19,221044,1,0,0:0:0:0:
378,70,221151,2,0,P|372:105|354:135,1,71.9999978027344
225,159,221365,2,0,P|300:182|351:240,1,143.999995605469
467,329,221687,1,0,0:3:0:0:
406,367,221794,1,0,0:3:0:0:
334,374,221901,1,0,0:3:0:0:
268,345,222008,2,0,P|216:329|169:335,1,71.9999978027344,0|0,0:3|0:3,0:3:0:0:
5,352,222222,5,0,0:0:0:0:
54,298,222330,1,0,0:0:0:0:
46,226,222437,1,0,0:0:0:0:
95,172,222544,2,0,P|163:162|233:107,1,160
338,3,222865,2,0,P|344:41|335:83,1,80,0|0,0:3|0:3,0:3:0:0:
281,190,223080,2,0,P|270:260|296:349,1,160
423,218,223508,5,0,0:0:0:0:
376,259,223615,1,0,0:0:0:0:
387,321,223723,1,0,0:0:0:0:
447,339,223830,1,0,0:0:0:0:
494,299,223937,2,0,P|511:238|490:150,1,143.999995605469
305,179,224258,2,0,P|246:138|214:75,1,143.999995605469
391,35,224580,2,0,P|411:65|414:101,1,71.9999978027344
393,175,224794,1,0,0:0:0:0:
89,127,225115,1,0,0:0:0:0:
345,64,225437,2,0,P|316:81|276:91,1,71.9999978027344
159,129,225651,5,0,0:0:0:0:
132,187,225758,1,0,0:0:0:0:
152,248,225865,2,0,P|214:278|276:254,1,128
330,112,226187,1,0,0:0:0:0:
334,176,226294,2,0,P|362:217|390:240,1,64
508,317,226508,2,0,P|506:241|472:171,1,128
427,145,226830,1,0,2:3:0:0:
355,140,226937,1,0,2:3:0:0:
290,171,227044,1,0,2:3:0:0:
219,158,227151,1,0,2:3:0:0:
166,108,227258,1,0,2:3:0:0:
159,35,227366,6,0,P|104:40|21:78,1,128
194,112,227687,2,0,P|144:142|127:162,1,64
369,138,228008,1,0,0:0:0:0:
352,352,228222,1,0,0:0:0:0:
277,155,228437,1,0,0:0:0:0:
251,357,228651,1,0,0:0:0:0:
171,384,228758,1,0,0:0:0:0:
187,301,228865,2,0,L|200:230,1,64,2|8,0:0|3:0,0:0:0:0:
63,134,229080,6,0,B|75:207|75:207|44:241,1,120.000004577637,0|0,3:2|0:0,0:0:0:0:
44,241,229401,6,0,L|57:170,1,60.0000022888184,2|0,0:0|0:0,0:0:0:0:
103,312,229615,2,0,L|116:241,1,60.0000022888184,2|8,0:0|3:0,0:0:0:0:
131,157,229830,1,2,0:0:0:0:
187,268,229937,6,0,P|227:187|314:226,1,160,4|0,3:0|0:0,0:0:0:0:
368,327,230258,2,0,L|351:144,1,160,0|2,0:0|0:0,0:0:0:0:
345,90,230580,1,2,0:0:0:0:
368,92,230687,1,2,0:0:0:0:
346,97,230794,6,0,L|518:84,1,120.000004577637,8|0,3:0|0:0,0:0:0:0:
420,134,231115,2,0,L|416:160,1,23.9999992675781,8|0,3:0|0:0,0:0:0:0:
405,225,231330,2,0,L|401:251,1,23.9999992675781,0|8,0:0|3:0,0:0:0:0:
334,356,231544,5,0,0:0:0:0:
410,348,231651,2,0,B|462:311|432:245|365:244|349:299|349:299|330:358|264:375|227:323,1,300,4|0,3:0|0:0,0:0:0:0:
234,340,232080,5,2,0:0:0:0:
215,319,232187,1,2,0:0:0:0:
210,273,232294,1,2,0:0:0:0:
215,199,232401,1,2,0:0:0:0:
160,130,232508,6,0,L|75:140,1,80,0|0,3:0|0:0,0:0:0:0:
57,144,232830,6,0,B|102:179|102:179|237:105,1,200,2|0,0:0|0:0,0:0:0:0:
299,112,233151,2,0,L|378:121,1,60.0000022888184,0|0,3:0|0:0,0:0:0:0:
485,135,233365,1,0,1:0:0:0:
485,135,233580,6,0,B|494:47,2,80,2|2|2,0:0|0:0|0:0,0:0:0:0:
398,306,234222,2,0,P|340:303|309:254,1,120.000004577637,0|0,3:0|0:0,0:0:0:0:
316,178,234544,2,0,P|364:142|428:176,1,120.000004577637,0|0,3:0|0:0,0:0:0:0:
473,323,234865,1,2,3:2:0:0:
248,305,235080,6,0,L|247:340,1,35.9999989013672,8|0,3:0|0:0,0:0:0:0:
230,350,235294,1,2,0:0:0:0:
200,347,235401,1,2,0:0:0:0:
174,321,235508,1,0,0:0:0:0:
179,276,235615,1,2,0:0:0:0:
213,230,235722,1,0,0:0:0:0:
220,155,235830,1,2,0:0:0:0:
144,105,235937,6,0,L|59:99,1,80,4|0,3:1|0:0,0:0:0:0:
40,98,236258,6,0,L|249:84,1,200,2|0,0:0|0:0,0:0:0:0:
289,136,236580,2,0,L|368:145,1,60.0000022888184,0|0,3:0|0:0,0:0:0:0:
500,145,236794,5,0,1:0:0:0:
429,164,236901,2,0,P|374:144|416:69,1,160,2|0,0:0|0:0,0:0:0:0:
500,145,237222,6,0,L|494:230,1,80
456,291,237544,1,2,0:0:0:0:
456,291,237651,6,0,L|396:299,1,60.0000022888184,0|0,3:0|0:0,0:0:0:0:
330,271,237865,1,0,0:0:0:0:
331,271,237972,2,0,L|271:279,1,60.0000022888184,0|0,3:0|0:0,0:0:0:0:
208,243,238187,1,2,0:0:0:0:
209,243,238294,2,0,L|149:251,1,60.0000022888184,0|0,3:0|0:0,0:0:0:0:
114,317,238508,6,0,L|34:311,1,80,4|0,1:0|0:0,0:0:0:0:
9,309,238830,6,0,B|50:276|50:276|45:107,1,200,2|0,0:0|0:0,0:0:0:0:
93,76,239151,2,0,L|141:75,1,40
269,63,239365,5,0,3:0:0:0:
246,88,239472,1,0,0:0:0:0:
236,90,239580,1,0,0:0:0:0:
197,20,239687,5,2,0:0:0:0:
402,143,239901,6,2,L|483:143,1,60.0000022888184,2|0,0:0|0:0,0:0:0:0:
407,148,240008,2,2,L|488:148,1,60.0000022888184,2|0,3:2|0:0,0:0:0:0:
376,31,240222,6,0,L|385:277,1,240,0|0,1:0|0:0,0:0:0:0:
433,331,240651,2,0,L|499:335,2,60.0000022888184
190,363,241080,6,0,B|167:328|167:328|267:339,1,120.000004577637,0|0,3:0|0:0,0:0:0:0:
322,352,241401,2,0,B|299:387|299:387|399:376,1,120.000004577637,0|0,3:0|0:0,0:0:0:0:
307,256,241722,2,0,L|235:263,1,60.0000022888184,2|0,3:2|0:0,0:0:0:0:
89,267,241937,1,0,1:0:0:0:
30,367,242151,6,0,L|201:362,1,160,2|0,0:0|0:0,0:0:0:0:
261,358,242472,1,2,0:0:0:0:
118,334,242580,5,0,0:0:0:0:
116,314,242687,1,0,0:0:0:0:
89,267,242794,5,4,3:1:0:0:
93,241,242901,1,0,0:0:0:0:
75,222,243008,1,0,0:0:0:0:
150,201,243115,2,0,P|181:130|177:46,1,160
43,32,243437,2,0,P|79:14|120:11,1,80
252,61,243651,5,0,0:0:0:0:
252,61,243758,2,0,B|297:97|297:97|358:82,1,120.000004577637
403,133,244080,1,0,0:0:0:0:
449,123,244187,1,0,0:0:0:0:
488,150,244294,1,0,0:0:0:0:
494,197,244401,1,0,0:0:0:0:
447,245,244508,5,0,0:0:0:0:
511,269,244615,2,0,P|432:278|363:316,1,160
336,233,244937,2,0,P|306:258|285:308,1,80
289,369,245151,1,0,0:0:0:0:
166,227,245365,5,0,0:0:0:0:
166,227,245472,2,0,B|200:277|200:277|180:337,1,120.000004577637
112,365,245794,2,0,L|48:356,1,60.0000022888184
0,302,246008,1,0,0:0:0:0:
67,266,246115,1,0,0:0:0:0:
50,184,246222,5,0,0:0:0:0:
32,165,246329,1,0,0:0:0:0:
34,139,246436,1,0,0:0:0:0:
107,143,246544,2,0,P|183:143|261:175,1,160
339,69,246865,2,0,P|324:109|323:149,1,80
311,289,247080,5,0,0:0:0:0:
311,289,247187,2,0,B|359:327|359:327|422:318,1,120.000004577637
425,251,247508,1,0,0:0:0:0:
471,241,247615,1,0,0:0:0:0:
497,200,247723,1,0,0:0:0:0:
487,152,247830,1,0,0:0:0:0:
430,115,247937,6,0,P|354:117|279:81,1,160
249,153,248258,2,0,P|174:180|94:191,1,160
9,71,248580,2,0,P|42:109|51:154,1,80
3,239,248794,5,0,0:0:0:0:
45,306,248901,2,0,L|125:297,1,80
133,295,249222,5,0,0:0:0:0:
178,354,249330,1,0,0:0:0:0:
250,372,249437,1,0,0:0:0:0:
323,354,249544,1,0,0:0:0:0:
356,256,249651,6,0,P|340:176|348:94,1,160
461,108,249972,2,0,P|452:156|425:172,2,80
397,20,250294,2,0,P|360:5|257:70,1,160
262,141,250615,1,0,0:0:0:0:
416,325,250830,5,0,0:0:0:0:
456,327,250937,1,0,0:0:0:0:
418,333,251044,1,0,0:0:0:0:
360,281,251151,1,0,0:0:0:0:
353,278,251258,1,0,0:0:0:0:
303,326,251365,6,0,P|228:349|137:343,1,160
137,219,251687,2,0,P|167:241|195:275,2,80
0,369,252008,2,0,P|17:292|68:216,1,160
93,153,252330,2,0,P|81:123|87:60,1,80
145,33,252544,5,0,0:0:0:0:
184,0,252651,1,0,0:0:0:0:
230,23,252758,1,0,0:0:0:0:
245,91,252865,1,0,0:0:0:0:
241,98,252972,1,0,0:0:0:0:
183,139,253080,6,0,L|195:200,1,60.0000022888184
324,163,253294,2,0,L|336:224,1,60.0000022888184
202,209,253508,2,0,L|214:270,1,60.0000022888184
343,233,253722,2,0,L|355:294,1,60.0000022888184
221,279,253937,2,0,L|233:340,1,60.0000022888184
362,303,254151,2,0,L|374:364,1,60.0000022888184
164,360,254365,5,0,0:0:0:0:
125,350,254472,1,0,0:0:0:0:
81,291,254580,1,0,0:0:0:0:
75,292,254687,1,0,0:0:0:0:
29,368,254794,6,0,P|41:332|43:283,1,80
161,201,255115,2,0,P|158:161|146:123,1,80
53,42,255437,1,0,0:0:0:0:
33,47,255544,1,0,0:0:0:0:
38,28,255651,5,0,0:0:0:0:
62,59,255758,1,0,0:0:0:0:
100,70,255865,1,0,0:0:0:0:
139,65,255972,1,0,0:0:0:0:
174,46,256080,1,0,0:0:0:0:
229,38,256187,1,0,0:0:0:0:
275,68,256294,1,0,0:0:0:0:
298,118,256401,1,0,0:0:0:0:
257,177,256508,6,0,B|204:192|170:159|170:159|171:153|171:153|132:146|109:171|109:171|93:148|59:142,1,223.999993164063
51,215,256830,1,0,0:0:0:0:
51,215,257151,6,0,P|74:253|39:331,1,128
51,334,257472,2,0,P|83:272|56:208,1,143.999995605469
99,64,257794,6,0,P|129:61|163:40,1,60,0|0,0:0|0:0,0:0:0:0:
200,105,258222,6,0,L|327:118,1,120.000004577637,4|0,1:2|0:0,0:0:0:0:
413,22,258437,5,2,0:0:0:0:
342,120,258544,1,2,0:0:0:0:
420,100,258651,1,0,1:0:0:0:
379,287,258865,5,0,0:0:0:0:
396,211,258972,1,2,0:0:0:0:
302,284,259080,5,0,1:0:0:0:
314,330,259187,1,2,3:0:0:0:
268,342,259294,1,0,0:0:0:0:
256,296,259401,1,0,0:0:0:0:
190,336,259508,5,2,1:2:0:0:
113,314,259615,1,2,0:0:0:0:
92,236,259722,1,2,0:0:0:0:
149,179,259830,1,2,0:0:0:0:
168,101,259937,5,0,1:0:0:0:
122,86,260044,1,0,0:0:0:0:
92,123,260151,1,0,0:0:0:0:
149,179,260258,6,0,L|210:172,1,40,2|0,0:0|1:0,0:0:0:0:
3,200,260472,6,0,P|52:205|91:235,1,100,2|0,0:0|0:0,0:0:0:0:
58,51,260687,5,2,0:0:0:0:
86,142,260794,1,2,1:2:0:0:
161,70,260901,6,0,L|97:89,1,40,0|0,3:0|0:0,0:0:0:0:
316,20,261115,1,0,3:0:0:0:
248,41,261222,6,0,L|216:50,6,20,0|0|0|0|0|0|0,1:0|0:0|0:0|0:0|0:0|0:0|0:0,0:0:0:0:
368,69,261651,5,2,1:2:0:0:
344,136,261758,1,0,0:0:0:0:
378,198,261865,1,2,0:0:0:0:
474,158,261972,5,2,0:0:0:0:
444,224,262080,2,0,P|443:246|461:283,1,40,0|0,1:0|0:0,0:0:0:0:
374,361,262294,5,2,0:0:0:0:
330,303,262401,1,0,0:0:0:0:
265,334,262508,1,0,1:0:0:0:
175,282,262615,5,2,0:3:0:0:
198,253,262722,1,0,0:0:0:0:
230,272,262829,1,2,0:0:0:0:
168,353,262937,5,0,1:0:0:0:
103,384,263044,1,0,0:0:0:0:
46,339,263151,1,2,0:0:0:0:
65,269,263258,1,0,0:0:0:0:
18,214,263365,5,0,1:0:0:0:
8,175,263472,1,2,0:0:0:0:
28,212,263580,1,0,0:0:0:0:
18,173,263687,1,2,0:0:0:0:
102,197,263794,5,2,1:2:0:0:
84,264,263901,1,2,0:0:0:0:
113,200,264008,1,2,0:0:0:0:
95,267,264115,1,2,0:0:0:0:
181,253,264222,6,0,L|213:249,3,20,0|0|0|0,1:0|0:0|0:0|0:0,0:0:0:0:
248,180,264437,2,0,P|295:213|365:198,1,100,2|0,0:0|0:0,0:0:0:0:
475,177,264651,5,0,1:2:0:0:
494,101,264758,1,2,0:0:0:0:
398,156,264865,1,2,0:0:0:0:
419,80,264972,1,2,0:0:0:0:
315,95,265080,5,0,1:0:0:0:
271,115,265187,1,2,0:0:0:0:
224,103,265294,1,0,0:0:0:0:
199,61,265401,1,0,0:0:0:0:
133,14,265508,5,2,1:2:0:0:
125,93,265615,1,2,0:0:0:0:
47,113,265722,2,0,P|22:109|1:97,1,40,2|0,0:0|0:0,0:0:0:0:
131,271,265937,5,0,1:0:0:0:
141,200,266044,1,2,0:3:0:0:
107,184,266151,1,0,0:0:0:0:
87,214,266258,1,0,0:0:0:0:
199,244,266365,5,2,1:2:0:0:
269,231,266472,1,2,0:0:0:0:
306,168,266580,1,2,0:0:0:0:
290,97,266687,1,2,0:0:0:0:
225,64,266794,5,0,1:0:0:0:
313,91,266901,2,0,L|380:79,2,40,2|0|0,0:0|0:0|0:0,0:0:0:0:
162,121,267222,5,0,1:0:0:0:
127,142,267330,1,2,0:0:0:0:
116,180,267437,1,0,0:0:0:0:
130,217,267544,1,0,0:0:0:0:
195,246,267651,5,2,1:2:0:0:
197,238,267758,1,0,0:0:0:0:
268,229,267865,1,0,0:0:0:0:
266,221,267972,1,2,0:0:0:0:
338,217,268080,5,0,1:0:0:0:
399,254,268187,1,2,0:0:0:0:
412,324,268294,1,0,0:0:0:0:
435,256,268401,1,2,0:0:0:0:
500,225,268508,5,2,1:2:0:0:
493,153,268615,1,2,0:0:0:0:
509,224,268722,1,2,0:0:0:0:
502,152,268829,1,2,0:0:0:0:
418,196,268937,5,0,1:0:0:0:
362,58,269151,5,2,0:0:0:0:
355,130,269258,1,2,0:0:0:0:
353,57,269365,1,2,1:2:0:0:
346,129,269472,1,2,0:3:0:0:
159,77,269687,1,2,0:3:0:0:
226,47,269794,5,0,1:0:0:0:
247,85,269901,1,0,0:0:0:0:
219,119,270008,1,0,0:0:0:0:
251,294,270222,5,2,1:2:0:0:
280,262,270330,2,0,L|273:208,1,40
350,135,270544,5,0,0:0:0:0:
402,187,270652,2,0,L|395:241,2,40,2|0|0,1:2|0:0|0:0,0:0:0:0:
395,12,270972,5,2,0:0:0:0:
343,64,271080,2,0,L|307:57,6,20,0|0|0|0|2|0|0,1:0|0:0|0:0|0:0|0:0|0:0|0:0,0:0:0:0:
350,135,271508,5,2,1:2:0:0:
302,189,271615,1,2,0:0:0:0:
234,165,271722,1,2,0:0:0:0:
39,22,271937,6,0,B|18:98|18:98|44:137,1,120.000004577637
155,170,272151,5,0,0:0:0:0:
117,103,272258,1,0,0:0:0:0:
49,142,272365,2,0,L|56:221,1,60.0000022888184
98,303,272580,5,0,0:0:0:0:
0,348,272687,1,0,0:0:0:0:
23,278,272794,5,0,0:0:0:0:
93,294,272901,1,0,0:0:0:0:
148,248,273008,1,0,0:0:0:0:
138,176,273115,1,0,0:0:0:0:
23,278,273222,5,0,0:0:0:0:
26,286,273330,1,0,0:0:0:0:
115,360,273437,5,0,0:0:0:0:
112,369,273545,1,0,0:0:0:0:
229,315,273651,5,0,0:0:0:0:
276,261,273758,1,0,0:0:0:0:
256,232,273865,1,0,0:0:0:0:
224,244,273972,1,0,0:0:0:0:
307,373,274080,5,0,0:0:0:0:
363,322,274187,2,0,L|351:263,1,60.0000022888184
500,198,274401,5,0,0:0:0:0:
492,302,274508,1,0,0:0:0:0:
420,223,274615,2,0,L|432:164,1,60.0000022888184
464,20,274830,1,0,0:0:0:0:
399,79,274937,5,0,0:0:0:0:
336,60,275044,1,0,0:0:0:0:
396,84,275151,1,0,0:0:0:0:
333,65,275258,1,0,0:0:0:0:
358,144,275365,5,0,0:0:0:0:
357,183,275472,1,0,0:0:0:0:
322,191,275580,1,0,0:0:0:0:
248,119,275687,5,0,0:0:0:0:
197,172,275794,2,0,L|199:238,1,60.0000022888184
170,353,276008,5,0,0:0:0:0:
169,314,276115,1,0,0:0:0:0:
134,306,276223,1,0,0:0:0:0:
80,354,276330,5,0,0:0:0:0:
14,331,276437,1,0,0:0:0:0:
21,261,276544,1,0,0:0:0:0:
119,224,276651,6,0,L|117:158,2,60.0000022888184
114,94,276972,1,0,0:0:0:0:
228,158,277080,5,0,0:0:0:0:
252,149,277187,1,0,0:0:0:0:
310,66,277294,5,0,0:0:0:0:
274,77,277401,1,0,0:0:0:0:
324,193,277508,5,0,0:0:0:0:
339,146,277615,1,0,0:0:0:0:
223,23,277722,5,0,0:0:0:0:
200,93,277829,1,0,0:0:0:0:
252,149,277937,6,0,P|269:157|300:144,1,40
494,64,278151,6,0,B|498:4|498:4|473:69,1,120.000004577637
503,185,278365,6,0,B|517:151|517:151|477:134,1,80
419,197,278580,5,0,0:0:0:0:
395,187,278687,1,0,0:0:0:0:
426,192,278794,5,0,0:0:0:0:
462,253,278901,1,0,0:0:0:0:
435,319,279008,1,0,0:0:0:0:
363,324,279115,1,0,0:0:0:0:
303,242,279222,5,0,0:0:0:0:
300,235,279330,1,0,0:0:0:0:
237,348,279437,6,0,P|227:273|153:257,1,160
70,332,279758,6,0,L|10:325,2,60.0000022888184
153,257,280080,5,0,0:0:0:0:
133,220,280187,1,0,0:0:0:0:
172,178,280294,1,0,0:0:0:0:
125,128,280401,1,0,0:0:0:0:
187,70,280508,5,0,0:0:0:0:
119,6,280615,2,0,L|23:15,1,60.0000022888184
240,163,280830,5,0,0:0:0:0:
332,193,280937,1,0,0:0:0:0:
310,97,281044,5,0,0:0:0:0:
292,114,281151,1,0,0:0:0:0:
311,121,281258,1,0,0:0:0:0:
412,165,281365,5,0,0:0:0:0:
411,137,281472,1,0,0:0:0:0:
382,136,281579,1,0,0:0:0:0:
332,193,281687,5,0,0:0:0:0:
309,243,281794,1,0,0:0:0:0:
363,288,281901,1,0,0:0:0:0:
423,238,282008,1,0,0:0:0:0:
498,261,282115,1,0,0:0:0:0:
452,380,282222,5,0,0:0:0:0:
440,312,282330,1,0,0:0:0:0:
448,384,282437,1,0,0:0:0:0:
444,309,282544,1,0,0:0:0:0:
511,338,282651,5,0,0:0:0:0:
327,176,282865,5,0,0:0:0:0:
309,243,282973,1,0,0:0:0:0:
310,249,283080,1,0,0:0:0:0:
258,196,283188,1,0,0:0:0:0:
224,353,283401,5,0,0:0:0:0:
149,365,283508,1,0,0:0:0:0:
127,347,283615,1,0,0:0:0:0:
52,359,283722,2,0,L|-37:365,1,60.0000022888184
36,168,283937,6,0,B|10:244|10:244|33:275,1,120.000004577637
35,277,284258,6,0,L|30:211,1,40
104,216,284472,1,0,0:0:0:0:
104,216,284687,6,0,L|99:150,1,40
411,168,284901,1,0,0:0:0:0:
411,168,285008,6,0,L|477:163,1,47.9999985351563
466,91,285330,2,0,L|470:52,1,40
112,216,285651,6,0,L|232:205,1,120.000004577637
105,31,285865,1,0,0:0:0:0:
81,27,285972,2,0,P|66:85|80:157,1,120.000004577637
216,61,286294,1,0,0:0:0:0:
192,57,286401,2,0,P|187:116|199:140,1,60.0000022888184
289,150,286615,6,0,B|333:162|333:162|322:133|322:133|192:171|192:171|182:142|182:142|220:158,1,280.000002670288
371,223,286937,1,0,0:0:0:0:
383,260,287044,1,0,0:0:0:0:
396,299,287151,1,0,0:0:0:0:
423,226,287258,6,0,B|370:215|370:215|306:242|306:242|270:232,1,160
348,107,287472,1,0,0:0:0:0:
418,153,287580,1,0,0:0:0:0:
358,101,287687,2,0,L|361:36,2,40
428,147,287901,2,0,L|422:247,1,80
278,159,288115,1,0,0:0:0:0:
278,159,288222,2,0,B|197:158,1,60.0000022888184
37,126,288437,6,0,L|31:83,2,30.0000011444092
59,203,288651,5,0,0:0:0:0:
135,182,288758,1,0,0:0:0:0:
113,109,288865,1,0,0:0:0:0:
37,126,288972,1,0,0:0:0:0:
59,203,289080,6,0,L|55:248,2,40
192,127,289401,2,0,L|197:62,1,60.0000022888184
358,197,289615,1,0,0:0:0:0:
358,197,289722,2,0,L|355:236,1,40
307,40,289937,1,0,0:0:0:0:
326,44,290044,1,0,0:0:0:0:
345,48,290151,1,0,0:0:0:0:
412,120,290258,1,0,0:0:0:0:
431,115,290365,2,0,B|416:103|416:103|350:113,1,80
292,238,290580,2,0,B|277:249|277:249|211:241,1,80
136,46,290794,5,0,0:0:0:0:
209,15,290901,1,0,0:0:0:0:
286,36,291008,1,0,0:0:0:0:
336,97,291115,1,0,0:0:0:0:
338,176,291222,1,0,0:0:0:0:
292,238,291330,1,0,0:0:0:0:
225,151,291437,6,0,L|218:106,1,40
381,255,291651,2,0,L|427:244,4,40
103,190,291973,5,0,0:0:0:0:
67,209,292080,2,0,B|105:226|105:226|139:208,1,80
286,124,292294,1,0,0:0:0:0:
322,106,292401,1,0,0:0:0:0:
358,125,292508,6,0,B|320:142|320:142|286:124,1,80
235,302,292723,1,0,0:0:0:0:
199,284,292830,2,0,B|233:266|233:266|271:283,1,80
416,269,293044,1,0,0:0:0:0:
416,269,293151,6,0,B|433:232|433:232|415:198,1,80
165,158,293365,1,0,0:0:0:0:
165,158,293472,2,0,B|148:121|148:121|166:87,1,80
199,284,293687,1,0,0:0:0:0:
233,280,293794,5,0,0:0:0:0:
229,309,293901,1,0,0:0:0:0:
225,338,294008,1,0,0:0:0:0:
313,333,294115,6,0,L|380:333,1,60.0000022888184
153,173,294330,1,0,0:0:0:0:
150,202,294437,2,0,L|217:202,1,60.0000022888184
451,92,294651,1,0,0:0:0:0:
454,121,294758,6,0,L|387:121,1,60.0000022888184
379,225,294973,1,0,0:0:0:0:
332,240,295080,5,0,0:0:0:0:
305,227,295187,1,0,0:0:0:0:
278,214,295294,1,0,0:0:0:0:
206,203,295401,6,0,B|287:184|287:184|334:205|334:205|399:192|399:192|379:225,1,240.000009155274
321,337,295722,1,0,0:0:0:0:
293,324,295830,1,0,0:0:0:0:
83,244,295937,5,0,0:0:0:0:
118,276,296044,1,0,0:0:0:0:
164,264,296151,1,0,0:0:0:0:
129,233,296258,2,0,L|125:184,1,30.0000011444092
259,183,296472,1,0,0:0:0:0:
298,209,296579,2,0,L|291:139,1,60.0000022888184
139,79,296794,5,0,0:0:0:0:
93,94,296901,2,0,P|114:42|170:45,1,120.000004577637
292,149,297222,1,0,0:0:0:0:
314,106,297330,1,0,0:0:0:0:
111,207,297544,1,0,0:0:0:0:
126,252,297651,6,0,B|171:270|171:270|240:255,1,120.000004577637
226,108,297972,1,0,0:0:0:0:
178,99,298080,2,0,L|183:166,1,60.0000022888184
324,224,298294,6,0,L|317:283,1,60.0000022888184,4|0,0:0|0:0,0:0:0:0:
441,148,298508,1,0,0:0:0:0:
417,142,298615,1,0,0:0:0:0:
377,114,298722,6,0,L|383:47,1,60.0000022888184,4|0,0:0|0:0,0:0:0:0:
118,175,298937,1,0,0:0:0:0:
98,221,299044,6,0,L|157:220,1,60.0000022888184,4|0,0:0|0:0,0:0:0:0:
346,232,299258,1,0,0:0:0:0:
355,279,299365,6,0,P|346:317|320:347,1,80
139,297,299580,1,0,0:0:0:0:
118,280,299687,1,0,0:0:0:0:
101,253,299794,1,0,0:0:0:0:
98,221,299901,2,0,B|98:199|108:181|108:181|117:164|117:143,1,80
42,39,300115,2,0,P|71:65|110:74,1,80
238,62,300330,2,0,P|200:74|173:103,1,80
260,271,300544,1,0,0:0:0:0:
260,271,300651,5,0,0:0:0:0:
220,202,300758,1,0,0:0:0:0:
247,149,300865,1,0,0:0:0:0:
287,146,300972,1,0,0:0:0:0:
305,153,301080,6,0,P|324:176|330:205,1,60.0000022888184
108,267,301294,1,0,0:0:0:0:
167,257,301401,2,0,P|185:233|191:204,1,60.0000022888184
165,120,301615,2,0,P|192:131|222:129,1,60.0000022888184
354,66,301830,1,0,0:0:0:0:
354,66,301937,5,0,0:0:0:0:
436,84,302044,2,0,P|452:108|456:138,1,60.0000022888184
311,254,302258,1,0,0:0:0:0:
314,227,302365,5,0,0:0:0:0:
340,190,302472,1,0,0:0:0:0:
400,180,302580,1,0,0:0:0:0:
451,243,302687,1,0,0:0:0:0:
358,314,302794,6,0,L|279:300,1,80
102,272,303008,1,0,0:0:0:0:
195,201,303115,2,0,P|209:164|208:124,1,80
19,0,303330,1,0,0:0:0:0:
53,111,303437,2,0,P|82:137|120:149,1,80
296,99,303651,5,0,0:0:0:0:
282,157,303758,1,0,0:0:0:0:
298,214,303865,2,0,P|319:234|348:242,1,60.0000022888184
238,115,304080,5,0,0:0:0:0:
151,94,304187,1,0,0:0:0:0:
62,118,304294,2,0,P|35:159|34:208,1,100
168,276,304508,5,0,0:0:0:0:
134,246,304615,1,0,0:0:0:0:
88,248,304722,1,0,0:0:0:0:
57,282,304830,1,0,0:0:0:0:
172,322,304937,5,0,0:0:0:0:
243,297,305044,1,0,0:0:0:0:
300,345,305151,1,0,0:0:0:0:
371,320,305258,1,0,0:0:0:0:
314,272,305365,6,0,L|283:246,4,40
320,235,305687,5,0,0:0:0:0:
371,320,305794,1,0,0:0:0:0:
326,198,305901,1,0,0:0:0:0:
500,54,306115,5,0,0:0:0:0:
453,176,306222,2,0,P|404:192|352:194,1,103.999995239258
170,133,306437,5,0,0:0:0:0:
222,275,306544,2,0,B|283:271|283:271|338:290,1,120.000004577637
273,95,306758,5,0,0:0:0:0:
169,133,306865,2,0,P|155:178|152:226,1,95.9999970703126
197,349,307080,5,0,0:0:0:0:
89,309,307187,2,0,B|90:249|90:249|69:200,1,111.999996582031
112,76,307401,5,0,0:0:0:0:
145,167,307508,1,0,0:0:0:0:
231,184,307615,1,0,0:0:0:0:
295,173,307722,1,0,0:0:0:0:
334,156,307830,2,0,B|365:112|365:112|363:61,1,103.999995239258
487,170,308044,5,0,0:0:0:0:
450,271,308151,2,0,P|421:297|383:311,1,80
246,234,308365,5,0,0:0:0:0:
125,195,308472,2,0,B|112:246|112:246|82:277,1,95.9999970703126
280,324,308687,5,0,0:0:0:0:
246,234,308794,2,0,P|257:200|280:172,1,71.9999978027344
413,164,309008,5,0,0:0:0:0:
322,82,309115,2,0,B|278:95|278:95|233:86,1,88.000002685547
63,150,309330,5,0,0:0:0:0:
143,120,309437,2,0,P|173:130|198:150,1,64
186,309,309651,5,0,0:0:0:0:
246,234,309758,1,0,0:0:0:0:
340,248,309865,1,0,0:0:0:0:
400,173,309972,1,0,0:0:0:0:
186,309,310187,5,0,0:0:0:0:
246,234,310294,1,0,0:0:0:0:
460,98,310508,6,0,P|495:177|451:252,1,180.000006866455
340,248,310937,1,0,0:0:0:0:
293,241,311044,1,0,0:0:0:0:
164,137,311258,5,0,0:0:0:0:
211,144,311365,2,0,L|329:160,1,120
135,175,312008,5,0,0:0:0:0:
121,194,312330,5,0,0:0:0:0:
121,194,312437,1,0,0:0:0:0:
107,213,312758,5,0,0:0:0:0:
93,232,312972,5,0,0:0:0:0:
185,332,313080,2,0,P|166:276|170:233,1,80
145,85,313294,1,0,0:0:0:0:
138,89,313401,1,0,0:0:0:0:
70,128,313508,5,0,0:0:0:0:
48,204,313615,1,0,0:0:0:0:
77,278,313722,1,0,0:0:0:0:
148,315,313830,2,0,P|193:325|236:319,1,80
420,335,314044,6,0,P|424:288|404:245,2,95.9999970703126
323,232,314365,1,0,0:0:0:0:
375,170,314472,1,0,0:0:0:0:
249,219,314580,1,0,0:0:0:0:
350,99,314687,1,0,0:0:0:0:
248,9,314794,6,0,P|272:62|273:105,1,80,0|0,0:3|0:3,0:3:0:0:
178,215,315008,1,0,0:0:0:0:
215,293,315115,2,0,P|251:330|286:345,1,80
402,272,315330,5,0,0:0:0:0:
417,201,315437,1,0,0:0:0:0:
385,137,315544,2,0,P|352:114|313:104,1,80
93,124,315758,6,0,P|56:79|45:35,2,95.9999970703126
174,197,316080,1,0,0:0:0:0:
109,228,316187,1,0,0:0:0:0:
200,131,316294,1,0,0:0:0:0:
201,264,316401,1,0,0:0:0:0:
57,292,316508,6,0,P|106:298|148:318,1,80
310,377,316722,1,0,0:0:0:0:
399,370,316830,2,0,P|452:355|479:331,1,80
257,243,317044,5,0,0:0:0:0:
242,164,317151,1,0,0:0:0:0:
275,91,317258,2,0,P|313:50|360:29,1,80
446,241,317472,6,0,P|411:278|356:304,2,95.9999970703126,0|0|0,2:0|2:0|2:0,2:0:0:0:
425,88,317794,1,0,2:0:0:0:
430,163,317901,1,0,2:0:0:0:
496,122,318008,1,0,2:0:0:0:
360,130,318115,1,0,2:0:0:0:
282,171,318222,6,0,P|245:184|205:189,1,80
21,238,318437,1,0,0:0:0:0:
57,315,318544,2,0,P|100:341|132:349,1,80
261,152,318758,5,0,0:0:0:0:
332,190,318865,1,0,0:0:0:0:
312,272,318972,2,0,P|263:290|211:277,1,80
59,177,319187,6,0,P|54:100|68:66,2,95.9999970703126
175,300,319508,1,0,0:0:0:0:
115,248,319615,1,0,0:0:0:0:
266,279,319722,1,0,0:0:0:0:
211,231,319829,1,0,0:0:0:0:
344,245,319937,6,0,P|401:213|417:192,1,80
324,20,320151,1,0,0:0:0:0:
316,19,320258,1,0,0:0:0:0:
232,0,320365,5,0,0:0:0:0:
184,54,320472,1,0,0:0:0:0:
206,124,320580,1,0,0:0:0:0:
228,192,320687,2,0,P|211:250|184:276,1,80
37,368,320901,6,0,P|5:321|3:265,2,95.9999970703126
167,257,321222,1,0,0:0:0:0:
102,211,321330,1,0,0:0:0:0:
203,135,321437,1,0,0:0:0:0:
125,136,321544,1,0,0:0:0:0:
167,257,321651,6,0,P|210:282|259:278,1,80
420,243,321865,1,0,0:0:0:0:
497,283,321972,2,0,P|500:312|488:363,1,80
385,160,322187,5,0,0:0:0:0:
311,124,322294,1,0,0:0:0:0:
285,46,322401,2,0,P|235:29|187:26,1,80
70,209,322615,6,0,P|124:224|164:221,2,95.9999970703126
248,122,322937,1,0,0:0:0:0:
263,212,323044,1,0,0:0:0:0:
166,80,323151,1,0,0:0:0:0:
263,212,323258,1,0,0:0:0:0:
263,301,323365,6,0,P|301:327|355:343,1,80
482,235,323580,1,0,0:0:0:0:
485,154,323687,2,0,P|458:116|412:83,1,80
268,55,323901,5,0,0:0:0:0:
214,116,324008,1,0,0:0:0:0:
133,109,324115,2,0,P|67:146|39:182,1,80
21,268,324330,6,0,P|39:304|85:348,2,95.9999970703126
249,287,324651,1,0,0:0:0:0:
201,221,324758,1,0,0:0:0:0:
152,306,324866,1,0,0:0:0:0:
97,225,324973,1,0,0:0:0:0:
121,145,325080,6,0,P|145:87|168:63,1,80
354,133,325294,1,0,0:0:0:0:
450,118,325401,2,0,P|483:96|510:54,1,80
318,17,325615,5,0,0:0:0:0:
249,67,325722,1,0,0:0:0:0:
174,37,325830,1,0,0:0:0:0:
185,138,325937,5,0,0:0:0:0:
116,208,326044,2,0,P|137:253|141:305,2,95.9999970703126
185,138,326365,2,0,L|219:145,7,30.0000011444092
234,159,326794,6,0,L|223:253,1,88.000002685547
345,349,327008,1,0,0:0:0:0:
397,283,327115,2,0,L|407:195,1,88.000002685547
347,41,327330,1,0,0:0:0:0:
286,68,327437,1,0,0:0:0:0:
222,50,327544,2,0,P|178:42|134:54,1,88.000002685547
90,164,327758,6,0,P|56:173|20:171,2,71.9999978027344
112,142,328080,5,0,0:0:0:0:
72,199,328187,1,0,0:0:0:0:
107,276,328294,1,0,0:0:0:0:
53,351,328401,1,0,0:0:0:0:
178,336,328508,6,0,L|265:344,1,88.000002685547
437,273,328722,1,0,0:0:0:0:
383,221,328830,2,0,L|295:212,1,88.000002685547
84,140,329044,1,0,0:0:0:0:
84,69,329150,1,0,0:0:0:0:
144,104,329258,2,0,L|138:191,1,88.000002685547
232,265,329472,6,0,L|227:336,2,71.9999978027344
268,168,329794,1,0,0:0:0:0:
316,234,329901,1,0,0:0:0:0:
265,137,330008,1,0,0:0:0:0:
318,264,330115,1,0,0:0:0:0:
303,64,330222,6,0,P|261:53|220:68,1,88.000002685547
142,190,330437,1,0,0:0:0:0:
100,261,330544,2,0,P|57:271|16:258,1,88.000002685547
51,143,330758,1,0,0:0:0:0:
78,82,330865,1,0,0:0:0:0:
23,24,330972,2,0,L|110:34,1,88.000002685547
232,117,331187,6,0,L|303:108,2,71.9999978027344
147,167,331508,1,0,0:0:0:0:
158,241,331615,1,0,0:0:0:0:
254,263,331722,1,0,0:0:0:0:
239,359,331829,1,0,0:0:0:0:
151,307,331937,6,0,P|108:306|65:315,1,88.000002685547
16,191,332151,1,0,0:0:0:0:
82,158,332258,2,0,P|105:120|119:79,1,88.000002685547
232,103,332472,1,0,0:0:0:0:
302,71,332579,1,0,0:0:0:0:
376,94,332687,2,0,P|418:103|461:93,1,88.000002685547
426,242,332901,6,0,P|461:233|497:237,2,71.9999978027344
328,304,333222,1,0,0:0:0:0:
271,249,333329,1,0,0:0:0:0:
185,228,333437,1,0,0:0:0:0:
91,255,333544,1,0,0:0:0:0:
153,106,333651,6,0,L|165:18,1,88.000002685547
243,130,333865,1,0,0:0:0:0:
289,183,333972,2,0,L|301:95,1,88.000002685547
149,127,334187,1,0,0:0:0:0:
92,161,334294,1,0,0:0:0:0:
27,150,334401,2,0,P|34:193|25:236,1,88.000002685547
132,281,334615,6,0,P|124:316|126:351,2,71.9999978027344
230,247,334937,1,0,0:0:0:0:
295,288,335044,1,0,0:0:0:0:
374,224,335151,1,0,0:0:0:0:
465,281,335258,1,0,0:0:0:0:
434,153,335365,6,0,L|434:65,1,88.000002685547
237,76,335580,1,0,0:0:0:0:
224,152,335687,2,0,L|223:239,1,88.000002685547
452,232,335901,5,0,0:0:0:0:
453,164,336008,1,0,0:0:0:0:
454,96,336115,2,0,P|410:90|367:97,1,88.000002685547
216,160,336330,2,0,P|181:166|145:164,2,71.9999978027344
292,117,336651,1,0,0:0:0:0:
277,210,336758,1,0,0:0:0:0:
277,97,336865,1,0,0:0:0:0:
291,229,336972,1,0,0:0:0:0:
129,72,337080,6,0,L|130:160,1,88.000002685547
197,229,337294,1,0,0:0:0:0:
201,254,337401,2,0,L|199:342,1,88.000002685547
352,321,337615,1,0,0:0:0:0:
394,310,337722,1,0,0:0:0:0:
437,319,337830,2,0,P|454:278|452:235,1,88.000002685547
327,97,338044,5,0,0:0:0:0:
357,138,338151,1,0,0:0:0:0:
408,144,338258,1,0,0:0:0:0:
447,110,338365,1,0,0:0:0:0:
450,59,338472,1,0,0:0:0:0:
323,62,338580,1,0,0:0:0:0:
389,171,338687,1,0,0:0:0:0:
388,154,338794,6,0,L|386:92,2,40
454,199,339115,1,0,0:0:0:0:
317,236,339437,6,0,L|305:299,2,40
454,199,339758,1,0,0:0:0:0:
454,199,339865,2,0,L|461:238,1,40
464,249,340187,6,0,B|421:238|432:275|385:264,1,80
317,236,340508,6,0,P|306:204|320:164,2,60.0000022888184
261,291,340830,1,0,0:0:0:0:
191,252,340937,2,0,P|147:297|89:265,1,120.000004577637
112,210,341258,1,0,0:0:0:0:
127,214,341365,1,0,0:0:0:0:
92,303,341472,6,0,L|18:312,2,60.0000022888184
156,343,341794,1,0,0:0:0:0:
191,338,341901,1,0,0:0:0:0:
225,361,342008,1,0,0:0:0:0:
260,356,342115,1,0,0:0:0:0:
310,299,342222,6,0,P|314:269|303:241,2,60.0000022888184
373,344,342544,1,0,0:0:0:0:
432,294,342651,2,0,P|457:318|500:313,1,80.0000030517579
505,321,342865,2,0,L|512:262,1,60.0000022888184
466,117,343080,1,0,0:0:0:0:
404,168,343187,6,0,L|410:227,2,60.0000022888184
356,106,343508,1,0,0:0:0:0:
287,145,343615,2,0,B|221:168|241:105|166:131,1,120.000004577637
99,147,343937,6,0,P|67:158|27:144,2,60.0000022888184
154,203,344259,1,0,0:0:0:0:
115,273,344366,2,0,P|160:317|128:375,1,120.000004577637
72,351,344687,1,0,0:0:0:0:
76,336,344794,1,0,0:0:0:0:
180,303,344901,6,0,L|254:312,2,60.0000022888184
137,237,345222,1,0,0:0:0:0:
183,173,345330,1,0,0:0:0:0:
187,188,345437,2,0,P|211:204|241:202,1,60.0000022888184
315,129,345651,6,0,P|317:99|301:74,2,60.0000022888184
349,199,345972,1,0,0:0:0:0:
425,185,346079,2,0,P|450:209|493:204,1,80.0000030517579
498,212,346293,2,0,L|505:153,1,60.0000022888184
429,0,346508,1,0,0:0:0:0:
358,33,346616,6,0,L|299:27,2,60.0000022888184
420,81,346937,1,0,0:0:0:0:
369,140,347044,2,0,B|346:206|409:186|383:261,1,120.000004577637
318,295,347365,6,0,P|307:327|321:367,2,60.0000022888184
262,240,347687,1,0,0:0:0:0:
192,279,347794,2,0,P|148:234|90:266,1,120.000004577637
113,324,348115,1,0,0:0:0:0:
128,320,348222,1,0,0:0:0:0:
83,245,348330,6,0,L|17:227,2,60.0000022888184
152,189,348651,1,0,0:0:0:0:
185,181,348758,1,0,0:0:0:0:
222,200,348865,1,0,0:0:0:0:
256,191,348972,1,0,0:0:0:0:
304,133,349080,6,0,P|308:103|297:75,2,60.0000022888184
367,178,349402,1,0,0:0:0:0:
429,135,349509,2,0,P|454:111|497:116,1,80.0000030517579
502,108,349723,2,0,L|509:167,1,60.0000022888184
493,322,349937,1,0,0:0:0:0:
431,271,350044,6,0,L|437:212,2,60.0000022888184
383,333,350365,1,0,0:0:0:0:
314,294,350472,2,0,B|248:271|268:334|193:308,1,120.000004577637
138,263,350794,6,0,P|106:252|66:266,2,60.0000022888184
193,207,351116,1,0,0:0:0:0:
154,137,351223,2,0,P|199:93|167:35,1,120.000004577637
111,59,351544,1,0,0:0:0:0:
115,74,351651,1,0,0:0:0:0:
219,107,351758,6,0,L|293:98,2,60.0000022888184
176,173,352079,1,0,0:0:0:0:
222,237,352187,1,0,0:0:0:0:
226,222,352294,2,0,P|250:206|280:208,1,60.0000022888184
364,279,352508,6,0,P|366:309|350:334,2,60.0000022888184
355,201,352829,1,0,0:0:0:0:
431,178,352936,2,0,P|456:154|499:159,1,80.0000030517579
504,151,353150,2,0,L|511:210,1,60.0000022888184
435,363,353365,1,0,0:0:0:0:
364,330,353473,6,0,L|305:336,2,60.0000022888184
426,282,353794,1,0,0:0:0:0:
375,223,353901,2,0,B|352:157|415:177|389:102,1,120.000004577637
311,119,354222,5,0,0:0:0:0:
272,94,354330,2,0,L|196:101,1,60.0000022888184
141,61,354544,1,0,0:0:0:0:
118,67,354651,1,0,0:0:0:0:
100,73,354865,5,0,0:0:0:0:
83,139,354972,2,0,L|61:221,1,60.0000022888184
122,306,355187,2,0,P|153:254|145:190,1,120.000004577637
147,196,355508,1,0,0:0:0:0:
147,196,355615,1,0,0:0:0:0:
147,196,355937,5,0,0:0:0:0:
185,206,356044,2,0,P|216:206|255:191,1,60.0000022888184
301,136,356258,1,0,0:0:0:0:
316,155,356365,1,0,0:0:0:0:
332,173,356580,5,0,0:0:0:0:
368,191,356687,2,0,L|427:185,1,60.0000022888184
386,270,356901,2,0,L|327:264,1,60.0000022888184
217,329,357115,1,0,0:0:0:0:
217,329,357222,1,0,0:0:0:0:
217,329,357330,2,0,P|295:353|340:340,1,120.000004577637
252,248,357651,5,0,0:0:0:0:
220,213,357758,2,0,L|215:154,1,60.0000022888184
236,80,357972,1,0,0:0:0:0:
231,55,358080,1,0,0:0:0:0:
225,28,358294,5,0,0:0:0:0:
164,55,358401,2,0,P|134:58|95:50,1,60.0000022888184
6,98,358615,2,0,P|35:105|69:126,1,60.0000022888184
94,195,358830,1,0,0:0:0:0:
160,203,358937,1,0,0:0:0:0:
142,132,359044,1,0,0:0:0:0:
94,195,359151,2,0,P|83:234|88:270,1,60.0000022888184
171,362,359365,5,0,0:0:0:0:
216,328,359472,2,0,L|286:334,1,60.0000022888184
361,338,359687,1,0,0:0:0:0:
381,319,359794,1,0,0:0:0:0:
401,298,360008,5,0,0:0:0:0:
375,236,360115,2,0,L|384:175,1,60.0000022888184
462,122,360330,2,0,L|466:183,1,60.0000022888184
373,83,360544,1,0,0:0:0:0:
373,83,360651,1,0,0:0:0:0:
373,83,360758,2,0,P|309:71|249:95,1,120.000004577637
232,186,361080,5,0,0:0:0:0:
191,162,361188,2,0,L|115:169,1,60.0000022888184
69,223,361402,1,0,0:0:0:0:
66,252,361509,1,0,0:0:0:0:
65,279,361723,5,0,0:0:0:0:
84,317,361830,2,0,L|156:334,1,60.0000022888184
251,276,362045,2,0,P|209:239|146:246,1,120.000004577637
148,244,362366,1,0,0:0:0:0:
148,244,362473,1,0,0:0:0:0:
148,244,362795,5,0,0:0:0:0:
170,196,362902,2,0,P|172:165|163:131,1,60.0000022888184
113,62,363116,1,0,0:0:0:0:
119,34,363223,1,0,0:0:0:0:
126,3,363438,5,0,0:0:0:0:
188,26,363545,2,0,L|275:17,1,60.0000022888184
380,3,363758,2,0,L|320:9,1,60.0000022888184
231,106,363973,1,0,0:0:0:0:
231,106,364080,1,0,0:0:0:0:
231,106,364188,2,0,P|224:168|253:219,1,120.000004577637
454,133,364508,6,0,P|416:112|344:124,1,95.9999970703126
298,150,364830,1,0,0:0:0:0:
421,85,364937,2,0,P|458:62|483:-5,1,95.9999970703126
361,3,365258,2,0,L|308:-1,1,47.9999985351563
164,50,365472,2,0,P|210:59|257:49,1,95.9999970703126
329,71,365794,1,0,0:0:0:0:
274,122,365901,1,0,0:0:0:0:
343,146,366008,2,0,P|372:152|397:143,1,47.9999985351563
487,113,366222,6,0,L|483:163,1,40
474,311,366544,1,0,0:0:0:0:
451,319,366865,5,0,0:0:0:0:
427,328,366972,2,0,P|396:333|366:325,1,40
396,224,367187,1,0,0:0:0:0:
402,242,367294,1,0,0:0:0:0:
408,259,367401,1,0,0:0:0:0:
268,298,367615,2,0,P|316:272|347:296,1,80
