osu file format v14

[General]
AudioFilename: audio.mp3
AudioLeadIn: 0
PreviewTime: 213146
Countdown: 0
SampleSet: Soft
StackLeniency: 0.3
Mode: 0
LetterboxInBreaks: 0
WidescreenStoryboard: 0

[Editor]
Bookmarks: 20499,39892,78680,117468,156256,175650,214438,253226,292014,311408,330801
DistanceSpacing: 0.3
BeatDivisor: 4
GridSize: 32
TimelineZoom: 1.7

[Metadata]
Title:Yoi no Tamoto, Yoru to Futari
TitleUnicode:宵の袂、夜と二人
Artist:Feryquitous
ArtistUnicode:Feryquitous
Creator:Ametrin
Version:Monogatari
Source:
Tags:Delicious Solaris C90 Diverse System AcuticNotes
BeatmapID:1864425
BeatmapSetID:891830

[Difficulty]
HPDrainRate:6.6
CircleSize:4.5
OverallDifficulty:8.5
ApproachRate:9.4
SliderMultiplier:3
SliderTickRate:1

[Events]
//Background and Video events
0,0,"BG.jpg",0,0
//Break Periods
//Storyboard Layer 0 (Background)
//Storyboard Layer 1 (Fail)
//Storyboard Layer 2 (Pass)
//Storyboard Layer 3 (Foreground)
//Storyboard Sound Samples

[TimingPoints]
1106,882.352941176471,4,2,3,30,1,0
1988,689.655172413793,4,2,3,30,1,0
4746,606.060606060606,4,2,3,30,1,0
5954,606.060606060606,4,2,3,30,1,0
5954,-200,4,2,3,30,0,0
10802,582.52427184466,4,2,3,30,1,0
11675,606.060606060606,4,2,3,30,1,0
14438,606.060606060606,4,2,3,30,1,0
15650,606.060606060606,4,2,3,30,1,0
15650,-200,4,2,3,30,0,0
20499,606.060606060606,4,2,1,50,1,0
20499,-125,4,2,1,50,0,0
37468,-200,4,2,1,40,0,0
38377,-200,4,2,1,10,0,0
38680,-200,4,2,1,40,0,0
39589,-200,4,2,1,10,0,0
39892,-100,4,2,2,60,0,0
78680,-200,4,2,2,40,0,0
81105,-200,4,2,3,40,0,0
82317,-133.333333333333,4,2,2,40,0,0
83529,-200,4,2,2,40,0,0
84892,-200,4,2,3,40,0,0
85953,-200,4,2,2,40,0,0
90195,-200,4,2,3,40,0,0
92317,-133.333333333333,4,2,2,40,0,0
93226,-200,4,2,2,40,0,0
94589,-200,4,2,3,40,0,0
95650,-200,4,2,2,40,0,0
96559,-200,4,2,3,40,0,0
96862,-200,4,2,2,40,0,0
97468,-200,4,2,3,40,0,0
98074,-200,4,2,2,40,0,0
110195,-200,4,2,3,40,0,0
111711,-133.333333333333,4,2,2,40,0,0
112620,-200,4,2,2,20,0,0
116862,-200,4,2,3,30,0,0
117468,-83.3333333333333,4,2,2,70,0,1
156256,-83.3333333333333,4,2,2,50,0,0
156559,-100,4,2,2,50,0,0
157014,-133.333333333333,4,2,2,40,0,0
157468,-200,4,2,2,30,0,0
157923,-133.333333333333,4,2,2,40,0,0
158377,-100,4,2,2,50,0,0
158680,-100,4,2,2,60,0,0
158983,-100,4,2,2,50,0,0
159438,-100,4,2,2,40,0,0
159892,-100,4,2,2,30,0,0
161105,-83.3333333333333,4,2,2,60,0,0
161408,-100,4,2,2,50,0,0
161862,-133.333333333333,4,2,2,40,0,0
162317,-200,4,2,2,30,0,0
162772,-133.333333333333,4,2,2,40,0,0
163226,-100,4,2,2,50,0,0
163529,-100,4,2,2,60,0,0
163832,-100,4,2,2,50,0,0
164286,-100,4,2,2,40,0,0
164741,-100,4,2,2,30,0,0
165954,-83.3333333333333,4,2,2,60,0,0
166257,-100,4,2,2,50,0,0
166711,-133.333333333333,4,2,2,40,0,0
167165,-200,4,2,2,30,0,0
167620,-133.333333333333,4,2,2,40,0,0
168074,-100,4,2,2,50,0,0
168377,-100,4,2,2,60,0,0
168680,-100,4,2,2,50,0,0
169135,-100,4,2,2,40,0,0
169589,-100,4,2,2,30,0,0
170802,-83.3333333333333,4,2,2,60,0,0
171105,-100,4,2,2,50,0,0
171559,-133.333333333333,4,2,2,40,0,0
172014,-200,4,2,2,30,0,0
172468,-133.333333333333,4,2,2,40,0,0
172923,-100,4,2,2,50,0,0
173226,-100,4,2,2,60,0,0
173529,-100,4,2,2,50,0,0
173984,-100,4,2,2,40,0,0
174438,-100,4,2,2,30,0,0
175650,-125,4,2,2,60,0,0
209617,600,4,2,1,60,1,0
210517,606.060606060606,4,2,1,60,1,0
211266,638.297872340426,4,2,1,60,1,0
212041,631.578947368421,4,2,1,60,1,0
213420,606.060606060606,4,2,1,30,1,0
214438,606.060606060606,4,2,4,70,1,0
214438,-50,4,2,4,70,0,0
214741,-125,4,2,4,60,0,0
216862,-50,4,2,4,70,0,0
217165,-125,4,2,4,60,0,0
219286,-50,4,2,4,70,0,0
219589,-125,4,2,4,60,0,0
221710,-50,4,2,4,70,0,0
222013,-125,4,2,4,60,0,0
226912,-83.3333333333333,4,2,4,60,0,0
227367,-125,4,2,4,60,0,0
227821,-83.3333333333333,4,2,4,60,0,0
228276,-125,4,2,4,60,0,0
228983,-83.3333333333333,4,2,4,60,0,0
229286,-125,4,2,4,60,0,0
229993,-83.3333333333333,4,2,4,60,0,0
230801,-125,4,2,4,60,0,0
231407,-250,4,2,4,60,0,0
233831,-100,4,2,5,60,0,0
241104,-100,4,2,4,60,0,0
241407,-100,4,2,5,60,0,0
247165,-83.3333333333333,4,2,5,60,0,0
247670,-100,4,2,5,60,0,0
250347,-100,4,2,5,50,0,0
250801,-125,4,2,4,60,0,0
251104,-125,4,2,5,60,0,0
253225,-83.3333333333333,4,2,2,70,0,1
292013,-125,4,2,1,50,0,0
308983,-125,4,2,3,40,0,0
311407,-250,4,2,3,30,0,0
312278,606.060606060606,4,2,3,30,1,0
315044,606.060606060606,4,2,3,30,1,0
315044,-250,4,2,3,30,0,0
316256,606.060606060606,4,2,3,30,1,0
316256,-250,4,2,3,30,0,0
321983,606.060606060606,4,2,3,30,1,0
324741,606.060606060606,4,2,3,30,1,0
324741,-250,4,2,3,30,0,0
329589,-250,4,2,3,15,0,0
330195,-250,4,2,3,5,0,0

[Colours]
Combo1 : 120,127,161
Combo2 : 220,137,152
Combo3 : 254,197,185
Combo4 : 113,142,196

[HitObjects]
275,254,1106,5,0,0:0:0:0:
275,254,1988,1,0,0:0:0:0:
460,150,4746,5,0,0:0:0:0:
466,163,5049,1,0,0:0:0:0:
378,61,5352,1,2,0:0:0:0:
456,71,5655,1,0,0:0:0:0:
392,196,5954,6,0,P|379:252|374:306,1,112.5
381,183,6863,1,0,0:0:0:0:
223,174,8378,5,0,0:0:0:0:
373,306,9590,1,0,0:0:0:0:
167,372,10802,5,0,0:0:0:0:
242,307,11238,1,0,0:0:0:0:
167,372,11675,1,0,0:0:0:0:
137,125,14438,5,0,0:0:0:0:
151,120,14742,1,0,0:0:0:0:
16,90,15044,1,2,0:0:0:0:
96,48,15347,1,2,0:0:0:0:
121,210,15650,6,0,P|175:210|236:157,1,112.5
108,224,16560,1,0,0:0:0:0:
205,374,18075,5,0,0:0:0:0:
222,178,19287,1,0,0:0:0:0:
430,384,20499,5,2,0:0:0:0:
314,333,20650,1,0,0:0:0:0:
322,349,20802,1,0,0:0:0:0:
458,286,20953,1,0,0:0:0:0:
373,176,21105,2,0,L|371:240,1,60,8|0,0:0|0:0,0:0:0:0:
430,384,21408,5,0,0:0:0:0:
314,333,21559,1,0,0:0:0:0:
322,349,21711,1,0,0:0:0:0:
458,286,21862,1,0,0:0:0:0:
458,286,22165,1,2,0:0:0:0:
373,176,22317,5,8,0:0:0:0:
369,266,22468,1,0,0:0:0:0:
476,186,22620,2,0,P|482:157|488:128,1,60,0|0,0:0|0:0,0:0:0:0:
375,78,22923,5,0,0:0:0:0:
371,69,22999,1,0,0:0:0:0:
368,61,23074,1,0,0:0:0:0:
512,16,23226,1,2,0:0:0:0:
467,94,23377,1,0,0:0:0:0:
325,0,23529,2,0,P|290:7|247:14,1,60,8|0,0:0|0:0,0:0:0:0:
375,78,23832,5,0,0:0:0:0:
368,61,23983,1,0,0:0:0:0:
512,16,24135,1,0,0:0:0:0:
467,94,24286,1,0,0:0:0:0:
467,94,24589,1,2,0:0:0:0:
325,0,24741,6,0,P|320:52|321:79,1,60,8|0,0:0|0:0,0:0:0:0:
263,174,25044,2,0,P|290:163|317:149,1,60,0|0,0:0|0:0,0:0:0:0:
150,41,25347,5,2,0:0:0:0:
0,114,25499,1,0,0:0:0:0:
54,43,25650,1,0,0:0:0:0:
50,26,25802,1,0,0:0:0:0:
122,141,25953,2,0,P|117:175|113:208,1,60,8|0,0:0|0:0,0:0:0:0:
150,41,26256,5,0,0:0:0:0:
0,114,26408,1,0,0:0:0:0:
54,43,26559,1,0,0:0:0:0:
50,26,26711,1,0,0:0:0:0:
50,26,27014,1,2,0:0:0:0:
122,141,27165,5,8,0:0:0:0:
126,124,27317,1,0,0:0:0:0:
131,229,27468,2,0,P|100:227|73:214,1,60,0|0,0:0|0:0,0:0:0:0:
0,346,27771,5,0,0:0:0:0:
8,344,27847,1,0,0:0:0:0:
17,342,27923,1,0,0:0:0:0:
126,358,28074,1,2,0:0:0:0:
74,214,28226,1,0,0:0:0:0:
208,259,28377,2,0,P|203:293|201:329,1,60,8|0,0:0|0:0,0:0:0:0:
0,346,28680,5,0,0:0:0:0:
17,342,28832,1,0,0:0:0:0:
126,358,28983,1,0,0:0:0:0:
74,214,29135,1,0,0:0:0:0:
74,214,29438,1,2,0:0:0:0:
201,318,29589,6,0,P|233:312|271:307,1,60,8|0,0:0|0:0,0:0:0:0:
363,238,29892,2,0,P|333:233|304:229,1,60,0|0,0:0|0:0,0:0:0:0:
374,354,30195,5,2,0:0:0:0:
484,251,30347,1,0,0:0:0:0:
479,268,30499,1,0,0:0:0:0:
363,238,30650,1,0,0:0:0:0:
453,341,30802,2,0,P|487:346|517:349,1,60,8|0,0:0|0:0,0:0:0:0:
374,354,31105,5,0,0:0:0:0:
484,251,31257,1,0,0:0:0:0:
479,268,31409,1,0,0:0:0:0:
363,238,31559,1,0,0:0:0:0:
363,238,31862,1,2,0:0:0:0:
453,341,32014,5,8,0:0:0:0:
366,362,32165,1,0,0:0:0:0:
428,205,32317,2,0,P|423:171|420:141,1,60,0|0,0:0|0:0,0:0:0:0:
291,234,32620,5,0,0:0:0:0:
288,242,32695,1,0,0:0:0:0:
285,250,32771,1,0,0:0:0:0:
181,140,32923,1,2,0:0:0:0:
269,158,33074,1,0,0:0:0:0:
187,284,33226,2,0,P|182:318|179:348,1,60,8|0,0:0|0:0,0:0:0:0:
291,234,33529,5,0,0:0:0:0:
285,250,33680,1,0,0:0:0:0:
181,140,33832,1,0,0:0:0:0:
269,158,33983,1,0,0:0:0:0:
269,158,34287,1,2,0:0:0:0:
187,284,34438,6,0,P|155:289|111:289,1,60,8|0,0:0|0:0,0:0:0:0:
25,204,34741,2,0,P|55:208|85:210,1,60,0|0,0:0|0:0,0:0:0:0:
223,50,35044,5,2,0:0:0:0:
134,62,35195,1,0,0:0:0:0:
264,141,35347,1,0,0:0:0:0:
269,158,35499,1,0,0:0:0:0:
345,66,35650,2,0,P|348:35|346:-16,1,60,8|0,0:0|0:0,0:0:0:0:
223,50,35953,5,0,0:0:0:0:
134,62,36104,1,0,0:0:0:0:
264,141,36256,1,0,0:0:0:0:
269,159,36408,1,0,0:0:0:0:
269,159,36711,1,2,0:0:0:0:
345,66,36862,5,8,0:0:0:0:
363,65,37014,1,0,0:0:0:0:
461,153,37165,2,0,P|429:153|400:144,1,60,0|0,0:0|0:0,0:0:0:0:
512,21,37468,6,0,P|494:80|493:259,1,225
315,127,38680,2,0,P|285:36|362:92,1,225
346,228,39892,6,0,B|265:250|279:197|201:221,1,150,2|0,0:0|0:0,0:0:0:0:
315,127,40347,1,0,0:0:0:0:
362,243,40499,2,0,P|365:224|369:206,1,37.5,8|0,0:0|0:0,0:0:0:0:
384,189,40650,1,0,0:0:0:0:
392,326,40802,2,0,P|352:330|303:308,1,75,0|0,0:0|0:0,0:0:0:0:
493,266,41105,1,0,0:0:0:0:
504,350,41256,2,0,P|505:312|512:275,1,75,0|0,0:0|0:0,0:0:0:0:
392,326,41559,1,2,0:0:0:0:
484,181,41711,5,8,0:0:0:0:
505,175,41862,1,0,0:0:0:0:
384,189,42014,2,0,P|357:155|358:110,1,75,0|0,0:0|0:0,0:0:0:0:
494,16,42317,5,0,0:0:0:0:
494,16,42392,1,0,0:0:0:0:
494,16,42468,1,0,0:0:0:0:
488,106,42620,2,0,L|483:197,1,75,2|0,0:0|0:0,0:0:0:0:
326,51,42923,2,0,P|352:43|386:37,1,37.5,8|0,0:0|0:0,0:0:0:0:
384,49,43074,1,0,0:0:0:0:
273,135,43226,2,0,P|234:124|186:115,1,75,0|0,0:0|0:0,0:0:0:0:
74,44,43529,1,0,0:0:0:0:
167,32,43680,2,0,P|130:42|94:49,1,75,0|0,0:0|0:0,0:0:0:0:
200,117,43983,1,2,0:0:0:0:
78,179,44135,5,8,0:0:0:0:
82,158,44286,1,0,0:0:0:0:
0,47,44438,1,0,0:0:0:0:
4,68,44589,1,0,0:0:0:0:
0,236,44741,6,0,B|84:253|58:202|146:224,1,150,2|0,0:0|0:0,0:0:0:0:
192,337,45195,1,0,0:0:0:0:
163,237,45347,2,0,P|157:218|154:188,1,37.5,8|0,0:0|0:0,0:0:0:0:
162,179,45499,1,0,0:0:0:0:
287,244,45650,2,0,P|281:284|275:344,1,75,0|0,0:0|0:0,0:0:0:0:
362,155,45953,1,0,0:0:0:0:
387,244,46105,2,0,P|382:206|377:169,1,75,0|0,0:0|0:0,0:0:0:0:
287,244,46408,1,2,0:0:0:0:
405,340,46559,6,0,B|478:314|478:314|527:322,1,112.5,8|0,0:0|0:0,0:0:0:0:
512,319,46862,1,0,0:0:0:0:
397,358,47014,1,0,0:0:0:0:
387,244,47165,5,0,0:0:0:0:
387,244,47241,1,0,0:0:0:0:
387,244,47316,1,0,0:0:0:0:
490,217,47468,1,2,0:0:0:0:
405,340,47620,1,0,0:0:0:0:
511,224,47771,1,8,0:0:0:0:
362,155,47923,2,0,L|265:185,2,75,0|0|0,0:0|0:0|0:0,0:0:0:0:
409,54,48377,1,0,0:0:0:0:
337,0,48529,2,0,P|321:34|321:73,1,75,0|0,0:0|0:0,0:0:0:0:
479,124,48832,1,2,0:0:0:0:
321,70,48983,6,0,P|255:67|205:110,1,112.5,8|0,0:0|0:0,0:0:0:0:
218,91,49286,2,0,P|202:56|202:17,1,75,0|0,0:0|0:0,0:0:0:0:
290,177,49589,6,0,P|278:245|278:344,1,150,2|0,0:0|0:0,0:0:0:0:
195,232,50044,1,0,0:0:0:0:
269,347,50195,2,0,P|291:339|320:337,1,37.5,8|0,0:0|0:0,0:0:0:0:
323,339,50347,1,0,0:0:0:0:
173,312,50499,2,0,P|161:356|154:391,1,75,0|0,0:0|0:0,0:0:0:0:
73,199,50802,1,0,0:0:0:0:
78,290,50953,2,0,P|70:253|60:217,1,75,0|0,0:0|0:0,0:0:0:0:
173,312,51256,1,2,0:0:0:0:
285,228,51408,6,0,B|212:207|212:207|168:219,1,112.5,8|0,0:0|0:0,0:0:0:0:
176,216,51711,1,0,0:0:0:0:
285,133,51862,1,0,0:0:0:0:
378,283,52014,5,0,0:0:0:0:
378,283,52089,1,0,0:0:0:0:
378,283,52165,1,0,0:0:0:0:
478,189,52317,2,0,P|471:239|468:273,1,75,2|0,0:0|0:0,0:0:0:0:
389,371,52620,2,0,L|446:360,1,37.5,8|0,0:0|0:0,0:0:0:0:
447,371,52771,1,0,0:0:0:0:
284,309,52923,2,0,P|290:346|294:384,1,75,0|0,0:0|0:0,0:0:0:0:
198,250,53226,1,0,0:0:0:0:
284,227,53377,2,0,P|248:233|220:257,1,75,0|0,0:0|0:0,0:0:0:0:
284,309,53680,1,2,0:0:0:0:
345,173,53832,5,8,0:0:0:0:
337,151,53983,1,0,0:0:0:0:
199,79,54135,1,0,0:0:0:0:
191,101,54286,1,0,0:0:0:0:
351,35,54438,6,0,B|394:4|452:11|452:11|428:15|414:34,1,150,2|0,0:0|0:0,0:0:0:0:
264,12,54892,1,0,0:0:0:0:
476,81,55044,2,0,P|473:104|472:132,1,37.5,8|0,0:0|0:0,0:0:0:0:
473,140,55195,1,0,0:0:0:0:
341,223,55347,2,0,B|329:186|329:186|340:136,1,75,0|0,0:0|0:0,0:0:0:0:
421,287,55650,1,0,0:0:0:0:
504,249,55802,2,0,P|466:249|434:267,1,75,0|0,0:0|0:0,0:0:0:0:
496,346,56105,1,2,0:0:0:0:
349,383,56256,5,8,0:0:0:0:
354,361,56408,1,0,0:0:0:0:
256,253,56559,2,0,B|248:288|248:288|260:325,1,75,0|0,0:0|0:0,0:0:0:0:
176,384,56862,6,0,L|159:326,2,37.5,0|0|0,0:0|0:0|0:0,0:0:0:0:
148,212,57165,1,2,0:0:0:0:
256,253,57317,1,0,0:0:0:0:
169,204,57468,1,8,0:0:0:0:
80,293,57620,2,0,L|-20:274,2,75,0|0|0,0:0|0:0|0:0,0:0:0:0:
99,120,58074,1,0,0:0:0:0:
51,197,58226,2,0,P|56:160|79:130,1,75,0|0,0:0|0:0,0:0:0:0:
224,100,58529,1,2,0:0:0:0:
219,203,58680,6,0,P|184:216|147:211,1,75,8|0,0:0|0:0,0:0:0:0:
206,86,58983,1,0,0:0:0:0:
300,43,59135,1,0,0:0:0:0:
318,58,59286,6,0,P|332:124|343:219,1,150,2|0,0:0|0:0,0:0:0:0:
241,305,59741,2,0,P|241:286|245:267,1,37.5,0|0,0:0|0:0,0:0:0:0:
255,247,59892,1,8,0:0:0:0:
360,196,60044,1,0,0:0:0:0:
315,318,60195,2,0,P|251:307|214:303,1,75,0|0,0:0|0:0,0:0:0:0:
395,379,60499,1,0,0:0:0:0:
479,347,60650,2,0,P|441:352|405:359,1,75,0|0,0:0|0:0,0:0:0:0:
396,219,60953,1,2,0:0:0:0:
512,226,61105,5,8,0:0:0:0:
509,236,61180,1,0,0:0:0:0:
506,246,61256,1,0,0:0:0:0:
461,124,61408,1,0,0:0:0:0:
482,119,61559,1,0,0:0:0:0:
396,219,61711,6,0,L|350:212,2,37.5,0|0|0,0:0|0:0|0:0,0:0:0:0:
268,157,62014,2,0,P|219:171|136:176,1,112.5,2|0,0:0|0:0,0:0:0:0:
158,177,62317,2,0,P|122:133|121:110,1,75,8|0,0:0|0:0,0:0:0:0:
211,0,62620,1,0,0:0:0:0:
208,92,62771,1,0,0:0:0:0:
350,134,62923,1,0,0:0:0:0:
353,42,63075,2,0,P|361:78|363:115,1,75,0|0,0:0|0:0,0:0:0:0:
269,178,63377,1,2,0:0:0:0:
353,42,63529,5,8,0:0:0:0:
374,34,63680,1,0,0:0:0:0:
491,100,63832,1,0,0:0:0:0:
470,92,63983,1,0,0:0:0:0:
387,220,64135,6,0,B|393:267|393:267|370:315|370:315|375:367,1,150,2|0,0:0|0:0,0:0:0:0:
379,384,64514,1,0,0:0:0:0:
379,384,64589,1,0,0:0:0:0:
300,253,64741,1,8,0:0:0:0:
249,366,64892,2,0,P|279:360|302:352,1,37.5,0|0,0:0|0:0,0:0:0:0:
197,266,65044,2,0,P|187:294|182:318,2,37.5,0|0|0,0:0|0:0|0:0,0:0:0:0:
106,365,65347,2,0,P|96:317|86:288,1,75,0|0,0:0|0:0,0:0:0:0:
80,283,65574,1,0,0:0:0:0:
70,276,65650,2,0,P|41:269|17:272,1,37.5,0|0,0:0|0:0,0:0:0:0:
10,171,65802,1,2,0:0:0:0:
26,162,65877,1,0,0:0:0:0:
44,156,65953,1,8,0:0:0:0:
62,152,66029,1,0,0:0:0:0:
81,152,66105,6,0,P|93:181|94:204,1,37.5,0|0,0:0|0:0,0:0:0:0:
18,71,66256,2,0,P|22:52|30:36,1,37.5,0|0,0:0|0:0,0:0:0:0:
153,58,66408,1,0,0:0:0:0:
153,58,66483,1,0,0:0:0:0:
153,58,66559,6,0,P|128:65|98:69,2,37.5,0|0|0,0:0|0:0|0:0,0:0:0:0:
212,145,66862,2,0,P|202:175|190:239,1,75,2|0,0:0|0:0,0:0:0:0:
325,137,67165,2,0,P|319:109|306:80,1,37.5,8|0,0:0|0:0,0:0:0:0:
304,81,67317,1,0,0:0:0:0:
294,231,67468,2,0,L|392:217,1,75,0|0,0:0|0:0,0:0:0:0:
416,119,67771,1,0,0:0:0:0:
505,147,67923,2,0,L|430:136,1,75,0|0,0:0|0:0,0:0:0:0:
512,54,68226,1,2,0:0:0:0:
459,227,68377,6,0,P|444:276|444:347,1,112.5,8|0,0:0|0:0,0:0:0:0:
442,336,68680,1,0,0:0:0:0:
368,220,68832,1,0,0:0:0:0:
237,273,68983,6,0,P|275:333|344:320,1,150,2|0,0:0|0:0,0:0:0:0:
368,220,69438,1,0,0:0:0:0:
244,252,69589,2,0,P|222:261|180:262,1,37.5,8|0,0:0|0:0,0:0:0:0:
186,256,69741,1,0,0:0:0:0:
97,345,69892,2,0,P|138:347|179:364,1,75,0|0,0:0|0:0,0:0:0:0:
0,241,70195,1,0,0:0:0:0:
87,243,70347,2,0,P|51:255|14:256,1,75,0|0,0:0|0:0,0:0:0:0:
33,154,70650,1,2,0:0:0:0:
178,141,70802,5,8,0:0:0:0:
174,163,70953,1,0,0:0:0:0:
97,56,71105,1,0,0:0:0:0:
93,34,71256,1,0,0:0:0:0:
279,72,71408,5,0,0:0:0:0:
279,72,71483,1,0,0:0:0:0:
279,72,71559,1,0,0:0:0:0:
368,57,71711,2,0,L|462:40,1,75,2|0,0:0|0:0,0:0:0:0:
316,170,72014,2,0,L|254:156,1,37.5,8|0,0:0|0:0,0:0:0:0:
257,157,72165,1,0,0:0:0:0:
425,154,72317,2,0,P|444:191|450:280,1,112.5,0|0,0:0|0:0,0:0:0:0:
452,260,72620,1,0,0:0:0:0:
310,312,72771,2,0,P|344:324|393:315,1,75,0|0,0:0|0:0,0:0:0:0:
354,238,73074,1,2,0:0:0:0:
465,348,73226,6,0,P|470:372|470:395,2,37.5,8|0|0,0:0|0:0|0:0,0:0:0:0:
310,312,73529,2,0,P|282:341|273:385,1,75,0|0,0:0|0:0,0:0:0:0:
145,239,73832,6,0,P|168:306|175:388,1,150,2|0,0:0|0:0,0:0:0:0:
246,233,74286,1,0,0:0:0:0:
116,158,74438,2,0,P|88:166|56:172,1,37.5,8|0,0:0|0:0,0:0:0:0:
57,170,74589,1,0,0:0:0:0:
12,259,74741,2,0,P|40:267|72:273,2,37.5,0|0|0,0:0|0:0|0:0,0:0:0:0:
97,384,75044,1,0,0:0:0:0:
102,356,75120,1,0,0:0:0:0:
116,332,75195,1,0,0:0:0:0:
138,314,75271,1,0,0:0:0:0:
164,305,75347,2,0,P|177:330|179:351,1,37.5,0|0,0:0|0:0,0:0:0:0:
263,246,75499,2,0,P|250:271|248:292,1,37.5,2|0,0:0|0:0,0:0:0:0:
265,371,75650,6,0,B|337:353|337:353|391:377,1,112.5,8|0,0:0|0:0,0:0:0:0:
371,368,75953,1,0,0:0:0:0:
365,269,76105,2,0,L|359:204,1,37.5,0|0,0:0|0:0,0:0:0:0:
470,175,76256,6,0,L|466:212,2,37.5,0|0|0,0:0|0:0|0:0,0:0:0:0:
480,46,76559,1,2,0:0:0:0:
385,107,76711,1,0,0:0:0:0:
499,34,76862,1,8,0:0:0:0:
324,22,77014,2,0,P|282:19|244:8,2,75,0|0|0,0:0|0:0|0:0,0:0:0:0:
191,80,77468,1,0,0:0:0:0:
353,130,77620,2,0,P|293:128|242:157,1,112.5,0|0,0:0|0:0,0:0:0:0:
247,151,77923,1,2,0:0:0:0:
314,247,78074,5,8,0:0:0:0:
321,225,78226,1,0,0:0:0:0:
162,194,78377,1,0,0:0:0:0:
223,384,78529,1,0,0:0:0:0:
254,313,78680,6,0,P|186:317|155:349,2,112.5,4|0|0,0:1|0:0|0:0,0:0:0:0:
254,313,81105,2,0,L|270:261,1,37.5,2|0,0:0|0:0,0:0:0:0:
145,310,81559,2,0,L|156:345,1,37.5,2|0,0:0|0:0,0:0:0:0:
16,232,82317,5,0,0:0:0:0:
16,232,82620,2,0,P|84:236|115:268,1,112.5
0,216,83226,1,0,0:0:0:0:
140,46,83529,6,0,P|130:97|128:171,2,112.5,0|0|0,0:0|0:0|0:0,0:0:0:0:
127,157,84892,2,0,P|106:163|78:166,1,37.5,2|0,0:0|0:0,0:0:0:0:
140,46,85347,2,0,P|158:48|176:54,1,37.5,2|0,0:0|0:0,0:0:0:0:
244,277,85953,6,0,P|242:221|232:166,1,112.5,0|0,0:0|0:0,0:0:0:0:
244,277,86862,1,0,0:0:0:0:
180,74,87165,2,0,B|301:23|276:122|410:71,1,225,0|0,0:0|0:0,0:0:0:0:
506,8,88377,6,0,P|476:62|498:117,2,112.5
506,8,90195,2,0,P|473:26|428:29,1,75,0|0,0:0|0:0,0:0:0:0:
348,8,90802,1,0,0:0:0:0:
433,260,92317,6,0,P|403:206|425:151,1,112.5,0|0,0:0|0:0,0:0:0:0:
421,281,92923,1,0,0:0:0:0:
221,233,93226,6,0,P|288:219|340:226,2,112.5,0|0|0,0:0|0:0|0:0,0:0:0:0:
221,233,94589,2,0,P|227:251|236:268,1,37.5,0|0,0:0|0:0,0:0:0:0:
331,223,95044,2,0,P|339:206|345:188,1,37.5,0|0,0:0|0:0,0:0:0:0:
265,25,95650,6,0,L|272:149,1,112.5,0|0,0:0|0:0,0:0:0:0:
271,137,96559,2,0,P|244:148|221:147,1,37.5,0|0,0:0|0:0,0:0:0:0:
111,94,96862,6,0,P|148:67|188:67,1,75,0|0,0:0|0:0,0:0:0:0:
148,185,97468,2,0,P|142:208|142:234,2,37.5,0|0|0,0:0|0:0|0:0,0:0:0:0:
14,126,98074,6,0,P|38:189|41:248,1,112.5,0|0,0:0|0:0,0:0:0:0:
0,320,98983,1,0,0:0:0:0:
382,292,100499,6,0,P|373:255|354:223,1,75,0|0,0:0|0:0,0:0:0:0:
254,361,101105,2,0,P|274:326|282:282,1,75,0|0,0:0|0:0,0:0:0:0:
78,251,101711,1,0,0:0:0:0:
176,292,102014,1,0,0:0:0:0:
94,355,102317,1,0,0:0:0:0:
173,162,102620,1,0,0:0:0:0:
100,95,102923,6,0,P|159:64|271:154,1,225,0|0,0:0|0:0,0:0:0:0:
341,104,105347,2,0,P|238:78|172:161,1,225
172,162,106559,1,0,0:0:0:0:
258,305,107771,6,0,P|200:286|144:288,2,112.5,0|0|0,0:0|0:0|0:0,0:0:0:0:
149,287,110195,2,0,P|135:259|132:237,1,37.5,2|0,0:0|0:0,0:0:0:0:
219,234,110650,2,0,P|220:202|229:182,1,37.5,2|0,0:0|0:0,0:0:0:0:
309,219,111105,2,0,P|326:192|343:179,1,37.5,2|0,0:0|0:0,0:0:0:0:
358,352,111711,6,0,P|416:333|472:335,1,112.5,0|0,0:0|0:0,0:0:0:0:
338,339,112317,1,0,0:0:0:0:
449,235,112620,6,0,P|459:180|463:110,1,112.5
463,124,113529,1,0,0:0:0:0:
294,27,115044,6,0,P|234:55|240:109,2,112.5
294,27,116256,1,0,0:0:0:0:
294,27,116862,2,0,P|319:24|346:17,1,37.5,2|0,0:0|0:0,0:0:0:0:
232,94,117165,2,0,P|207:91|180:84,1,37.5,2|0,0:0|0:0,0:0:0:0:
309,104,117468,6,0,B|277:180|333:164|301:248,1,134.999995880127,6|0,0:0|0:0,0:0:0:0:
294,259,117771,1,0,0:0:0:0:
205,188,117923,1,0,0:0:0:0:
399,141,118074,2,0,P|443:136|496:164,1,89.9999972534181,8|0,0:0|0:0,0:0:0:0:
424,247,118377,5,0,0:0:0:0:
399,141,118529,1,0,0:0:0:0:
480,343,118680,2,0,P|439:360|395:356,1,89.9999972534181,0|0,0:0|0:0,0:0:0:0:
305,235,118983,5,0,0:0:0:0:
399,141,119135,1,2,0:0:0:0:
420,124,119286,5,8,0:0:0:0:
224,180,119438,1,0,0:0:0:0:
263,88,119589,5,0,0:0:0:0:
407,264,119741,1,0,0:0:0:0:
305,381,119892,5,0,0:0:0:0:
273,377,119968,1,0,0:0:0:0:
241,373,120044,1,0,0:0:0:0:
209,370,120120,1,0,0:0:0:0:
178,366,120195,2,0,P|164:342|158:320,1,44.999998626709,2|0,0:0|0:0,0:0:0:0:
59,323,120347,2,0,P|66:301|77:282,1,44.999998626709,0|0,0:0|0:0,0:0:0:0:
205,167,120498,2,0,P|228:210|227:269,1,89.9999972534181,8|0,0:0|0:0,0:0:0:0:
110,208,120802,5,0,0:0:0:0:
205,167,120953,1,0,0:0:0:0:
30,119,121105,2,0,P|7:162|8:221,1,89.9999972534181,0|0,0:0|0:0,0:0:0:0:
131,284,121408,5,0,0:0:0:0:
27,309,121559,1,2,0:0:0:0:
0,315,121711,5,8,0:0:0:0:
131,193,121862,1,0,0:0:0:0:
160,368,122014,1,0,0:0:0:0:
68,384,122165,5,0,0:0:0:0:
238,343,122317,1,2,0:0:0:0:
267,333,122392,1,0,0:0:0:0:
297,342,122468,1,0,0:0:0:0:
326,353,122544,1,0,0:0:0:0:
361,366,122620,2,0,L|409:346,1,44.999998626709,0|0,0:0|0:0,0:0:0:0:
299,238,122771,2,0,L|342:259,1,44.999998626709,0|0,0:0|0:0,0:0:0:0:
510,297,122923,2,0,P|495:359|492:401,1,89.9999972534181,8|0,0:0|0:0,0:0:0:0:
455,195,123226,5,0,0:0:0:0:
510,297,123377,1,0,0:0:0:0:
351,237,123529,2,0,P|339:193|333:149,1,89.9999972534181,0|0,0:0|0:0,0:0:0:0:
455,0,123832,5,0,0:0:0:0:
419,102,123983,1,2,0:0:0:0:
410,127,124135,5,8,0:0:0:0:
321,3,124286,1,0,0:0:0:0:
321,3,124362,1,0,0:0:0:0:
321,3,124438,1,0,0:0:0:0:
505,79,124589,1,0,0:0:0:0:
333,149,124741,6,0,L|248:128,1,44.999998626709,0|0,0:0|0:0,0:0:0:0:
159,105,124892,1,0,0:0:0:0:
145,102,124968,1,0,0:0:0:0:
131,99,125044,6,0,P|120:73|113:31,1,44.999998626709,2|0,0:0|0:0,0:0:0:0:
257,131,125195,2,0,P|268:157|275:199,1,44.999998626709,0|0,0:0|0:0,0:0:0:0:
150,210,125347,6,0,L|92:197,1,44.999998626709,8|0,0:0|0:0,0:0:0:0:
198,9,125498,1,0,0:0:0:0:
311,73,125650,2,0,P|355:64|400:58,1,89.9999972534181,0|0,0:0|0:0,0:0:0:0:
312,74,125953,5,0,0:0:0:0:
257,132,126105,1,0,0:0:0:0:
138,132,126256,1,0,0:0:0:0:
57,32,126408,1,2,0:0:0:0:
44,8,126559,5,8,0:0:0:0:
182,42,126711,1,0,0:0:0:0:
0,102,126862,1,0,0:0:0:0:
208,35,127014,1,0,0:0:0:0:
234,28,127165,6,0,P|221:115|217:181,1,134.999995880127,2|0,0:0|0:0,0:0:0:0:
218,188,127468,2,0,P|186:182|160:172,1,44.999998626709,0|0,0:0|0:0,0:0:0:0:
309,252,127620,2,0,P|341:246|367:236,1,44.999998626709,0|0,0:0|0:0,0:0:0:0:
440,100,127771,2,0,P|393:93|334:78,1,89.9999972534181,8|0,0:0|0:0,0:0:0:0:
438,6,128074,5,0,0:0:0:0:
351,83,128226,1,0,0:0:0:0:
424,219,128377,2,0,P|471:212|530:197,1,89.9999972534181,0|0,0:0|0:0,0:0:0:0:
280,136,128680,5,0,0:0:0:0:
309,252,128832,1,2,0:0:0:0:
316,277,128983,5,8,0:0:0:0:
351,83,129135,1,0,0:0:0:0:
267,51,129286,5,0,0:0:0:0:
502,135,129438,1,0,0:0:0:0:
424,218,129589,6,0,P|421:241|420:263,2,44.999998626709,0|0|0,0:0|0:0|0:0,0:0:0:0:
512,341,129892,1,2,0:0:0:0:
405,286,130044,1,0,0:0:0:0:
257,384,130195,2,0,P|304:377|353:372,1,89.9999972534181,8|0,0:0|0:0,0:0:0:0:
174,314,130498,5,0,0:0:0:0:
257,384,130650,1,0,0:0:0:0:
211,215,130802,2,0,P|164:208|115:203,1,89.9999972534181,0|0,0:0|0:0,0:0:0:0:
108,203,131029,1,0,0:0:0:0:
94,203,131105,5,0,0:0:0:0:
171,102,131256,1,2,0:0:0:0:
188,81,131408,5,8,0:0:0:0:
15,144,131559,1,0,0:0:0:0:
157,261,131711,1,0,0:0:0:0:
92,352,131862,5,0,0:0:0:0:
253,251,132014,2,0,B|286:225|286:225|258:341,1,134.999995880127,2|0,0:0|0:0,0:0:0:0:
257,341,132317,2,0,L|244:398,1,44.999998626709,0|0,0:0|0:0,0:0:0:0:
157,261,132468,2,0,L|170:318,1,44.999998626709,0|0,0:0|0:0,0:0:0:0:
347,373,132620,2,0,P|397:375|450:337,1,89.9999972534181,8|0,0:0|0:0,0:0:0:0:
370,253,132923,5,0,0:0:0:0:
431,357,133074,1,0,0:0:0:0:
429,147,133226,2,0,P|388:128|344:131,1,89.9999972534181,0|0,0:0|0:0,0:0:0:0:
225,199,133529,5,0,0:0:0:0:
199,91,133680,1,2,0:0:0:0:
193,64,133832,5,8,0:0:0:0:
156,260,133983,1,0,0:0:0:0:
156,260,134059,1,0,0:0:0:0:
156,260,134135,1,0,0:0:0:0:
310,133,134286,1,0,0:0:0:0:
128,137,134438,6,0,L|96:197,1,44.999998626709,0|0,0:0|0:0,0:0:0:0:
43,296,134589,1,0,0:0:0:0:
30,320,134741,5,2,0:0:0:0:
90,207,134892,1,0,0:0:0:0:
121,378,135044,5,8,0:0:0:0:
0,147,135195,1,0,0:0:0:0:
90,207,135347,2,0,P|139:213|185:186,1,89.9999972534181,0|0,0:0|0:0,0:0:0:0:
90,207,135650,5,0,0:0:0:0:
120,122,135802,1,0,0:0:0:0:
234,92,135953,1,0,0:0:0:0:
336,169,136105,1,2,0:0:0:0:
346,177,136180,1,0,0:0:0:0:
356,186,136256,5,8,0:0:0:0:
386,69,136408,1,0,0:0:0:0:
394,43,136559,1,0,0:0:0:0:
442,242,136711,1,0,0:0:0:0:
402,17,136862,6,0,B|309:2|309:2|255:21,1,134.999995880127,2|0,0:0|0:0,0:0:0:0:
245,23,137165,1,0,0:0:0:0:
175,104,137317,1,0,0:0:0:0:
338,258,137468,2,0,L|347:163,1,89.9999972534181,8|0,0:0|0:0,0:0:0:0:
234,231,137771,5,0,0:0:0:0:
346,168,137923,1,0,0:0:0:0:
149,172,138074,2,0,L|140:76,1,89.9999972534181
117,271,138377,5,0,0:0:0:0:
234,231,138529,1,2,0:0:0:0:
259,221,138680,5,8,0:0:0:0:
59,193,138832,1,0,0:0:0:0:
4,275,138983,5,0,0:0:0:0:
140,82,139135,1,0,0:0:0:0:
251,140,139286,5,0,0:0:0:0:
251,140,139362,1,0,0:0:0:0:
251,140,139438,2,0,L|317:147,1,44.999998626709,0|0,0:0|0:0,0:0:0:0:
392,156,139589,1,2,0:0:0:0:
362,31,139741,1,0,0:0:0:0:
335,221,139892,1,8,0:0:0:0:
331,247,139968,1,0,0:0:0:0:
327,273,140044,2,0,L|320:317,1,44.999998626709,0|0,0:0|0:0,0:0:0:0:
491,277,140195,6,0,P|459:263|432:262,1,44.999998626709,0|0,0:0|0:0,0:0:0:0:
278,302,140347,2,0,P|310:316|337:317,1,44.999998626709,0|0,0:0|0:0,0:0:0:0:
504,367,140499,2,0,L|492:278,1,89.9999972534181,0|0,0:0|0:0,0:0:0:0:
295,384,140802,5,0,0:0:0:0:
394,362,140953,1,2,0:0:0:0:
421,357,141105,6,0,L|374:297,1,44.999998626709,8|0,0:0|0:0,0:0:0:0:
252,293,141256,2,0,L|326:283,1,44.999998626709,0|0,0:0|0:0,0:0:0:0:
392,179,141408,2,0,L|367:245,1,44.999998626709,0|0,0:0|0:0,0:0:0:0:
491,163,141559,6,0,P|483:138|470:120,1,44.999998626709,0|0,0:0|0:0,0:0:0:0:
300,144,141711,2,0,B|239:127|239:127|188:165|188:165|113:159,1,179.999994506836,2|0,0:0|0:0,0:0:0:0:
36,154,142165,1,0,0:0:0:0:
162,0,142317,2,0,B|175:41|175:41|157:107,1,89.9999972534181,8|0,0:0|0:0,0:0:0:0:
81,44,142620,5,0,0:0:0:0:
255,5,142771,1,0,0:0:0:0:
135,160,142923,2,0,L|142:230,3,44.999998626709,0|0|0|0,0:0|0:0|0:0|0:0,0:0:0:0:
253,96,143226,6,0,L|246:166,1,44.999998626709,0|0,0:0|0:0,0:0:0:0:
237,239,143377,1,2,0:0:0:0:
234,265,143529,5,8,0:0:0:0:
135,160,143680,1,0,0:0:0:0:
135,160,143756,1,0,0:0:0:0:
135,160,143832,1,0,0:0:0:0:
351,179,143983,1,0,0:0:0:0:
253,349,144135,6,0,L|181:331,1,44.999998626709,0|0,0:0|0:0,0:0:0:0:
76,301,144286,1,0,0:0:0:0:
63,297,144362,1,0,0:0:0:0:
49,293,144438,6,0,P|30:331|26:353,1,44.999998626709,2|0,0:0|0:0,0:0:0:0:
180,330,144589,2,0,P|172:308|160:289,1,44.999998626709,0|0,0:0|0:0,0:0:0:0:
106,384,144741,5,8,0:0:0:0:
135,160,144892,2,0,L|70:150,1,44.999998626709,0|0,0:0|0:0,0:0:0:0:
230,145,145044,2,0,L|295:135,3,44.999998626709,0|0|0|0,0:0|0:0|0:0|0:0,0:0:0:0:
202,227,145347,5,0,0:0:0:0:
135,160,145499,1,0,0:0:0:0:
153,51,145651,1,0,0:0:0:0:
277,20,145802,1,2,0:0:0:0:
303,13,145953,6,0,L|290:82,1,44.999998626709,8|0,0:0|0:0,0:0:0:0:
274,138,146105,1,0,0:0:0:0:
271,151,146180,1,0,0:0:0:0:
267,164,146256,1,0,0:0:0:0:
137,28,146408,1,0,0:0:0:0:
260,190,146559,6,0,P|289:189|328:174,3,44.999998626709,2|0|0|0,0:0|0:0|0:0|0:0,0:0:0:0:
403,172,146862,2,0,P|389:197|382:238,1,44.999998626709,0|0,0:0|0:0,0:0:0:0:
347,304,147014,2,0,P|331:279|299:253,1,44.999998626709,0|0,0:0|0:0,0:0:0:0:
179,349,147165,2,0,B|289:333,1,89.9999972534181,8|0,0:0|0:0,0:0:0:0:
73,301,147468,5,0,0:0:0:0:
179,349,147620,1,0,0:0:0:0:
83,185,147771,2,0,P|32:186|-8:212,1,89.9999972534181,0|0,0:0|0:0,0:0:0:0:
194,210,148074,5,0,0:0:0:0:
224,99,148226,1,2,0:0:0:0:
232,73,148377,5,8,0:0:0:0:
63,90,148529,1,0,0:0:0:0:
83,185,148680,5,0,0:0:0:0:
239,47,148832,1,0,0:0:0:0:
305,214,148983,6,0,L|308:276,3,44.999998626709,0|0|0|0,0:0|0:0|0:0|0:0,0:0:0:0:
312,352,149286,2,0,L|364:318,1,44.999998626709,2|0,0:0|0:0,0:0:0:0:
428,275,149438,2,0,L|372:246,1,44.999998626709,0|0,0:0|0:0,0:0:0:0:
409,142,149589,2,0,P|487:149|503:213,1,134.999995880127,8|0,0:0|0:0,0:0:0:0:
506,195,149892,5,0,0:0:0:0:
476,54,150044,1,0,0:0:0:0:
299,109,150195,2,0,P|268:113|238:115,3,44.999998626709,0|0|0|0,0:0|0:0|0:0|0:0,0:0:0:0:
181,8,150499,6,0,L|242:14,1,44.999998626709,0|0,0:0|0:0,0:0:0:0:
316,25,150650,1,2,0:0:0:0:
342,28,150802,5,8,0:0:0:0:
311,205,150953,1,0,0:0:0:0:
174,90,151105,1,0,0:0:0:0:
254,114,151256,5,0,0:0:0:0:
78,184,151408,2,0,B|60:232|60:232|78:327,1,134.999995880127,2|0,0:0|0:0,0:0:0:0:
83,339,151711,2,0,P|60:334|11:331,1,44.999998626709,0|0,0:0|0:0,0:0:0:0:
150,263,151862,2,0,P|173:260|195:256,1,44.999998626709,0|0,0:0|0:0,0:0:0:0:
227,358,152014,2,0,P|281:361|323:368,1,89.9999972534181,8|0,0:0|0:0,0:0:0:0:
352,234,152317,5,0,0:0:0:0:
316,366,152468,1,0,0:0:0:0:
512,297,152620,2,0,P|458:300|416:307,1,89.9999972534181,0|0,0:0|0:0,0:0:0:0:
292,176,152923,5,0,0:0:0:0:
412,137,153074,1,2,0:0:0:0:
437,128,153226,5,8,0:0:0:0:
240,117,153377,1,0,0:0:0:0:
240,117,153453,1,0,0:0:0:0:
240,117,153529,1,0,0:0:0:0:
395,58,153680,1,0,0:0:0:0:
352,234,153832,5,0,0:0:0:0:
174,215,153983,1,0,0:0:0:0:
147,211,154135,5,2,0:0:0:0:
273,225,154286,1,0,0:0:0:0:
219,328,154438,5,8,0:0:0:0:
240,117,154589,1,0,0:0:0:0:
146,90,154741,1,0,0:0:0:0:
341,56,154892,2,0,L|333:146,1,89.9999972534181,8|0,0:0|0:0,0:0:0:0:
488,18,155195,5,8,0:0:0:0:
341,56,155347,1,0,0:0:0:0:
441,183,155498,1,2,0:0:0:0:
459,202,155650,5,8,0:0:0:0:
333,146,155802,1,0,0:0:0:0:
176,306,155953,1,0,0:0:0:0:
50,250,156105,1,0,0:0:0:0:
256,192,156256,5,4,0:0:0:0:
256,368,156559,6,0,L|256:284,1,75,0|8,0:0|0:0,0:0:0:0:
0,228,157014,6,0,P|28:246|69:250,1,56.2500021457673,8|0,0:0|0:0,0:0:0:0:
239,93,157468,6,0,P|215:98|194:105,1,37.5,0|8,0:0|0:0,0:0:0:0:
8,73,157923,5,0,0:0:0:0:
22,82,158074,2,0,L|32:159,1,56.2500021457673,8|0,0:0|0:0,0:0:0:0:
86,16,158377,2,0,P|111:2|176:15,1,75,8|0,0:0|0:0,0:0:0:0:
147,139,158680,5,8,0:0:0:0:
117,135,158983,5,8,0:0:0:0:
352,178,159135,1,8,0:0:0:0:
380,167,159438,5,8,0:0:0:0:
191,252,159589,1,0,0:0:0:0:
201,280,159892,5,0,0:0:0:0:
212,307,160499,5,0,0:0:0:0:
212,307,160802,5,0,0:0:0:0:
201,280,160953,1,0,0:0:0:0:
191,252,161105,2,0,B|268:278|246:222|337:250,1,134.999995880127,8|0,0:0|0:0,0:0:0:0:
362,187,161408,6,0,P|343:232|338:265,1,75,0|8,0:0|0:0,0:0:0:0:
457,14,161862,6,0,P|492:27|519:50,1,56.2500021457673,8|0,0:0|0:0,0:0:0:0:
315,67,162317,6,0,P|297:72|281:81,1,37.5,0|8,0:0|0:0,0:0:0:0:
480,182,162771,5,0,0:0:0:0:
491,194,162923,2,0,L|488:271,1,56.2500021457673,8|0,0:0|0:0,0:0:0:0:
406,321,163226,2,0,P|386:289|383:245,1,75,8|0,0:0|0:0,0:0:0:0:
450,68,163529,5,8,0:0:0:0:
477,55,163832,5,8,0:0:0:0:
262,179,163983,1,8,0:0:0:0:
289,191,164286,5,8,0:0:0:0:
120,127,164438,1,0,0:0:0:0:
97,131,164741,5,0,0:0:0:0:
74,136,165347,5,0,0:0:0:0:
5,91,165953,5,0,0:0:0:0:
162,229,166256,6,0,P|199:205|243:193,1,89.9999972534181,0|8,0:0|0:0,0:0:0:0:
211,45,166711,6,0,P|199:20|179:1,1,56.2500021457673,8|0,0:0|0:0,0:0:0:0:
2,207,167165,6,0,P|3:180|11:156,1,37.5,0|8,0:0|0:0,0:0:0:0:
176,327,167620,5,0,0:0:0:0:
160,320,167771,2,0,L|84:332,1,56.2500021457673,8|0,0:0|0:0,0:0:0:0:
243,384,168074,2,0,P|275:373|308:325,1,75,8|0,0:0|0:0,0:0:0:0:
230,140,168377,5,8,0:0:0:0:
202,151,168680,5,8,0:0:0:0:
426,87,168831,1,8,0:0:0:0:
453,100,169135,5,8,0:0:0:0:
272,15,169286,1,0,0:0:0:0:
268,37,169589,5,0,0:0:0:0:
264,59,170195,5,0,0:0:0:0:
264,59,170499,5,0,0:0:0:0:
268,37,170650,1,0,0:0:0:0:
272,15,170802,2,0,P|189:31|192:97,1,134.999995880127,8|0,0:0|0:0,0:0:0:0:
114,70,171105,6,0,P|151:72|186:85,1,75,0|8,0:0|0:0,0:0:0:0:
186,85,171332,1,0,0:0:0:0:
186,85,171408,1,0,0:0:0:0:
67,220,171559,6,0,P|31:206|5:180,1,56.2500021457673,0|8,0:0|0:0,0:0:0:0:
255,194,172014,6,0,P|252:212|248:231,1,37.5,8|0,0:0|0:0,0:0:0:0:
164,380,172468,5,0,0:0:0:0:
147,374,172620,2,0,L|143:295,1,56.2500021457673,8|0,0:0|0:0,0:0:0:0:
248,231,172923,2,0,P|299:236|329:262,1,75,8|0,0:0|0:0,0:0:0:0:
255,347,173226,5,8,0:0:0:0:
231,365,173529,5,8,0:0:0:0:
413,247,173681,1,8,0:0:0:0:
437,264,173983,5,8,0:0:0:0:
259,156,174135,1,0,0:0:0:0:
264,134,174438,5,0,0:0:0:0:
268,111,175044,5,0,0:0:0:0:
105,156,175650,6,0,P|111:216|115:276,1,120,2|0,0:0|0:0,0:0:0:0:
29,94,176105,1,0,0:0:0:0:
139,45,176256,2,0,B|195:56|195:56|241:45,1,90,8|0,0:0|0:0,0:0:0:0:
244,42,176559,5,2,0:0:0:0:
105,156,176711,1,8,0:0:0:0:
211,231,176862,2,0,P|214:201|223:146,1,60,2|0,0:0|0:0,0:0:0:0:
325,55,177165,1,2,0:0:0:0:
328,58,177468,5,0,0:0:0:0:
328,58,177620,1,0,0:0:0:0:
316,157,177771,2,0,P|320:186|324:216,1,60,0|0,0:0|0:0,0:0:0:0:
443,384,178074,5,2,0:0:0:0:
471,299,178226,1,0,0:0:0:0:
337,366,178377,2,0,L|261:355,1,60,0|0,0:0|0:0,0:0:0:0:
138,296,178680,2,0,B|165:268|165:268|231:261,1,90,8|0,0:0|0:0,0:0:0:0:
233,262,178983,5,2,0:0:0:0:
76,221,179135,1,8,0:0:0:0:
161,119,179286,2,0,P|176:164|172:202,1,60,2|0,0:0|0:0,0:0:0:0:
54,116,179589,2,0,L|64:30,1,60,2|0,0:0|0:0,0:0:0:0:
210,0,179892,5,0,0:0:0:0:
210,0,180044,1,0,0:0:0:0:
273,59,180195,2,0,P|316:50|356:47,1,60,0|0,0:0|0:0,0:0:0:0:
449,181,180499,6,0,L|337:165,1,90,2|0,0:0|0:0,0:0:0:0:
342,166,180802,2,0,P|326:216|324:241,1,60,0|0,0:0|0:0,0:0:0:0:
429,340,181105,2,0,P|423:310|412:282,1,60,8|0,0:0|0:0,0:0:0:0:
232,356,181408,5,2,0:0:0:0:
330,336,181559,1,8,0:0:0:0:
181,273,181711,2,0,P|153:272|97:274,1,60,2|0,0:0|0:0,0:0:0:0:
282,166,182014,1,2,0:0:0:0:
282,166,182317,6,0,P|310:165|366:167,2,60
187,9,182923,5,2,0:0:0:0:
164,162,183074,1,0,0:0:0:0:
280,72,183226,1,0,0:0:0:0:
277,54,183377,1,0,0:0:0:0:
91,106,183529,2,0,P|78:172|76:194,1,90,8|0,0:0|0:0,0:0:0:0:
74,212,183832,5,2,0:0:0:0:
0,130,183983,1,8,0:0:0:0:
58,300,184135,2,0,P|112:287|144:283,1,60,2|0,0:0|0:0,0:0:0:0:
244,206,184438,2,0,P|190:193|158:189,1,60,2|0,0:0|0:0,0:0:0:0:
227,321,184741,5,0,0:0:0:0:
231,338,184892,1,0,0:0:0:0:
346,367,185044,1,0,0:0:0:0:
342,384,185195,1,0,0:0:0:0:
331,246,185347,6,0,B|410:267|410:267|471:248,1,120,2|0,0:0|0:0,0:0:0:0:
507,183,185802,1,0,0:0:0:0:
392,95,185953,2,0,L|397:179,1,60,8|0,0:0|0:0,0:0:0:0:
505,67,186256,5,2,0:0:0:0:
413,0,186407,1,8,0:0:0:0:
296,102,186559,2,0,P|247:94|212:88,1,60,2|0,0:0|0:0,0:0:0:0:
116,21,186862,1,2,0:0:0:0:
119,24,187165,5,0,0:0:0:0:
119,24,187317,1,0,0:0:0:0:
207,11,187468,2,0,P|256:3|291:-3,1,60,0|0,0:0|0:0,0:0:0:0:
123,157,187771,6,0,P|57:151|24:118,1,90,2|0,0:0|0:0,0:0:0:0:
29,123,188074,2,0,P|34:172|36:201,1,60,0|0,0:0|0:0,0:0:0:0:
103,248,188377,2,0,P|95:311|94:362,1,90,8|0,0:0|0:0,0:0:0:0:
94,355,188680,5,0,0:0:0:0:
11,269,188832,1,8,0:0:0:0:
180,216,188983,1,2,0:0:0:0:
197,210,189135,1,0,0:0:0:0:
249,336,189286,2,0,P|210:328|174:314,1,60,2|0,0:0|0:0,0:0:0:0:
355,197,189589,5,0,0:0:0:0:
437,154,189741,1,0,0:0:0:0:
355,197,189892,2,0,L|361:273,1,60,0|0,0:0|0:0,0:0:0:0:
482,344,190195,6,0,P|486:287|495:218,1,120,2|0,0:0|0:0,0:0:0:0:
437,154,190650,1,0,0:0:0:0:
512,76,190802,2,0,P|480:67|437:63,1,60,8|0,0:0|0:0,0:0:0:0:
271,43,191105,5,2,0:0:0:0:
364,0,191256,1,8,0:0:0:0:
173,9,191408,2,0,P|178:70|181:127,1,90,2|0,0:0|0:0,0:0:0:0:
172,114,191711,2,0,P|211:119|252:129,1,60,2|0,0:0|0:0,0:0:0:0:
139,205,192014,2,0,P|100:210|59:220,2,60,0|0|0,0:0|0:0|0:0,0:0:0:0:
271,377,192620,5,2,0:0:0:0:
239,226,192771,1,0,0:0:0:0:
341,285,192923,1,0,0:0:0:0:
358,278,193074,1,0,0:0:0:0:
155,336,193226,2,0,B|121:344|121:344|47:326,1,90,8|0,0:0|0:0,0:0:0:0:
50,326,193529,5,2,0:0:0:0:
139,205,193680,1,8,0:0:0:0:
12,137,193832,1,2,0:0:0:0:
18,153,193983,1,0,0:0:0:0:
178,85,194287,5,0,0:0:0:0:
183,67,194438,1,0,0:0:0:0:
189,50,194589,1,0,0:0:0:0:
332,100,194741,2,0,P|304:94|252:88,1,60,0|0,0:0|0:0,0:0:0:0:
347,205,195044,6,0,P|384:196|482:183,1,120,2|0,0:0|0:0,0:0:0:0:
430,90,195499,1,0,0:0:0:0:
260,180,195650,2,0,P|248:234|244:260,1,60,8|0,0:0|0:0,0:0:0:0:
317,384,195953,5,2,0:0:0:0:
230,336,196105,1,8,0:0:0:0:
406,340,196256,2,0,P|400:310|393:281,1,60,2|0,0:0|0:0,0:0:0:0:
462,181,196559,1,2,0:0:0:0:
465,184,196862,5,0,0:0:0:0:
465,184,197014,1,0,0:0:0:0:
378,132,197165,2,0,P|340:138|294:142,1,60,0|0,0:0|0:0,0:0:0:0:
156,2,197468,5,2,0:0:0:0:
273,38,197620,1,0,0:0:0:0:
155,175,197771,1,0,0:0:0:0:
160,157,197923,1,0,0:0:0:0:
45,34,198074,2,0,P|50:78|52:123,1,90,8|0,0:0|0:0,0:0:0:0:
52,141,198377,5,2,0:0:0:0:
1,230,198529,1,8,0:0:0:0:
151,273,198680,2,0,P|194:264|236:258,1,60,2|0,0:0|0:0,0:0:0:0:
60,324,198983,2,0,P|51:351|45:394,1,60,2|0,0:0|0:0,0:0:0:0:
4,233,199286,5,0,0:0:0:0:
4,233,199438,1,0,0:0:0:0:
151,273,199589,2,0,P|160:300|166:343,1,60,0|0,0:0|0:0,0:0:0:0:
317,384,199893,5,2,0:0:0:0:
368,208,200044,1,0,0:0:0:0:
255,289,200196,1,0,0:0:0:0:
257,312,200347,1,0,0:0:0:0:
435,262,200499,2,0,P|452:199|436:158,1,90,8|0,0:0|0:0,0:0:0:0:
436,161,200802,5,2,0:0:0:0:
357,122,200953,1,8,0:0:0:0:
470,4,201105,1,2,0:0:0:0:
472,21,201256,1,0,0:0:0:0:
475,38,201408,1,2,0:0:0:0:
285,43,201711,6,0,P|278:83|274:123,1,60,0|0,0:0|0:0,0:0:0:0:
130,187,202014,2,0,P|114:124|142:87,1,90,0|0,0:0|0:0,0:0:0:0:
138,93,202317,5,2,0:0:0:0:
192,275,202468,1,0,0:0:0:0:
112,267,202620,2,0,P|75:268|31:279,1,60,0|0,0:0|0:0,0:0:0:0:
268,203,202923,2,0,P|317:208|372:220,1,90,8|0,0:0|0:0,0:0:0:0:
374,221,203226,5,2,0:0:0:0:
448,292,203377,1,8,0:0:0:0:
328,363,203529,1,2,0:0:0:0:
332,345,203680,1,0,0:0:0:0:
268,203,203832,2,0,L|255:120,1,60,2|0,0:0|0:0,0:0:0:0:
356,29,204135,5,0,0:0:0:0:
356,29,204286,1,0,0:0:0:0:
466,101,204438,2,0,P|421:107|388:85,1,60,0|0,0:0|0:0,0:0:0:0:
264,54,204741,5,2,0:0:0:0:
165,149,204892,1,0,0:0:0:0:
84,16,205044,1,0,0:0:0:0:
100,22,205196,1,0,0:0:0:0:
15,164,205347,2,0,L|18:275,1,90,8|0,0:0|0:0,0:0:0:0:
17,272,205650,5,2,0:0:0:0:
117,373,205801,1,8,0:0:0:0:
205,250,205953,1,2,0:0:0:0:
189,256,206105,1,0,0:0:0:0:
282,377,206256,2,0,P|317:381|362:387,1,60,2|0,0:0|0:0,0:0:0:0:
469,240,206559,5,0,0:0:0:0:
469,240,206711,1,0,0:0:0:0:
375,135,206862,2,0,L|377:206,1,60,0|0,0:0|0:0,0:0:0:0:
183,130,207165,5,2,0:0:0:0:
258,15,207317,1,0,0:0:0:0:
273,204,207468,1,0,0:0:0:0:
267,221,207620,1,0,0:0:0:0:
88,90,207771,2,0,L|95:10,1,60,8|0,0:0|0:0,0:0:0:0:
130,235,208074,5,2,0:0:0:0:
13,192,208226,1,8,0:0:0:0:
151,352,208377,1,2,0:0:0:0:
168,349,208529,1,0,0:0:0:0:
28,314,208680,2,0,L|35:394,1,60,2|0,0:0|0:0,0:0:0:0:
231,268,208983,5,0,0:0:0:0:
231,268,209135,1,0,0:0:0:0:
339,238,209286,2,0,L|331:322,1,60
486,365,209617,5,0,0:0:0:0:
463,270,209767,1,0,0:0:0:0:
438,168,209917,1,0,0:0:0:0:
456,248,210067,1,0,0:0:0:0:
292,122,210517,5,0,0:0:0:0:
315,27,210668,1,0,0:0:0:0:
267,224,210820,1,0,0:0:0:0:
287,142,210971,1,0,0:0:0:0:
90,80,211266,5,0,0:0:0:0:
100,154,211425,1,0,0:0:0:0:
93,104,211585,5,0,0:0:0:0:
96,129,211744,1,0,0:0:0:0:
26,252,212041,6,0,B|46:248|46:248|79:255|79:255|103:249,2,75,0|0|0,0:0|0:0|0:0,0:0:0:0:
165,188,212514,1,0,0:0:0:0:
385,73,213420,5,0,0:0:0:0:
485,63,213622,1,0,0:0:0:0:
409,86,213824,5,0,0:0:0:0:
463,81,214026,1,0,0:0:0:0:
428,0,214228,5,0,0:0:0:0:
430,19,214438,6,0,B|433:85|433:85|425:107|425:107|443:149|443:149|434:172|434:172|439:244,1,225,4|0,0:0|0:0,0:0:0:0:
445,314,214741,5,2,0:0:0:0:
445,314,214892,1,2,0:0:0:0:
445,314,215044,2,0,P|404:309|370:310,1,60,2|0,0:0|0:0,0:0:0:0:
330,256,215246,2,0,P|305:289|280:329,1,60,2|0,0:0|0:0,0:0:0:0:
219,304,215448,2,0,P|222:336|228:361,1,40,2|0,0:0|0:0,0:0:0:0:
20,193,215650,6,0,P|61:188|108:187,1,60,10|0,0:0|0:0,0:0:0:0:
135,135,215852,2,0,P|160:168|185:208,1,60,2|0,0:0|0:0,0:0:0:0:
246,183,216054,2,0,P|243:215|236:238,1,40,2|0,0:0|0:0,0:0:0:0:
59,357,216256,6,0,P|37:336|34:307,1,60,2|0,0:0|0:0,0:0:0:0:
101,274,216458,2,0,P|122:294|125:323,1,60,2|0,0:0|0:0,0:0:0:0:
20,193,216862,6,0,B|41:160|80:137|132:144|156:176|156:176|125:161|86:166,1,200,10|0,0:0|0:0,0:0:0:0:
106,60,217165,5,2,0:0:0:0:
106,60,217316,1,2,0:0:0:0:
106,60,217468,2,0,P|120:17|135:-8,1,60,2|0,0:0|0:0,0:0:0:0:
217,102,217670,2,0,P|195:81|178:55,1,60,2|0,0:0|0:0,0:0:0:0:
291,40,217872,2,0,P|271:41|252:39,1,40,2|0,0:0|0:0,0:0:0:0:
463,147,218074,6,0,P|448:189|433:215,1,60,10|0,0:0|0:0,0:0:0:0:
352,105,218276,2,0,P|373:125|390:151,1,60,2|0,0:0|0:0,0:0:0:0:
277,169,218478,2,0,P|297:166|316:166,1,40,2|0,0:0|0:0,0:0:0:0:
399,271,218680,6,0,P|364:281|341:305,1,60,2|0,0:0|0:0,0:0:0:0:
380,363,218882,2,0,P|415:353|438:329,1,60,2|0,0:0|0:0,0:0:0:0:
223,272,219286,6,0,B|232:310|232:310|225:365,1,75,10|0,0:0|0:0,0:0:0:0:
102,241,219438,2,0,B|97:205|97:205|106:167,1,75,10|0,0:0|0:0,0:0:0:0:
266,148,219589,5,2,0:0:0:0:
266,148,219741,1,2,0:0:0:0:
266,148,219892,2,0,L|193:156,1,60,2|0,0:0|0:0,0:0:0:0:
136,73,220094,2,0,L|196:79,1,60,2|0,0:0|0:0,0:0:0:0:
260,0,220296,2,0,L|221:7,1,40,2|0,0:0|0:0,0:0:0:0:
392,49,220498,6,0,P|403:76|419:129,1,60,10|0,0:0|0:0,0:0:0:0:
481,134,220700,2,0,P|468:163|461:190,1,60,2|0,0:0|0:0,0:0:0:0:
388,222,220902,2,0,P|398:239|405:257,1,40,2|0,0:0|0:0,0:0:0:0:
512,384,221104,6,0,P|506:341|487:310,1,60,2|0,0:0|0:0,0:0:0:0:
406,258,221306,2,0,P|376:281|363:314,1,60,2|0,0:0|0:0,0:0:0:0:
399,378,221710,6,0,B|316:384|316:384|282:368|282:368|172:376,1,200,10|0,0:0|0:0,0:0:0:0:
102,368,222013,5,2,0:0:0:0:
102,368,222165,1,2,0:0:0:0:
102,368,222316,2,0,P|108:325|127:294,1,60,2|0,0:0|0:0,0:0:0:0:
208,242,222518,2,0,P|238:265|251:298,1,60,2|0,0:0|0:0,0:0:0:0:
121,219,222720,2,0,L|107:165,1,40,2|0,0:0|0:0,0:0:0:0:
240,26,222922,6,0,P|233:56|228:107,1,60,10|0,0:0|0:0,0:0:0:0:
340,141,223124,2,0,P|335:111|329:82,1,60,2|0,0:0|0:0,0:0:0:0:
200,208,223326,2,0,P|224:201|250:197,1,40,2|0,0:0|0:0,0:0:0:0:
412,323,223528,6,0,P|380:317|322:311,2,80,2|2|2,0:0|0:0|0:0,0:0:0:0:
149,374,224134,5,10,0:0:0:0:
154,352,224210,1,2,0:0:0:0:
0,238,224741,5,2,0:0:0:0:
138,193,224943,1,2,0:0:0:0:
0,148,225145,1,2,0:0:0:0:
86,266,225347,5,10,0:0:0:0:
86,120,225549,1,2,0:0:0:0:
224,75,225751,1,2,0:0:0:0:
138,193,225953,5,2,0:0:0:0:
138,47,226155,1,2,0:0:0:0:
224,165,226357,1,2,0:0:0:0:
86,266,226559,6,0,B|127:291|175:272|175:272|160:278|153:291,1,120,10|0,0:0|0:0,0:0:0:0:
205,344,226912,6,0,P|280:382|283:256,1,239.999992675781,2|0,0:0|0:0,0:0:0:0:
246,224,227367,6,0,B|201:131|280:159|240:66,1,160,10|0,0:0|0:0,0:0:0:0:
168,41,227821,6,0,P|80:3|79:111,1,239.999992675781,2|0,0:0|0:0,0:0:0:0:
127,183,228276,6,0,B|84:208|38:189|38:189|53:195|59:206,1,120,2|0,0:0|0:0,0:0:0:0:
10,264,228781,5,2,0:0:0:0:
285,381,228983,2,0,P|304:326|277:272,1,89.9999972534181,8|0,0:0|0:0,0:0:0:0:
231,331,229185,5,2,0:0:0:0:
231,331,229235,1,2,0:0:0:0:
231,331,229286,2,0,L|325:343,1,80,2|0,0:0|0:0,0:0:0:0:
391,320,229589,2,0,P|419:248|379:204,1,120,2|0,0:0|0:0,0:0:0:0:
336,175,229993,6,0,B|250:161|216:6|401:-24|424:91|424:91|378:63|336:81,1,419.999987182618,2|0,0:0|0:0,0:0:0:0:
336,175,230801,6,0,B|232:210|252:127|136:175,1,200,10|0,0:0|0:0,0:0:0:0:
132,306,231407,6,0,P|210:340|183:250,1,220,10|0,0:0|0:0,0:0:0:0:
61,268,232619,5,2,0:0:0:0:
61,268,233225,5,2,0:0:0:0:
61,268,233427,1,2,0:0:0:0:
132,306,233629,1,2,0:0:0:0:
162,167,233831,6,0,P|157:122|152:65,1,75,6|0,0:0|0:0,0:0:0:0:
218,27,234134,5,4,0:0:0:0:
218,27,234286,1,4,0:0:0:0:
336,79,234438,2,0,L|440:66,1,75,4|0,0:0|0:0,0:0:0:0:
512,168,234640,2,0,L|438:155,1,75,4|0,0:0|0:0,0:0:0:0:
365,216,234842,2,0,P|349:188|347:156,1,50,4|0,0:0|0:0,0:0:0:0:
244,372,235044,6,0,P|212:340|179:325,1,75,12|0,0:0|0:0,0:0:0:0:
127,248,235246,2,0,P|91:296|98:331,1,75,4|0,0:0|0:0,0:0:0:0:
14,353,235448,2,0,P|39:379|64:388,1,50,4|0,0:0|0:0,0:0:0:0:
124,227,235650,6,0,L|115:125,1,75,4|0,0:0|0:0,0:0:0:0:
0,91,235852,2,0,B|29:50|87:65|87:65|61:72|43:100,1,150,4|0,0:0|0:0,0:0:0:0:
173,26,236256,5,4,0:0:0:0:
173,26,236331,1,4,0:0:0:0:
173,26,236407,2,0,P|204:35|233:36,1,37.5,4|0,0:0|0:0,0:0:0:0:
308,29,236559,5,6,0:0:0:0:
308,29,236710,1,4,0:0:0:0:
243,160,236862,2,0,P|233:218|235:254,1,75,6|0,0:0|0:0,0:0:0:0:
291,307,237064,2,0,P|330:293|341:239,1,75,4|0,0:0|0:0,0:0:0:0:
202,321,237266,2,0,P|216:345|225:376,1,50,4|0,0:0|0:0,0:0:0:0:
28,247,237468,6,0,L|122:237,1,75,12|0,0:0|0:0,0:0:0:0:
172,153,237670,2,0,L|97:145,1,75,4|0,0:0|0:0,0:0:0:0:
12,107,237872,2,0,P|1:78|-1:58,1,50,4|0,0:0|0:0,0:0:0:0:
194,0,238074,6,0,P|186:57|163:88,1,75,4|0,0:0|0:0,0:0:0:0:
279,26,238276,2,0,B|323:13|323:13|375:33|375:33|422:23,1,150,4|0,0:0|0:0,0:0:0:0:
358,186,238680,5,6,0:0:0:0:
339,98,238831,1,4,0:0:0:0:
471,146,238983,5,4,0:0:0:0:
471,146,239134,1,4,0:0:0:0:
383,294,239286,2,0,P|335:281|283:271,1,75,4|0,0:0|0:0,0:0:0:0:
216,266,239488,2,0,P|226:230|249:201,1,75,4|0,0:0|0:0,0:0:0:0:
255,353,239690,2,0,P|225:361|188:362,1,50,4|0,0:0|0:0,0:0:0:0:
41,190,239892,6,0,P|90:195|129:208,1,75,12|0,0:0|0:0,0:0:0:0:
182,95,240094,2,0,P|144:97|108:107,1,75,4|0,0:0|0:0,0:0:0:0:
3,49,240296,2,0,L|14:98,1,50,4|0,0:0|0:0,0:0:0:0:
114,202,240498,6,0,L|96:301,1,75,4|0,0:0|0:0,0:0:0:0:
3,383,240700,2,0,B|19:340|12:288|12:288|17:322|44:346,1,150,4|0,0:0|0:0,0:0:0:0:
206,362,241104,5,10,0:0:0:0:
206,362,241180,1,2,0:0:0:0:
206,362,241256,2,0,P|235:367|266:365,1,37.5,2|0,0:0|0:0,0:0:0:0:
338,347,241407,5,6,0:0:0:0:
338,347,241559,1,4,0:0:0:0:
240,271,241710,2,0,P|242:234|254:199,1,75,6|0,0:0|0:0,0:0:0:0:
296,114,241912,2,0,P|325:137|344:170,1,75,4|0,0:0|0:0,0:0:0:0:
240,271,242114,2,0,P|216:269|188:263,1,50,4|0,0:0|0:0,0:0:0:0:
343,169,242316,6,0,B|434:158,1,75,12|0,0:0|0:0,0:0:0:0:
492,100,242518,2,0,P|495:60|467:13,1,75,4|0,0:0|0:0,0:0:0:0:
389,0,242720,2,0,L|381:52,1,50,4|0,0:0|0:0,0:0:0:0:
174,39,242922,6,0,P|206:17|272:14,2,100,4|4|4,0:0|0:0|0:0,0:0:0:0:
68,138,243528,5,6,0:0:0:0:
68,138,243604,2,0,B|83:52|15:20|15:20|36:42|35:73,1,187.5,4|0,0:0|0:0,0:0:0:0:
18,216,244134,5,4,0:0:0:0:
210,137,244336,1,4,0:0:0:0:
42,333,244539,1,4,0:0:0:0:
68,138,244741,5,12,0:0:0:0:
247,261,244943,1,4,0:0:0:0:
176,15,245145,1,4,0:0:0:0:
137,233,245347,5,4,0:0:0:0:
366,140,245549,1,4,0:0:0:0:
481,352,245751,1,4,0:0:0:0:
247,261,245953,5,6,0:0:0:0:
247,261,246028,1,4,0:0:0:0:
247,261,246104,1,4,0:0:0:0:
427,193,246256,6,0,P|434:138|443:90,2,100,6|0|0,0:0|0:0|0:0,0:0:0:0:
308,44,246761,6,0,P|344:14|408:27,1,100,4|0,0:0|0:0,0:0:0:0:
442,94,247064,1,0,0:0:0:0:
315,139,247165,6,0,P|253:70|159:97,1,179.999994506836,12|0,0:0|0:0,0:0:0:0:
124,154,247569,1,0,0:0:0:0:
235,302,247670,6,0,P|228:247|219:199,2,100,4|0|0,0:0|0:0|0:0,0:0:0:0:
315,139,248175,5,4,0:0:0:0:
135,248,248377,2,0,P|93:240|28:236,1,75,6|0,0:0|0:0,0:0:0:0:
6,183,248629,5,4,0:0:0:0:
6,183,248680,2,0,P|-3:123|28:87,1,100,4|0,0:0|0:0,0:0:0:0:
113,0,248983,2,0,P|121:44|130:112,1,100,4|0,0:0|0:0,0:0:0:0:
130,113,249286,1,0,0:0:0:0:
131,128,249387,2,0,P|163:113|196:102,1,50,4|0,0:0|0:0,0:0:0:0:
288,41,249589,6,0,P|329:52|387:56,1,75,12|0,0:0|0:0,0:0:0:0:
477,116,249892,2,0,P|436:127|378:131,1,75,4|0,0:0|0:0,0:0:0:0:
294,154,250195,5,4,0:0:0:0:
361,55,250347,1,4,0:0:0:0:
440,209,250498,1,4,0:0:0:0:
440,209,250650,1,4,0:0:0:0:
476,116,250801,6,0,P|492:105|507:98,2,30,10|0|0,0:0|0:0|0:0,0:0:0:0:
440,209,251104,1,6,0:0:0:0:
294,154,251256,2,0,P|288:116|286:79,2,60,4|4|6,0:0|0:0|0:0,0:0:0:0:
269,234,251710,2,0,P|304:248|335:264,1,60,4|6,0:0|0:0,0:0:0:0:
210,173,252013,6,0,B|143:160|166:203|90:190,1,120,12|4,0:0|0:0,0:0:0:0:
21,141,252468,1,4,0:0:0:0:
97,47,252619,2,0,P|104:85|107:124,1,60,4|0,0:0|0:0,0:0:0:0:
20,141,252922,2,0,P|15:170|11:200,1,60,4|0,0:0|0:0,0:0:0:0:
78,280,253225,5,2,0:0:0:0:
188,234,253377,1,0,0:0:0:0:
200,229,253528,5,0,0:0:0:0:
11,200,253680,1,0,0:0:0:0:
212,224,253831,2,0,P|207:287|204:327,1,89.9999972534181,8|0,0:0|0:0,0:0:0:0:
117,382,254134,5,0,0:0:0:0:
311,346,254286,2,0,B|355:344|393:331|393:331|416:348|443:353,1,134.999995880127,0|0,0:0|0:0,0:0:0:0:
466,357,254589,5,0,0:0:0:0:
485,222,254741,1,0,0:0:0:0:
510,214,254892,5,2,0:0:0:0:
337,260,255044,1,8,0:0:0:0:
311,346,255195,5,0,0:0:0:0:
392,186,255347,1,0,0:0:0:0:
210,195,255498,1,0,0:0:0:0:
299,148,255650,5,0,0:0:0:0:
299,148,255725,1,0,0:0:0:0:
299,148,255801,1,0,0:0:0:0:
354,74,255953,5,2,0:0:0:0:
337,260,256104,1,0,0:0:0:0:
356,60,256256,2,0,L|238:65,1,89.9999972534181,8|0,0:0|0:0,0:0:0:0:
21,30,256559,5,0,0:0:0:0:
95,109,256710,2,0,B|113:187|70:163|90:243,1,134.999995880127,0|0,0:0|0:0,0:0:0:0:
100,264,257013,5,0,0:0:0:0:
20,100,257165,1,0,0:0:0:0:
201,113,257316,1,2,0:0:0:0:
228,115,257468,5,8,0:0:0:0:
15,204,257619,1,0,0:0:0:0:
20,100,257771,5,0,0:0:0:0:
100,264,257922,1,0,0:0:0:0:
244,211,258074,5,2,0:0:0:0:
201,113,258225,1,0,0:0:0:0:
194,100,258377,5,0,0:0:0:0:
106,275,258528,1,0,0:0:0:0:
188,87,258680,2,0,P|242:71|299:86,1,89.9999972534181,8|0,0:0|0:0,0:0:0:0:
483,170,258983,5,0,0:0:0:0:
400,253,259134,2,0,B|383:200|383:200|398:109,1,134.999995880127,0|0,0:0|0:0,0:0:0:0:
402,95,259438,5,0,0:0:0:0:
309,195,259589,1,0,0:0:0:0:
283,185,259741,5,2,0:0:0:0:
482,254,259892,1,8,0:0:0:0:
477,384,260044,5,0,0:0:0:0:
397,222,260196,1,0,0:0:0:0:
297,371,260347,1,0,0:0:0:0:
507,265,260498,5,0,0:0:0:0:
507,265,260574,1,0,0:0:0:0:
507,265,260650,1,0,0:0:0:0:
394,350,260801,5,2,0:0:0:0:
468,167,260953,1,0,0:0:0:0:
390,362,261104,2,0,P|346:351|290:346,1,89.9999972534181,8|0,0:0|0:0,0:0:0:0:
154,323,261407,5,0,0:0:0:0:
293,203,261559,2,0,B|288:164|288:164|305:111|305:111|294:58,1,134.999995880127,0|0,0:0|0:0,0:0:0:0:
290,46,261862,5,0,0:0:0:0:
378,175,262013,1,0,0:0:0:0:
207,98,262165,2,0,L|113:79,1,89.9999972534181,2|8,0:0|0:0,0:0:0:0:
0,201,262468,2,0,B|47:181|47:181|140:200,1,134.999995880127,0|0,0:0|0:0,0:0:0:0:
155,205,262771,1,0,0:0:0:0:
266,309,262922,5,2,0:0:0:0:
134,358,263074,1,0,0:0:0:0:
121,363,263225,5,0,0:0:0:0:
309,382,263377,1,0,0:0:0:0:
110,369,263528,2,0,P|84:320|94:278,1,89.9999972534181,8|0,0:0|0:0,0:0:0:0:
155,205,263831,5,0,0:0:0:0:
288,293,263983,2,0,P|364:275|436:270,1,134.999995880127,0|0,0:0|0:0,0:0:0:0:
447,273,264286,5,0,0:0:0:0:
351,177,264438,1,0,0:0:0:0:
326,187,264589,5,2,0:0:0:0:
492,129,264741,1,8,0:0:0:0:
511,35,264892,5,0,0:0:0:0:
436,200,265044,1,0,0:0:0:0:
333,50,265195,1,0,0:0:0:0:
422,9,265347,5,0,0:0:0:0:
422,9,265422,1,0,0:0:0:0:
422,9,265498,1,0,0:0:0:0:
309,62,265650,5,2,0:0:0:0:
492,129,265801,1,0,0:0:0:0:
295,59,265953,2,0,P|275:104|270:156,1,89.9999972534181,8|0,0:0|0:0,0:0:0:0:
370,204,266256,5,0,0:0:0:0:
217,263,266407,2,0,P|148:244|61:237,1,134.999995880127,0|0,0:0|0:0,0:0:0:0:
58,239,266710,5,0,0:0:0:0:
90,61,266862,1,0,0:0:0:0:
227,174,267013,1,2,0:0:0:0:
246,192,267165,5,8,0:0:0:0:
19,139,267316,1,0,0:0:0:0:
90,61,267468,5,0,0:0:0:0:
58,239,267619,1,0,0:0:0:0:
225,282,267771,5,2,0:0:0:0:
246,192,267922,1,0,0:0:0:0:
250,179,268074,5,0,0:0:0:0:
275,362,268225,1,0,0:0:0:0:
254,166,268377,2,0,P|298:174|356:185,1,89.9999972534181,8|0,0:0|0:0,0:0:0:0:
454,197,268680,5,0,0:0:0:0:
512,7,268831,2,0,P|448:6|362:27,1,134.999995880127,0|0,0:0|0:0,0:0:0:0:
354,33,269134,5,0,0:0:0:0:
475,100,269286,1,0,0:0:0:0:
498,86,269437,5,2,0:0:0:0:
328,197,269589,1,8,0:0:0:0:
327,323,269741,5,0,0:0:0:0:
423,170,269893,1,0,0:0:0:0:
512,326,270044,1,0,0:0:0:0:
419,298,270195,5,0,0:0:0:0:
419,298,270271,1,0,0:0:0:0:
419,298,270347,1,0,0:0:0:0:
241,355,270498,5,2,0:0:0:0:
436,384,270650,1,0,0:0:0:0:
227,352,270801,2,0,P|220:303|244:253,1,89.9999972534181,8|0,0:0|0:0,0:0:0:0:
333,227,271104,5,0,0:0:0:0:
177,146,271256,2,0,B|94:126|94:126|74:141|48:149,1,134.999995880127,0|0,0:0|0:0,0:0:0:0:
23,153,271559,5,0,0:0:0:0:
26,52,271711,1,0,0:0:0:0:
160,164,271863,2,0,L|145:233,1,44.999998626709,2|0,0:0|0:0,0:0:0:0:
116,384,272013,1,8,0:0:0:0:
89,378,272165,6,0,P|38:315|58:251,1,134.999995880127,0|0,0:0|0:0,0:0:0:0:
62,244,272468,1,0,0:0:0:0:
241,343,272619,5,2,0:0:0:0:
273,335,272695,1,0,0:0:0:0:
306,328,272771,1,0,0:0:0:0:
339,323,272847,1,0,0:0:0:0:
371,339,272922,2,0,P|364:305|363:279,1,44.999998626709,0|0,0:0|0:0,0:0:0:0:
481,214,273074,2,0,P|478:236|473:258,1,44.999998626709,0|0,0:0|0:0,0:0:0:0:
304,143,273225,6,0,L|371:129,1,44.999998626709,8|0,0:0|0:0,0:0:0:0:
469,111,273377,1,0,0:0:0:0:
482,107,273453,1,0,0:0:0:0:
495,104,273528,2,0,P|506:75|507:45,1,44.999998626709,0|0,0:0|0:0,0:0:0:0:
384,24,273680,2,0,P|345:4|280:11,1,89.9999972534181,0|0,0:0|0:0,0:0:0:0:
155,67,273983,5,0,0:0:0:0:
168,69,274059,1,0,0:0:0:0:
180,72,274134,2,0,L|240:80,1,44.999998626709,0|0,0:0|0:0,0:0:0:0:
70,138,274286,2,0,P|57:121|45:87,1,44.999998626709,2|0,0:0|0:0,0:0:0:0:
203,177,274438,6,0,L|195:243,1,44.999998626709,8|0,0:0|0:0,0:0:0:0:
121,289,274589,1,0,0:0:0:0:
123,302,274665,1,0,0:0:0:0:
125,315,274741,2,0,L|133:381,1,44.999998626709,0|0,0:0|0:0,0:0:0:0:
24,250,274892,1,0,0:0:0:0:
224,319,275044,6,0,P|258:313|281:310,3,44.999998626709,0|0|0|0,0:0|0:0|0:0|0:0,0:0:0:0:
290,212,275347,2,0,P|324:218|347:221,1,44.999998626709,2|0,0:0|0:0,0:0:0:0:
474,295,275498,2,0,P|451:291|429:287,1,44.999998626709,0|0,0:0|0:0,0:0:0:0:
379,114,275650,5,8,0:0:0:0:
395,84,275725,1,0,0:0:0:0:
424,68,275801,1,0,0:0:0:0:
457,68,275877,1,0,0:0:0:0:
486,85,275953,2,0,P|499:50|500:30,1,44.999998626709,0|0,0:0|0:0,0:0:0:0:
321,59,276104,2,0,B|244:38|268:81|189:63,1,134.999995880127,0|0,0:0|0:0,0:0:0:0:
165,51,276407,5,0,0:0:0:0:
298,171,276558,1,0,0:0:0:0:
126,225,276710,1,2,0:0:0:0:
101,235,276861,5,8,0:0:0:0:
255,84,277013,1,0,0:0:0:0:
165,51,277165,5,0,0:0:0:0:
298,171,277316,1,0,0:0:0:0:
146,270,277468,5,2,0:0:0:0:
112,263,277544,1,0,0:0:0:0:
79,256,277619,1,0,0:0:0:0:
46,252,277695,1,0,0:0:0:0:
16,267,277771,2,0,P|6:244|2:200,1,44.999998626709,0|0,0:0|0:0,0:0:0:0:
123,179,277922,2,0,P|133:156|137:112,1,44.999998626709,0|0,0:0|0:0,0:0:0:0:
41,30,278074,6,0,B|6:7|6:7|22:114,1,134.999995880127,8|0,0:0|0:0,0:0:0:0:
25,125,278377,1,0,0:0:0:0:
180,45,278528,2,0,B|233:29|233:29|280:40,1,89.9999972534181,0|0,0:0|0:0,0:0:0:0:
350,124,278831,5,0,0:0:0:0:
250,160,278983,1,0,0:0:0:0:
224,152,279134,5,2,0:0:0:0:
417,217,279286,1,8,0:0:0:0:
389,384,279438,5,0,0:0:0:0:
324,214,279590,1,0,0:0:0:0:
210,354,279741,1,0,0:0:0:0:
233,268,279892,5,0,0:0:0:0:
219,270,279968,1,0,0:0:0:0:
205,272,280044,2,0,L|131:281,1,44.999998626709,0|0,0:0|0:0,0:0:0:0:
16,263,280195,2,0,P|1:232|-1:208,1,44.999998626709,2|0,0:0|0:0,0:0:0:0:
134,283,280347,2,0,P|128:304|117:324,1,44.999998626709,0|0,0:0|0:0,0:0:0:0:
107,157,280498,6,0,B|156:173|156:173|252:158,1,134.999995880127,8|0,0:0|0:0,0:0:0:0:
265,157,280801,2,0,P|273:118|276:96,1,44.999998626709,0|0,0:0|0:0,0:0:0:0:
141,10,280953,5,0,0:0:0:0:
108,0,281028,1,0,0:0:0:0:
77,10,281104,1,0,0:0:0:0:
55,35,281180,1,0,0:0:0:0:
50,68,281256,2,0,P|15:78|-14:76,1,44.999998626709,0|0,0:0|0:0,0:0:0:0:
122,173,281407,2,0,P|135:155|145:135,1,44.999998626709,0|0,0:0|0:0,0:0:0:0:
0,207,281559,6,0,P|11:261|10:272,1,44.999998626709,2|0,0:0|0:0,0:0:0:0:
0,372,281710,1,8,0:0:0:0:
24,382,281862,6,0,B|103:402|77:356|154:372,1,134.999995880127,0|0,0:0|0:0,0:0:0:0:
169,383,282165,1,0,0:0:0:0:
233,258,282316,5,2,0:0:0:0:
266,259,282392,1,0,0:0:0:0:
295,276,282468,1,0,0:0:0:0:
313,304,282544,1,0,0:0:0:0:
316,337,282619,2,0,P|310:368|304:389,1,44.999998626709,0|0,0:0|0:0,0:0:0:0:
420,320,282771,2,0,P|414:289|408:268,1,44.999998626709,0|0,0:0|0:0,0:0:0:0:
335,186,282922,6,0,B|380:187|380:187|421:168|421:168|480:171,1,134.999995880127,8|0,0:0|0:0,0:0:0:0:
492,173,283225,1,0,0:0:0:0:
512,24,283377,2,0,P|464:37|414:48,1,89.9999972534181,0|0,0:0|0:0,0:0:0:0:
204,38,283680,5,0,0:0:0:0:
318,98,283831,1,0,0:0:0:0:
339,82,283983,5,2,0:0:0:0:
178,212,284134,1,8,0:0:0:0:
158,313,284286,5,0,0:0:0:0:
108,142,284438,1,0,0:0:0:0:
281,184,284589,1,0,0:0:0:0:
310,269,284741,6,0,L|377:261,1,44.999998626709,0|0,0:0|0:0,0:0:0:0:
470,251,284892,1,0,0:0:0:0:
482,249,284968,1,0,0:0:0:0:
495,248,285044,2,0,P|509:284|513:304,1,44.999998626709,2|0,0:0|0:0,0:0:0:0:
376,262,285195,2,0,P|382:240|391:219,1,44.999998626709,0|0,0:0|0:0,0:0:0:0:
420,384,285347,6,0,B|331:354|331:354|269:371,1,134.999995880127,8|0,0:0|0:0,0:0:0:0:
266,375,285650,1,0,0:0:0:0:
143,317,285801,2,0,P|136:251|132:216,1,89.9999972534181,0|0,0:0|0:0,0:0:0:0:
288,62,286104,5,0,0:0:0:0:
247,238,286256,1,0,0:0:0:0:
116,117,286407,1,2,0:0:0:0:
96,98,286559,5,8,0:0:0:0:
338,166,286710,1,0,0:0:0:0:
246,238,286862,5,0,0:0:0:0:
288,62,287013,1,0,0:0:0:0:
116,117,287165,5,2,0:0:0:0:
133,227,287316,1,0,0:0:0:0:
136,240,287468,5,0,0:0:0:0:
187,42,287619,1,0,0:0:0:0:
140,252,287771,2,0,P|97:267|42:266,1,89.9999972534181,8|0,0:0|0:0,0:0:0:0:
0,195,288074,5,0,0:0:0:0:
116,117,288225,2,0,L|224:132,1,89.9999972534181,0|0,0:0|0:0,0:0:0:0:
231,135,288453,1,0,0:0:0:0:
231,135,288528,5,0,0:0:0:0:
340,52,288680,1,0,0:0:0:0:
339,25,288831,5,2,0:0:0:0:
350,228,288983,1,8,0:0:0:0:
473,256,289134,5,0,0:0:0:0:
512,82,289286,1,0,0:0:0:0:
339,137,289438,1,0,0:0:0:0:
468,167,289589,5,0,0:0:0:0:
468,167,289665,1,0,0:0:0:0:
468,167,289741,1,0,0:0:0:0:
308,294,289892,5,2,0:0:0:0:
485,346,290044,1,0,0:0:0:0:
296,286,290195,1,8,0:0:0:0:
302,312,290498,5,0,0:0:0:0:
409,105,290650,1,8,0:0:0:0:
415,93,290953,5,8,0:0:0:0:
236,61,291104,1,2,0:0:0:0:
56,29,291256,1,2,0:0:0:0:
266,159,291407,5,8,0:0:0:0:
59,256,291559,5,2,0:0:0:0:
28,169,291710,1,2,0:0:0:0:
120,185,291862,1,2,0:0:0:0:
70,203,292013,6,0,B|140:183|122:234|189:218,1,120,2|0,0:0|0:0,0:0:0:0:
266,159,292468,1,0,0:0:0:0:
183,66,292619,2,0,P|176:110|174:149,1,60,8|0,0:0|0:0,0:0:0:0:
303,251,292922,1,0,0:0:0:0:
303,251,293074,1,0,0:0:0:0:
373,199,293225,6,0,P|369:161|362:126,1,60,0|0,0:0|0:0,0:0:0:0:
365,139,293680,1,2,0:0:0:0:
462,199,293831,2,0,P|455:235|454:267,1,60,8|0,0:0|0:0,0:0:0:0:
446,348,294134,2,0,P|499:330|527:325,1,60,0|0,0:0|0:0,0:0:0:0:
368,249,294438,5,0,0:0:0:0:
368,249,294513,1,0,0:0:0:0:
368,249,294589,1,0,0:0:0:0:
282,298,294741,2,0,P|214:281|167:277,1,90,2|0,0:0|0:0,0:0:0:0:
176,279,295044,2,0,P|164:319|158:363,1,60,8|0,0:0|0:0,0:0:0:0:
25,148,295650,6,0,P|61:101|110:105,1,90,0|0,0:0|0:0,0:0:0:0:
104,104,295953,1,0,0:0:0:0:
50,25,296104,1,2,0:0:0:0:
185,22,296256,2,0,B|162:85|204:69|178:139,1,120,8|0,0:0|0:0,0:0:0:0:
471,196,296862,6,0,B|393:174|393:174|343:203,1,120,2|0,0:0|0:0,0:0:0:0:
313,264,297316,1,0,0:0:0:0:
421,329,297468,2,0,P|427:292|423:249,1,60,8|0,0:0|0:0,0:0:0:0:
343,114,297771,1,0,0:0:0:0:
343,114,297922,1,0,0:0:0:0:
423,135,298074,6,0,P|462:126|506:122,2,60
481,124,298528,1,2,0:0:0:0:
386,36,298680,2,0,P|342:27|306:24,1,60,8|0,0:0|0:0,0:0:0:0:
307,161,298983,2,0,P|338:125|348:91,1,60,0|0,0:0|0:0,0:0:0:0:
237,22,299286,5,0,0:0:0:0:
237,22,299362,1,0,0:0:0:0:
237,22,299438,1,0,0:0:0:0:
180,91,299589,2,0,P|183:146|188:201,1,90,2|0,0:0|0:0,0:0:0:0:
186,198,299892,2,0,P|153:213|117:214,1,60,8|0,0:0|0:0,0:0:0:0:
348,361,300498,6,0,P|415:344|460:345,1,90,0|0,0:0|0:0,0:0:0:0:
453,347,300801,1,0,0:0:0:0:
344,266,300953,1,2,0:0:0:0:
445,254,301104,2,0,P|458:180|462:124,1,120,8|0,0:0|0:0,0:0:0:0:
181,33,301710,6,0,P|125:29|97:98,1,120,2|0,0:0|0:0,0:0:0:0:
155,134,302165,1,0,0:0:0:0:
43,189,302316,2,0,P|72:192|102:198,1,60,8|0,0:0|0:0,0:0:0:0:
255,304,302619,1,0,0:0:0:0:
255,304,302770,1,0,0:0:0:0:
193,359,302922,6,0,P|156:365|124:366,1,60,0|0,0:0|0:0,0:0:0:0:
133,366,303225,1,0,0:0:0:0:
196,239,303377,1,2,0:0:0:0:
339,300,303528,2,0,P|348:347|352:383,1,60,8|0,0:0|0:0,0:0:0:0:
436,239,303831,2,0,P|425:286|421:324,1,60,0|0,0:0|0:0,0:0:0:0:
355,140,304134,5,0,0:0:0:0:
355,140,304210,1,0,0:0:0:0:
355,140,304286,1,0,0:0:0:0:
269,199,304438,2,0,P|211:190|151:189,1,90,2|0,0:0|0:0,0:0:0:0:
162,192,304741,2,0,P|175:146|178:108,1,60,8|0,0:0|0:0,0:0:0:0:
54,82,305044,1,0,0:0:0:0:
54,82,305195,1,0,0:0:0:0:
62,173,305347,6,0,L|72:254,1,60,0|0,0:0|0:0,0:0:0:0:
0,383,305650,1,0,0:0:0:0:
69,325,305801,1,2,0:0:0:0:
181,368,305953,2,0,P|220:358|267:353,1,60,8|0,0:0|0:0,0:0:0:0:
127,244,306256,2,0,P|103:237|46:232,1,60,0|0,0:0|0:0,0:0:0:0:
192,64,306559,6,0,P|236:65|274:130,1,120,2|0,0:0|0:0,0:0:0:0:
183,163,307013,1,0,0:0:0:0:
101,58,307165,2,0,P|93:21|88:-15,1,60,8|0,0:0|0:0,0:0:0:0:
276,50,307468,1,0,0:0:0:0:
276,50,307619,1,0,0:0:0:0:
353,109,307771,6,0,P|348:138|341:167,1,60,0|0,0:0|0:0,0:0:0:0:
341,167,308225,1,2,0:0:0:0:
299,267,308377,2,0,P|327:256|355:247,1,60,8|0,0:0|0:0,0:0:0:0:
466,236,308680,2,0,P|442:217|420:196,1,60,0|0,0:0|0:0,0:0:0:0:
497,100,308983,5,0,0:0:0:0:
420,196,310195,5,0,0:0:0:0:
290,52,311407,5,2,0:0:0:0:
290,52,312278,1,2,0:0:0:0:
55,81,315044,5,0,0:0:0:0:
6,10,315347,1,0,0:0:0:0:
144,69,315650,2,0,P|138:106|136:133,1,60,2|2,0:0|0:0,0:0:0:0:
14,187,316256,2,0,P|58:189|101:202,2,90
144,324,318680,6,0,B|284:360|226:249|382:296,1,240
470,170,321104,5,2,0:0:0:0:
470,170,321983,1,2,0:0:0:0:
311,351,324741,5,0,0:0:0:0:
376,289,325044,1,0,0:0:0:0:
246,229,325347,2,0,L|249:302,1,60,2|2,0:0|0:0,0:0:0:0:
318,171,325953,2,0,P|276:143|234:139,2,90,0|0|0,0:0|0:0|0:0,0:0:0:0:
256,192,328377,12,0,330801,0:0:0:0:
