osu file format v14

[General]
AudioFilename: audio.mp3
AudioLeadIn: 0
PreviewTime: 208680
Countdown: 0
SampleSet: Soft
StackLeniency: 0.4
Mode: 0
LetterboxInBreaks: 0
StoryFireInFront: 0
WidescreenStoryboard: 1

[Editor]
Bookmarks: 63588,73327,82751,85892,105997,126101,146206,166154,176363,186416,197567,205892,209033,229138
DistanceSpacing: 0.7
BeatDivisor: 4
GridSize: 4
TimelineZoom: 3.299998

[Metadata]
Title:Strahv
TitleUnicode:Strahv
Artist:Feryquitous
ArtistUnicode:Feryquitous
Creator:Rumia-
Version:RE:STRAHV
Source:
Tags:TEAM : Re:Resolutions Sennzai せんざい ZheleNaught DVSP-0143 c89 bms 大血戦 -bofu2015- rezive out sionKotori sahuang
BeatmapID:1630556
BeatmapSetID:634143

[Difficulty]
HPDrainRate:6
CircleSize:4.2
OverallDifficulty:8.3
ApproachRate:9.5
SliderMultiplier:2
SliderTickRate:1

[Events]
//Background and Video events
0,0,"Strahv.png",0,0
//Break Periods
2,146406,163273
//Storyboard Layer 0 (Background)
//Storyboard Layer 1 (Fail)
//Storyboard Layer 2 (Pass)
//Storyboard Layer 3 (Foreground)
//Storyboard Layer 4 (Overlay)
//Storyboard Sound Samples

[TimingPoints]
291,314.1361256545,4,2,0,35,1,0
1704,314.1361256545,4,2,0,65,1,0
2332,-66.66666666667,4,2,0,65,0,0
3117,-100,4,2,0,65,0,0
5316,-66.66666666667,4,2,0,65,0,0
5787,-100,4,2,0,65,0,0
6730,-66.66666666667,4,2,0,65,0,0
9243,-100,4,2,0,65,0,0
10342,-66.66666666667,4,2,0,65,0,0
10971,-100,4,2,0,65,0,0
12384,-66.66666666667,4,2,0,65,0,0
14897,-100,4,2,0,65,0,0
15368,-66.66666666667,4,2,0,65,0,0
16782,-100,4,2,0,65,0,0
17096,-66.66666666667,4,2,0,65,0,0
18039,-100,4,2,0,65,0,0
18667,-50,4,2,0,65,0,0
18981,-100,4,2,0,65,0,0
20395,-66.66666666667,4,2,0,65,0,0
21808,-36.36363636364,4,2,0,25,0,0
23065,-66.66666666667,4,2,0,55,0,0
23379,-125,4,2,0,55,0,0
30604,-100,4,2,0,55,0,0
31232,-66.66666666667,4,2,0,55,0,0
31625,-100,4,2,0,55,0,0
32175,-66.66666666667,4,2,0,55,0,0
33117,-100,4,2,0,55,0,0
42384,-166.6666666667,4,2,0,55,0,0
43169,-125,4,2,0,45,0,0
45683,-100,4,2,0,45,0,0
47882,-200,4,2,0,45,0,0
48196,-100,4,2,0,45,0,0
52751,-133.3333333333,4,2,0,45,0,0
53222,-100,4,2,0,45,0,0
55735,-125,4,2,0,45,0,0
56677,-100,4,2,0,45,0,0
57934,-125,4,2,0,45,0,0
58248,-100,4,2,0,45,0,0
63274,-142.8571428571,4,2,0,75,0,0
63588,-50,4,2,0,65,0,0
63902,-66.66666666667,4,2,0,65,0,0
64688,-100,4,2,0,65,0,0
64845,-66.66666666667,4,2,0,65,0,0
65159,-133.3333333333,4,2,0,65,0,0
65630,-66.66666666667,4,2,0,65,0,0
68300,-200,4,2,0,65,0,0
68614,-50,4,2,0,65,0,0
68929,-100,4,2,0,65,0,0
69164,-80,4,2,0,65,0,0
69400,-66.66666666667,4,2,0,65,0,0
69635,-57.14285714286,4,2,0,65,0,0
69871,-66.66666666667,4,2,0,65,0,0
71128,-100,4,2,0,65,0,0
71520,-66.66666666667,4,2,0,65,0,0
72698,-200,4,2,0,65,0,0
73327,-66.66666666667,4,2,0,65,0,0
73641,-83.33333333333,4,2,0,65,0,0
76782,-100,4,2,0,65,0,0
77018,-80,4,2,0,65,0,0
77253,-66.66666666667,4,2,0,65,0,0
77489,-57.14285714286,4,2,0,65,0,0
77724,-83.33333333333,4,2,0,65,0,0
78667,-50,4,2,0,65,0,0
78981,-83.33333333333,4,2,0,65,0,0
82436,-100,4,2,0,65,0,0
82751,-285.7142857143,4,2,0,65,0,0
84557,-285.7142857143,4,2,0,5,0,0
84635,-25,4,2,0,15,0,0
85264,-285.7142857143,4,2,0,35,0,0
85892,-80,4,2,0,75,0,1
95944,-133.3333333333,4,2,0,75,0,1
96337,-133.3333333333,4,2,0,5,0,1
96416,-66.66666666667,4,2,0,75,0,1
96808,-66.66666666667,4,2,0,5,0,1
96887,-133.3333333333,4,2,0,75,0,1
98300,-80,4,2,0,75,0,1
100971,-100,4,2,0,75,0,1
104740,-80,4,2,0,35,0,0
105997,-71.42857142857,4,2,0,85,0,0
106625,-80,4,2,0,65,0,0
110709,-133.3333333333,4,2,0,65,0,0
111023,-66.66666666667,4,2,0,65,0,0
111337,-80,4,2,0,65,0,0
113536,-66.66666666667,4,2,0,65,0,0
113850,-80,4,2,0,65,0,0
115735,-66.66666666667,4,2,0,65,0,0
116049,-400,4,2,0,45,0,0
116363,-66.66666666667,4,2,0,75,0,0
116677,-80,4,2,0,65,0,0
125316,-80,4,2,0,65,0,0
125473,-100,4,2,0,65,0,0
125630,-133.3333333333,4,2,0,65,0,0
125787,-200,4,2,0,65,0,0
126101,-66.66666666667,4,2,0,75,0,0
126416,-100,4,2,0,55,0,0
131363,-100,4,2,0,5,0,0
131442,-100,4,2,0,55,0,0
133641,-125,4,2,0,55,0,0
135525,-100,4,2,0,55,0,0
138667,-125,4,2,0,55,0,0
163798,-125,4,2,0,15,0,0
165054,-33.33333333333,4,2,0,35,0,0
165683,-12.5,4,2,0,35,0,0
166154,-100,4,2,0,55,0,0
172279,-83.33333333333,4,2,0,55,0,0
172436,-166.6666666667,4,2,0,55,0,0
172751,-100,4,2,0,55,0,0
176206,-200,4,2,0,55,0,0
177463,-100,4,2,0,55,0,0
185159,-200,4,2,0,55,0,0
186101,-66.66666666667,4,2,0,55,0,0
186730,-100,4,2,0,65,0,0
187044,-83.33333333333,4,2,0,65,0,0
189243,-100,4,2,0,65,0,0
189793,-83.33333333333,4,2,0,65,0,0
191128,-66.66666666667,4,2,0,65,0,0
191442,-166.6666666667,4,2,0,65,0,0
191756,-66.66666666667,4,2,0,65,0,0
192070,-100,4,2,0,65,0,0
193012,-66.66666666667,4,2,0,65,0,0
193327,-100,4,2,0,65,0,0
194269,-66.66666666667,4,2,0,65,0,0
194662,-100,4,2,0,65,0,0
194819,-100,4,2,0,65,0,0
195054,-90.90909090909,4,2,0,65,0,0
195290,-83.33333333333,4,2,0,65,0,0
195525,-76.92307692308,4,2,0,65,0,0
195840,-153.8461538462,4,2,0,65,0,0
196468,-100,4,2,0,65,0,0
197567,-66.66666666667,4,2,0,65,0,0
198039,-80,4,2,0,65,0,0
204007,-133.3333333333,4,2,0,65,0,0
204871,-100,4,2,0,65,0,0
205264,-133.3333333333,4,2,0,35,0,0
207070,-133.3333333333,4,2,0,5,0,0
207149,-25,4,2,0,15,0,0
208562,-500,4,2,0,35,0,0
209033,-80,4,2,0,75,0,1
219086,-117.6470588235,4,2,0,75,0,1
219478,-117.6470588235,4,2,0,5,0,1
219557,-55.55555555556,4,2,0,75,0,1
221442,-80,4,2,0,75,0,1
229138,-80,4,2,0,55,0,0

[HitObjects]
256,192,291,12,0,1390,0:0:0:0:
96,296,1704,5,0,0:0:0:0:
144,144,1861,1,0,0:0:0:0:
144,136,1939,1,0,0:0:0:0:
144,128,2018,1,0,0:0:0:0:
264,240,2175,1,0,0:0:0:0:
132,216,2332,6,0,B|176:216|204:184|204:184|184:260|212:344,1,225.0000085831
299,325,2646,2,0,B|259:313|259:313|203:325|203:325|151:313,1,150.0000057221
132,216,2882,2,0,B|128:164|144:128|144:128|160:164|204:172,1,150.0000057221
246,235,3117,5,0,0:0:0:0:
364,68,3274,2,0,P|368:104|364:128,1,50
325,196,3431,2,0,P|323:171|327:146,1,50
448,200,3588,1,0,0:0:0:0:
448,220,3667,1,0,0:0:0:0:
448,240,3745,1,0,0:0:0:0:
308,280,3902,1,0,0:0:0:0:
308,300,3981,1,0,0:0:0:0:
308,320,4060,2,0,L|312:360,3,25
316,360,4217,6,0,P|264:348|216:356,1,100
120,356,4531,1,0,0:0:0:0:
113,179,4688,1,0,0:0:0:0:
50,270,4845,5,0,0:0:0:0:
42,262,4923,2,0,L|50:342,1,50
187,239,5080,5,0,0:0:0:0:
196,228,5159,2,0,L|192:308,1,50
393,358,5316,2,0,B|289:330|289:330|357:310,1,150.0000057221
386,272,5552,2,0,B|397:246|381:210|381:210|361:174|373:126,1,150.0000057221
444,164,5787,2,0,L|492:176,1,50
313,245,5944,2,0,L|265:258,1,50
259,72,6101,5,0,0:0:0:0:
260,81,6180,1,0,0:0:0:0:
261,90,6258,1,0,0:0:0:0:
263,99,6337,1,0,0:0:0:0:
264,108,6416,1,0,0:0:0:0:
292,256,6573,1,0,0:0:0:0:
463,155,6730,6,0,P|422:150|367:163,1,75.00000286102
292,256,6887,2,0,P|254:257|218:250,1,75.00000286102
104,124,7044,2,0,L|144:120,6,37.50000143051
86,91,7358,6,0,B|70:143|70:143|82:299,1,150.0000057221
212,257,7594,2,0,B|164:256|136:220|136:220|96:216|32:273,1,150.0000057221
20,320,7829,2,0,B|64:328|104:356|104:356|140:328|180:320,1,150.0000057221
212,257,8065,2,0,B|224:248|240:224|240:224|244:292|260:336,1,150.0000057221
348,300,8300,2,0,P|344:340|336:376,1,75.00000286102
456,268,8457,2,0,P|460:308|468:344,1,75.00000286102
316,208,8614,5,0,0:0:0:0:
332,204,8693,1,0,0:0:0:0:
348,200,8772,1,0,0:0:0:0:
480,96,8929,1,0,0:0:0:0:
450,90,9007,1,0,0:0:0:0:
420,84,9086,1,0,0:0:0:0:
322,22,9243,6,0,L|330:130,1,100
476,288,9557,1,0,0:0:0:0:
441,267,9635,1,0,0:0:0:0:
401,261,9714,1,0,0:0:0:0:
361,268,9793,1,0,0:0:0:0:
330,293,9871,2,0,L|320:347,1,50
263,177,10028,1,0,0:0:0:0:
259,169,10107,1,0,0:0:0:0:
255,161,10185,2,0,L|257:220,1,50
60,96,10342,6,0,B|96:68|176:80|176:80|156:116,1,150.0000057221
172,252,10578,2,0,B|152:216|117:205|117:205|127:154|162:109,1,150.0000057221
88,302,10813,2,0,P|48:294|8:298,1,75.00000286102
172,252,10971,2,0,L|168:301,1,50
274,356,11128,5,0,0:0:0:0:
270,341,11206,1,0,0:0:0:0:
265,326,11285,1,0,0:0:0:0:
260,311,11363,1,0,0:0:0:0:
255,296,11442,1,0,0:0:0:0:
164,376,11599,1,0,0:0:0:0:
352,332,11756,5,0,0:0:0:0:
208,228,11913,1,0,0:0:0:0:
208,228,12070,2,0,L|280:224,1,50
440,152,12227,2,0,L|390:147,1,50
328,260,12384,6,0,B|332:208|332:208|312:152|312:152|320:100,1,150.0000057221
401,119,12620,2,0,B|358:108|333:59|333:59|314:124,1,150.0000057221
148,136,12855,2,0,B|240:168|240:168|236:136|244:115,1,150.0000057221
88,80,13091,1,0,0:0:0:0:
88,80,13169,2,0,P|72:120|72:160,1,75.00000286102
192,244,13327,2,0,P|156:224|108:212,1,75.00000286102
48,336,13484,2,0,P|88:312|120:300,1,75.00000286102
228,360,13641,5,0,0:0:0:0:
204,356,13719,1,0,0:0:0:0:
180,352,13798,1,0,0:0:0:0:
16,232,13955,1,0,0:0:0:0:
44,228,14033,1,0,0:0:0:0:
76,224,14112,1,0,0:0:0:0:
223,47,14269,2,0,P|223:83|218:120,1,75.00000286102
176,228,14426,2,0,P|173:189|178:152,1,75.00000286102
312,128,14583,6,0,B|408:104|456:172|456:172|456:140|472:104,1,225.0000085831
368,220,14897,1,0,0:0:0:0:
364,236,14976,2,0,L|376:332,1,50
248,296,15133,1,0,0:0:0:0:
252,312,15212,2,0,L|248:380,1,50
152,160,15368,6,0,B|170:100|240:110|240:110|226:164,1,150.0000057221
344,156,15604,2,0,B|330:148|310:128|310:128|286:232,1,150.0000057221
412,336,15840,2,0,P|368:332|316:316,1,75.00000286102
344,156,15997,2,0,P|380:147|417:144,1,75.00000286102
488,240,16154,5,0,0:0:0:0:
472,240,16232,1,0,0:0:0:0:
456,240,16311,1,0,0:0:0:0:
440,240,16389,1,0,0:0:0:0:
424,240,16468,1,0,0:0:0:0:
300,240,16625,1,0,0:0:0:0:
488,240,16782,6,0,L|432:240,1,50
350,240,16939,2,0,L|294:240,1,50
184,136,17096,6,0,B|216:168|208:216|208:216|256:124|360:172,1,225.0000085831
314,303,17410,2,0,B|324:308|336:336|336:336|348:264|300:240,1,150.0000057221
196,292,17646,2,0,B|169:289|151:270|151:270|171:330|171:366,1,150.0000057221
282,336,17882,2,0,B|309:339|327:358|327:358|307:298|307:262,1,150.0000057221
284,180,18117,1,0,0:0:0:0:
284,180,18196,2,0,L|352:184,1,50
452,252,18353,2,0,L|388:256,1,50
306,261,18510,2,0,L|230:265,1,50
81,329,18667,6,0,B|143:335|143:335|172:292|172:292|207:367|207:367|231:331|231:331|315:339,1,300
284,180,18981,1,0,0:0:0:0:
283,169,19060,1,0,0:0:0:0:
282,159,19138,1,0,0:0:0:0:
360,355,19295,5,0,0:0:0:0:
419,62,19452,1,0,0:0:0:0:
486,131,19609,2,0,L|475:201,1,50
399,203,19766,2,0,L|410:273,1,50
449,316,19923,1,0,0:0:0:0:
421,286,20002,1,0,0:0:0:0:
384,269,20080,1,0,0:0:0:0:
344,264,20159,1,0,0:0:0:0:
305,274,20237,1,0,0:0:0:0:
140,352,20395,6,0,B|152:284|144:228|144:228|164:252|192:264,1,150.0000057221
233,349,20709,6,0,L|225:293,1,37.50000143051
68,312,20866,2,0,L|76:368,1,37.50000143051
228,288,21023,6,0,L|236:232,1,37.50000143051
380,244,21180,2,0,L|385:281,1,37.50000143051
236,224,21337,6,0,L|228:168,1,37.50000143051
84,188,21494,2,0,L|78:225,1,37.50000143051
236,160,21651,6,0,L|241:122,1,37.50000143051
497,328,21808,6,0,B|428:312|428:312|446:298|446:298|428:312|428:312|437:340|437:340|428:312|428:312|416:308|416:308|436:290|436:290|416:308|416:308|425:341|425:341|416:308|416:308|403:304|403:304|424:280|424:280|402:304|402:304|410:340|410:340|402:304|402:304|387:299|387:299|411:269|411:269|387:298|387:298|394:341|394:341|387:298|387:298|369:294|369:294|395:257|395:257|369:294|369:294|375:342|375:342|369:293|369:293|343:286|343:286|371:240|371:240|343:286|343:286|350:346|350:346|343:287|343:287|314:280|314:280|345:226|345:226|314:280|314:280|319:348|319:348|314:280|314:280|278:275|278:275|309:213|309:213|278:275|278:275|283:351|283:351|277:275|277:275|236:284|236:284|231:346|177:346|126:345|117:282|129:219|181:219|232:219|236:284,1,2062.50001967
91,236,23065,6,0,B|121:228|149:196|149:196|169:224|213:241,1,150.0000057221
149,94,23379,1,0,0:0:0:0:
62,250,23536,1,0,0:0:0:0:
230,152,23693,1,0,0:0:0:0:
71,153,23850,1,0,0:0:0:0:
146,314,24007,2,0,L|150:234,1,80
176,32,24321,5,0,0:0:0:0:
292,120,24478,1,0,0:0:0:0:
292,120,24557,1,0,0:0:0:0:
292,120,24635,2,0,P|348:120|376:112,1,80
464,56,24950,5,0,0:0:0:0:
424,176,25107,1,0,0:0:0:0:
488,288,25264,1,0,0:0:0:0:
424,176,25421,1,0,0:0:0:0:
312,348,25578,6,0,B|356:360|356:360|408:336,1,80
424,176,25892,1,0,0:0:0:0:
268,240,26049,1,0,0:0:0:0:
344,80,26206,1,0,0:0:0:0:
384,232,26363,1,0,0:0:0:0:
240,60,26520,2,0,P|240:112|248:160,1,80
268,240,26834,6,0,B|384:232|384:232|344:268,1,160
308,328,27306,1,0,0:0:0:0:
224,321,27463,1,0,0:0:0:0:
141,311,27620,1,0,0:0:0:0:
308,328,27777,2,0,B|296:268|296:268|316:192,1,120
320,180,28091,5,0,0:0:0:0:
400,288,28248,1,0,0:0:0:0:
400,288,28327,1,0,0:0:0:0:
400,288,28405,1,0,0:0:0:0:
224,252,28562,1,0,0:0:0:0:
316,132,28719,2,0,P|308:176|312:216,1,80
308,328,29033,1,0,0:0:0:0:
220,132,29190,1,0,0:0:0:0:
389,216,29347,6,0,P|333:208|289:216,1,80
224,252,29662,1,0,0:0:0:0:
392,124,29819,1,0,0:0:0:0:
356,296,29976,1,0,0:0:0:0:
304,60,30133,1,0,0:0:0:0:
356,344,30290,1,0,0:0:0:0:
468,100,30447,1,0,0:0:0:0:
252,196,30604,6,0,B|308:188|308:188|352:204|352:204|408:196,1,150
432,192,30918,1,0,0:0:0:0:
220,200,31075,1,0,0:0:0:0:
366,28,31232,6,0,B|353:89|353:89|362:122|362:122|348:192,1,150.0000057221
312,321,31468,1,0,0:0:0:0:
312,321,31546,2,0,L|303:218,1,75.00000286102
180,176,31703,6,0,P|240:184|288:168,1,100
392,152,31939,2,0,P|332:144|284:160,1,100
225,99,32175,2,0,L|233:25,1,75.00000286102
347,232,32332,2,0,L|335:306,1,75.00000286102
72,320,32489,1,0,0:0:0:0:
72,320,32567,1,0,0:0:0:0:
72,320,32646,6,0,L|140:238,1,75.00000286102
104,148,32803,2,0,L|140:248,1,75.00000286102,0|0,3:0|3:0,3:0:0:0:
232,264,32960,2,0,L|127:245,1,75.00000286102,0|0,3:0|3:0,3:0:0:0:
36,244,33117,5,0,0:0:0:0:
104,148,33274,1,0,0:0:0:0:
192,280,33431,1,0,0:0:0:0:
232,76,33588,1,0,0:0:0:0:
284,332,33745,2,0,P|280:260|272:220,1,100
340,40,34060,2,0,P|332:89|330:139,1,100
464,224,34374,5,0,0:0:0:0:
252,156,34531,1,0,0:0:0:0:
404,128,34688,1,0,0:0:0:0:
316,248,34845,1,0,0:0:0:0:
364,32,35002,1,0,0:0:0:0:
376,316,35159,1,0,0:0:0:0:
387,221,35316,1,0,0:0:0:0:
404,128,35473,1,0,0:0:0:0:
474,321,35630,6,0,B|426:309|426:309|368:316,1,100
280,336,35944,2,0,B|224:348|224:348|172:332,1,100
108,248,36258,1,0,0:0:0:0:
180,352,36416,1,0,0:0:0:0:
128,128,36573,1,0,0:0:0:0:
48,344,36731,1,0,0:0:0:0:
48,344,36808,1,0,0:0:0:0:
48,344,36887,6,0,P|36:296|36:272,1,50
108,248,37044,2,0,P|104:198|108:175,1,50
272,156,37201,1,0,0:0:0:0:
196,288,37358,1,0,0:0:0:0:
212,92,37515,1,0,0:0:0:0:
376,224,37672,1,0,0:0:0:0:
216,180,37829,2,0,B|268:172|292:128|292:128|296:168|336:208,1,150
376,224,38143,6,0,B|384:276|384:276|376:336,1,100
168,312,38457,2,0,B|160:260|160:260|168:200,1,100
232,88,38772,1,0,0:0:0:0:
264,348,38929,1,0,0:0:0:0:
328,104,39086,2,0,P|296:160|256:184,1,100
88,228,39400,6,0,B|148:216|148:216|188:232,1,100
136,324,39714,1,0,0:0:0:0:
156,128,39871,1,0,0:0:0:0:
32,248,40028,1,0,0:0:0:0:
232,260,40185,1,0,0:0:0:0:
160,48,40342,1,0,0:0:0:0:
104,208,40499,1,0,0:0:0:0:
264,168,40656,5,0,0:0:0:0:
412,200,40813,1,0,0:0:0:0:
332,208,40971,1,0,0:0:0:0:
460,136,41128,1,0,0:0:0:0:
424,228,41285,5,0,0:0:0:0:
424,328,41442,1,0,0:0:0:0:
464,116,41599,1,0,0:0:0:0:
432,312,41756,1,0,0:0:0:0:
326,227,41913,5,0,0:0:0:0:
429,292,42070,1,0,0:0:0:0:
451,139,42227,1,0,0:0:0:0:
306,340,42384,6,0,B|256:336|208:300|229:273|252:300|196:346|140:341,1,179.9999945068
108,60,43169,6,0,B|99:116|99:116|112:164|112:164|103:231,1,160
25,254,43641,1,0,0:0:0:0:
25,254,43719,1,0,0:0:0:0:
25,254,43798,2,0,L|39:164,1,80
176,104,44112,1,0,0:0:0:0:
236,260,44269,6,0,P|242:220|245:180,1,80
332,232,44583,2,0,P|338:192|341:152,1,80
300,48,44897,1,0,0:0:0:0:
408,256,45054,1,0,0:0:0:0:
412,248,45133,1,0,0:0:0:0:
416,240,45211,1,0,0:0:0:0:
420,232,45290,1,0,0:0:0:0:
424,224,45368,2,0,P|430:184|433:144,1,80
212,136,45683,6,0,B|252:84|308:120|308:120|280:164,1,150
248,296,45997,2,0,B|248:260|236:212|236:212|264:236|300:228,1,150
360,180,46311,1,0,0:0:0:0:
340,308,46468,1,0,0:0:0:0:
484,232,46625,2,0,L|424:224,1,50
472,304,46782,2,0,L|412:296,1,50
232,160,47096,5,0,0:0:0:0:
424,48,47253,1,0,0:0:0:0:
400,160,47410,1,0,0:0:0:0:
208,36,47567,2,0,L|216:100,1,50
232,160,47724,2,0,L|240:224,1,50
288,360,47882,6,0,B|300:280,1,75
304,268,48196,6,0,B|252:280|232:300|232:300|192:280|160:280,1,150
90,232,48510,2,0,P|138:208|138:296,1,150
80,360,48824,2,0,L|88:304,1,50
68,364,48981,2,0,L|76:308,1,50
184,112,49138,2,0,L|192:168,1,50
172,108,49295,2,0,L|180:164,1,50
220,240,49452,5,0,0:0:0:0:
312,116,49609,1,0,0:0:0:0:
304,268,49766,1,0,0:0:0:0:
248,56,49923,1,0,0:0:0:0:
292,366,50080,2,0,P|292:310|304:266,1,100
436,226,50395,2,0,B|388:244|355:210|355:210|329:184|278:195,1,150
260,198,50709,5,0,0:0:0:0:
426,39,51023,1,0,0:0:0:0:
456,263,51180,1,0,0:0:0:0:
388,167,51337,1,0,0:0:0:0:
485,152,51494,1,0,0:0:0:0:
356,272,51651,1,0,0:0:0:0:
364,276,51729,1,0,0:0:0:0:
372,280,51808,1,0,0:0:0:0:
380,284,51886,1,0,0:0:0:0:
388,288,51965,1,0,0:0:0:0:
224,348,52122,6,0,L|220:316,1,25
224,164,52279,2,0,L|227:188,1,25
144,256,52436,2,0,L|176:252,1,25
280,264,52593,2,0,L|304:260,1,25
484,152,52751,6,0,B|460:152|436:112|436:112|432:200|420:244,1,187.5000071526
287,235,53222,6,0,B|379:203|379:203|431:239,1,150
464,344,53536,2,0,B|396:364|396:364|364:256,1,150
468,294,53850,6,0,L|461:370,1,50
472,244,54007,2,0,L|465:320,1,50
288,312,54321,2,0,L|295:388,1,50
264,116,54635,6,0,L|271:192,1,50
280,240,54793,1,0,0:0:0:0:
256,32,54950,1,0,0:0:0:0:
336,192,55107,1,0,0:0:0:0:
316,168,55185,1,0,0:0:0:0:
288,160,55264,1,0,0:0:0:0:
260,160,55342,1,0,0:0:0:0:
232,176,55421,1,0,0:0:0:0:
188,280,55578,1,0,0:0:0:0:
340,296,55735,6,0,B|300:288|300:288|260:300,1,80
152,352,56049,2,0,B|112:360|112:360|72:348,1,80
29,159,56363,1,0,0:0:0:0:
27,151,56442,1,0,0:0:0:0:
25,143,56520,1,0,0:0:0:0:
252,183,56677,6,0,L|248:247,1,50
120,228,56834,2,0,L|124:292,1,50
486,312,57149,1,0,0:0:0:0:
274,339,57306,1,0,0:0:0:0:
374,266,57463,1,0,0:0:0:0:
394,270,57542,1,0,0:0:0:0:
414,275,57620,1,0,0:0:0:0:
289,185,57777,1,0,0:0:0:0:
274,339,57934,2,0,B|265:269|265:269|282:183,1,120
289,185,58248,6,0,B|237:201|194:166|194:166|176:188|142:209,1,150
44,165,58562,2,0,B|90:136|90:136|139:143|165:218,1,150
96,287,58876,2,0,L|91:352,1,50
110,270,59033,2,0,L|105:335,1,50
264,273,59190,2,0,L|269:338,1,50
278,290,59347,2,0,L|283:355,1,50
184,364,59505,5,0,0:0:0:0:
211,144,59662,2,0,L|199:200,1,50
172,276,59819,1,0,0:0:0:0:
176,68,59976,1,0,0:0:0:0:
280,348,60133,2,0,P|276:288|288:240,1,100
340,96,60447,1,0,0:0:0:0:
368,344,60604,1,0,0:0:0:0:
392,175,60761,5,0,0:0:0:0:
467,215,60918,1,0,0:0:0:0:
464,116,61075,1,0,0:0:0:0:
391,265,61232,1,0,0:0:0:0:
174,191,61389,5,0,0:0:0:0:
391,265,61546,1,0,0:0:0:0:
268,304,61703,1,0,0:0:0:0:
260,264,61782,1,0,0:0:0:0:
276,228,61861,1,0,0:0:0:0:
292,192,61939,1,0,0:0:0:0:
280,156,62018,1,0,0:0:0:0:
167,211,63274,6,0,B|154:187|154:187|104:178|104:178|78:199,1,104.9999967957
68,120,63588,6,0,B|40:64|40:64|204:32|204:32|180:132,1,300
284,184,63902,2,0,B|228:168|228:168|176:192|132:156|132:156|112:188|80:196,1,225.0000085831
155,248,64217,2,0,B|175:258|216:254|216:254|200:304|200:340,1,150.0000057221
284,304,64452,1,0,0:0:0:0:
284,304,64531,6,0,L|268:404,2,75.00000286102
440,88,64845,2,0,B|388:72|388:72|396:116,1,75.00000286102
440,204,65002,2,0,B|479:166|479:166|437:151,1,75.00000286102
304,56,65159,6,0,L|320:148,1,75.00000286102
348,304,65473,1,0,0:0:0:0:
348,304,65552,1,0,0:0:0:0:
348,304,65630,2,0,L|360:208,1,75.00000286102
179,245,65787,5,0,0:0:0:0:
163,257,65866,1,0,0:0:0:0:
121,218,65944,5,0,0:0:0:0:
101,222,66023,1,0,0:0:0:0:
76,164,66101,6,0,B|128:148|156:116|156:116|184:152|184:152|212:112|212:112|240:172|308:188,1,300.0000114441
301,98,66494,2,0,L|312:24,1,75.00000286102
372,128,66651,2,0,B|356:85|320:67|320:67|288:80|266:107,1,150.0000057221
216,176,66887,2,0,B|186:210|189:251|189:251|216:272|251:277,1,150.0000057221
340,296,67122,2,0,B|384:304|418:281|418:281|423:247|410:213,1,150.0000057221
216,176,67358,2,0,L|120:168,1,75.00000286102
192,364,67515,2,0,L|266:357,1,75.00000286102
352,256,67672,5,0,0:0:0:0:
324,244,67751,1,0,0:0:0:0:
296,236,67829,1,0,0:0:0:0:
268,248,67908,1,0,0:0:0:0:
240,260,67986,1,0,0:0:0:0:
212,264,68065,1,0,0:0:0:0:
184,252,68143,1,0,0:0:0:0:
109,252,68300,6,0,L|197:252,1,75
64,200,68614,6,0,B|16:168|16:168|32:364|32:364|80:324,1,300
136,204,68929,6,0,L|144:320,1,100
216,308,69164,6,0,L|208:184,1,125
280,164,69400,6,0,L|292:338,1,150.0000057221
363,318,69635,6,0,L|352:144,1,175.0000016689
480,124,69871,6,0,L|472:244,1,75.00000286102
464,352,70028,1,0,0:0:0:0:
368,264,70185,1,0,0:0:0:0:
372,236,70264,1,0,0:0:0:0:
376,208,70342,1,0,0:0:0:0:
168,144,70499,1,0,0:0:0:0:
172,172,70577,1,0,0:0:0:0:
176,200,70656,1,0,0:0:0:0:
276,300,70813,5,0,0:0:0:0:
280,272,70892,1,0,0:0:0:0:
264,224,70971,5,0,0:0:0:0:
268,196,71049,1,0,0:0:0:0:
252,152,71128,6,0,B|260:32|260:32|288:56,1,150
344,124,71442,1,0,0:0:0:0:
344,124,71520,6,0,L|432:104,1,75.00000286102
440,196,71677,2,0,B|392:224|428:284|428:284|480:280|472:204,1,150.0000057221
440,196,71913,2,0,B|384:192|384:192|340:208|340:208|268:200,1,150.0000057221
236,144,72149,2,0,B|204:115|204:115|223:294,1,150.0000057221
276,360,72384,2,0,L|284:264,1,75.00000286102
133,160,72541,2,0,L|143:243,1,75.00000286102
198,318,72698,6,0,B|100:348|116:288|8:316,1,175
27,311,73327,6,0,B|100:284|100:284|137:351|137:351|200:316,1,225.0000085831
268,260,73641,2,0,B|288:320|288:320|260:396,1,119.9999963379
29,121,73955,6,0,B|73:73|73:73|157:73,1,119.9999963379
192,20,74190,2,0,B|211:82|211:82|169:154,1,119.9999963379
199,212,74426,2,0,B|135:197|135:197|93:125,1,119.9999963379
320,136,74662,2,0,P|292:168|292:112,1,119.9999963379
380,40,74897,2,0,L|448:32,1,59.99999816895
472,188,75054,2,0,L|396:196,1,59.99999816895
256,40,75211,5,0,0:0:0:0:
260,64,75290,1,0,0:0:0:0:
264,88,75368,1,0,0:0:0:0:
268,252,75525,1,0,0:0:0:0:
272,276,75604,1,0,0:0:0:0:
276,300,75682,1,0,0:0:0:0:
180,216,75840,6,0,P|204:188|232:172,1,59.99999816895
312,180,75997,2,0,P|336:196|355:220,1,59.99999816895
257,371,76154,2,0,L|269:235,1,119.9999963379
319,65,76468,1,0,0:0:0:0:
332,77,76546,1,0,0:0:0:0:
344,89,76625,1,0,0:0:0:0:
356,101,76703,1,0,0:0:0:0:
368,113,76782,6,0,L|264:105,1,100
240,176,77018,6,0,L|420:192,1,125
376,264,77253,6,0,L|216:248,1,150.0000057221
204,324,77489,6,0,L|384:340,1,175.0000016689
472,324,77724,1,0,0:0:0:0:
480,308,77803,1,0,0:0:0:0:
488,292,77882,2,0,L|476:204,1,59.99999816895
401,92,78039,1,0,0:0:0:0:
392,80,78117,2,0,L|380:212,1,119.9999963379
368,316,78353,1,0,0:0:0:0:
368,316,78667,6,0,P|320:280|392:312,1,300
264,332,78981,2,0,P|244:280|264:196,1,119.9999963379
480,192,79217,2,0,P|500:252|476:328,1,119.9999963379
416,336,79452,6,0,L|336:336,1,59.99999816895
412,156,79609,2,0,L|332:168,1,59.99999816895
276,252,79766,1,0,0:0:0:0:
288,252,79845,1,0,0:0:0:0:
300,252,79923,2,0,L|432:252,1,119.9999963379
220,308,80238,5,0,0:0:0:0:
220,308,80316,1,0,0:0:0:0:
220,308,80395,2,0,P|208:348|216:384,1,59.99999816895
216,196,80552,5,0,0:0:0:0:
216,196,80630,1,0,0:0:0:0:
216,196,80709,2,0,P|204:156|212:120,1,59.99999816895
292,352,80866,5,0,0:0:0:0:
284,152,81023,1,0,0:0:0:0:
376,352,81180,1,0,0:0:0:0:
368,180,81337,1,0,0:0:0:0:
320,275,81494,1,0,0:0:0:0:
320,275,81730,6,0,B|356:280|356:280|392:264|392:264|436:272,1,119.9999963379
483,176,81965,2,0,B|447:171|447:171|411:187|411:187|367:179,1,119.9999963379
432,28,82201,1,0,0:0:0:0:
432,28,82279,1,0,0:0:0:0:
432,28,82358,1,0,0:0:0:0:
432,28,82436,2,0,L|482:36,1,50
395,106,82594,2,0,L|346:100,1,50
235,87,82751,6,0,B|211:149|211:149|242:226|242:226|319:273|319:273|408:233|408:233|436:160,1,402.4999877167
356,184,84635,6,0,B|323:198|323:198|294:180|294:180|282:148|282:148|293:119|293:119|323:97|323:97|356:115|356:115|368:146|368:146|356:184|356:184|323:198|323:198|294:180|294:180|282:148|282:148|293:119|293:119|323:97|323:97|356:115|356:115|368:146|368:146|356:184|356:184|323:198|323:198|294:180|294:180|282:148|282:148|293:119|293:119|323:97|323:97|356:115|356:115|369:146|369:146|356:184|356:184|323:198|323:198|294:180|294:180|282:148|282:148|293:119|293:119|323:97|323:97|356:115|356:115|369:146|369:146|356:184|356:184|323:198|323:198|294:180|294:180|282:148|282:148|293:119|293:119|323:97|323:97|356:115|356:115|369:146|369:146|356:184|356:184|323:198|323:198|294:180|294:180|282:148,1,1400
222,184,85264,6,0,B|212:145|212:145|223:114,1,69.99999786377
58,327,85892,5,0,0:0:0:0:
148,200,86049,1,0,0:0:0:0:
192,336,86206,1,0,0:0:0:0:
44,192,86363,1,0,0:0:0:0:
44,192,86442,1,0,0:0:0:0:
43,192,86520,2,0,P|48:161|57:131,1,62.5
176,32,86677,2,0,P|184:61|189:92,1,62.5
148,200,86834,1,0,0:0:0:0:
148,200,86991,1,0,0:0:0:0:
296,40,87149,5,0,0:0:0:0:
276,256,87306,1,0,0:0:0:0:
212,64,87463,1,0,0:0:0:0:
368,112,87620,1,0,0:0:0:0:
224,180,87777,1,0,0:0:0:0:
436,268,87934,1,0,0:0:0:0:
412,264,88012,1,0,0:0:0:0:
388,260,88091,1,0,0:0:0:0:
264,336,88248,1,0,0:0:0:0:
320,40,88405,6,0,P|328:100|324:164,1,125
288,244,88641,1,0,0:0:0:0:
296,256,88719,1,0,0:0:0:0:
404,120,88876,2,0,L|396:200,1,62.5
441,285,89033,2,0,L|448:348,1,62.5
476,136,89190,2,0,L|468:216,1,62.5
344,352,89347,5,0,0:0:0:0:
328,120,89505,1,0,0:0:0:0:
344,352,89662,1,0,0:0:0:0:
260,208,89820,5,0,0:0:0:0:
265,244,89897,1,0,0:0:0:0:
272,280,89976,1,0,0:0:0:0:
156,232,90133,5,0,0:0:0:0:
151,276,90211,1,0,0:0:0:0:
148,320,90290,1,0,0:0:0:0:
72,168,90447,5,0,0:0:0:0:
60,216,90525,1,0,0:0:0:0:
48,264,90604,2,0,L|60:344,1,62.5
176,228,90761,2,0,L|166:311,1,62.5
280,348,90918,2,0,L|272:284,1,62.5
408,320,91075,2,0,L|415:257,1,62.5
272,192,91232,1,0,0:0:0:0:
360,100,91389,1,0,0:0:0:0:
336,300,91546,5,0,0:0:0:0:
284,56,91703,1,0,0:0:0:0:
284,56,91782,1,0,0:0:0:0:
284,56,91861,1,0,0:0:0:0:
392,192,92018,1,0,0:0:0:0:
232,328,92175,6,0,L|244:256,1,62.5
192,112,92332,1,0,0:0:0:0:
192,112,92410,1,0,0:0:0:0:
192,112,92489,2,0,L|204:184,1,62.5
160,360,92646,1,0,0:0:0:0:
303,260,92803,6,0,P|263:268|223:260,1,62.5
156,232,92960,2,0,P|116:224|76:232,1,62.5
16,260,93117,1,0,0:0:0:0:
96,112,93274,1,0,0:0:0:0:
160,360,93431,6,0,P|168:288|184:228,1,125
248,56,93745,1,0,0:0:0:0:
312,188,93902,1,0,0:0:0:0:
304,224,93981,1,0,0:0:0:0:
304,260,94060,1,0,0:0:0:0:
376,336,94217,1,0,0:0:0:0:
368,104,94374,1,0,0:0:0:0:
304,260,94531,1,0,0:0:0:0:
468,208,94688,5,0,0:0:0:0:
308,28,94845,2,0,L|300:116,1,62.5
304,260,95002,1,0,0:0:0:0:
192,36,95159,2,0,L|184:124,1,62.5
180,276,95316,1,0,0:0:0:0:
112,144,95473,1,0,0:0:0:0:
28,320,95630,2,0,B|88:296|132:336|132:336|168:364|212:348,1,187.5
251,286,95944,6,0,P|227:214|187:286,1,187.5000071526
144,296,96416,6,0,P|231:169|282:313,1,375.0000143051
211,330,96887,2,0,P|213:292|220:256,1,75.00000286102
380,336,97201,5,0,0:0:0:0:
364,248,97358,5,0,0:0:0:0:
344,200,97515,5,0,0:0:0:0:
312,168,97672,5,0,0:0:0:0:
276,292,97829,5,0,0:0:0:0:
384,80,97986,1,0,0:0:0:0:
336,352,98143,1,0,0:0:0:0:
300,44,98300,6,0,B|307:208|307:208|272:172|224:180,1,250
216,324,98772,2,0,P|256:304|208:268,1,125
128,332,99086,1,0,0:0:0:0:
379,311,99243,1,0,0:0:0:0:
124,248,99400,1,0,0:0:0:0:
373,335,99557,1,0,0:0:0:0:
200,184,99714,5,0,0:0:0:0:
257,339,99871,1,0,0:0:0:0:
259,327,99950,1,0,0:0:0:0:
260,315,100028,1,0,0:0:0:0:
405,204,100185,1,0,0:0:0:0:
389,270,100263,1,0,0:0:0:0:
373,335,100342,1,0,0:0:0:0:
487,171,100499,5,0,0:0:0:0:
451,135,100578,1,0,0:0:0:0:
403,123,100656,1,0,0:0:0:0:
355,139,100735,1,0,0:0:0:0:
307,155,100813,1,0,0:0:0:0:
259,147,100892,1,0,0:0:0:0:
215,127,100971,6,0,B|207:71|207:71|223:11,1,100
344,58,101285,2,0,B|355:99|355:99|347:155,1,100
232,260,101599,1,0,0:0:0:0:
104,100,101756,1,0,0:0:0:0:
116,232,101913,1,0,0:0:0:0:
217,29,102070,1,0,0:0:0:0:
232,260,102227,6,0,P|236:220|236:188,1,50
320,288,102384,2,0,P|324:248|324:216,1,50
376,112,102541,2,0,P|380:152|380:184,1,50
456,112,102698,2,0,P|460:152|460:184,1,50
456,272,102855,5,0,0:0:0:0:
472,28,103012,1,0,0:0:0:0:
376,112,103169,1,0,0:0:0:0:
217,29,103326,1,0,0:0:0:0:
292,112,103484,6,0,P|292:156|288:184,1,50
220,272,103641,2,0,P|220:228|224:200,1,50
317,129,103798,2,0,P|302:170|288:195,1,50
194,254,103955,2,0,P|209:213|223:188,1,50
344,256,104112,5,0,0:0:0:0:
164,128,104269,1,0,0:0:0:0:
284,320,104426,1,0,0:0:0:0:
231,70,104583,1,0,0:0:0:0:
256,192,104740,5,0,0:0:0:0:
264,232,105997,6,0,B|263:283|263:283|331:263|331:155|259:135,1,209.9999935913
272,140,106311,2,0,B|222:147|222:147|174:127|174:127|126:135,1,139.9999957275
232,64,106546,1,0,0:0:0:0:
232,64,106625,2,0,P|304:56|352:112,1,125
388,220,106939,1,0,0:0:0:0:
460,72,107096,6,0,B|384:64|384:64|308:104,1,125
272,140,107332,1,0,0:0:0:0:
276,160,107410,1,0,0:0:0:0:
280,180,107489,1,0,0:0:0:0:
284,200,107567,2,0,L|280:292,1,62.5
204,344,107724,5,0,0:0:0:0:
200,324,107803,1,0,0:0:0:0:
196,304,107881,2,0,L|200:212,1,62.5
136,160,108039,2,0,B|88:136|88:136|12:168,2,125
244,128,108510,6,0,P|304:144|256:64,1,187.5
244,128,108824,2,0,B|276:168|320:132|320:132|368:152|368:152|440:128,1,187.5
440,132,109138,2,0,B|452:176|452:176|440:272,1,125
376,60,109452,1,0,0:0:0:0:
316,328,109609,6,0,B|304:284|304:284|316:188,1,125
236,96,109923,1,0,0:0:0:0:
240,116,110002,1,0,0:0:0:0:
244,136,110080,2,0,L|228:284,1,125
112,344,110316,1,0,0:0:0:0:
104,348,110395,5,0,0:0:0:0:
40,328,110473,1,0,0:0:0:0:
40,260,110552,1,0,0:0:0:0:
100,228,110630,1,0,0:0:0:0:
144,284,110709,6,0,B|184:276|204:292|204:292|228:312|268:300,1,112.5000042915
249,228,111023,6,0,B|292:192|292:192|272:360,1,225.0000085831
354,284,111337,2,0,L|364:193,1,62.5
250,128,111494,2,0,L|194:176,1,62.5
138,272,111651,2,0,B|143:216|143:216|120:171|140:128|140:128|123:59,1,187.5
115,60,111965,1,0,0:0:0:0:
203,169,112122,1,0,0:0:0:0:
37,343,112279,5,0,0:0:0:0:
55,340,112358,1,0,0:0:0:0:
73,338,112436,1,0,0:0:0:0:
91,335,112515,1,0,0:0:0:0:
109,331,112594,6,0,B|173:315|173:315|186:349|223:365,1,125
245,279,112829,1,0,0:0:0:0:
255,263,112908,2,0,L|243:171,1,62.5
209,131,113065,2,0,L|197:223,1,62.5
128,237,113222,1,0,0:0:0:0:
300,145,113379,1,0,0:0:0:0:
210,358,113536,6,0,P|293:348|226:220,1,225.0000085831
275,213,113850,2,0,B|314:215|345:240|345:240|363:226|363:226|384:241|384:241|413:216|448:212,1,187.5
450,288,114164,2,0,L|436:362,1,62.5
383,136,114321,2,0,L|369:62,1,62.5
487,148,114478,1,0,0:0:0:0:
346,338,114635,1,0,0:0:0:0:
292,93,114793,5,0,0:0:0:0:
305,79,114871,2,0,B|296:134|296:134|301:157|301:157|293:211,1,125
220,291,115107,5,0,0:0:0:0:
207,305,115185,2,0,B|216:250|216:250|211:227|211:227|219:173,1,125
224,104,115421,5,0,0:0:0:0:
152,124,115499,1,0,0:0:0:0:
80,140,115578,1,0,0:0:0:0:
8,160,115656,1,0,0:0:0:0:
32,72,115735,6,0,B|74:105|74:105|95:227|95:227|46:279,1,225.0000085831
14,196,116049,6,0,L|8:160,1,37.5
152,124,116363,6,0,B|168:200|168:200|244:208|244:208|268:128,1,225.0000085831
289,67,116677,2,0,L|228:56,1,62.5
340,143,116834,2,0,L|324:204,1,62.5
312,368,116991,1,0,0:0:0:0:
244,208,117149,1,0,0:0:0:0:
440,296,117306,6,0,B|404:320|376:280|376:280|360:300|360:300|316:268|272:288,1,187.5
312,368,117620,2,0,P|360:348|360:256,1,125
352,196,117855,1,0,0:0:0:0:
352,196,117934,2,0,L|280:204,1,62.5
102,304,118091,2,0,P|136:312|180:296,1,62.5
216,196,118248,2,0,P|220:152|212:104,1,62.5
128,32,118405,1,0,0:0:0:0:
40,136,118562,6,0,P|108:208|64:224,1,187.5
40,136,118876,2,0,B|84:112|120:152|120:152|174:123|174:123|228:148,1,187.5
244,156,119190,1,0,0:0:0:0:
64,216,119347,1,0,0:0:0:0:
128,32,119505,1,0,0:0:0:0:
173,173,119662,2,0,L|165:265,1,62.5
204,348,119819,5,0,0:0:0:0:
132,332,119897,1,0,0:0:0:0:
60,308,119976,2,0,L|-4:288,1,62.5
64,216,120133,2,0,B|112:192|112:192|184:248,1,125
244,272,120368,5,0,0:0:0:0:
256,260,120447,1,0,0:0:0:0:
328,292,120525,5,0,0:0:0:0:
340,280,120604,1,0,0:0:0:0:
404,324,120683,5,0,0:0:0:0:
416,312,120761,2,0,P|424:268|424:236,1,62.5
376,104,120918,2,0,P|373:72|379:42,1,62.5
268,180,121075,6,0,B|300:192|332:176|332:176|372:196|372:196|416:160|468:188,1,187.5
288,104,121389,2,0,B|284:16|284:16|332:48,1,125
440,32,121625,1,0,0:0:0:0:
450,15,121703,2,0,B|446:63|446:63|462:79|462:79|431:108|431:108|446:131|446:131|442:187,1,187.5
440,212,122018,1,0,0:0:0:0:
451,19,122175,1,0,0:0:0:0:
352,140,122332,5,0,0:0:0:0:
316,148,122410,1,0,0:0:0:0:
280,148,122489,1,0,0:0:0:0:
244,136,122567,1,0,0:0:0:0:
216,112,122646,6,0,B|192:84|192:84|192:208,1,125
220,324,122882,1,0,0:0:0:0:
228,336,122960,2,0,P|260:328|296:308,1,62.5
148,252,123117,2,0,P|120:238|89:230,1,62.5
236,244,123274,1,0,0:0:0:0:
88,332,123431,1,0,0:0:0:0:
266,91,123588,6,0,B|266:128|239:158|239:158|313:165|320:255,1,187.5
286,347,123902,2,0,B|266:312|240:303|240:303|243:265|230:219,1,125
334,121,124138,1,0,0:0:0:0:
334,121,124217,2,0,B|354:86|380:77|380:77|377:39|384:17,2,125
350,320,124688,1,0,0:0:0:0:
463,179,124845,5,0,0:0:0:0:
474,171,124923,2,0,P|435:164|388:148,1,62.5
468,259,125080,5,0,0:0:0:0:
480,268,125159,2,0,P|440:272|404:284,1,62.5
328,207,125316,6,0,L|253:229,1,62.5
268,224,125473,6,0,L|210:209,1,50
219,211,125630,6,0,L|152:227,1,37.50000143051
139,228,125787,5,0,0:0:0:0:
25,226,125944,1,0,0:0:0:0:
108,190,126101,6,0,B|70:148|70:148|23:190|25:226,1,150.0000057221
97,348,126416,1,0,0:0:0:0:
199,265,126573,1,0,0:0:0:0:
220,285,126651,1,0,0:0:0:0:
240,307,126730,1,0,0:0:0:0:
381,284,126887,1,0,0:0:0:0:
316,185,127044,1,0,0:0:0:0:
302,360,127201,1,0,0:0:0:0:
458,348,127358,6,0,B|474:299|474:299|464:249,1,100
304,227,127672,2,0,B|288:276|288:276|298:326,1,100
384,191,127986,1,0,0:0:0:0:
388,172,128065,1,0,0:0:0:0:
372,140,128143,1,0,0:0:0:0:
378,121,128222,1,0,0:0:0:0:
364,92,128300,1,0,0:0:0:0:
382,284,128457,1,0,0:0:0:0:
220,128,128614,6,0,L|128:120,1,50
100,112,128772,1,0,0:0:0:0:
240,224,128929,2,0,B|308:188|308:108|308:108|328:148|380:156,1,200
512,120,129400,1,0,0:0:0:0:
416,228,129557,1,0,0:0:0:0:
376,80,129714,1,0,0:0:0:0:
376,80,130028,5,0,0:0:0:0:
424,328,130185,1,0,0:0:0:0:
404,168,130342,1,0,0:0:0:0:
392,196,130421,1,0,0:0:0:0:
380,224,130499,1,0,0:0:0:0:
264,172,130656,1,0,0:0:0:0:
312,356,130813,1,0,0:0:0:0:
264,172,130971,1,0,0:0:0:0:
252,276,131128,6,0,B|192:264|192:264|148:280|148:280|88:268,1,150
106,271,131442,2,0,B|188:252|172:296|264:272,1,150
328,220,131756,1,0,0:0:0:0:
340,204,131834,1,0,0:0:0:0:
344,184,131913,1,0,0:0:0:0:
344,164,131991,1,0,0:0:0:0:
336,144,132070,2,0,L|272:148,1,50
208,156,132227,2,0,L|144:160,1,50
24,168,132384,5,0,0:0:0:0:
208,156,132541,1,0,0:0:0:0:
64,56,132698,1,0,0:0:0:0:
148,256,132855,1,0,0:0:0:0:
112,176,133012,1,0,0:0:0:0:
80,340,133169,1,0,0:0:0:0:
160,88,133327,1,0,0:0:0:0:
32,260,133484,1,0,0:0:0:0:
208,156,133641,6,0,P|248:148|296:160,1,80
209,319,133955,1,0,0:0:0:0:
356,236,134112,1,0,0:0:0:0:
156,236,134269,1,0,0:0:0:0:
300,320,134426,1,0,0:0:0:0:
176,236,134583,1,0,0:0:0:0:
192,236,134662,1,0,0:0:0:0:
208,236,134740,1,0,0:0:0:0:
224,236,134819,1,0,0:0:0:0:
240,236,134897,6,0,B|320:236|320:236|280:236|280:236|320:236,1,160
469,238,135368,1,0,0:0:0:0:
344,159,135525,6,0,P|364:167|388:191,1,50
388,283,135683,2,0,P|370:301|348:311,1,50
348,323,135840,6,0,P|368:315|392:291,1,50
392,175,135997,2,0,P|374:157|351:147,1,50
304,68,136154,5,0,0:0:0:0:
168,232,136311,1,0,0:0:0:0:
224,60,136468,1,0,0:0:0:0:
244,240,136625,1,0,0:0:0:0:
144,44,136782,5,0,0:0:0:0:
256,136,136939,1,0,0:0:0:0:
180,312,137096,1,0,0:0:0:0:
224,60,137253,1,0,0:0:0:0:
244,240,137410,5,0,0:0:0:0:
76,240,137567,1,0,0:0:0:0:
256,136,137724,1,0,0:0:0:0:
56,104,137882,1,0,0:0:0:0:
140,168,138039,5,0,0:0:0:0:
252,40,138196,1,0,0:0:0:0:
144,48,138353,1,0,0:0:0:0:
232,204,138510,1,0,0:0:0:0:
308,124,138667,6,0,B|364:124|388:160|388:160|352:196,1,120
308,236,138981,6,0,B|287:256|287:256|311:292|367:292,1,120
432,336,139295,1,0,0:0:0:0:
367,180,139452,1,0,0:0:0:0:
456,44,139609,2,0,L|452:96,1,40
444,160,139766,2,0,L|440:212,1,40
332,248,139923,5,0,0:0:0:0:
224,140,140080,1,0,0:0:0:0:
260,304,140238,1,0,0:0:0:0:
288,56,140395,1,0,0:0:0:0:
296,76,140473,1,0,0:0:0:0:
304,96,140552,1,0,0:0:0:0:
136,52,140709,1,0,0:0:0:0:
304,96,140866,2,0,L|316:12,1,80
208,100,141180,6,0,L|220:208,1,80
296,236,141416,1,0,0:0:0:0:
296,236,141494,2,0,L|284:312,1,40
137,276,141651,2,0,L|141:336,1,40
224,364,141808,1,0,0:0:0:0:
160,212,141965,1,0,0:0:0:0:
148,244,142044,1,0,0:0:0:0:
137,276,142122,1,0,0:0:0:0:
296,236,142279,1,0,0:0:0:0:
88,348,142436,6,0,P|60:304|72:224,1,120
76,224,142751,2,0,B|36:240|36:240|0:220,1,80
56,64,143065,1,0,0:0:0:0:
168,160,143222,1,0,0:0:0:0:
200,152,143300,1,0,0:0:0:0:
232,144,143379,2,0,L|224:244,1,80
456,352,143693,6,0,P|476:312|448:228,1,120
436,232,144007,2,0,L|408:240,1,20
364,348,144164,2,0,L|336:340,1,20
264,248,144321,2,0,L|236:256,1,20
144,312,144478,2,0,L|116:308,1,20
36,236,144635,1,0,0:0:0:0:
52,232,144714,1,0,0:0:0:0:
68,228,144793,1,0,0:0:0:0:
84,224,144871,1,0,0:0:0:0:
256,192,144950,12,0,145892,0:0:0:0:
256,192,146206,5,0,0:0:0:0:
322,191,163798,6,0,B|322:99|186:99|186:191|186:191|186:287|322:287|322:191|322:191|322:99|186:99|186:191,1,640
208,192,165054,6,0,B|208:124|304:124|304:192|304:192|304:260|208:260|208:192|208:192|208:124|304:124|304:192|304:192|304:260|208:260|208:192|208:192|208:124|304:124|304:192|304:192|304:260|208:260|208:192|208:192|208:124|304:124|304:192|304:192|304:260|208:260|208:192,1,1200.000045776
292,192,165683,6,0,B|292:243|220:243|220:192|220:192|220:141|292:141|292:192|292:192|292:243|220:243|220:192|220:192|220:141|292:141|292:192|292:192|292:243|220:243|220:192|220:192|220:141|292:141|292:192|292:192|292:243|220:243|220:192|220:192|220:141|292:141|292:192|292:192|292:243|220:243|220:192|220:192|220:141|292:141|292:192|292:192|292:243|174:244,2,1200.000045776
408,64,166311,1,0,0:0:0:0:
352,296,166468,1,0,0:0:0:0:
344,128,166625,1,0,0:0:0:0:
356,156,166703,1,0,0:0:0:0:
368,184,166782,1,0,0:0:0:0:
476,156,166939,1,0,0:0:0:0:
256,192,167096,1,0,0:0:0:0:
448,268,167253,1,0,0:0:0:0:
256,192,167410,6,0,B|248:132|248:132|260:64,1,100
404,28,167724,2,0,B|412:88|412:88|400:156,1,100
256,192,168039,1,0,0:0:0:0:
448,268,168196,1,0,0:0:0:0:
280,288,168353,1,0,0:0:0:0:
464,168,168510,1,0,0:0:0:0:
360,320,168667,6,0,B|368:276|368:276|348:212|348:212|356:160,1,150
356,152,168981,1,0,0:0:0:0:
356,352,169138,1,0,0:0:0:0:
272,208,169295,1,0,0:0:0:0:
272,208,169374,1,0,0:0:0:0:
272,208,169452,6,0,L|280:296,1,50
212,62,169609,2,0,L|204:150,1,50
192,220,169766,1,0,0:0:0:0:
56,32,169923,1,0,0:0:0:0:
28,148,170080,5,0,0:0:0:0:
208,112,170238,1,0,0:0:0:0:
124,228,170395,1,0,0:0:0:0:
115,139,170552,1,0,0:0:0:0:
104,52,170709,1,0,0:0:0:0:
124,228,170866,2,0,L|114:315,1,50
208,112,171023,2,0,L|192:32,1,50
208,208,171180,6,0,B|200:312|200:312|248:272,1,150
208,208,171494,1,0,0:0:0:0:
268,348,171651,2,0,B|308:316|308:316|388:328,1,100
480,340,171965,1,0,0:0:0:0:
340,248,172122,1,0,0:0:0:0:
448,68,172279,6,0,L|440:152,1,59.99999816895
428,216,172436,2,0,L|416:332,1,89.99999725342
416,336,172751,5,0,0:0:0:0:
308,264,172908,1,0,0:0:0:0:
272,248,172986,1,0,0:0:0:0:
232,256,173065,1,0,0:0:0:0:
200,276,173143,1,0,0:0:0:0:
164,296,173222,1,0,0:0:0:0:
124,296,173300,1,0,0:0:0:0:
88,280,173379,1,0,0:0:0:0:
48,48,173536,2,0,P|80:72|100:104,1,50
144,160,173693,6,0,P|164:120|172:44,1,100
36,172,174007,1,0,0:0:0:0:
204,224,174164,1,0,0:0:0:0:
280,68,174321,1,0,0:0:0:0:
196,188,174478,1,0,0:0:0:0:
288,352,174635,2,0,L|296:292,1,50
328,140,174793,1,0,0:0:0:0:
456,288,174950,6,0,L|452:204,1,50
448,96,175107,1,0,0:0:0:0:
372,272,175264,6,0,L|369:187,1,50
336,90,175421,2,0,L|327:141,1,50
288,352,175578,1,0,0:0:0:0:
248,112,175735,1,0,0:0:0:0:
224,276,175892,1,0,0:0:0:0:
328,212,176049,2,0,L|272:200,1,50
152,117,176206,6,0,B|192:101|192:101|256:113,1,100
104,48,176677,1,0,0:0:0:0:
300,28,176834,1,0,0:0:0:0:
168,200,176991,1,0,0:0:0:0:
188,4,177149,1,0,0:0:0:0:
320,152,177306,1,0,0:0:0:0:
120,100,177463,6,0,B|200:80|244:116|244:116|228:160|252:212,1,200
404,348,177934,2,0,B|416:296|416:296|404:236,1,100
288,300,178248,1,0,0:0:0:0:
500,296,178405,1,0,0:0:0:0:
288,300,178562,1,0,0:0:0:0:
427,71,178719,6,0,L|411:223,1,150
406,250,179033,1,0,0:0:0:0:
340,40,179190,1,0,0:0:0:0:
232,220,179347,1,0,0:0:0:0:
328,160,179505,1,0,0:0:0:0:
228,104,179662,1,0,0:0:0:0:
320,344,179819,1,0,0:0:0:0:
328,316,179897,1,0,0:0:0:0:
336,280,179976,6,0,B|288:280|288:280|236:304|236:304|192:284,1,150
138,205,180290,2,0,B|190:197|190:197|234:221,1,100
120,352,180604,6,0,L|116:288,1,50
100,56,180761,1,0,0:0:0:0:
204,312,180918,2,0,L|211:248,1,50
235,17,181075,1,0,0:0:0:0:
288,336,181232,6,0,B|300:244|300:244|284:200|284:200|296:112,1,200
209,262,181703,1,0,0:0:0:0:
376,84,181861,1,0,0:0:0:0:
376,84,181939,1,0,0:0:0:0:
376,84,182018,2,0,L|360:188,1,100
152,120,182332,5,0,0:0:0:0:
224,104,182410,1,0,0:0:0:0:
296,88,182489,2,0,L|268:256,1,150
264,272,182803,1,0,0:0:0:0:
152,120,182960,6,0,B|200:100|200:100|248:124,1,100
356,248,183274,2,0,B|404:268|404:268|452:244,1,100
412,12,183588,2,0,P|404:52|408:96,1,50
242,121,183745,6,0,B|336:100|336:100|352:124|390:141,1,150
416,156,184060,1,0,0:0:0:0:
224,320,184217,1,0,0:0:0:0:
320,184,184374,1,0,0:0:0:0:
124,224,184531,1,0,0:0:0:0:
352,256,184688,5,0,0:0:0:0:
424,236,184766,1,0,0:0:0:0:
432,160,184845,1,0,0:0:0:0:
368,124,184923,1,0,0:0:0:0:
320,184,185002,1,0,0:0:0:0:
320,184,185159,6,0,B|232:204|184:160|184:160|136:116|76:148|40:164,1,250
120,332,186101,6,0,L|112:224,1,75.00000286102
124,220,186258,2,0,L|129:294,1,75.00000286102
212,352,186416,6,0,B|256:328|272:276|272:276|296:316|344:320|344:320|336:368,1,225.0000085831
416,360,186730,2,0,B|428:308|428:308|452:276|452:276|460:216,1,150
388,120,187044,2,0,B|376:164|376:164|388:204|388:204|376:284,1,119.9999963379
312,216,187279,1,0,0:0:0:0:
312,216,187358,2,0,L|300:300,1,59.99999816895
240,348,187515,6,0,B|200:328|200:328|124:336|124:336|72:296,2,179.9999945068
360,300,188143,1,0,0:0:0:0:
152,248,188300,1,0,0:0:0:0:
180,244,188379,1,0,0:0:0:0:
208,240,188457,1,0,0:0:0:0:
344,116,188614,1,0,0:0:0:0:
316,112,188693,1,0,0:0:0:0:
288,108,188771,1,0,0:0:0:0:
168,164,188929,6,0,P|160:132|164:96,1,59.99999816895
148,32,189086,2,0,P|140:64|144:100,1,59.99999816895
21,163,189243,6,0,B|77:147|77:147|185:167,1,150
240,244,189557,1,0,0:0:0:0:
240,244,189635,2,0,L|312:228,1,50
329,104,189793,6,0,B|289:111|289:111|221:71,1,119.9999963379
110,42,190028,2,0,B|156:34|156:34|220:70,1,119.9999963379
244,180,190264,2,0,L|256:320,1,119.9999963379
324,356,190499,6,0,L|336:276,1,59.99999816895
172,352,190656,2,0,L|184:272,1,59.99999816895
144,208,190813,1,0,0:0:0:0:
100,228,190892,1,0,0:0:0:0:
52,216,190971,1,0,0:0:0:0:
28,176,191049,1,0,0:0:0:0:
32,128,191128,6,0,P|36:88|32:40,1,75.00000286102
144,208,191285,2,0,P|148:168|144:120,1,75.00000286102
273,273,191442,6,0,P|281:205|277:161,1,89.99999725342
240,305,191756,2,0,B|240:140|240:140|280:184,1,225.0000085831
396,292,192070,6,0,B|464:260|464:260|446:242,1,100
324,132,192306,2,0,B|317:206|317:206|352:192,1,100
488,148,192541,2,0,B|426:105|426:105|422:142,1,100
396,292,192777,2,0,B|334:334|334:334|330:297,1,100
292,224,193012,6,0,L|208:212,1,75.00000286102
200,184,193169,2,0,L|280:196,1,75.00000286102
212,344,193327,5,0,0:0:0:0:
200,184,193484,1,0,0:0:0:0:
132,304,193641,1,0,0:0:0:0:
128,264,193719,1,0,0:0:0:0:
124,224,193798,1,0,0:0:0:0:
300,40,193955,5,0,0:0:0:0:
296,64,194033,1,0,0:0:0:0:
320,148,194112,5,0,0:0:0:0:
316,172,194190,1,0,0:0:0:0:
310,257,194269,6,0,B|318:181|318:181|296:140|296:140|310:97|310:97|298:33,1,225.0000085831
379,140,194583,1,0,0:0:0:0:
379,140,194662,2,0,L|443:136,1,50
384,276,194819,6,0,L|372:392,1,100
298,366,195054,6,0,L|310:257,1,110.0000033569
236,236,195290,6,0,L|221:375,1,119.9999963379
148,352,195525,6,0,L|156:272,1,64.99999702454
72,348,195683,2,0,L|80:268,1,64.99999702454
92,96,195840,6,0,L|108:12,3,64.99999702454
279,215,196468,5,0,0:0:0:0:
256,224,196546,1,0,0:0:0:0:
232,215,196625,1,0,0:0:0:0:
223,192,196703,1,0,0:0:0:0:
232,164,196782,1,0,0:0:0:0:
260,156,196861,1,0,0:0:0:0:
288,164,196939,1,0,0:0:0:0:
304,196,197018,1,0,0:0:0:0:
291,237,197096,5,0,0:0:0:0:
243,248,197175,1,0,0:0:0:0:
204,217,197253,1,0,0:0:0:0:
204,167,197332,1,0,0:0:0:0:
243,135,197410,1,0,0:0:0:0:
291,146,197489,1,0,0:0:0:0:
308,192,197567,6,0,B|327:263|217:324|129:264|129:158|187:110,1,300.0000114441,0|0,2:0|2:0,2:0:0:0:
480,144,198039,6,0,B|429:126|429:126|397:146|397:146|365:126|365:126|309:140,1,187.5
291,146,198353,1,0,0:0:0:0:
404,240,198510,1,0,0:0:0:0:
396,48,198667,1,0,0:0:0:0:
408,256,198824,1,0,0:0:0:0:
308,312,198981,5,0,0:0:0:0:
304,332,199060,1,0,0:0:0:0:
228,312,199138,5,0,0:0:0:0:
224,332,199217,1,0,0:0:0:0:
148,316,199295,6,0,B|36:332|36:332|52:240,1,187.5
52,236,199609,2,0,L|64:160,1,62.5
128,220,199766,1,0,0:0:0:0:
128,220,199845,6,0,B|140:152|140:152|96:108,1,125
156,56,200080,2,0,B|204:100|204:100|264:80,1,125
288,156,200316,2,0,B|224:176|224:176|216:240,1,125
280,352,200552,6,0,L|288:256,1,62.5
376,152,200709,2,0,L|370:214,1,62.5
364,304,200866,1,0,0:0:0:0:
144,64,201023,1,0,0:0:0:0:
144,64,201101,1,0,0:0:0:0:
144,64,201180,2,0,B|176:52|176:52|220:56,1,62.5
216,233,201337,2,0,B|184:245|184:245|140:241,1,62.5
96,154,201494,6,0,B|156:136|156:136|183:149|183:149|211:134|211:134|284:148,1,187.5
304,148,201808,1,0,0:0:0:0:
232,352,201965,1,0,0:0:0:0:
372,204,202122,6,0,P|308:236|248:216,1,125
180,252,202358,2,0,P|184:180|231:138,1,125
230,59,202594,2,0,P|289:98|302:160,1,125
300,251,202829,2,0,B|260:236|260:236|180:251,1,125
48,184,203065,6,0,L|120:196,1,62.5
230,59,203222,2,0,L|158:71,1,62.5
56,76,203379,1,0,0:0:0:0:
216,160,203536,1,0,0:0:0:0:
336,80,203693,1,0,0:0:0:0:
368,88,203772,1,0,0:0:0:0:
396,96,203850,1,0,0:0:0:0:
464,204,204007,6,0,B|376:188|376:188|392:284|392:284|460:260,1,225.0000085831
332,112,204635,1,0,0:0:0:0:
320,332,204871,6,0,L|304:204,1,100
304,204,205107,2,0,L|288:76,1,100
184,144,205342,2,0,L|172:208,2,37.50000143051
128,76,205578,1,0,0:0:0:0:
108,80,205656,1,0,0:0:0:0:
88,84,205735,1,0,0:0:0:0:
68,88,205813,1,0,0:0:0:0:
48,92,205892,1,0,0:0:0:0:
256,192,205971,12,0,207070,0:0:0:0:
255,165,207149,6,0,B|285:220|223:220|223:220|256:165|256:165|285:220|285:220|223:220|223:220|256:166|256:166|285:220|285:220|223:220|223:220|256:165|256:165|285:220|285:220|223:220|223:220|256:165|256:165|285:220|285:220|223:220|223:220|256:165|256:165|285:220|285:220|223:220|223:220|256:165|256:165|285:220|285:220|223:220|223:220|256:165|256:165|285:220|285:220|223:220|223:220|256:165|256:165|285:220|285:220|223:220|223:220|256:165|256:165|285:220|285:220|223:220|223:220|256:165|256:165|285:220|285:220|223:220|223:220|256:165|256:165|285:220|285:220|223:220|223:220|256:165|256:165|285:220|285:220|223:220|223:220|256:165|256:165|285:220|285:220|223:220|223:220|256:165|256:165|285:220|285:220|223:220|223:220|256:165|256:165|285:220|285:220|223:220|223:220|256:165|256:165|285:220|285:220|223:220,1,3000
256,220,208405,6,0,B|256:299|256:299|256:220|256:220|256:299|256:299|256:220|256:220|256:299|256:299|256:220,1,400
256,93,208719,6,0,L|255:59,1,30
256,64,209033,5,0,0:0:0:0:
356,256,209190,1,0,0:0:0:0:
152,252,209347,1,0,0:0:0:0:
256,192,209505,1,0,0:0:0:0:
256,192,209583,1,0,0:0:0:0:
256,192,209662,1,0,0:0:0:0:
352,344,209819,1,0,0:0:0:0:
464,124,209976,6,0,P|456:156|456:200,1,62.5
360,192,210133,2,0,P|369:223|391:261,1,62.5
303,305,210290,2,0,P|326:327|364:349,1,62.5
422,185,210447,6,0,L|350:193,1,62.5
284,200,210604,2,0,L|212:208,1,62.5
144,216,210761,2,0,L|72:224,1,62.5
192,92,210918,1,0,0:0:0:0:
144,216,211075,1,0,0:0:0:0:
116,36,211232,1,0,0:0:0:0:
221,206,211389,2,0,L|208:308,1,62.5
196,354,211546,5,0,0:0:0:0:
144,216,211703,1,0,0:0:0:0:
280,156,211861,1,0,0:0:0:0:
333,294,212018,1,0,0:0:0:0:
199,138,212175,6,0,L|210:183,1,31.25
273,357,212332,2,0,L|264:315,1,31.25
319,220,212489,2,0,L|350:213,1,31.25
159,289,212646,2,0,L|129:296,1,31.25
240,256,212803,5,0,0:0:0:0:
352,72,212960,2,0,L|344:140,1,62.5
324,308,213117,1,0,0:0:0:0:
444,84,213274,2,0,L|436:152,1,62.5
408,324,213431,5,0,0:0:0:0:
400,276,213510,1,0,0:0:0:0:
368,240,213588,1,0,0:0:0:0:
320,224,213667,1,0,0:0:0:0:
272,240,213745,1,0,0:0:0:0:
232,268,213824,1,0,0:0:0:0:
184,268,213902,1,0,0:0:0:0:
140,244,213981,1,0,0:0:0:0:
100,216,214060,6,0,B|88:168|88:168|104:88,1,125
264,32,214374,2,0,B|276:80|276:80|260:160,1,125
200,352,214688,5,0,0:0:0:0:
200,352,214845,1,0,0:0:0:0:
292,172,215002,1,0,0:0:0:0:
316,344,215159,1,0,0:0:0:0:
268,92,215316,5,0,0:0:0:0:
264,272,215473,1,0,0:0:0:0:
336,48,215630,1,0,0:0:0:0:
192,248,215787,1,0,0:0:0:0:
428,208,215944,1,0,0:0:0:0:
404,200,216023,1,0,0:0:0:0:
380,192,216101,1,0,0:0:0:0:
356,184,216180,1,0,0:0:0:0:
332,176,216258,2,0,L|344:260,1,62.5
420,344,216416,2,0,L|432:280,1,62.5
468,104,216573,5,0,0:0:0:0:
468,104,216730,1,0,0:0:0:0:
332,176,216887,1,0,0:0:0:0:
256,84,217044,1,0,0:0:0:0:
376,312,217201,5,0,0:0:0:0:
376,312,217358,1,0,0:0:0:0:
368,76,217515,1,0,0:0:0:0:
204,192,217672,1,0,0:0:0:0:
432,232,217829,5,0,0:0:0:0:
256,84,217986,1,0,0:0:0:0:
272,256,218143,1,0,0:0:0:0:
460,104,218300,1,0,0:0:0:0:
340,184,218457,5,0,0:0:0:0:
296,160,218536,1,0,0:0:0:0:
248,164,218614,1,0,0:0:0:0:
204,192,218693,1,0,0:0:0:0:
160,212,218772,1,0,0:0:0:0:
112,212,218850,1,0,0:0:0:0:
68,180,218929,1,0,0:0:0:0:
60,132,219007,1,0,0:0:0:0:
80,84,219086,6,0,B|64:176|4:156|28:216|68:244|92:204|56:144,1,212.5000040531
80,84,219557,6,0,B|145:22|227:118|308:106|308:106|228:129|227:236|134:230|134:230|148:181|131:135|131:135|161:133|242:193|339:181,1,719.9999780273
476,192,220342,5,0,0:0:0:0:
302,279,220499,1,0,0:0:0:0:
468,298,220656,1,0,0:0:0:0:
283,180,220813,1,0,0:0:0:0:
332,368,220971,5,0,0:0:0:0:
432,59,221128,1,0,0:0:0:0:
115,121,221285,1,0,0:0:0:0:
304,204,221442,6,0,B|240:156|168:204|168:204|116:240|56:200,1,250
216,280,221913,2,0,P|276:296|240:340,1,125
164,348,222227,1,0,0:0:0:0:
376,248,222384,1,0,0:0:0:0:
344,356,222541,1,0,0:0:0:0:
260,132,222698,1,0,0:0:0:0:
260,252,222855,5,0,0:0:0:0:
148,72,223012,1,0,0:0:0:0:
316,44,223169,1,0,0:0:0:0:
140,56,223327,1,0,0:0:0:0:
324,60,223484,5,0,0:0:0:0:
228,176,223641,1,0,0:0:0:0:
232,144,223719,1,0,0:0:0:0:
236,112,223798,1,0,0:0:0:0:
288,268,223955,1,0,0:0:0:0:
136,192,224112,6,0,L|132:152,1,31.25
84,36,224269,2,0,L|80:80,1,31.25
144,216,224426,2,0,L|140:260,1,31.25
32,328,224583,2,0,L|36:372,1,31.25
40,184,224740,5,0,0:0:0:0:
140,348,224897,1,0,0:0:0:0:
248,208,225054,1,0,0:0:0:0:
141,247,225211,1,0,0:0:0:0:
316,352,225368,6,0,L|336:284,1,62.5
396,200,225525,2,0,L|424:268,1,62.5
464,332,225683,2,0,L|384:352,1,62.5
304,216,225840,2,0,L|232:232,1,62.5
344,128,225997,5,0,0:0:0:0:
216,328,226154,1,0,0:0:0:0:
272,48,226311,1,0,0:0:0:0:
296,276,226468,1,0,0:0:0:0:
48,184,226625,5,0,0:0:0:0:
240,128,226782,1,0,0:0:0:0:
143,249,226939,1,0,0:0:0:0:
164,32,227096,1,0,0:0:0:0:
272,272,227253,1,0,0:0:0:0:
344,32,227410,1,0,0:0:0:0:
252,184,227567,2,0,B|241:119|241:119|261:63,1,125
364,260,227882,5,0,0:0:0:0:
400,76,228039,1,0,0:0:0:0:
416,356,228196,1,0,0:0:0:0:
308,152,228353,1,0,0:0:0:0:
464,248,228510,5,0,0:0:0:0:
364,260,228667,1,0,0:0:0:0:
364,220,228745,1,0,0:0:0:0:
384,180,228824,1,0,0:0:0:0:
416,356,228981,1,0,0:0:0:0:
484,112,229138,5,0,0:0:0:0:
