osu file format v14

[General]
AudioFilename: audio.mp3
AudioLeadIn: 0
PreviewTime: 86840
Countdown: 0
SampleSet: Soft
StackLeniency: 0.7
Mode: 3
LetterboxInBreaks: 0
SpecialStyle: 0
WidescreenStoryboard: 1

[Editor]
DistanceSpacing: 1
BeatDivisor: 8
GridSize: 4
TimelineZoom: 2.1

[Metadata]
Title:Quon
TitleUnicode:Quon
Artist:Feryquitous
ArtistUnicode:Feryquitous
Creator:Phukiir
Version:NM
Source:Lanota
Tags:Arcaea Artcore tyrcs Noch Einen Noxy lowiro Video Game Instrumental
BeatmapID:2687028
BeatmapSetID:1295031

[Difficulty]
HPDrainRate:7.2
CircleSize:6
OverallDifficulty:7.2
ApproachRate:5
SliderMultiplier:1.4
SliderTickRate:1

[Events]
//Background and Video events
0,0,"bdAc7rH.jpg",0,0
//Break Periods
//Storyboard Layer 0 (Background)
//Storyboard Layer 1 (Fail)
//Storyboard Layer 2 (Pass)
//Storyboard Layer 3 (Foreground)
//Storyboard Layer 4 (Overlay)
//Storyboard Sound Samples
Sample,20967,0,"short F.wav",70

[TimingPoints]
650,317.460317460317,4,2,1,60,1,0
20967,-100,4,2,1,70,0,1
41284,-100,4,2,1,60,0,1
61602,-100,4,2,1,50,0,0
81919,-100,4,2,1,50,0,0
83189,-100,4,2,1,40,0,0
84459,-100,4,2,1,30,0,0
85729,-100,4,2,1,20,0,0
86999,-100,4,2,1,70,0,1
107316,-100,4,2,1,60,0,1
112396,-100,4,2,1,50,0,0
132713,-100,4,2,1,40,0,0
135253,-100,4,2,1,30,0,0
137792,-100,4,2,1,20,0,0

[HitObjects]
298,192,650,5,0,0:0:0:0:
128,192,967,1,0,0:0:0:0:
384,192,1284,1,0,0:0:0:0:
213,192,1602,1,0,0:0:0:0:
469,192,1919,1,0,0:0:0:0:
42,192,2237,1,0,0:0:0:0:
213,192,2554,1,0,0:0:0:0:
384,192,2713,1,0,0:0:0:0:
128,192,2872,1,0,0:0:0:0:
298,192,3030,1,0,0:0:0:0:
42,192,3189,1,0,0:0:0:0:
213,192,3507,1,0,0:0:0:0:
384,192,3824,1,0,0:0:0:0:
128,192,4142,1,0,0:0:0:0:
298,192,4459,1,0,0:0:0:0:
128,192,4776,1,0,0:0:0:0:
384,192,5094,1,0,0:0:0:0:
213,192,5253,1,0,0:0:0:0:
298,192,5411,1,0,0:0:0:0:
128,192,5570,1,0,0:0:0:0:
384,192,5729,1,0,0:0:0:0:
469,192,5729,1,0,0:0:0:0:
213,192,6046,1,0,0:0:0:0:
469,192,6205,1,0,0:0:0:0:
42,192,6364,1,0,0:0:0:0:
298,192,6681,1,0,0:0:0:0:
469,192,6681,1,0,0:0:0:0:
128,192,6999,1,0,0:0:0:0:
469,192,7157,1,0,0:0:0:0:
213,192,7316,1,0,0:0:0:0:
384,192,7634,1,0,0:0:0:0:
128,192,7792,1,0,0:0:0:0:
298,192,7951,1,0,0:0:0:0:
469,192,8110,1,0,0:0:0:0:
42,192,8269,1,0,0:0:0:0:
213,192,8269,1,0,0:0:0:0:
469,192,8586,1,0,0:0:0:0:
42,192,8745,1,0,0:0:0:0:
298,192,8903,1,0,0:0:0:0:
213,192,9221,1,0,0:0:0:0:
384,192,9538,1,0,0:0:0:0:
128,192,9856,128,0,10332:0:0:0:0:
213,192,10332,1,0,0:0:0:0:
469,192,10491,1,0,0:0:0:0:
298,192,10649,1,0,0:0:0:0:
128,192,10808,1,2,0:0:0:0:
128,192,10967,1,2,0:0:0:0:
298,192,11126,1,0,0:0:0:0:
469,192,11284,1,0,0:0:0:0:
42,192,11443,1,8,0:0:0:0:
213,192,11443,1,0,0:0:0:0:
469,192,11602,1,2,0:0:0:0:
298,192,11761,1,0,0:0:0:0:
128,192,11919,1,0,0:0:0:0:
384,192,12078,1,0,0:0:0:0:
213,192,12237,1,2,0:0:0:0:
469,192,12396,1,0,0:0:0:0:
42,192,12554,1,0,0:0:0:0:
298,192,12713,1,8,0:0:0:0:
469,192,12713,1,0,0:0:0:0:
128,192,12872,1,2,0:0:0:0:
384,192,13030,1,0,0:0:0:0:
213,192,13189,1,0,0:0:0:0:
298,192,13348,1,2,0:0:0:0:
298,192,13507,1,2,0:0:0:0:
128,192,13665,1,0,0:0:0:0:
384,192,13824,1,0,0:0:0:0:
42,192,13983,1,8,0:0:0:0:
213,192,13983,1,0,0:0:0:0:
469,192,14142,1,2,0:0:0:0:
298,192,14300,1,0,0:0:0:0:
128,192,14459,1,0,0:0:0:0:
384,192,14618,1,0,0:0:0:0:
213,192,14776,1,2,0:0:0:0:
298,192,14935,1,0,0:0:0:0:
469,192,15094,1,0,0:0:0:0:
42,192,15253,1,8,0:0:0:0:
128,192,15253,1,0,0:0:0:0:
384,192,15411,1,2,0:0:0:0:
213,192,15570,1,0,0:0:0:0:
42,192,15729,1,0,0:0:0:0:
384,192,15888,1,2,0:0:0:0:
384,192,16046,1,2,0:0:0:0:
213,192,16205,1,0,0:0:0:0:
469,192,16364,1,0,0:0:0:0:
42,192,16523,1,8,0:0:0:0:
128,192,16523,1,0,0:0:0:0:
469,192,16602,1,0,0:0:0:0:
298,192,16681,1,2,0:0:0:0:
42,192,16840,1,0,0:0:0:0:
469,192,16840,1,0,0:0:0:0:
213,192,16999,1,0,0:0:0:0:
384,192,17078,1,0,0:0:0:0:
128,192,17157,1,0,0:0:0:0:
469,192,17316,1,2,0:0:0:0:
213,192,17475,1,0,0:0:0:0:
298,192,17475,128,0,17792:0:0:0:0:
42,192,17792,1,8,0:0:0:0:
128,192,17792,1,0,0:0:0:0:
384,192,17951,1,2,0:0:0:0:
128,192,18030,1,0,0:0:0:0:
469,192,18110,1,0,0:0:0:0:
298,192,18269,1,0,0:0:0:0:
213,192,18427,1,2,0:0:0:0:
213,192,18586,1,2,0:0:0:0:
384,192,18745,1,0,0:0:0:0:
128,192,18903,1,0,0:0:0:0:
298,192,19062,1,8,0:0:0:0:
469,192,19062,1,0,0:0:0:0:
42,192,19221,1,2,0:0:0:0:
213,192,19380,1,0,0:0:0:0:
384,192,19538,1,0,0:0:0:0:
128,192,19697,1,2,0:0:0:0:
298,192,19856,1,0,0:0:0:0:
469,192,20015,1,0,0:0:0:0:
42,192,20173,1,0,0:0:0:0:
298,192,20332,1,0,0:0:0:0:
128,192,20491,1,0,0:0:0:0:
384,192,20649,128,0,20967:0:0:0:0:
42,192,20967,1,2,0:0:0:0:
42,192,21126,1,2,0:0:0:0:
298,192,21284,1,8,0:0:0:0:
469,192,21284,1,0,0:0:0:0:
213,192,21443,1,0,0:0:0:0:
128,192,21602,1,0,0:0:0:0:
42,192,21761,1,2,0:0:0:0:
298,192,21919,1,8,0:0:0:0:
469,192,21919,1,0,0:0:0:0:
213,192,22078,1,0,0:0:0:0:
42,192,22237,1,0,0:0:0:0:
128,192,22396,1,2,0:0:0:0:
298,192,22554,1,8,0:0:0:0:
469,192,22554,1,0,0:0:0:0:
42,192,22713,1,0,0:0:0:0:
128,192,22872,1,0,0:0:0:0:
213,192,23030,1,2,0:0:0:0:
298,192,23189,1,8,0:0:0:0:
469,192,23189,1,0,0:0:0:0:
128,192,23348,1,0,0:0:0:0:
384,192,23507,1,2,0:0:0:0:
384,192,23665,1,2,0:0:0:0:
42,192,23824,1,8,0:0:0:0:
213,192,23824,1,0,0:0:0:0:
298,192,23983,1,0,0:0:0:0:
384,192,24142,1,0,0:0:0:0:
469,192,24300,1,2,0:0:0:0:
42,192,24459,1,8,0:0:0:0:
213,192,24459,1,0,0:0:0:0:
298,192,24618,1,0,0:0:0:0:
469,192,24776,1,0,0:0:0:0:
384,192,24935,1,2,0:0:0:0:
42,192,25094,1,8,0:0:0:0:
213,192,25094,1,0,0:0:0:0:
469,192,25253,1,0,0:0:0:0:
384,192,25411,1,0,0:0:0:0:
298,192,25570,1,2,0:0:0:0:
42,192,25729,1,8,0:0:0:0:
213,192,25729,1,0,0:0:0:0:
128,192,26046,1,2,0:0:0:0:
128,192,26205,1,2,0:0:0:0:
298,192,26364,1,8,0:0:0:0:
469,192,26364,1,0,0:0:0:0:
42,192,26523,1,0,0:0:0:0:
128,192,26681,1,0,0:0:0:0:
213,192,26840,1,2,0:0:0:0:
298,192,26999,1,8,0:0:0:0:
469,192,26999,1,0,0:0:0:0:
213,192,27157,1,0,0:0:0:0:
42,192,27316,1,0,0:0:0:0:
128,192,27475,1,2,0:0:0:0:
298,192,27634,1,8,0:0:0:0:
469,192,27634,1,0,0:0:0:0:
213,192,27792,1,0,0:0:0:0:
128,192,27951,1,0,0:0:0:0:
42,192,28110,1,2,0:0:0:0:
298,192,28269,1,8,0:0:0:0:
469,192,28269,1,0,0:0:0:0:
128,192,28427,1,0,0:0:0:0:
384,192,28586,1,2,0:0:0:0:
384,192,28745,1,2,0:0:0:0:
42,192,28903,1,8,0:0:0:0:
213,192,28903,1,0,0:0:0:0:
469,192,29062,1,0,0:0:0:0:
384,192,29221,1,0,0:0:0:0:
298,192,29380,1,2,0:0:0:0:
42,192,29538,1,8,0:0:0:0:
213,192,29538,1,0,0:0:0:0:
298,192,29697,1,0,0:0:0:0:
469,192,29856,1,0,0:0:0:0:
384,192,30015,1,2,0:0:0:0:
42,192,30173,1,8,0:0:0:0:
213,192,30173,1,0,0:0:0:0:
298,192,30332,1,0,0:0:0:0:
384,192,30491,1,0,0:0:0:0:
469,192,30649,1,2,0:0:0:0:
42,192,30808,1,8,0:0:0:0:
213,192,30808,1,0,0:0:0:0:
42,192,31126,1,2,0:0:0:0:
298,192,31126,1,0,0:0:0:0:
128,192,31284,1,2,0:0:0:0:
384,192,31284,1,0,0:0:0:0:
213,192,31443,1,8,0:0:0:0:
469,192,31443,1,0,0:0:0:0:
384,192,31602,1,0,0:0:0:0:
298,192,31761,1,0,0:0:0:0:
213,192,31919,1,2,0:0:0:0:
42,192,32078,1,8,0:0:0:0:
298,192,32078,1,0,0:0:0:0:
384,192,32237,1,0,0:0:0:0:
469,192,32396,1,0,0:0:0:0:
128,192,32554,1,2,0:0:0:0:
384,192,32554,1,0,0:0:0:0:
42,192,32713,1,8,0:0:0:0:
298,192,32713,1,0,0:0:0:0:
213,192,32872,1,0,0:0:0:0:
469,192,33030,128,0,33348:0:0:0:0:
42,192,33189,1,2,0:0:0:0:
213,192,33348,128,8,33665:0:0:0:0:
384,192,33348,1,0,0:0:0:0:
42,192,33665,1,2,0:0:0:0:
298,192,33665,1,0,0:0:0:0:
128,192,33824,1,2,0:0:0:0:
384,192,33824,1,0,0:0:0:0:
213,192,33983,1,8,0:0:0:0:
469,192,33983,1,0,0:0:0:0:
128,192,34142,1,0,0:0:0:0:
42,192,34300,1,0,0:0:0:0:
213,192,34459,1,2,0:0:0:0:
384,192,34459,1,0,0:0:0:0:
128,192,34618,1,8,0:0:0:0:
298,192,34618,1,0,0:0:0:0:
384,192,34776,1,0,0:0:0:0:
469,192,34935,1,0,0:0:0:0:
42,192,35094,1,2,0:0:0:0:
298,192,35094,1,0,0:0:0:0:
128,192,35253,1,8,0:0:0:0:
384,192,35253,1,0,0:0:0:0:
213,192,35411,1,0,0:0:0:0:
42,192,35570,128,0,35888:0:0:0:0:
469,192,35729,1,2,0:0:0:0:
128,192,35888,1,8,0:0:0:0:
298,192,35888,128,0,36205:0:0:0:0:
213,192,36205,1,2,0:0:0:0:
469,192,36205,1,0,0:0:0:0:
128,192,36364,1,2,0:0:0:0:
384,192,36364,1,0,0:0:0:0:
42,192,36523,1,8,0:0:0:0:
298,192,36523,1,0,0:0:0:0:
128,192,36681,1,0,0:0:0:0:
213,192,36840,1,0,0:0:0:0:
298,192,36999,1,2,0:0:0:0:
128,192,37157,1,8,0:0:0:0:
384,192,37157,1,0,0:0:0:0:
213,192,37316,1,0,0:0:0:0:
298,192,37475,1,0,0:0:0:0:
128,192,37634,1,2,0:0:0:0:
384,192,37634,1,0,0:0:0:0:
213,192,37792,1,8,0:0:0:0:
469,192,37792,1,0,0:0:0:0:
298,192,37951,1,0,0:0:0:0:
42,192,38110,128,0,38427:0:0:0:0:
469,192,38269,1,2,0:0:0:0:
128,192,38427,1,8,0:0:0:0:
298,192,38427,128,0,38745:0:0:0:0:
213,192,38745,1,2,0:0:0:0:
469,192,38745,1,0,0:0:0:0:
128,192,38903,1,2,0:0:0:0:
384,192,38903,1,0,0:0:0:0:
42,192,39062,1,8,0:0:0:0:
298,192,39062,1,0,0:0:0:0:
384,192,39221,1,0,0:0:0:0:
469,192,39380,1,0,0:0:0:0:
42,192,39538,1,2,0:0:0:0:
298,192,39538,1,0,0:0:0:0:
128,192,39697,1,8,0:0:0:0:
384,192,39697,1,0,0:0:0:0:
213,192,39856,1,0,0:0:0:0:
298,192,40015,1,0,0:0:0:0:
213,192,40173,1,0,0:0:0:0:
469,192,40332,1,0,0:0:0:0:
128,192,40491,1,0,0:0:0:0:
384,192,40649,128,0,40967:0:0:0:0:
128,192,40967,128,0,41284:0:0:0:0:
298,192,41284,1,4,0:0:0:0:
469,192,41284,1,2,0:0:0:0:
298,192,41602,1,8,0:0:0:0:
469,192,41602,1,0,0:0:0:0:
42,192,41761,1,0,0:0:0:0:
213,192,41919,1,2,0:0:0:0:
384,192,41919,1,0,0:0:0:0:
213,192,42237,1,8,0:0:0:0:
384,192,42237,1,0,0:0:0:0:
128,192,42396,1,0,0:0:0:0:
298,192,42554,1,2,0:0:0:0:
469,192,42554,1,0,0:0:0:0:
128,192,42713,1,0,0:0:0:0:
298,192,42872,1,8,0:0:0:0:
469,192,42872,1,0,0:0:0:0:
42,192,43030,1,0,0:0:0:0:
213,192,43189,1,2,0:0:0:0:
384,192,43189,1,0,0:0:0:0:
42,192,43348,1,0,0:0:0:0:
213,192,43507,1,8,0:0:0:0:
384,192,43507,1,0,0:0:0:0:
298,192,43665,1,0,0:0:0:0:
42,192,43824,1,2,0:0:0:0:
213,192,43824,1,0,0:0:0:0:
384,192,43983,1,0,0:0:0:0:
42,192,44142,1,8,0:0:0:0:
213,192,44142,1,0,0:0:0:0:
384,192,44300,1,0,0:0:0:0:
128,192,44459,1,2,0:0:0:0:
298,192,44459,1,0,0:0:0:0:
128,192,44776,1,8,0:0:0:0:
298,192,44776,1,0,0:0:0:0:
469,192,44935,1,0,0:0:0:0:
42,192,45094,1,2,0:0:0:0:
213,192,45094,1,0,0:0:0:0:
469,192,45253,1,0,0:0:0:0:
42,192,45411,1,8,0:0:0:0:
213,192,45411,1,0,0:0:0:0:
384,192,45570,1,0,0:0:0:0:
128,192,45729,1,2,0:0:0:0:
298,192,45729,1,0,0:0:0:0:
469,192,45888,1,0,0:0:0:0:
128,192,46046,1,8,0:0:0:0:
298,192,46046,1,0,0:0:0:0:
213,192,46205,1,0,0:0:0:0:
298,192,46364,1,2,0:0:0:0:
469,192,46364,1,0,0:0:0:0:
298,192,46681,1,8,0:0:0:0:
469,192,46681,1,0,0:0:0:0:
42,192,46840,1,0,0:0:0:0:
213,192,46999,1,2,0:0:0:0:
384,192,46999,1,0,0:0:0:0:
213,192,47316,1,8,0:0:0:0:
384,192,47316,1,0,0:0:0:0:
42,192,47475,1,0,0:0:0:0:
298,192,47634,1,2,0:0:0:0:
469,192,47634,1,0,0:0:0:0:
128,192,47792,1,0,0:0:0:0:
298,192,47951,1,8,0:0:0:0:
469,192,47951,1,0,0:0:0:0:
42,192,48110,1,0,0:0:0:0:
213,192,48269,1,2,0:0:0:0:
384,192,48269,1,0,0:0:0:0:
42,192,48427,1,0,0:0:0:0:
213,192,48586,1,8,0:0:0:0:
384,192,48586,1,0,0:0:0:0:
298,192,48745,1,0,0:0:0:0:
42,192,48903,1,2,0:0:0:0:
213,192,48903,1,0,0:0:0:0:
42,192,49221,1,8,0:0:0:0:
213,192,49221,1,0,0:0:0:0:
469,192,49380,1,0,0:0:0:0:
128,192,49538,1,2,0:0:0:0:
298,192,49538,1,0,0:0:0:0:
128,192,49856,1,8,0:0:0:0:
298,192,49856,1,0,0:0:0:0:
384,192,50015,1,0,0:0:0:0:
42,192,50173,1,2,0:0:0:0:
213,192,50173,1,0,0:0:0:0:
469,192,50332,1,0,0:0:0:0:
128,192,50491,1,0,0:0:0:0:
298,192,50491,128,0,50808:0:0:0:0:
42,192,50808,1,8,0:0:0:0:
384,192,50967,128,8,51284:0:0:0:0:
469,192,50967,1,0,0:0:0:0:
213,192,51284,1,8,0:0:0:0:
42,192,51443,1,2,0:0:0:0:
298,192,51443,1,0,0:0:0:70:short F.wav
42,192,51761,1,8,0:0:0:0:
298,192,51761,1,0,0:0:0:0:
469,192,51919,1,0,0:0:0:0:
128,192,52078,1,2,0:0:0:0:
384,192,52078,1,0,0:0:0:0:
128,192,52396,1,8,0:0:0:0:
384,192,52396,1,0,0:0:0:0:
469,192,52554,1,0,0:0:0:0:
42,192,52713,1,2,0:0:0:0:
298,192,52713,1,0,0:0:0:0:
469,192,52872,1,0,0:0:0:0:
42,192,53030,1,8,0:0:0:0:
298,192,53030,1,0,0:0:0:0:
213,192,53189,1,0,0:0:0:0:
128,192,53348,1,2,0:0:0:0:
384,192,53348,1,0,0:0:0:0:
42,192,53507,1,0,0:0:0:0:
128,192,53665,1,8,0:0:0:0:
384,192,53665,1,0,0:0:0:0:
298,192,53824,1,0,0:0:0:0:
213,192,53983,1,2,0:0:0:0:
469,192,53983,1,0,0:0:0:0:
384,192,54142,1,0,0:0:0:0:
213,192,54300,1,8,0:0:0:0:
469,192,54300,1,0,0:0:0:0:
42,192,54459,1,0,0:0:0:0:
128,192,54618,1,2,0:0:0:0:
384,192,54618,1,0,0:0:0:0:
128,192,54935,1,8,0:0:0:0:
384,192,54935,1,0,0:0:0:0:
298,192,55094,1,0,0:0:0:0:
213,192,55253,1,2,0:0:0:0:
469,192,55253,1,0,0:0:0:0:
42,192,55411,1,0,0:0:0:0:
213,192,55570,1,8,0:0:0:0:
469,192,55570,128,0,55888:0:0:0:0:
128,192,55888,1,2,0:0:0:0:
384,192,55888,1,0,0:0:0:0:
213,192,56046,1,0,0:0:0:0:
128,192,56205,1,8,0:0:0:0:
384,192,56205,1,0,0:0:0:0:
469,192,56364,1,0,0:0:0:0:
42,192,56523,1,2,0:0:0:0:
298,192,56523,1,0,0:0:0:0:
213,192,56681,1,0,0:0:0:0:
42,192,56840,1,8,0:0:0:0:
298,192,56840,1,0,0:0:0:0:
469,192,56999,1,0,0:0:0:0:
128,192,57157,1,2,0:0:0:0:
384,192,57157,1,0,0:0:0:0:
128,192,57475,1,8,0:0:0:0:
384,192,57475,1,0,0:0:0:0:
213,192,57634,1,0,0:0:0:0:
42,192,57792,1,2,0:0:0:0:
298,192,57792,1,0,0:0:0:0:
469,192,57951,1,0,0:0:0:0:
42,192,58110,1,8,0:0:0:0:
298,192,58110,1,0,0:0:0:0:
128,192,58427,1,2,0:0:0:0:
384,192,58427,1,0,0:0:0:0:
213,192,58586,1,0,0:0:0:0:
128,192,58745,1,8,0:0:0:0:
384,192,58745,1,0,0:0:0:0:
42,192,58903,1,0,0:0:0:0:
213,192,59062,1,2,0:0:0:0:
469,192,59062,1,0,0:0:0:0:
298,192,59221,1,0,0:0:0:0:
213,192,59380,1,8,0:0:0:0:
469,192,59380,1,0,0:0:0:0:
42,192,59538,1,0,0:0:0:0:
128,192,59697,1,2,0:0:0:0:
384,192,59697,1,0,0:0:0:0:
128,192,60015,1,8,0:0:0:0:
384,192,60015,1,0,0:0:0:0:
298,192,60173,1,0,0:0:0:0:
42,192,60332,1,0,0:0:0:0:
469,192,60491,1,0,0:0:0:0:
213,192,60649,1,0,0:0:0:0:
384,192,60967,1,0,0:0:0:0:
298,192,61126,1,0,0:0:0:0:
213,192,61284,1,0,0:0:0:0:
128,192,61443,1,0,0:0:0:0:
42,192,61602,1,4,0:0:0:0:
384,192,61602,128,2,62078:0:0:0:0:
213,192,62078,128,0,62554:0:0:0:0:
469,192,62554,128,0,62713:0:0:0:0:
298,192,62713,128,0,62872:0:0:0:0:
128,192,62872,128,0,63348:0:0:0:0:
384,192,63348,128,0,63824:0:0:0:0:
213,192,63824,128,0,64142:0:0:0:0:
469,192,64142,128,2,64618:0:0:0:0:
42,192,64618,128,0,64935:0:0:0:0:
384,192,64935,128,2,65094:0:0:0:0:
298,192,65094,128,0,65253:0:0:0:0:
213,192,65253,128,0,65411:0:0:0:0:
469,192,65411,128,0,65888:0:0:0:0:
42,192,65888,128,0,66364:0:0:0:0:
298,192,66364,128,0,66681:0:0:0:0:
128,192,66681,128,2,66999:0:0:0:0:
213,192,66999,128,0,67157:0:0:0:0:
384,192,67157,128,0,67475:0:0:0:0:
42,192,67475,128,2,67634:0:0:0:0:
298,192,67634,128,0,67951:0:0:0:0:
469,192,67951,128,0,68427:0:0:0:0:
128,192,68427,128,0,68745:0:0:0:0:
213,192,68745,128,2,69221:0:0:0:0:
384,192,69221,128,2,69697:0:0:0:0:
42,192,69697,128,0,70173:0:0:0:0:
298,192,70173,128,0,70491:0:0:0:0:
128,192,70491,128,0,70649:0:0:0:0:
384,192,70649,128,2,70967:0:0:0:0:
42,192,70967,128,0,71443:0:0:0:0:
298,192,71443,1,0,0:0:0:0:
298,192,71602,1,0,0:0:0:0:
213,192,71761,1,2,0:0:0:0:
469,192,71761,1,0,0:0:0:70:short F.wav
213,192,72078,1,0,0:0:0:0:
128,192,72237,1,0,0:0:0:0:
384,192,72237,1,0,0:0:0:0:
42,192,72713,1,0,0:0:0:0:
128,192,72872,1,0,0:0:0:0:
213,192,73030,1,0,0:0:0:0:
469,192,73030,1,0,0:0:0:0:
298,192,73348,1,0,0:0:0:0:
128,192,73507,1,0,0:0:0:0:
384,192,73507,1,0,0:0:0:0:
213,192,73983,1,0,0:0:0:0:
42,192,74300,1,2,0:0:0:0:
384,192,74300,1,0,0:0:0:0:
298,192,74459,1,2,0:0:0:0:
128,192,74776,1,0,0:0:0:0:
469,192,74776,1,0,0:0:0:0:
298,192,75094,1,2,0:0:0:0:
213,192,75253,1,0,0:0:0:0:
298,192,75411,1,0,0:0:0:0:
42,192,75570,1,0,0:0:0:0:
384,192,75570,1,0,0:0:0:0:
42,192,76046,1,0,0:0:0:0:
298,192,76046,1,0,0:0:0:0:
469,192,76523,1,0,0:0:0:0:
42,192,76840,1,2,0:0:0:0:
213,192,76840,1,0,0:0:0:0:
213,192,77157,1,0,0:0:0:0:
384,192,77316,1,0,0:0:0:0:
469,192,77634,1,2,0:0:0:0:
42,192,78110,1,0,0:0:0:0:
298,192,78110,1,0,0:0:0:0:
128,192,78745,1,8,0:0:0:0:
384,192,79062,1,0,0:0:0:0:
128,192,79380,1,2,0:0:0:0:
469,192,79380,1,0,0:0:0:0:
128,192,79856,1,0,0:0:0:0:
384,192,79856,1,0,0:0:0:0:
42,192,80332,1,0,0:0:0:0:
298,192,80332,1,0,0:0:0:0:
213,192,81919,1,2,0:0:0:0:
469,192,81919,1,0,0:0:0:0:
42,192,83189,1,0,0:0:0:0:
298,192,83189,1,0,0:0:0:0:
213,192,84459,1,2,0:0:0:0:
469,192,84459,1,0,0:0:0:0:
42,192,85729,1,0,0:0:0:0:
298,192,85729,1,0,0:0:0:0:
298,192,85888,1,0,0:0:0:0:
213,192,86046,1,0,0:0:0:0:
213,192,86205,1,0,0:0:0:0:
384,192,86364,1,0,0:0:0:0:
128,192,86443,1,0,0:0:0:0:
384,192,86523,1,0,0:0:0:0:
128,192,86602,1,0,0:0:0:0:
298,192,86681,1,0,0:0:0:0:
213,192,86999,1,4,0:0:0:0:
469,192,86999,1,2,0:0:0:0:
42,192,87157,1,2,0:0:0:0:
298,192,87157,1,0,0:0:0:0:
128,192,87316,1,8,0:0:0:0:
384,192,87316,1,0,0:0:0:0:
213,192,87475,1,0,0:0:0:0:
298,192,87634,1,0,0:0:0:0:
128,192,87792,1,2,0:0:0:0:
384,192,87792,1,0,0:0:0:0:
42,192,87951,1,8,0:0:0:0:
298,192,87951,1,0,0:0:0:0:
213,192,88110,1,0,0:0:0:0:
298,192,88269,1,0,0:0:0:0:
384,192,88427,1,2,0:0:0:0:
213,192,88586,1,8,0:0:0:0:
469,192,88586,1,0,0:0:0:0:
128,192,88745,1,0,0:0:0:0:
42,192,88903,1,0,0:0:0:0:
128,192,89062,1,2,0:0:0:0:
384,192,89062,1,0,0:0:0:0:
213,192,89221,1,8,0:0:0:0:
469,192,89221,1,0,0:0:0:0:
298,192,89380,1,0,0:0:0:0:
384,192,89538,1,2,0:0:0:0:
213,192,89697,1,2,0:0:0:0:
469,192,89697,1,0,0:0:0:0:
42,192,89856,1,8,0:0:0:0:
298,192,89856,1,0,0:0:0:0:
128,192,90015,1,0,0:0:0:0:
213,192,90173,1,0,0:0:0:0:
128,192,90332,1,2,0:0:0:0:
384,192,90332,1,0,0:0:0:0:
42,192,90491,1,8,0:0:0:0:
298,192,90491,1,0,0:0:0:0:
213,192,90649,1,0,0:0:0:0:
384,192,90729,1,0,0:0:0:0:
128,192,90808,1,0,0:0:0:0:
469,192,90967,1,2,0:0:0:0:
42,192,91126,1,8,0:0:0:0:
384,192,91126,1,0,0:0:0:0:
298,192,91284,1,0,0:0:0:0:
42,192,91602,1,2,0:0:0:0:
298,192,91602,1,0,0:0:0:0:
213,192,91761,1,8,0:0:0:0:
469,192,91761,1,0,0:0:0:0:
298,192,91919,1,0,0:0:0:0:
128,192,92078,1,2,0:0:0:0:
384,192,92078,1,0,0:0:0:0:
213,192,92237,1,2,0:0:0:0:
469,192,92237,1,0,0:0:0:0:
42,192,92396,1,8,0:0:0:0:
298,192,92396,1,0,0:0:0:0:
128,192,92554,1,0,0:0:0:0:
213,192,92713,1,0,0:0:0:0:
128,192,92872,1,2,0:0:0:0:
384,192,92872,1,0,0:0:0:0:
42,192,93030,1,8,0:0:0:0:
298,192,93030,1,0,0:0:0:0:
213,192,93189,1,0,0:0:0:0:
298,192,93348,1,0,0:0:0:0:
42,192,93507,1,2,0:0:0:0:
384,192,93507,1,0,0:0:0:0:
128,192,93665,1,8,0:0:0:0:
469,192,93665,1,0,0:0:0:0:
213,192,93824,1,0,0:0:0:0:
384,192,93983,1,0,0:0:0:0:
42,192,94142,1,2,0:0:0:0:
298,192,94142,1,0,0:0:0:0:
213,192,94300,1,8,0:0:0:0:
469,192,94300,1,0,0:0:0:0:
384,192,94459,1,0,0:0:0:0:
42,192,94618,1,2,0:0:0:0:
298,192,94618,1,0,0:0:0:0:
128,192,94776,1,2,0:0:0:0:
384,192,94776,1,0,0:0:0:0:
213,192,94935,1,8,0:0:0:0:
469,192,94935,1,0,0:0:0:0:
298,192,95094,1,0,0:0:0:0:
213,192,95253,1,0,0:0:0:0:
128,192,95411,1,2,0:0:0:0:
469,192,95411,1,0,0:0:0:0:
42,192,95570,1,8,0:0:0:0:
384,192,95570,1,0,0:0:0:0:
298,192,95729,1,0,0:0:0:0:
128,192,95808,1,0,0:0:0:0:
384,192,95888,1,0,0:0:0:0:
213,192,96046,1,2,0:0:0:0:
469,192,96046,1,0,0:0:0:0:
128,192,96205,1,8,0:0:0:0:
384,192,96205,1,0,0:0:0:0:
42,192,96364,1,0,0:0:0:0:
42,192,96681,1,2,0:0:0:0:
298,192,96681,1,0,0:0:0:0:
213,192,96840,1,8,0:0:0:0:
469,192,96840,1,0,0:0:0:0:
128,192,96999,1,0,0:0:0:0:
213,192,97157,1,2,0:0:0:0:
469,192,97157,1,0,0:0:0:0:
42,192,97316,1,2,0:0:0:0:
298,192,97316,1,0,0:0:0:0:
128,192,97475,1,8,0:0:0:0:
213,192,97634,1,0,0:0:0:0:
298,192,97792,1,0,0:0:0:0:
128,192,97951,1,2,0:0:0:0:
384,192,97951,1,0,0:0:0:0:
213,192,98110,1,8,0:0:0:0:
469,192,98110,1,0,0:0:0:0:
298,192,98269,1,0,0:0:0:0:
298,192,98586,1,2,0:0:0:0:
213,192,98745,1,8,0:0:0:0:
469,192,98745,1,0,0:0:0:0:
384,192,98903,1,0,0:0:0:0:
298,192,99062,1,0,0:0:0:0:
42,192,99221,1,2,0:0:0:0:
384,192,99221,1,0,0:0:0:0:
128,192,99380,1,8,0:0:0:0:
469,192,99380,1,0,0:0:0:0:
213,192,99538,1,0,0:0:0:0:
42,192,99697,1,2,0:0:0:0:
298,192,99697,1,0,0:0:0:0:
213,192,99856,1,2,0:0:0:0:
469,192,99856,1,0,0:0:0:0:
384,192,100015,1,8,0:0:0:0:
298,192,100173,1,0,0:0:0:0:
42,192,100491,1,2,0:0:0:0:
298,192,100491,1,0,0:0:0:0:
128,192,100649,1,8,0:0:0:0:
384,192,100649,1,0,0:0:0:0:
213,192,100808,1,0,0:0:0:0:
213,192,101126,1,2,0:0:0:0:
42,192,101284,1,8,0:0:0:0:
298,192,101284,1,0,0:0:0:0:
384,192,101443,1,0,0:0:0:0:
298,192,101602,1,0,0:0:0:0:
213,192,101761,1,2,0:0:0:0:
469,192,101761,1,0,0:0:0:0:
128,192,101919,1,8,0:0:0:0:
384,192,101919,1,0,0:0:0:0:
298,192,102078,1,0,0:0:0:0:
213,192,102237,1,2,0:0:0:0:
469,192,102237,1,0,0:0:0:0:
42,192,102396,1,2,0:0:0:0:
298,192,102396,1,0,0:0:0:0:
128,192,102554,1,8,0:0:0:0:
384,192,102554,1,0,0:0:0:0:
213,192,102713,1,0,0:0:0:0:
298,192,102872,1,0,0:0:0:0:
128,192,103030,1,2,0:0:0:0:
384,192,103030,1,0,0:0:0:0:
213,192,103189,1,8,0:0:0:0:
469,192,103189,1,0,0:0:0:0:
128,192,103348,1,0,0:0:0:0:
42,192,103507,128,2,104142:0:0:0:0:
384,192,103507,1,0,0:0:0:0:
298,192,103665,1,0,0:0:0:0:
213,192,103983,1,0,0:0:0:0:
469,192,104142,1,2,0:0:0:0:
298,192,104221,1,8,0:0:0:0:
128,192,104300,1,8,0:0:0:0:
384,192,104459,1,0,0:0:0:0:
213,192,104618,1,8,0:0:0:0:
42,192,104776,1,2,0:0:0:0:
298,192,104776,128,0,105253:0:0:0:70:short F.wav
128,192,105253,1,2,0:0:0:0:
384,192,105253,128,0,105729:0:0:0:70:short F.wav
213,192,105729,1,8,0:0:0:0:
469,192,105729,128,4,106681:0:0:0:0:
42,192,106523,1,0,0:0:0:0:
298,192,106681,1,0,0:0:0:0:
128,192,106840,1,0,0:0:0:0:
384,192,106999,1,0,0:0:0:0:
213,192,107157,1,0,0:0:0:0:
298,192,107316,1,2,0:0:0:0:
298,192,107475,1,2,0:0:0:0:
42,192,107951,1,8,0:0:0:0:
213,192,107951,1,0,0:0:0:0:
384,192,108110,1,2,0:0:0:0:
128,192,108586,1,0,0:0:0:0:
384,192,108745,1,2,0:0:0:0:
298,192,109221,1,8,0:0:0:0:
469,192,109221,1,0,0:0:0:0:
128,192,109380,1,2,0:0:0:0:
128,192,109856,1,2,0:0:0:0:
128,192,110015,1,2,0:0:0:0:
42,192,110491,1,8,0:0:0:0:
213,192,110491,1,0,0:0:0:0:
384,192,110649,1,2,0:0:0:0:
128,192,111126,1,0,0:0:0:0:
384,192,111284,1,2,0:0:0:0:
298,192,111761,1,8,0:0:0:0:
469,192,111761,1,0,0:0:0:0:
128,192,111919,1,2,0:0:0:0:
42,192,112396,1,2,0:0:0:0:
384,192,112396,1,4,0:0:0:0:
298,192,112713,1,0,0:0:0:0:
213,192,112872,1,0,0:0:0:0:
469,192,112872,1,0,0:0:0:0:
42,192,113348,1,0,0:0:0:0:
128,192,113507,1,0,0:0:0:0:
213,192,113665,1,0,0:0:0:0:
469,192,113665,1,0,0:0:0:0:
384,192,113824,1,0,0:0:0:0:
298,192,113983,1,0,0:0:0:0:
128,192,114142,1,0,0:0:0:0:
469,192,114142,1,0,0:0:0:0:
213,192,114618,1,0,0:0:0:0:
42,192,114935,1,0,0:0:0:0:
384,192,114935,1,0,0:0:0:0:
298,192,115094,1,0,0:0:0:0:
128,192,115411,1,0,0:0:0:0:
469,192,115411,1,0,0:0:0:0:
213,192,115729,1,0,0:0:0:0:
298,192,115888,1,0,0:0:0:0:
213,192,116046,1,0,0:0:0:0:
128,192,116205,1,0,0:0:0:0:
469,192,116205,1,0,0:0:0:0:
298,192,116364,1,0,0:0:0:0:
42,192,116681,1,0,0:0:0:0:
384,192,116681,1,0,0:0:0:0:
213,192,117157,1,0,0:0:0:0:
128,192,117475,1,0,0:0:0:0:
469,192,117475,1,0,0:0:0:0:
298,192,117792,1,0,0:0:0:0:
469,192,117951,1,0,0:0:0:0:
128,192,118269,1,0,0:0:0:0:
384,192,118427,1,0,0:0:0:0:
42,192,118745,1,0,0:0:0:0:
298,192,118745,1,0,0:0:0:0:
213,192,119221,1,0,0:0:0:0:
298,192,119538,1,0,0:0:0:0:
469,192,119538,1,0,0:0:0:0:
42,192,120015,1,0,0:0:0:0:
384,192,120015,1,0,0:0:0:0:
298,192,120332,1,0,0:0:0:0:
128,192,120491,1,0,0:0:0:0:
384,192,120491,1,0,0:0:0:0:
298,192,120808,1,0,0:0:0:0:
213,192,120967,1,0,0:0:0:0:
469,192,120967,1,0,0:0:0:0:
128,192,121284,1,0,0:0:0:0:
42,192,121443,1,0,0:0:0:0:
298,192,121443,1,0,0:0:0:0:
213,192,121761,1,0,0:0:0:0:
469,192,121761,1,0,0:0:0:0:
298,192,122078,1,0,0:0:0:0:
42,192,122237,1,0,0:0:0:0:
384,192,122237,1,0,0:0:0:0:
213,192,122554,1,0,0:0:0:0:
469,192,122554,1,0,0:0:0:0:
384,192,122872,1,0,0:0:0:0:
42,192,123030,1,0,0:0:0:0:
298,192,123030,1,0,0:0:0:0:
213,192,123348,1,0,0:0:0:0:
298,192,123507,1,0,0:0:0:0:
384,192,123665,1,0,0:0:0:0:
42,192,123824,1,0,0:0:0:0:
469,192,123824,1,0,0:0:0:0:
128,192,123983,1,0,0:0:0:0:
213,192,124142,1,0,0:0:0:0:
42,192,124300,1,0,0:0:0:0:
384,192,124300,1,0,0:0:0:0:
213,192,124776,1,0,0:0:0:0:
42,192,125094,1,0,0:0:0:0:
384,192,125094,1,0,0:0:0:0:
298,192,125253,1,0,0:0:0:0:
128,192,125570,1,0,0:0:0:0:
469,192,125570,1,0,0:0:0:0:
42,192,125888,1,0,0:0:0:0:
128,192,126046,1,0,0:0:0:0:
213,192,126205,1,0,0:0:0:0:
42,192,126364,1,0,0:0:0:0:
298,192,126364,1,0,0:0:0:0:
469,192,126523,1,0,0:0:0:0:
213,192,126602,1,0,0:0:0:0:
298,192,126681,1,0,0:0:0:0:
128,192,126840,1,0,0:0:0:0:
384,192,126840,1,0,0:0:0:0:
42,192,127316,1,0,0:0:0:0:
298,192,127316,1,0,0:0:0:0:
213,192,127634,1,0,0:0:0:0:
384,192,127634,1,0,0:0:0:0:
298,192,127951,1,0,0:0:0:0:
469,192,128110,1,0,0:0:0:0:
213,192,128427,1,0,0:0:0:0:
42,192,128903,1,0,0:0:0:0:
384,192,128903,1,0,0:0:0:0:
213,192,129538,1,0,0:0:0:0:
469,192,129856,1,0,0:0:0:0:
42,192,130173,1,0,0:0:0:0:
384,192,130173,1,0,0:0:0:0:
128,192,130649,1,0,0:0:0:0:
384,192,130649,1,0,0:0:0:0:
213,192,131126,1,0,0:0:0:0:
469,192,131126,1,0,0:0:0:0:
42,192,132713,1,0,0:0:0:0:
298,192,132713,1,0,0:0:0:0:
213,192,133983,1,0,0:0:0:0:
469,192,133983,1,0,0:0:0:0:
42,192,135253,1,0,0:0:0:0:
298,192,135253,1,0,0:0:0:0:
213,192,136523,1,0,0:0:0:0:
469,192,136523,1,0,0:0:0:0:
42,192,137792,128,0,141602:0:0:0:0:
469,192,137792,1,0,0:0:0:0:
