osu file format v14

[General]
AudioFilename: audio.mp3
AudioLeadIn: 0
PreviewTime: 142871
Countdown: 0
SampleSet: Soft
StackLeniency: 0.7
Mode: 0
LetterboxInBreaks: 0
WidescreenStoryboard: 1

[Editor]
Bookmarks: 254,20358,41719,61824,81929,102034,122138,143500,163604,183709,203814
DistanceSpacing: 0.4
BeatDivisor: 8
GridSize: 32
TimelineZoom: 2.1

[Metadata]
Title:Ordirehv
TitleUnicode:Ordirehv
Artist:Feryquitous
ArtistUnicode:Feryquitous
Creator:JeZag
Version:Normal
Source:
Tags:freedom ep diverse system c95 artcore dnb drum and bass electronic instrumental nanashima asami captin1
BeatmapID:2154181
BeatmapSetID:935602

[Difficulty]
HPDrainRate:4
CircleSize:3.5
OverallDifficulty:5
ApproachRate:5
SliderMultiplier:0.999999999999999
SliderTickRate:1

[Events]
//Background and Video events
0,0,"67101372_p0.jpg",0,0
//Break Periods
2,62024,70677
2,102234,110572
//Storyboard Layer 0 (Background)
//Storyboard Layer 1 (Fail)
//Storyboard Layer 2 (Pass)
//Storyboard Layer 3 (Foreground)
//Storyboard Layer 4 (Overlay)
//Storyboard Sound Samples

[TimingPoints]
254,314.13612565445,4,2,1,50,1,0
20044,-111.111111111111,4,2,1,50,0,0
41719,-100,4,2,1,70,0,0
61824,-111.111111111111,4,2,1,50,0,0
81929,-100,4,2,1,70,0,0
111772,-111.111111111111,4,2,1,50,0,0
122138,-100,4,2,3,70,0,0
143500,-100,4,2,2,80,0,1
153552,-100,4,2,2,80,0,0
156065,-100,4,2,2,80,0,1
162976,-100,4,2,2,80,0,0
163604,-100,4,2,2,80,0,1
173657,-100,4,2,2,70,0,0

[Colours]
Combo1 : 233,78,241
Combo2 : 227,227,227
Combo3 : 163,163,163
Combo4 : 236,155,207
Combo5 : 255,208,157
Combo6 : 150,160,237
Combo7 : 173,140,234
Combo8 : 248,97,101

[HitObjects]
107,82,20044,5,0,0:2:0:0:
49,151,20358,2,0,B|91:176|91:176|207:154,1,134.999995880127,2|0,0:2|0:2,0:2:0:0:
251,48,21301,2,0,L|398:61,1,134.999995880127,2|0,0:2|0:2,0:2:0:0:
430,63,21929,1,0,0:2:0:0:
489,232,22557,5,2,0:2:0:0:
450,313,22871,2,0,P|406:322|363:311,1,89.999997253418,2|0,0:2|0:2,0:2:0:0:
332,278,23343,1,0,0:2:0:0:
217,206,23814,2,0,P|173:197|130:208,1,89.999997253418,2|0,0:2|0:2,0:2:0:0:
100,241,24285,1,0,0:2:0:0:
14,75,25070,101,2,0:2:0:0:
82,16,25384,2,0,P|99:48|87:121,1,89.999997253418,2|0,0:2|0:2,0:2:0:0:
73,138,25856,1,0,0:2:0:0:
9,257,26327,1,2,0:2:0:0:
9,257,26484,2,0,P|56:245|143:266,1,134.999995880127,0|0,0:2|0:2,0:2:0:0:
223,104,27583,5,2,0:2:0:0:
167,174,27897,2,0,P|225:192|318:168,1,134.999995880127,2|0,0:2|0:2,0:2:0:0:
354,58,28840,2,0,B|344:124|403:119|382:220,1,134.999995880127,2|0,0:2|0:2,0:2:0:0:
377,230,29468,1,0,0:2:0:0:
234,331,30096,102,0,L|159:327,1,44.999998626709,2|0,0:2|0:2,0:2:0:0:
144,320,30411,2,0,P|114:275|118:226,1,89.999997253418,2|0,0:2|0:2,0:2:0:0:
135,201,30882,1,0,0:2:0:0:
221,175,31196,1,0,0:2:0:0:
221,175,31353,2,0,L|373:184,1,134.999995880127,2|0,0:2|0:2,0:2:0:0:
400,184,31981,1,0,0:2:0:0:
483,150,32295,5,0,0:2:0:0:
476,240,32610,1,2,0:2:0:0:
392,272,32924,2,0,P|338:276|295:255,1,89.999997253418,2|0,0:2|0:2,0:2:0:0:
264,279,33395,1,0,0:2:0:0:
179,310,33709,1,0,0:2:0:0:
179,310,33866,2,0,L|189:158,1,134.999995880127,2|0,0:2|0:2,0:2:0:0:
140,48,34808,101,0,0:2:0:0:
68,103,35123,2,0,L|74:157,1,44.999998626709,2|0,0:2|0:2,0:2:0:0:
42,179,35437,2,0,P|96:198|174:172,1,134.999995880127,2|0,0:2|0:2,0:2:0:0:
262,79,36379,1,2,0:2:0:0:
262,79,36536,2,0,B|333:62|338:130|426:98,1,134.999995880127,0|0,0:2|0:2,0:2:0:0:
431,88,37164,1,0,0:2:0:0:
510,130,37479,5,0,0:2:0:0:
510,130,37636,1,2,0:2:0:0:
447,194,37950,2,0,P|434:256|454:319,1,89.999997253418,2|0,0:2|0:2,0:2:0:0:
400,307,38421,2,0,L|391:379,2,44.999998626709,0|0|0,0:2|0:2|0:2,0:2:0:0:
361,284,38892,2,0,P|281:267|195:285,1,134.999995880127,2|0,0:2|0:2,0:2:0:0:
228,273,41719,38,0,P|244:202|222:161,1,99.9999999999999,4|8,3:2|0:2,0:2:0:0:
156,116,42348,2,0,L|96:134,1,50,0|0,0:2|3:2,0:2:0:0:
61,112,42662,2,0,P|45:183|67:224,1,99.9999999999999,8|0,0:2|3:2,0:2:0:0:
39,304,43290,5,8,0:2:0:0:
39,304,43447,2,0,P|110:281|160:299,1,99.9999999999999,0|0,3:2|0:2,0:2:0:0:
170,318,43918,2,0,P|202:308|249:313,1,50,10|2,0:2|0:2,0:2:0:0:
263,329,44233,102,0,L|393:328,1,99.9999999999999,2|8,3:2|0:2,0:2:0:0:
462,327,44861,2,0,L|470:268,1,50,2|2,0:2|3:2,0:2:0:0:
427,249,45175,2,0,L|415:125,1,99.9999999999999,10|0,0:2|3:2,0:2:0:0:
325,109,45803,5,8,0:2:0:0:
325,109,45960,2,0,L|315:214,1,99.9999999999999,0|0,3:2|3:2,0:2:0:0:
273,236,46432,1,8,0:2:0:0:
177,266,46746,102,0,P|135:219|158:118,1,150,2|2,3:2|0:2,0:2:0:0:
132,37,47531,1,0,3:2:0:0:
132,37,47688,2,0,L|259:47,1,99.9999999999999,10|0,0:2|3:2,0:2:0:0:
316,97,48316,5,10,0:2:0:0:
316,97,48473,1,2,3:2:0:0:
399,40,48788,1,2,3:2:0:0:
399,40,48945,1,10,0:2:0:0:
485,90,49259,102,0,P|498:145|477:217,1,99.9999999999999,0|8,3:2|0:2,0:2:0:0:
458,224,49730,1,0,0:2:0:0:
359,240,50044,1,0,3:2:0:0:
359,240,50201,2,0,P|346:185|367:113,1,99.9999999999999,8|0,0:2|3:2,0:2:0:0:
322,102,50672,5,2,0:2:0:0:
222,99,50986,1,2,3:2:0:0:
121,99,51301,1,0,3:2:0:0:
121,99,51458,1,8,0:2:0:0:
179,180,51772,102,0,P|192:235|171:307,1,99.9999999999999,0|8,3:2|0:2,0:2:0:0:
113,346,52400,2,0,L|47:330,1,50,0|0,0:2|3:2,0:2:0:0:
34,294,52714,2,0,P|21:239|42:167,1,99.9999999999999,8|0,0:2|3:2,0:2:0:0:
15,97,53343,5,8,0:2:0:0:
108,131,53657,2,0,L|170:117,1,50,2|2,0:2|0:2,0:2:0:0:
180,76,53971,2,0,L|242:90,1,50,10|2,0:2|0:2,0:2:0:0:
266,120,54285,102,0,L|396:102,1,99.9999999999999,2|8,3:2|0:2,0:2:0:0:
462,83,54913,2,0,L|462:145,1,50,2|2,0:2|3:2,0:2:0:0:
501,163,55227,2,0,P|504:221|481:270,1,99.9999999999999,10|0,0:2|3:2,0:2:0:0:
399,305,55856,5,8,0:2:0:0:
322,240,56170,1,2,0:2:0:0:
322,240,56327,2,0,P|263:217|209:233,1,99.9999999999999,2|0,3:2|0:2,0:2:0:0:
192,258,56798,102,0,P|114:305|74:291,1,99.9999999999999,2|8,3:2|0:2,0:2:0:0:
61,295,57269,2,0,B|39:269|39:269|37:166,1,99.9999999999999,2|0,0:2|3:2,0:2:0:0:
57,164,57740,1,10,0:2:0:0:
35,66,58055,5,0,3:2:0:0:
35,66,58212,2,0,L|146:70,1,99.9999999999999,2|0,0:2|3:2,0:2:0:0:
227,30,58840,1,2,3:2:0:0:
227,30,58997,1,10,0:2:0:0:
223,129,59311,102,0,L|216:230,1,99.9999999999999,0|8,3:2|0:2,0:2:0:0:
210,278,59782,1,0,0:2:0:0:
288,339,60096,1,2,3:2:0:0:
288,339,60253,2,0,P|321:290|309:218,1,99.9999999999999,10|0,0:2|3:2,0:2:0:0:
344,205,60725,5,2,0:2:0:0:
423,144,61039,1,2,0:2:0:0:
507,196,61353,1,0,0:2:0:0:
427,238,61667,1,0,0:2:0:0:
427,238,61824,101,4,0:2:0:0:
164,146,71877,54,0,L|273:139,1,89.999997253418,2|2,0:2|0:2,0:2:0:0:
324,84,72505,1,8,3:3:0:0:
406,92,72819,1,2,0:2:0:0:
443,173,73133,2,0,L|432:300,1,89.999997253418,2|0,0:2|0:2,0:2:0:0:
373,327,73761,2,0,P|313:329|263:304,1,89.999997253418,2|0,0:2|0:2,0:2:0:0:
228,249,74390,6,0,P|163:224|56:257,1,179.999994506836,2|0,0:2|0:2,0:2:0:0:
16,245,75175,1,8,0:3:0:0:
67,120,75646,2,0,L|219:102,1,134.999995880127,2|0,0:2|0:2,0:2:0:0:
242,87,76274,2,0,P|259:54|268:25,2,44.999998626709,0|0|0,0:2|0:2|0:2,0:2:0:0:
265,174,76903,102,0,P|323:202|436:133,1,179.999994506836,2|0,0:2|0:2,0:2:0:0:
496,106,77845,2,0,P|420:62|338:90,1,179.999994506836,2|0,0:2|0:2,0:2:0:0:
247,87,78788,2,0,L|176:78,2,44.999998626709,2|0|0,0:2|0:2|0:2,0:2:0:0:
294,163,79416,5,2,0:2:0:0:
204,168,79730,2,0,L|133:159,1,44.999998626709,0|0,0:2|0:2,0:2:0:0:
115,159,80044,2,0,L|108:209,1,44.999998626709,0|0,0:2|0:2,0:2:0:0:
235,258,80672,101,0,0:2:0:0:
324,246,80986,1,0,0:2:0:0:
411,236,81301,2,0,L|482:227,1,44.999998626709,0|0,0:2|0:2,0:2:0:0:
500,227,81615,2,0,L|507:277,1,44.999998626709,0|0,0:2|0:2,0:2:0:0:
509,315,81929,22,0,L|375:333,1,99.9999999999999,4|8,3:2|0:2,0:2:0:0:
321,374,82557,2,0,L|256:363,2,50,0|0|8,3:2|0:2|0:2,0:2:0:0:
342,276,83185,6,0,L|342:222,1,50,0|0,3:2|0:2,0:2:0:0:
306,190,83500,2,0,L|306:136,1,50,8|0,0:2|0:2,0:2:0:0:
278,98,83814,1,0,3:2:0:0:
187,141,84128,1,8,0:2:0:0:
100,90,84442,102,0,L|110:224,1,99.9999999999999,0|8,3:2|0:2,0:2:0:0:
78,230,84913,1,0,0:2:0:0:
48,270,85070,2,0,L|42:335,2,50,0|0|8,3:2|0:2|0:2,0:2:0:0:
141,290,85699,6,0,P|178:296|199:291,1,50,0|0,3:2|0:2,0:2:0:0:
239,285,86013,2,0,P|261:274|279:257,1,50,8|0,0:2|0:2,0:2:0:0:
304,214,86327,2,0,L|299:164,2,50,0|0|8,3:2|0:2|0:2,0:2:0:0:
363,294,86955,102,0,P|419:308|476:272,1,99.9999999999999,0|8,3:2|0:2,0:2:0:0:
499,267,87426,1,0,0:2:0:0:
508,217,87583,2,0,L|512:167,2,50,0|0|8,3:2|0:2|0:2,0:2:0:0:
407,211,88212,6,0,L|322:201,1,50,0|0,3:2|0:2,0:2:0:0:
322,168,88526,2,0,L|272:173,1,50,8|0,0:2|0:2,0:2:0:0:
234,205,88840,1,0,3:2:0:0:
170,127,89154,1,8,0:2:0:0:
235,51,89468,102,0,P|289:39|347:53,1,99.9999999999999,0|8,3:2|0:2,0:2:0:0:
377,67,89939,1,0,0:2:0:0:
405,108,90096,2,0,L|406:173,2,50,0|0|8,3:2|0:2|0:2,0:2:0:0:
312,145,90725,6,0,L|311:210,2,50,0|0|8,0:2|0:2|0:2,0:2:0:0:
215,171,91353,1,0,3:2:0:0:
133,113,91667,1,8,0:2:0:0:
49,168,91981,1,2,0:1:0:0:
49,168,92924,101,12,0:2:0:0:
10,260,93238,2,0,L|58:276,1,50,0|0,3:2|0:2,0:2:0:0:
77,322,93552,2,0,L|125:303,1,50,8|0,0:2|0:2,0:2:0:0:
173,305,93866,2,0,L|198:259,2,50,0|0|8,3:2|0:2|0:2,0:2:0:0:
269,332,94494,6,0,P|325:311|405:328,1,99.9999999999999,0|8,3:2|0:2,0:2:0:0:
410,292,94966,1,0,0:2:0:0:
457,307,95123,2,0,L|516:313,2,50,0|0|8,3:2|0:2|0:2,0:2:0:0:
436,209,95751,102,0,L|434:158,1,50,0|0,3:2|0:2,0:2:0:0:
397,125,96065,2,0,L|395:74,1,50,8|0,0:2|0:2,0:2:0:0:
354,45,96379,2,0,P|315:34|280:38,2,50,0|0|8,3:2|0:2|0:2,0:2:0:0:
304,131,97007,6,0,P|241:142|175:120,1,99.9999999999999,0|8,3:2|0:2,0:2:0:0:
174,95,97479,1,0,0:2:0:0:
124,86,97636,2,0,L|50:92,2,50,0|0|8,3:2|0:2|0:2,0:2:0:0:
122,185,98264,102,0,L|131:252,1,50,0|0,0:2|0:2,0:2:0:0:
163,270,98578,2,0,L|212:276,1,50,8|0,0:2|0:2,0:2:0:0:
255,302,98892,1,0,3:2:0:0:
326,232,99206,1,8,0:2:0:0:
389,309,99521,6,0,B|427:322|427:322|493:306,1,99.9999999999999,0|8,3:2|0:2,0:2:0:0:
504,261,99992,1,0,0:2:0:0:
504,261,100149,2,0,L|491:177,1,50,0|0,3:2|0:2,0:2:0:0:
502,162,100463,1,8,0:2:0:0:
410,120,100777,102,0,L|308:122,1,99.9999999999999,0|0,3:2|0:2,0:2:0:0:
266,97,101248,1,0,0:2:0:0:
266,97,101405,2,0,L|180:100,1,50,0|0,0:2|0:2,0:2:0:0:
181,134,101719,2,0,L|95:137,1,50,0|0,0:2|0:2,0:2:0:0:
85,114,102034,5,4,0:2:0:0:
197,143,111772,69,2,0:2:0:0:
277,202,112086,2,0,L|367:194,1,89.999997253418,2|0,0:2|0:2,0:2:0:0:
411,188,112557,1,2,0:2:0:0:
361,313,113028,2,0,P|294:322|229:304,1,134.999995880127,2|0,0:2|0:2,0:2:0:0:
195,274,113657,1,0,0:2:0:0:
40,365,114285,5,2,0:2:0:0:
98,296,114599,2,0,P|110:250|94:182,1,89.999997253418,2|0,0:2|0:2,0:2:0:0:
81,169,115070,1,2,0:2:0:0:
21,47,115541,2,0,B|75:67|75:67|170:41,1,134.999995880127,2|0,0:2|0:2,0:2:0:0:
336,69,116798,101,2,0:2:0:0:
381,146,117112,2,0,P|314:164|247:152,1,134.999995880127,2|0,0:2|0:2,0:2:0:0:
196,277,118055,1,2,0:2:0:0:
196,277,118212,2,0,P|261:254|344:271,1,134.999995880127,0|0,0:2|0:2,0:2:0:0:
489,335,119311,5,2,0:2:0:0:
422,274,119625,2,0,P|412:219|446:135,1,134.999995880127,2|0,0:2|0:2,0:2:0:0:
489,21,120568,102,0,L|368:30,1,89.999997253418,2|0,0:2|0:2,0:2:0:0:
367,59,121039,1,0,0:2:0:0:
333,89,121196,2,0,L|258:73,1,44.999998626709,0|0,0:2|0:2,0:2:0:0:
207,41,121667,1,0,0:2:0:0:
207,41,121824,2,0,L|147:58,1,44.999998626709,0|0,0:2|0:2,0:2:0:0:
116,35,122138,86,0,P|97:109|121:158,1,99.9999999999999,0|8,3:2|0:2,0:2:0:0:
182,190,122767,2,0,L|275:183,2,74.9999999999999,8|8|8,0:2|0:2|0:2,0:2:0:0:
145,224,123395,6,0,P|136:272|175:326,1,99.9999999999999,0|8,2:2|0:2,0:2:0:0:
258,302,124023,1,0,3:2:0:0:
258,302,124180,1,8,2:2:0:0:
351,338,124494,1,0,0:2:0:0:
351,338,124651,102,0,L|360:228,1,99.9999999999999,0|8,3:2|0:2,0:2:0:0:
400,209,125123,1,0,0:2:0:0:
425,165,125280,2,0,L|413:73,2,74.9999999999999,8|8|8,0:2|0:2|0:2,0:2:0:0:
504,225,126065,5,0,3:2:0:0:
504,225,126222,2,0,P|515:277|490:334,1,99.9999999999999,8|0,0:2|3:2,0:2:0:0:
457,345,126693,2,0,L|350:340,1,99.9999999999999,8|0,0:2|0:2,0:2:0:0:
309,356,127164,102,0,B|286:318|286:318|298:250,1,99.9999999999999,0|8,3:2|0:2,0:2:0:0:
228,188,127793,2,0,L|222:113,2,74.9999999999999,8|8|8,0:2|0:2|0:2,0:2:0:0:
197,227,128421,6,0,P|146:251|90:239,1,99.9999999999999,0|8,0:2|0:2,0:2:0:0:
21,189,129049,1,0,3:2:0:0:
21,189,129206,1,8,0:2:0:0:
52,93,129521,1,0,0:2:0:0:
52,93,129678,102,0,L|169:92,1,99.9999999999999,0|8,3:2|0:2,0:2:0:0:
187,56,130149,1,0,0:2:0:0:
230,79,130306,2,0,L|327:83,2,74.9999999999999,8|8|8,0:2|0:2|0:2,0:2:0:0:
200,174,131091,5,0,3:2:0:0:
200,174,131248,2,0,L|303:178,1,99.9999999999999,8|8,0:2|0:2,0:2:0:0:
437,116,132034,101,0,3:2:0:0:
437,116,132191,2,2,P|406:192|425:267,1,150,0|0,3:2|0:2,0:2:0:0:
437,302,132819,2,0,L|528:301,2,74.9999999999999,8|8|8,0:2|0:2|0:2,0:2:0:0:
405,340,133447,6,0,P|355:346|307:334,1,99.9999999999999,0|8,0:2|0:2,0:2:0:0:
238,261,134075,1,0,3:2:0:0:
238,261,134233,1,8,0:2:0:0:
149,308,134547,1,0,0:2:0:0:
149,308,134704,102,0,L|49:303,1,99.9999999999999,0|8,3:2|0:2,0:2:0:0:
10,271,135175,1,0,0:2:0:0:
20,222,135332,2,0,L|28:124,2,74.9999999999999,8|8|8,0:2|0:2|0:2,0:2:0:0:
118,204,136117,5,0,3:2:0:0:
118,204,136274,2,0,L|126:100,1,99.9999999999999,8|0,0:2|3:2,0:2:0:0:
131,54,136746,1,8,0:2:0:0:
240,156,137217,102,0,B|285:173|285:173|352:158,1,99.9999999999999,0|8,3:2|0:2,0:2:0:0:
410,95,137845,2,0,L|415:12,2,74.9999999999999,8|8|8,0:2|0:2|0:2,0:2:0:0:
444,130,138473,6,0,L|457:244,1,99.9999999999999,0|8,0:2|0:2,0:2:0:0:
397,311,139102,1,0,3:2:0:0:
397,311,139259,1,8,0:2:0:0:
301,282,139573,1,0,0:2:0:0:
301,282,139730,102,0,L|314:181,1,99.9999999999999,0|8,3:2|0:2,0:2:0:0:
283,143,140201,1,0,0:2:0:0:
237,163,140358,2,0,L|154:166,2,74.9999999999999,8|8|8,0:2|0:2|0:2,0:2:0:0:
235,62,141144,5,0,3:2:0:0:
235,62,141301,2,0,B|186:48|186:48|123:77,1,99.9999999999999,8|0,0:2|3:2,0:2:0:0:
92,76,141772,2,0,B|68:125|68:125|86:230,1,150,8|0,0:2|3:2,0:2:0:0:
59,315,142557,1,2,2:3:0:0:
155,287,142871,1,8,0:2:0:0:
348,338,143500,70,0,P|375:294|366:222,1,99.9999999999999,6|8,3:2|0:2,0:2:0:0:
330,157,144128,2,0,L|198:149,1,99.9999999999999,2|8,0:2|0:2,0:2:0:0:
191,182,144599,1,2,0:2:0:0:
167,279,144913,6,0,L|314:269,2,99.9999999999999,2|0|0,0:2|0:2|0:2,0:2:0:0:
129,312,145699,2,0,L|61:303,1,50,8|0,0:2|0:2,0:2:0:0:
38,276,146013,101,0,3:2:0:0:
46,176,146327,1,10,0:2:0:0:
46,176,146484,2,0,P|106:137|158:167,1,99.9999999999999,2|0,0:2|3:2,0:2:0:0:
168,173,146955,5,10,0:2:0:0:
168,173,147112,2,0,L|328:160,1,150,2|8,0:2|0:2,0:2:0:0:
410,197,147897,2,0,P|419:247|381:320,1,99.9999999999999,2|2,0:2|0:2,0:2:0:0:
362,321,148369,102,0,B|245:311,1,99.9999999999999,2|2,0:2|0:2,0:2:0:0:
213,307,148840,1,10,0:2:0:0:
115,330,149154,2,0,L|104:250,1,50,2|2,0:2|3:2,0:2:0:0:
142,244,149468,2,0,L|153:164,1,50,10|2,0:2|0:2,0:2:0:0:
105,169,149782,6,0,P|72:170|39:190,2,50,2|2|10,3:2|0:2|0:2,0:2:0:0:
176,99,150411,2,0,P|245:129|287:120,1,99.9999999999999,0|10,0:0|0:0,0:0:0:0:
303,92,150882,101,2,0:2:0:0:
303,92,151039,2,0,L|419:84,1,99.9999999999999,0|8,3:2|0:2,0:2:0:0:
451,56,151510,2,0,L|444:172,1,99.9999999999999,2|0,0:2|3:2,0:2:0:0:
442,205,151981,1,10,0:2:0:0:
381,284,152295,2,0,P|285:291|224:248,1,150,0|0,3:2|0:2,0:2:0:0:
214,222,152924,6,0,L|147:229,1,50,0|0,0:2|0:2,0:2:0:0:
118,206,153238,2,0,L|80:261,1,50,8|0,2:3|0:2,0:2:0:0:
50,278,153552,1,0,0:2:0:0:
228,367,154180,2,0,P|302:370|371:339,1,150,2|0,0:3|0:2,0:2:0:0:
414,249,154966,102,0,P|392:182|240:229,1,250,0|0,0:2|0:2,0:2:0:0:
175,278,156065,5,4,0:2:0:0:
80,244,156379,1,10,0:2:0:0:
80,244,156536,2,0,L|70:137,1,99.9999999999999,2|0,0:2|3:2,0:2:0:0:
67,94,157007,101,10,0:2:0:0:
67,94,157164,2,0,P|120:69|209:112,1,150,2|8,0:2|0:2,0:2:0:0:
235,194,157950,2,0,L|349:191,1,99.9999999999999,2|10,0:2|0:2,0:2:0:0:
379,214,158421,6,0,P|409:169|419:112,1,99.9999999999999,2|2,0:2|0:2,0:2:0:0:
416,74,158892,1,10,0:2:0:0:
319,49,159206,2,0,L|310:140,1,50,2|2,0:2|3:2,0:2:0:0:
272,126,159521,2,0,L|281:217,1,50,10|2,0:2|0:2,0:2:0:0:
292,223,159835,102,0,L|283:314,2,50,2|2|10,3:2|0:2|0:2,0:2:0:0:
195,196,160463,2,0,P|110:187|80:208,1,99.9999999999999,0|10,0:2|0:2,0:2:0:0:
67,229,160934,5,2,0:2:0:0:
67,229,161091,2,0,L|79:354,1,99.9999999999999,0|10,3:2|0:2,0:2:0:0:
115,360,161562,2,0,P|164:363|207:339,1,99.9999999999999,2|2,0:2|3:2,0:2:0:0:
235,297,162034,1,10,0:2:0:0:
298,219,162348,2,0,P|388:216|441:242,1,150,0|0,3:2|0:2,0:2:0:0:
469,281,162976,1,8,2:3:0:0:
270,325,163604,70,0,L|154:310,1,99.9999999999999,4|8,3:2|0:2,0:2:0:0:
135,277,164075,1,0,0:2:0:0:
100,240,164233,2,0,L|34:245,2,50,0|0|8,3:2|0:2|0:2,0:2:0:0:
182,184,164861,6,0,L|248:193,1,50,0|0,0:2|0:2,0:2:0:0:
263,228,165175,2,0,L|329:237,1,50,8|0,0:2|0:2,0:2:0:0:
357,212,165489,2,0,P|378:180|369:107,1,99.9999999999999,2|8,3:2|0:2,0:2:0:0:
296,59,166117,102,0,B|235:58|252:98|158:75,1,99.9999999999999,2|8,3:2|0:2,0:2:0:0:
101,64,166746,2,0,L|102:150,1,50,0|0,3:2|0:2,0:2:0:0:
72,154,167060,5,10,0:2:0:0:
72,154,167217,2,0,B|138:136|150:194|218:176,1,150,2|8,0:2|2:2,0:2:0:0:
310,144,168002,1,2,3:2:0:0:
310,144,168159,1,2,0:2:0:0:
392,200,168473,101,2,0:0:0:0:
392,200,168630,2,0,P|409:246|408:296,1,99.9999999999999,0|8,3:2|2:2,0:2:0:0:
322,348,169259,2,0,L|316:280,1,50,0|0,3:2|0:2,0:2:0:0:
271,279,169573,2,0,L|278:205,1,50,8|2,0:2|0:2,0:2:0:0:
231,199,169887,6,0,P|172:208|135:275,1,99.9999999999999,2|8,3:2|0:2,0:2:0:0:
83,314,170515,2,0,L|94:383,2,50,0|0|8,3:2|0:2|0:2,0:2:0:0:
31,227,171144,102,0,L|52:110,1,99.9999999999999,2|8,3:2|0:2,0:2:0:0:
35,80,171615,1,2,0:2:0:0:
35,80,171772,1,0,3:2:0:0:
133,63,172086,2,0,L|143:194,1,99.9999999999999,10|0,2:2|3:2,0:2:0:0:
168,204,172557,5,2,0:2:0:0:
168,204,172714,2,0,P|241:218|281:203,1,99.9999999999999,10|0,0:2|3:2,0:2:0:0:
355,170,173343,1,8,0:2:0:0:
276,108,173657,1,2,2:1:0:0:
276,108,174599,101,8,0:2:0:0:
195,166,174913,2,0,L|115:160,1,50,0|0,3:2|0:2,0:2:0:0:
106,193,175227,2,0,L|26:187,1,50,8|0,0:2|0:2,0:2:0:0:
13,215,175541,1,0,3:2:0:0:
13,114,175856,1,8,0:2:0:0:
99,63,176170,6,0,P|178:52|217:77,1,99.9999999999999,0|8,3:2|0:2,0:2:0:0:
231,92,176641,1,0,0:2:0:0:
280,95,176798,2,0,L|365:90,2,50,0|0|8,3:2|0:2|0:2,0:2:0:0:
218,173,177426,102,0,P|198:214|200:247,1,50,0|0,0:2|0:2,0:2:0:0:
200,267,177740,2,0,P|223:306|250:324,1,50,8|0,0:2|0:2,0:2:0:0:
270,332,178055,2,0,L|344:325,2,50,0|0|8,3:2|0:2|0:2,0:2:0:0:
292,234,178683,6,0,L|391:226,1,99.9999999999999,0|8,3:2|0:2,0:2:0:0:
436,248,179154,1,0,0:2:0:0:
485,241,179311,2,0,L|493:318,2,50,0|0|8,3:2|0:2|0:2,0:2:0:0:
463,143,179939,102,0,P|428:121|386:123,1,50,0|0,0:2|0:2,0:2:0:0:
369,120,180253,2,0,P|344:123|322:135,1,50,8|0,2:2|0:2,0:2:0:0:
290,173,180568,1,0,3:2:0:0:
195,140,180882,1,8,2:2:0:0:
108,189,181196,6,0,P|91:253|117:322,1,99.9999999999999,0|8,3:2|0:2,0:2:0:0:
129,323,181667,1,0,0:2:0:0:
129,323,181824,2,0,L|200:323,1,50,0|0,3:2|0:2,0:2:0:0:
228,319,182138,1,8,0:2:0:0:
312,372,182452,102,0,B|335:341|335:341|328:256,1,99.9999999999999,0|0,3:2|0:2,0:2:0:0:
348,233,182924,1,0,0:2:0:0:
361,184,183081,2,0,L|340:125,2,50,8|0|8,2:3|0:2|2:2,0:2:0:0:
449,231,183709,5,4,0:2:0:0:
