osu file format v14

[General]
AudioFilename: audio.mp3
AudioLeadIn: 0
PreviewTime: 142871
Countdown: 0
SampleSet: Soft
StackLeniency: 0.7
Mode: 0
LetterboxInBreaks: 0
WidescreenStoryboard: 1

[Editor]
Bookmarks: 254,20358,41719,61824,81929,102034,122138,143500,163604,183709,203814
DistanceSpacing: 1.1
BeatDivisor: 1
GridSize: 32
TimelineZoom: 2.1

[Metadata]
Title:Ordirehv
TitleUnicode:Ordirehv
Artist:Feryquitous
ArtistUnicode:Feryquitous
Creator:JeZag
Version:Extra
Source:
Tags:freedom ep diverse system c95 artcore dnb drum and bass electronic instrumental nanashima asami captin1
BeatmapID:2154182
BeatmapSetID:935602

[Difficulty]
HPDrainRate:6
CircleSize:4.3
OverallDifficulty:8.3
ApproachRate:9.4
SliderMultiplier:1.8
SliderTickRate:1

[Events]
//Background and Video events
0,0,"67101372_p0.jpg",0,0
//Break Periods
//Storyboard Layer 0 (Background)
//Storyboard Layer 1 (Fail)
//Storyboard Layer 2 (Pass)
//Storyboard Layer 3 (Foreground)
//Storyboard Layer 4 (Overlay)
//Storyboard Sound Samples

[TimingPoints]
254,314.13612565445,4,2,1,40,1,0
20044,-142.857142857143,4,2,1,40,0,0
20358,-125,4,2,1,40,0,0
22557,-142.857142857143,4,2,1,40,0,0
22871,-125,4,2,1,40,0,0
25070,-142.857142857143,4,2,1,40,0,0
25384,-125,4,2,1,40,0,0
26955,-142.857142857143,4,2,1,40,0,0
27897,-125,4,2,1,40,0,0
28526,-142.857142857143,4,2,1,40,0,0
28840,-125,4,2,1,40,0,0
30096,-142.857142857143,4,2,1,40,0,0
31353,-125,4,2,1,40,0,0
31824,-142.857142857143,4,2,1,40,0,0
33866,-125,4,2,1,40,0,0
34494,-142.857142857143,4,2,1,40,0,0
36379,-125,4,2,1,40,0,0
37007,-142.857142857143,4,2,1,40,0,0
37636,-142.857142857143,4,2,1,50,0,0
37950,-125,4,2,1,50,0,0
38892,-111.111111111111,4,2,1,50,0,0
39206,-111.111111111111,4,2,2,50,0,0
39363,-125,4,2,2,50,0,0
40463,-90.9090909090909,4,2,1,70,0,0
40934,-125,4,2,1,70,0,0
41562,-83.3333333333333,4,2,1,70,0,0
42348,-71.4285714285714,4,2,1,70,0,0
42662,-62.5,4,2,1,70,0,0
42976,-83.3333333333333,4,2,1,70,0,0
43290,-71.4285714285714,4,2,1,70,0,0
43447,-83.3333333333333,4,2,1,70,0,0
43761,-66.6666666666667,4,2,1,70,0,0
44547,-83.3333333333333,4,2,1,70,0,0
44861,-100,4,2,1,70,0,0
45018,-71.4285714285714,4,2,1,70,0,0
45175,-66.6666666666667,4,2,1,70,0,0
45489,-83.3333333333333,4,2,1,70,0,0
45803,-71.4285714285714,4,2,1,70,0,0
46117,-100,4,2,1,70,0,0
46746,-83.3333333333333,4,2,1,70,0,0
47217,-100,4,2,1,70,0,0
47688,-62.5,4,2,1,70,0,0
48002,-83.3333333333333,4,2,1,70,0,0
48316,-71.4285714285714,4,2,1,70,0,0
48473,-83.3333333333333,4,2,1,70,0,0
48945,-71.4285714285714,4,2,1,70,0,0
49259,-83.3333333333333,4,2,1,70,0,0
50044,-71.4285714285714,4,2,1,70,0,0
50201,-62.5,4,2,1,70,0,0
50515,-83.3333333333333,4,2,1,70,0,0
51458,-166.666666666667,4,2,1,70,0,0
51772,-83.3333333333333,4,2,1,70,0,0
52400,-71.4285714285714,4,2,1,70,0,0
52557,-83.3333333333333,4,2,1,70,0,0
52714,-62.5,4,2,1,70,0,0
53028,-83.3333333333333,4,2,1,70,0,0
53343,-71.4285714285714,4,2,1,70,0,0
53500,-83.3333333333333,4,2,1,70,0,0
53814,-66.6666666666667,4,2,1,70,0,0
54599,-83.3333333333333,4,2,1,70,0,0
54913,-100,4,2,1,70,0,0
55070,-71.4285714285714,4,2,1,70,0,0
55227,-66.6666666666667,4,2,1,70,0,0
55541,-83.3333333333333,4,2,1,70,0,0
55856,-71.4285714285714,4,2,1,70,0,0
56170,-83.3333333333333,4,2,1,70,0,0
56798,-100,4,2,1,70,0,0
57269,-83.3333333333333,4,2,1,70,0,0
57740,-66.6666666666667,4,2,1,70,0,0
58055,-83.3333333333333,4,2,1,70,0,0
58369,-71.4285714285714,4,2,1,70,0,0
58526,-83.3333333333333,4,2,1,70,0,0
58997,-71.4285714285714,4,2,1,70,0,0
59311,-83.3333333333333,4,2,1,70,0,0
60096,-71.4285714285714,4,2,1,70,0,0
60253,-62.5,4,2,1,70,0,0
60567,-100,4,2,1,70,0,0
60724,-83.3333333333333,4,2,1,60,0,0
61038,-100,4,2,1,60,0,0
61824,-166.666666666667,4,2,1,50,0,0
62767,-200,4,2,1,50,0,0
63081,-166.666666666667,4,2,1,50,0,0
63709,-142.857142857143,4,2,1,50,0,0
64337,-125,4,2,1,50,0,0
64966,-166.666666666667,4,2,1,50,0,0
66222,-222.222222222222,4,2,1,50,0,0
66850,-166.666666666667,4,2,1,50,0,0
68735,-250,4,2,1,50,0,0
69363,-200,4,2,1,50,0,0
69992,-100,4,2,1,50,0,0
70306,-166.666666666667,4,2,1,50,0,0
71248,-222.222222222222,4,2,1,50,0,0
71877,-200,4,2,1,50,0,0
72505,-125,4,2,1,50,0,0
72819,-166.666666666667,4,2,1,50,0,0
74390,-125,4,2,1,50,0,0
75175,-100,4,2,1,50,0,0
75646,-166.666666666667,4,2,1,50,0,0
76274,-222.222222222222,4,2,1,50,0,0
76903,-166.666666666667,4,2,1,50,0,0
77845,-142.857142857143,4,2,1,50,0,0
78473,-166.666666666667,4,2,1,50,0,0
78788,-250,4,2,1,50,0,0
79415,-100,4,2,1,50,0,0
79729,-166.666666666667,4,2,1,70,0,0
81928,-71.4285714285714,4,2,1,70,0,0
82871,-142.857142857143,4,2,1,70,0,0
83185,-71.4285714285714,4,2,1,70,0,0
84127,-55.5555555555556,4,2,1,70,0,0
84441,-71.4285714285714,4,2,1,70,0,0
85383,-142.857142857143,4,2,1,70,0,0
85698,-83.3333333333333,4,2,1,70,0,0
86640,-55.5555555555556,4,2,1,70,0,0
86954,-71.4285714285714,4,2,1,70,0,0
87897,-142.857142857143,4,2,1,70,0,0
88211,-71.4285714285714,4,2,1,70,0,0
89153,-55.5555555555556,4,2,1,70,0,0
89468,-71.4285714285714,4,2,1,70,0,0
90410,-142.857142857143,4,2,1,70,0,0
90724,-71.4285714285714,4,2,1,70,0,0
91038,-100,4,2,1,70,0,0
91352,-71.4285714285714,4,2,1,70,0,0
91667,-250,4,2,1,70,0,0
91981,-45.4545454545455,4,2,1,70,0,0
92217,-45.4545454545455,4,2,1,5,0,0
92295,-71.4285714285714,4,2,1,70,0,0
92924,-66.6666666666667,4,2,1,70,0,0
93159,-71.4285714285714,4,2,1,70,0,0
94180,-55.5555555555556,4,2,1,70,0,0
94494,-71.4285714285714,4,2,1,70,0,0
95436,-142.857142857143,4,2,1,70,0,0
95750,-71.4285714285714,4,2,1,70,0,0
96693,-55.5555555555556,4,2,1,70,0,0
97007,-71.4285714285714,4,2,1,70,0,0
97950,-142.857142857143,4,2,1,70,0,0
98264,-71.4285714285714,4,2,1,70,0,0
99206,-55.5555555555556,4,2,1,70,0,0
99521,-71.4285714285714,4,2,1,70,0,0
100463,-142.857142857143,4,2,1,70,0,0
100777,-100,4,2,1,70,0,0
101405,-100,4,2,1,65,0,0
101562,-100,4,2,1,60,0,0
101719,-100,4,2,1,55,0,0
102034,-200,4,2,1,50,0,0
102976,-142.857142857143,4,2,1,50,0,0
104547,-166.666666666667,4,2,1,50,0,0
105489,-142.857142857143,4,2,1,50,0,0
105960,-200,4,2,1,50,0,0
106746,-250,4,2,1,50,0,0
107060,-200,4,2,1,50,0,0
108002,-142.857142857143,4,2,1,50,0,0
108788,-200,4,2,1,50,0,0
109573,-166.666666666667,4,2,1,50,0,0
110515,-142.857142857143,4,2,1,50,0,0
110829,-166.666666666667,4,2,1,50,0,0
113028,-125,4,2,1,50,0,0
113657,-166.666666666667,4,2,1,50,0,0
115541,-125,4,2,1,50,0,0
116641,-200,4,2,1,50,0,0
117112,-166.666666666667,4,2,1,50,0,0
118055,-125,4,2,1,50,0,0
118840,-200,4,2,1,50,0,0
120568,-111.111111111111,4,2,1,50,0,0
120803,-111.111111111111,4,2,1,5,0,0
120882,-111.111111111111,4,2,1,50,0,0
120960,-111.111111111111,4,2,1,5,0,0
121039,-111.111111111111,4,2,1,50,0,0
121117,-111.111111111111,4,2,1,5,0,0
121196,-111.111111111111,4,2,1,50,0,0
121274,-111.111111111111,4,2,1,5,0,0
121353,-111.111111111111,4,2,1,50,0,0
121746,-111.111111111111,4,2,1,5,0,0
121824,-111.111111111111,4,2,1,50,0,0
122138,-50,4,2,3,70,0,1
122452,-58.8235294117647,4,2,3,70,0,0
123238,-200,4,2,3,70,0,0
123473,-100,4,2,3,70,0,0
123709,-66.6666666666667,4,2,3,70,0,0
124023,-58.8235294117647,4,2,3,70,0,0
124180,-45.4545454545455,4,2,3,70,0,0
124494,-100,4,2,3,70,0,0
124651,-55.5555555555556,4,2,3,70,0,1
124966,-66.6666666666667,4,2,3,70,0,0
125123,-55.5555555555556,4,2,3,70,0,0
125280,-58.8235294117647,4,2,3,70,0,0
125751,-76.9230769230769,4,2,3,70,0,0
125986,-111.111111111111,4,2,3,70,0,0
126222,-66.6666666666667,4,2,3,70,0,0
126693,-50,4,2,3,70,0,0
127007,-100,4,2,3,70,0,0
127164,-58.8235294117647,4,2,3,70,0,1
127479,-58.8235294117647,4,2,3,70,0,0
128264,-200,4,2,3,70,0,0
128500,-100,4,2,3,70,0,0
128735,-58.8235294117647,4,2,3,70,0,0
129206,-45.4545454545455,4,2,3,70,0,0
129521,-100,4,2,3,70,0,0
129678,-58.8235294117647,4,2,3,70,0,1
129992,-76.9230769230769,4,2,3,70,0,0
130149,-55.5555555555556,4,2,3,70,0,0
130306,-66.6666666666667,4,2,3,70,0,0
131013,-100,4,2,3,70,0,0
131248,-66.6666666666667,4,2,3,70,0,0
131562,-52.6315789473684,4,2,3,70,0,0
131798,-52.6315789473684,4,2,3,5,0,0
132034,-100,4,2,3,70,0,0
132191,-125,4,2,3,70,0,1
132348,-125,4,2,3,70,0,0
132662,-66.6666666666667,4,2,3,70,0,0
132819,-58.8235294117647,4,2,3,70,0,0
133290,-200,4,2,3,70,0,0
133447,-58.8235294117647,4,2,3,70,0,0
133526,-100,4,2,3,70,0,0
133761,-66.6666666666667,4,2,3,70,0,0
134233,-45.4545454545455,4,2,3,70,0,0
134547,-100,4,2,3,70,0,0
134704,-100,4,2,3,70,0,1
134861,-100,4,2,3,70,0,0
135018,-76.9230769230769,4,2,3,70,0,0
135175,-55.5555555555556,4,2,3,70,0,0
135332,-58.8235294117647,4,2,3,70,0,0
135803,-76.9230769230769,4,2,3,70,0,0
136039,-111.111111111111,4,2,3,70,0,0
136274,-66.6666666666667,4,2,3,70,0,0
136746,-45.4545454545455,4,2,3,70,0,0
137060,-100,4,2,3,70,0,0
137217,-58.8235294117647,4,2,3,70,0,1
137374,-58.8235294117647,4,2,3,70,0,0
138238,-200,4,2,3,70,0,0
138552,-100,4,2,3,70,0,0
138788,-66.6666666666667,4,2,3,70,0,0
139102,-58.8235294117647,4,2,3,70,0,0
139259,-45.4545454545455,4,2,3,70,0,0
139573,-100,4,2,3,70,0,0
139730,-58.8235294117647,4,2,3,70,0,1
139966,-76.9230769230769,4,2,3,70,0,0
140201,-55.5555555555556,4,2,3,70,0,0
140358,-66.6666666666667,4,2,3,70,0,0
141065,-100,4,2,3,70,0,0
141301,-66.6666666666667,4,2,3,70,0,0
141772,-66.6666666666667,4,2,1,70,0,0
142164,-66.6666666666667,4,2,1,5,0,0
142243,-66.6666666666667,4,2,1,70,0,0
142557,-111.111111111111,4,2,1,70,0,0
142871,-250,4,2,1,70,0,0
143185,-142.857142857143,4,2,1,70,0,0
143500,-83.3333333333333,4,2,2,80,0,1
144442,-66.6666666666667,4,2,2,80,0,1
144599,-83.3333333333333,4,2,2,80,0,1
144913,-58.8235294117647,4,2,2,80,0,1
145699,-71.4285714285714,4,2,2,80,0,1
146013,-83.3333333333333,4,2,2,80,0,1
148212,-66.6666666666667,4,2,2,80,0,1
148369,-62.5,4,2,2,80,0,1
148683,-66.6666666666667,4,2,2,80,0,1
149154,-76.9230769230769,4,2,2,80,0,1
149782,-66.6666666666667,4,2,2,80,0,1
150725,-76.9230769230769,4,2,2,80,0,1
152295,-133.333333333333,4,2,2,80,0,1
152924,-142.857142857143,4,2,2,50,0,1
153081,-100,4,2,2,50,0,1
153238,-76.9230769230769,4,2,2,60,0,1
153395,-62.5,4,2,2,60,0,1
153552,-285.714285714286,4,2,2,50,0,0
154180,-100,4,2,2,50,0,0
154651,-142.857142857143,4,2,2,50,0,0
154730,-142.857142857143,4,2,2,5,0,0
154966,-100,4,2,2,70,0,0
155358,-100,4,2,2,5,0,0
155437,-66.6666666666667,4,2,2,70,0,0
155515,-66.6666666666667,4,2,2,5,0,0
155594,-90.9090909090909,4,2,2,70,0,0
155672,-90.9090909090909,4,2,2,5,0,0
155751,-90.9090909090909,4,2,2,70,0,0
156065,-83.3333333333333,4,2,2,70,0,1
158264,-66.6666666666667,4,2,2,70,0,1
158421,-62.5,4,2,2,70,0,1
158735,-66.6666666666667,4,2,2,70,0,1
159206,-76.9230769230769,4,2,2,70,0,1
159835,-66.6666666666667,4,2,2,70,0,1
160777,-76.9230769230769,4,2,2,70,0,1
162348,-153.846153846154,4,2,2,70,0,1
162976,-100,4,2,2,70,0,0
163369,-100,4,2,2,5,0,0
163447,-100,4,2,2,70,0,0
163526,-100,4,2,2,5,0,0
163604,-71.4285714285714,4,2,2,70,0,1
164547,-142.857142857143,4,2,1,70,0,1
164861,-71.4285714285714,4,2,1,70,0,1
165803,-55.5555555555556,4,2,1,70,0,1
166117,-71.4285714285714,4,2,1,70,0,1
167060,-100,4,2,1,70,0,1
167374,-76.9230769230769,4,2,1,70,0,1
168630,-71.4285714285714,4,2,1,70,0,1
169887,-83.3333333333333,4,2,1,70,0,1
170829,-58.8235294117647,4,2,1,70,0,1
171144,-76.9230769230769,4,2,1,70,0,1
171772,-66.6666666666667,4,2,1,70,0,1
172400,-71.4285714285714,4,2,1,70,0,1
173343,-250,4,2,1,70,0,0
173657,-45.4545454545455,4,2,1,70,0,1
173892,-45.4545454545455,4,2,1,5,0,1
173971,-71.4285714285714,4,2,1,70,0,0
174599,-62.5,4,2,1,70,0,0
174913,-71.4285714285714,4,2,1,70,0,0
175856,-58.8235294117647,4,2,1,70,0,0
176170,-71.4285714285714,4,2,1,70,0,0
177112,-142.857142857143,4,2,1,70,0,0
177426,-76.9230769230769,4,2,1,70,0,0
178055,-62.5,4,2,1,70,0,0
178212,-76.9230769230769,4,2,1,70,0,0
178369,-100,4,2,1,70,0,0
178526,-142.857142857143,4,2,1,70,0,0
178683,-71.4285714285714,4,2,1,70,0,0
178997,-71.4285714285714,4,2,1,70,0,0
179625,-142.857142857143,4,2,1,70,0,0
179939,-76.9230769230769,4,2,1,70,0,0
180882,-58.8235294117647,4,2,1,70,0,0
181196,-71.4285714285714,4,2,1,70,0,0
182138,-142.857142857143,4,2,1,70,0,0
182452,-71.4285714285714,4,2,1,70,0,0
183395,-500,4,2,1,70,0,0
183630,-500,4,2,1,5,0,0
183709,-500,4,2,2,55,0,0

[Colours]
Combo1 : 233,78,241
Combo2 : 227,227,227
Combo3 : 163,163,163
Combo4 : 236,155,207
Combo5 : 255,208,157
Combo6 : 150,160,237
Combo7 : 173,140,234
Combo8 : 248,97,101

[HitObjects]
279,158,20044,6,0,L|358:153,1,62.9999980773926,0|0,2:2|2:2,2:2:0:0:
414,111,20358,2,0,P|452:132|462:169,2,72,2|0|0,2:2|2:2|2:2,2:2:0:0:
362,50,20829,1,2,2:2:0:0:
289,81,20986,1,0,2:2:0:0:
289,81,21065,1,0,2:2:0:0:
289,81,21144,1,0,2:2:0:0:
384,188,21301,6,0,P|308:160|241:167,1,144,2|0,2:2|2:2,2:2:0:0:
168,149,21772,1,0,2:2:0:0:
124,214,21929,2,0,L|125:244,4,18,0|0|0|0|0,2:2|2:2|2:2|2:2|2:2,2:2:0:0:
56,182,22243,1,0,2:2:0:0:
145,312,22400,1,0,2:2:0:0:
212,257,22557,102,0,P|248:257|278:271,1,62.9999980773926,2|0,2:2|2:2,2:2:0:0:
363,342,22871,2,0,L|219:350,1,144,2|0,2:2|2:2,2:2:0:0:
78,332,23343,2,0,P|109:315|145:312,1,72,2|0,2:2|2:2,2:2:0:0:
201,256,23657,1,0,2:2:0:0:
28,225,23814,6,0,P|94:227|161:173,1,144,2|0,2:2|2:2,2:2:0:0:
109,60,24285,2,0,B|75:44|75:44|31:60,1,72,0|0,2:2|2:2,2:2:0:0:
72,136,24599,1,0,2:2:0:0:
202,65,24756,1,0,2:2:0:0:
246,162,24913,1,0,2:2:0:0:
246,162,25070,102,0,P|279:146|326:166,1,62.9999980773926,2|0,2:2|2:2,2:2:0:0:
377,107,25306,1,0,2:2:0:0:
387,120,25384,2,0,L|382:220,1,72,2|0,2:2|2:2,2:2:0:0:
421,261,25699,1,0,2:2:0:0:
507,235,25856,2,0,L|500:81,1,144,2|0,2:2|2:2,2:2:0:0:
384,192,26327,5,2,2:2:0:0:
407,88,26484,2,0,P|337:71|270:93,1,144,0|0,2:2|2:2,2:2:0:0:
217,163,26955,2,0,P|157:142|106:157,1,94.499997116089,0|0,2:2|2:2,2:2:0:0:
111,160,27269,1,0,2:2:0:0:
142,272,27426,1,0,2:2:0:0:
142,272,27505,1,0,2:2:0:0:
142,272,27583,102,0,P|184:270|213:254,1,62.9999980773926,2|0,2:2|2:2,2:2:0:0:
311,222,27897,2,0,P|290:280|289:315,2,72,2|0|0,2:2|2:2|2:2,2:2:0:0:
431,209,28369,1,2,2:2:0:0:
441,285,28526,2,0,L|366:278,1,62.9999980773926,0|0,2:2|2:2,2:2:0:0:
187,223,28840,6,0,L|333:208,1,144,2|0,2:2|2:2,2:2:0:0:
357,133,29311,1,0,2:2:0:0:
215,208,29468,2,0,P|247:182|272:82,1,144,0|0,2:2|2:2,2:2:0:0:
176,120,29939,1,0,2:2:0:0:
176,120,30096,102,0,P|172:83|142:42,1,62.9999980773926,2|0,2:2|2:2,2:2:0:0:
61,66,30411,2,0,P|47:103|72:142,1,62.9999980773926,2|0,2:2|2:2,2:2:0:0:
108,181,30725,1,0,2:2:0:0:
2,271,30882,1,2,2:2:0:0:
2,271,30960,1,0,2:2:0:0:
2,271,31039,1,0,2:2:0:0:
27,193,31196,1,0,2:2:0:0:
214,249,31353,6,0,P|125:273|49:250,1,144,2|0,2:2|2:2,2:2:0:0:
27,193,31824,1,0,2:2:0:0:
99,138,31981,2,0,P|110:170|136:190,1,62.9999980773926,0|0,2:2|2:2,2:2:0:0:
212,172,32295,5,0,2:2:0:0:
220,153,32452,5,0,2:2:0:0:
244,126,32610,5,2,2:2:0:0:
294,107,32767,5,0,2:2:0:0:
368,127,32924,38,0,P|393:156|403:204,2,62.9999980773926,2|0|0,2:2|2:2|2:2,2:2:0:0:
381,52,33395,1,2,2:2:0:0:
381,52,33552,1,0,2:2:0:0:
506,97,33709,1,0,2:2:0:0:
506,97,33788,1,0,2:2:0:0:
506,97,33866,6,0,P|481:159|495:238,1,144,2|0,2:2|2:2,2:2:0:0:
469,309,34337,1,0,2:2:0:0:
402,219,34494,1,0,2:2:0:0:
348,272,34651,1,0,2:2:0:0:
273,257,34808,2,0,L|246:256,4,15.7499995193482,0|0|0|0|0,2:2|2:2|2:2|2:2|2:2,2:2:0:0:
323,200,35123,102,0,P|326:159|296:137,1,62.9999980773926,2|0,2:2|2:2,2:2:0:0:
187,125,35437,2,0,P|164:179|183:244,1,125.999996154785,2|0,2:2|2:2,2:2:0:0:
245,280,35908,2,0,P|270:277|314:301,1,62.9999980773926,2|0,2:2|2:2,2:2:0:0:
178,320,36222,1,0,2:2:0:0:
332,217,36379,5,2,2:2:0:0:
382,278,36536,2,0,P|423:288|512:226,1,144,0|0,2:2|2:2,2:2:0:0:
429,135,37007,1,0,2:2:0:0:
429,135,37086,1,0,2:2:0:0:
429,135,37164,2,0,L|419:220,1,62.9999980773926,0|0,2:2|2:2,2:2:0:0:
332,217,37479,1,0,2:2:0:0:
302,142,37636,102,0,P|274:127|243:125,1,62.9999980773926,2|0,2:2|2:2,2:2:0:0:
185,222,37950,2,0,P|213:208|263:208,1,72,2|0,2:2|2:2,2:2:0:0:
286,287,38185,1,0,2:2:0:0:
286,287,38264,1,0,2:2:0:0:
182,305,38421,2,0,P|141:303|103:282,1,72,2|0,2:2|2:2,2:2:0:0:
78,219,38735,1,0,2:2:0:0:
300,148,38892,6,0,B|219:150|241:233|135:221,1,161.999995056153,2|0,2:2|2:2,2:2:0:0:
75,197,39363,2,0,P|61:142|74:115,1,72,0|0,2:2|2:2,2:2:0:0:
164,63,39678,101,0,2:2:0:0:
150,146,39992,1,0,2:2:0:0:
150,146,40463,5,8,2:3:0:0:
153,136,40541,1,0,2:2:0:0:
157,126,40620,1,0,2:2:0:0:
161,116,40699,1,0,2:2:0:0:
165,107,40777,2,0,L|185:164,1,49.5000015106202,8|0,2:3|2:2,2:2:0:0:
325,205,40934,101,0,3:2:0:0:
306,194,41013,1,0,3:2:0:0:
281,189,41092,1,0,3:2:0:0:
254,200,41170,1,0,3:2:0:0:
230,223,41249,1,0,3:2:0:0:
198,240,41327,1,0,3:2:0:0:
159,234,41406,1,8,3:2:0:0:
28,162,41562,53,0,2:2:0:0:
28,162,41641,1,0,2:2:0:0:
28,162,41719,2,0,B|85:171|85:171|126:146|126:146|199:157,1,161.999995056153,4|0,3:2|2:2,2:2:0:0:
262,73,42034,6,0,P|278:111|277:154,1,53.9999983520508,8|0,2:2|2:2,2:2:0:0:
252,224,42191,2,0,L|319:215,1,53.9999983520508,0|0,2:2|2:2,2:2:0:0:
385,79,42348,2,0,P|371:130|347:159,1,62.9999980773926,0|0,2:2|2:2,2:2:0:0:
394,223,42505,1,0,3:2:0:0:
418,0,42662,102,2,P|425:101|497:209,1,216,8|0,2:2|2:2,2:2:0:0:
475,276,42976,5,0,3:2:0:0:
261,259,43133,2,0,B|255:231|255:231|268:191,1,53.9999983520508,0|0,2:2|2:2,2:2:0:0:
406,235,43290,2,0,L|303:236,1,62.9999980773926,8|0,2:2|2:2,2:2:0:0:
236,333,43447,2,0,B|261:341|261:341|298:333,1,53.9999983520508,0|0,3:2|2:2,2:2:0:0:
430,347,43604,101,2,2:2:0:0:
430,347,43683,1,2,2:2:0:0:
430,347,43761,2,0,P|395:326|335:346,1,67.5000025749208,2|0,3:2|2:2,2:2:0:0:
318,211,43918,2,0,P|282:229|270:291,1,67.5000025749208,10|0,2:2|2:2,2:2:0:0:
141,236,44075,2,0,P|132:275|172:324,1,67.5000025749208,2|0,2:2|2:2,2:2:0:0:
218,368,44233,6,0,P|256:291|203:174,1,202.500007724762,2|0,3:2|2:2,2:2:0:0:
78,168,44547,1,8,2:2:0:0:
178,61,44704,102,0,L|177:114,1,53.9999983520508,2|0,2:2|2:2,2:2:0:0:
82,92,44861,2,0,L|91:136,1,45,2|0,2:2|2:2,2:2:0:0:
287,43,45018,2,0,L|267:104,1,62.9999980773926,2|0,3:2|2:2,2:2:0:0:
64,64,45175,6,2,B|91:182|91:182|198:219,1,202.500007724762,10|0,2:2|2:2,2:2:0:0:
256,196,45489,1,0,3:2:0:0:
159,297,45646,2,0,P|192:292|229:268,1,53.9999983520508,0|0,2:2|2:2,2:2:0:0:
268,81,45803,102,0,B|239:126|239:126|256:196,1,125.999996154785,8|0,2:2|3:2,2:2:0:0:
326,145,46039,5,0,2:2:0:0:
326,145,46117,2,0,P|347:137|369:134,1,45,2|0,2:2|2:2,2:2:0:0:
334,232,46274,2,0,P|356:235|376:244,1,45,0|0,3:2|2:2,2:2:0:0:
208,130,46432,2,0,P|190:115|170:105,1,45,10|0,2:2|2:2,2:2:0:0:
170,209,46589,2,0,P|147:204|125:206,1,45,0|0,2:2|2:2,2:2:0:0:
253,355,46746,102,0,B|264:301|264:301|240:258|240:258|256:203,1,161.999995056153,2|0,3:2|2:2,2:2:0:0:
346,56,47060,1,8,2:2:0:0:
424,247,47217,6,0,P|379:250|336:239,1,90,2|0,2:2|2:2,2:2:0:0:
271,122,47452,1,0,2:2:0:0:
271,122,47531,1,0,3:2:0:0:
41,210,47688,102,2,P|118:232|281:196,1,216,10|0,2:2|2:2,2:2:0:0:
336,239,48002,6,0,B|342:211|342:211|328:171,1,53.9999983520508,0|0,3:2|2:2,2:2:0:0:
170,188,48159,2,0,B|164:216|164:216|178:256,1,53.9999983520508,0|0,2:2|2:2,2:2:0:0:
331,320,48316,2,0,L|233:311,1,62.9999980773926,8|0,2:2|2:2,2:2:0:0:
98,304,48473,1,2,2:2:0:0:
95,324,48552,1,2,2:2:0:0:
99,345,48630,1,2,2:2:0:0:
181,317,48788,101,2,3:2:0:0:
0,371,48945,2,0,B|34:283|-52:259|-4:166,1,188.999994232178,10|0,2:2|2:2,2:2:0:0:
28,73,49259,6,0,P|42:95|50:121,1,53.9999983520508,2|0,3:2|2:2,2:2:0:0:
180,101,49416,2,0,P|158:117|141:138,1,53.9999983520508,2|0,2:2|2:2,2:2:0:0:
75,226,49573,1,8,2:2:0:0:
265,243,49730,102,0,P|191:219|132:232,1,107.999996704102,2|0,2:2|2:2,2:2:0:0:
127,301,49966,1,0,2:2:0:0:
127,301,50044,2,0,P|152:312|193:286,1,62.9999980773926,2|0,3:2|2:2,2:2:0:0:
365,229,50201,6,0,B|285:274|232:169|152:219,1,216,10|0,2:2|2:2,2:2:0:0:
73,216,50515,102,0,P|72:187|86:165,1,53.9999983520508,0|0,3:2|2:2,2:2:0:0:
218,134,50672,2,0,P|223:171|240:195,1,53.9999983520508,2|0,2:2|2:2,2:2:0:0:
285,269,50829,1,8,2:2:0:0:
330,95,50986,5,2,3:2:0:0:
330,95,51065,1,0,2:2:0:0:
330,95,51144,2,0,P|315:129|318:158,1,53.9999983520508,0|0,2:2|2:2,2:2:0:0:
374,285,51301,2,0,P|378:258|373:232,1,53.9999983520508,2|0,3:2|2:2,2:2:0:0:
474,136,51458,102,2,B|439:156|439:156|399:146,1,80.9999975280763,8|0,2:2|2:2,2:2:0:0:
320,132,51772,6,0,P|400:139|477:117,1,161.999995056153,4|0,3:2|2:2,2:2:0:0:
449,33,52086,102,0,B|425:23|425:23|398:28,1,53.9999983520508,8|0,2:2|2:2,2:2:0:0:
306,0,52243,2,0,P|299:31|308:98,1,53.9999983520508,0|0,2:2|2:2,2:2:0:0:
242,176,52400,2,0,P|240:149|219:102,1,62.9999980773926,0|0,2:2|2:2,2:2:0:0:
207,17,52557,2,0,B|180:12|180:12|149:26,1,53.9999983520508,0|0,3:2|2:2,2:2:0:0:
9,128,52714,6,0,B|112:157|127:75|234:113,1,216,8|0,2:2|2:2,2:2:0:0:
309,174,53028,101,0,3:2:0:0:
211,328,53185,1,0,2:2:0:0:
211,328,53264,1,0,2:2:0:0:
211,328,53343,2,0,L|203:258,1,62.9999980773926,8|0,2:2|2:2,2:2:0:0:
296,167,53500,2,0,B|299:196|299:196|284:230,1,53.9999983520508,0|0,3:2|2:2,2:2:0:0:
140,208,53657,6,0,P|159:190|186:184,1,53.9999983520508,2|0,2:2|2:2,2:2:0:0:
157,103,53814,2,0,P|188:93|219:103,1,67.5000025749208,2|0,3:2|2:2,2:2:0:0:
294,34,53971,2,0,P|322:51|334:82,1,67.5000025749208,10|0,2:2|2:2,2:2:0:0:
437,79,54128,2,0,P|441:111|425:141,1,67.5000025749208,2|0,2:2|2:2,2:2:0:0:
459,231,54285,102,0,B|368:252|361:166|265:186,1,202.500007724762,2|0,3:2|2:2,2:2:0:0:
129,298,54599,1,8,2:2:0:0:
301,268,54756,6,0,P|308:294|310:325,1,53.9999983520508,2|0,2:2|2:2,2:2:0:0:
208,263,54913,2,0,P|219:282|228:304,1,45,2|0,2:2|2:2,2:2:0:0:
393,305,55070,2,0,P|391:336|383:366,1,62.9999980773926,2|0,3:2|2:2,2:2:0:0:
179,383,55227,102,0,P|271:344|406:376,1,202.500007724762,10|0,2:2|2:2,2:2:0:0:
481,339,55541,5,0,3:2:0:0:
398,229,55699,2,0,P|386:252|388:279,1,53.9999983520508,0|0,2:2|2:2,2:2:0:0:
274,380,55856,102,0,P|290:328|260:251,1,125.999996154785,8|0,2:2|3:2,2:2:0:0:
182,227,56091,1,0,2:2:0:0:
182,227,56170,1,2,2:2:0:0:
71,332,56327,1,2,3:2:0:0:
202,325,56484,5,8,2:2:0:0:
202,325,56562,1,0,2:2:0:0:
202,325,56641,2,0,P|174:312|134:315,1,53.9999983520508,0|0,2:2|2:2,2:2:0:0:
8,258,56798,102,0,P|50:244|95:244,1,90,2|0,3:2|2:2,2:2:0:0:
218,184,57112,1,8,2:2:0:0:
40,57,57269,6,0,B|19:107|19:107|50:207,1,107.999996704102,2|0,2:2|2:2,2:2:0:0:
97,248,57505,1,0,2:2:0:0:
97,248,57583,1,0,3:2:0:0:
294,147,57740,102,0,B|272:106|272:106|161:95|161:95|95:159,1,202.500007724762,10|0,2:2|2:2,2:2:0:0:
169,207,58055,6,0,L|255:200,1,53.9999983520508,0|0,3:2|2:2,2:2:0:0:
375,116,58212,2,0,B|384:142|384:142|372:182,1,53.9999983520508,2|0,2:2|2:2,2:2:0:0:
297,295,58369,2,0,P|306:265|306:234,1,62.9999980773926,8|0,2:2|2:2,2:2:0:0:
294,147,58526,1,0,3:2:0:0:
294,147,58604,1,0,2:2:0:0:
294,147,58683,1,0,2:2:0:0:
169,207,58840,102,0,L|255:200,1,53.9999983520508,0|0,3:2|2:2,2:2:0:0:
432,243,58997,2,0,L|306:234,1,125.999996154785,8|0,2:2|2:2,2:2:0:0:
206,286,59233,5,0,2:2:0:0:
205,300,59311,2,0,P|210:326|221:351,1,53.9999983520508,2|0,3:2|2:2,2:2:0:0:
94,331,59468,2,0,P|98:304|109:280,1,53.9999983520508,2|0,2:2|2:2,2:2:0:0:
145,114,59625,1,8,2:2:0:0:
244,181,59782,102,0,P|202:197|122:192,1,107.999996704102,2|0,2:2|2:2,2:2:0:0:
55,205,60018,1,0,2:2:0:0:
55,205,60096,2,0,P|52:166|95:150,1,62.9999980773926,2|0,3:2|2:2,2:2:0:0:
261,161,60253,6,0,P|154:170|61:119,1,216,10|0,2:2|2:2,2:2:0:0:
25,40,60568,1,0,3:2:0:0:
183,143,60725,102,0,P|167:92|174:39,1,107.999996704102,2|0,2:2|2:2,2:2:0:0:
279,165,61039,2,0,P|281:114|348:78,1,90,2|0,0:2|0:2,0:2:0:0:
412,70,61353,5,0,2:2:0:0:
412,70,61432,1,0,2:2:0:0:
412,70,61510,1,0,2:2:0:0:
478,161,61667,1,0,2:2:0:0:
368,165,61824,38,0,P|421:148|474:145,1,107.999996704102,4|0,2:2|2:2,2:2:0:0:
337,247,62295,1,0,2:2:0:0:
337,247,62374,1,0,2:2:0:0:
337,247,62452,2,0,P|309:233|270:226,1,53.9999983520508,2|0,2:2|2:2,2:2:0:0:
183,291,62767,2,0,P|140:305|108:330,1,67.5,0|0,0:2|0:2,0:2:0:0:
160,279,63081,6,0,P|135:245|117:174,1,107.999996704102,2|0,2:2|2:2,2:2:0:0:
173,98,63552,1,0,2:2:0:0:
286,227,63709,2,0,P|306:194|321:98,1,125.999996154785,2|0,2:2|2:2,2:2:0:0:
439,7,64180,101,0,2:2:0:0:
439,7,64259,1,0,2:2:0:0:
439,7,64337,2,0,P|440:81|525:208,1,216,2|0,2:2|2:2,2:2:0:0:
479,327,64966,1,0,2:2:0:0:
479,327,65044,1,0,2:2:0:0:
479,327,65123,1,0,2:2:0:0:
357,238,65280,1,8,2:3:0:0:
357,238,65594,6,0,P|305:228|231:235,1,107.999996704102,0|0,2:2|2:2,2:2:0:0:
163,285,66065,1,0,2:2:0:0:
87,167,66222,2,0,P|96:184|101:204,3,40.4999987640381,2|0|0|0,0:2|0:2|0:2|0:2,0:2:0:0:
9,146,66850,102,2,P|-5:76|64:78,1,161.999995056153,2|0,2:2|2:2,2:2:0:0:
168,81,67479,1,0,2:2:0:0:
168,81,67557,1,0,2:2:0:0:
168,81,67636,1,0,2:2:0:0:
96,182,67793,6,0,P|140:169|207:167,1,107.999996704102,2|0,2:2|2:2,2:2:0:0:
274,229,68264,1,0,2:2:0:0:
274,229,68343,1,0,2:2:0:0:
274,229,68421,1,0,2:2:0:0:
321,156,68578,1,0,2:2:0:0:
448,229,68735,102,0,P|430:178|426:148,1,72,2|0,2:2|2:2,2:2:0:0:
376,86,69206,1,0,2:2:0:0:
229,93,69363,6,0,P|185:84|141:88,1,90,2|0,2:2|2:2,2:2:0:0:
129,91,69756,1,0,2:2:0:0:
118,96,69835,1,0,2:2:0:0:
81,279,69992,102,0,P|128:231|192:211,1,135,8|0,3:3|2:2,2:2:0:0:
216,227,70306,2,0,P|238:228|256:237,3,26.9999991760254,0|0|0|0,2:2|2:2|2:2|2:2,2:2:0:0:
316,276,70620,6,0,P|367:260|423:268,1,107.999996704102,2|0,2:2|2:2,2:2:0:0:
404,145,71248,2,0,P|364:154|324:148,1,80.9999975280763,0|0,2:2|2:2,2:2:0:0:
311,144,71641,1,0,2:2:0:0:
299,137,71719,1,0,2:2:0:0:
190,24,71877,102,0,P|195:69|187:113,1,90,2|0,2:2|2:2,2:2:0:0:
136,182,72348,1,0,2:2:0:0:
338,263,72505,2,0,P|343:279|348:308,2,36,8|0|0,3:3|2:3|2:3,2:2:0:0:
218,188,72819,6,0,P|263:196|322:176,1,107.999996704102,0|2,2:2|2:2,2:2:0:0:
383,125,73290,1,0,2:2:0:0:
311,93,73447,2,0,P|283:86|238:93,1,53.9999983520508,0|0,2:2|2:2,2:2:0:0:
111,114,73761,102,0,P|92:113|72:105,2,26.9999991760254,2|0|0,2:2|2:2|2:2,2:2:0:0:
175,43,74075,1,0,2:3:0:0:
175,43,74154,1,0,2:3:0:0:
175,43,74233,1,0,2:3:0:0:
196,161,74390,6,0,P|186:221|218:322,1,144,2|0,0:2|2:2,2:2:0:0:
283,227,74861,1,0,2:3:0:0:
283,227,74939,1,0,2:3:0:0:
283,227,75018,1,0,2:3:0:0:
119,350,75175,102,0,P|49:293|8:214,1,180,8|0,3:3|2:2,2:2:0:0:
15,122,75646,6,0,P|51:115|125:128,1,107.999996704102,2|0,2:2|2:2,2:2:0:0:
196,83,76117,1,0,2:2:0:0:
318,134,76274,2,0,P|309:152|307:172,3,40.4999987640381,0|0|0|0,2:2|2:2|2:2|2:2,2:2:0:0:
402,124,76903,102,0,P|428:58|358:48,1,161.999995056153,2|0,2:2|2:2,2:2:0:0:
280,53,77531,1,0,2:2:0:0:
280,53,77610,1,0,2:2:0:0:
280,53,77688,1,0,2:2:0:0:
158,152,77845,6,0,P|218:133|281:131,1,125.999996154785,10|0,2:3|2:2,2:2:0:0:
352,175,78316,1,0,2:2:0:0:
406,235,78473,2,0,P|434:234|466:244,1,53.9999983520508,0|0,2:2|2:2,2:2:0:0:
482,327,78788,2,0,P|464:329|446:327,3,36,2|0|0|0,2:2|2:2|2:2|2:2,2:2:0:0:
309,285,79416,102,10,B|314:332|314:332|273:389,1,90,2|0,0:2|0:2,0:2:0:0:
199,307,79730,5,0,2:3:0:0:
192,275,79887,1,0,2:2:0:0:
73,365,80044,101,0,2:2:0:0:
85,334,80201,2,0,L|76:210,1,107.999996704102,0|0,2:2|2:2,2:2:0:0:
149,182,80672,6,0,P|181:174|225:183,1,53.9999983520508,0|0,2:2|2:2,2:2:0:0:
93,112,80986,2,0,P|61:104|17:113,1,53.9999983520508,0|0,2:2|2:2,2:2:0:0:
187,67,81301,101,0,2:2:0:0:
190,99,81458,1,0,2:3:0:0:
293,133,81615,5,0,2:2:0:0:
290,165,81772,1,0,2:2:0:0:
391,95,81929,6,0,P|378:128|374:160,1,62.9999980773926,4|0,3:2|2:2,2:2:0:0:
412,240,82086,2,0,B|384:253|384:253|343:240,1,62.9999980773926,0|0,2:2|2:2,2:2:0:0:
270,53,82243,2,0,P|282:86|286:118,1,62.9999980773926,8|0,2:2|2:2,2:2:0:0:
255,238,82400,5,0,2:2:0:0:
217,197,82479,1,0,2:2:0:0:
171,186,82557,1,0,3:2:0:0:
135,195,82636,1,0,2:2:0:0:
113,214,82714,1,0,2:2:0:0:
103,233,82793,1,0,2:2:0:0:
101,246,82871,102,2,L|210:242,1,94.499997116089,8|0,3:2|2:2,1:2:0:0:
288,216,83185,6,0,P|286:261|277:288,1,62.9999980773926,0|0,3:2|2:2,2:2:0:0:
347,327,83343,2,0,P|367:305|382:267,1,62.9999980773926,0|0,2:2|2:2,2:2:0:0:
179,172,83500,102,0,P|181:217|190:244,1,62.9999980773926,8|0,2:2|2:2,2:2:0:0:
120,283,83657,2,0,P|100:261|85:223,1,62.9999980773926,0|0,2:2|2:2,2:2:0:0:
245,109,83814,5,0,3:2:0:0:
198,253,83971,1,0,2:2:0:0:
412,184,84128,102,2,B|385:166|357:159|357:159|315:190|315:190|220:189,1,161.999995056153,8|0,2:2|2:2,2:2:0:0:
101,84,84363,1,0,2:2:0:0:
79,69,84442,6,0,L|88:142,1,62.9999980773926,0|0,3:2|2:2,2:2:0:0:
175,179,84599,2,0,L|184:106,1,62.9999980773926,0|0,2:2|2:2,2:2:0:0:
354,127,84756,102,0,L|362:59,1,62.9999980773926,8|0,2:2|2:2,2:2:0:0:
265,68,84913,2,0,L|258:1,1,62.9999980773926,0|0,2:2|2:2,2:2:0:0:
440,9,85070,5,0,3:2:0:0:
457,40,85149,1,0,2:2:0:0:
457,74,85227,1,0,2:2:0:0:
277,168,85384,102,2,B|289:148|311:136|311:136|336:135|358:145,1,94.499997116089,8|0,3:2|2:2,1:2:0:0:
441,163,85699,6,0,L|432:236,1,53.9999983520508,0|0,3:2|2:2,2:2:0:0:
361,279,85856,2,0,B|342:257|342:257|342:232,1,53.9999983520508,0|0,2:2|2:2,2:2:0:0:
251,263,86013,102,0,L|260:336,1,53.9999983520508,8|0,2:2|2:2,2:2:0:0:
423,345,86170,2,0,B|442:323|442:323|442:298,1,53.9999983520508,0|0,2:2|2:2,2:2:0:0:
276,174,86327,5,0,3:2:0:0:
256,204,86405,1,0,2:2:0:0:
253,238,86484,1,0,2:2:0:0:
434,357,86641,102,0,P|344:324|189:333,1,242.999992584229,8|0,2:2|2:2,2:2:0:0:
99,345,86955,6,0,B|95:311|95:311|109:283,1,62.9999980773926,0|0,3:2|2:2,2:2:0:0:
232,238,87112,2,0,B|199:237|199:237|172:216,1,62.9999980773926,0|0,0:2|0:2,0:2:0:0:
32,221,87269,2,0,P|47:196|83:190,1,62.9999980773926,8|0,0:2|0:2,0:2:0:0:
110,83,87426,101,0,2:2:0:0:
164,70,87505,1,0,2:2:0:0:
205,97,87583,1,0,3:2:0:0:
230,128,87662,1,0,2:2:0:0:
256,141,87740,1,0,2:2:0:0:
278,142,87819,1,0,2:2:0:0:
292,135,87897,6,2,B|308:119|332:110|332:110|359:113|392:134,1,94.499997116089,8|0,3:2|2:2,1:2:0:0:
354,270,88212,102,0,P|343:231|353:181,1,62.9999980773926,0|0,3:2|2:2,2:2:0:0:
473,173,88369,2,0,P|459:205|433:197,1,62.9999980773926,0|0,2:2|2:2,2:2:0:0:
349,348,88526,6,0,P|359:309|349:259,1,62.9999980773926,8|0,2:2|2:2,2:2:0:0:
235,260,88683,2,0,P|248:292|274:284,1,62.9999980773926,0|0,2:2|2:2,2:2:0:0:
338,197,88840,101,0,3:2:0:0:
338,197,88918,1,0,2:2:0:0:
338,197,88997,1,0,2:2:0:0:
151,139,89154,6,0,B|250:182|287:72|384:123,1,242.999992584229,8|0,2:2|2:2,2:2:0:0:
459,174,89468,102,0,P|469:203|467:234,1,62.9999980773926,0|0,3:2|2:2,2:2:0:0:
464,89,89625,2,0,P|484:65|512:51,1,62.9999980773926,0|0,2:2|2:2,2:2:0:0:
379,214,89782,6,0,B|347:214|347:214|296:181,1,62.9999980773926,8|0,2:2|2:2,2:2:0:0:
283,30,89939,2,0,B|299:57|299:57|295:117,1,62.9999980773926,0|0,2:2|2:2,2:2:0:0:
178,212,90096,102,0,B|193:184|193:184|247:156,1,62.9999980773926,0|0,3:2|2:2,2:2:0:0:
383,123,90253,1,0,3:3:0:0:
314,298,90411,6,2,P|309:242|324:186,1,94.499997116089,8|0,0:2|2:2,1:2:0:0:
442,261,90725,102,0,P|416:232|406:179,1,62.9999980773926,0|0,3:2|2:2,2:2:0:0:
383,123,90882,1,0,2:2:0:0:
314,298,91039,6,0,P|321:243|295:149,1,135,8|0,2:2|2:2,2:2:0:0:
186,237,91353,102,0,P|217:204|227:151,1,62.9999980773926,0|0,3:2|2:2,2:2:0:0:
248,106,91510,1,0,2:2:0:0:
114,137,91667,6,2,P|134:139|166:127,1,54,8|0,2:2|2:2,2:2:0:0:
186,47,91981,102,2,B|93:55|93:55|-20:27|-20:27|11:55|11:55|26:98,1,297.000009063721,2|0,3:1|2:2,2:1:0:0:
66,201,92295,5,0,2:2:0:0:
69,205,92452,1,0,2:2:0:0:
73,209,92610,101,0,2:2:0:0:
109,173,92688,1,0,2:2:0:0:
158,156,92767,1,0,2:2:0:0:
208,160,92845,1,0,2:2:0:0:
253,185,92924,6,0,B|288:211|288:211|382:193,1,135.000005149842,12|0,2:2|2:2,2:2:0:0:
481,109,93159,101,0,2:2:0:0:
470,119,93238,2,0,P|460:174|461:221,1,62.9999980773926,0|0,3:2|2:2,2:2:0:0:
310,114,93395,2,0,P|306:82|299:52,1,62.9999980773926,0|0,2:2|2:2,2:2:0:0:
403,21,93552,6,0,P|393:76|394:123,1,62.9999980773926,8|0,2:2|2:2,2:2:0:0:
192,47,93709,2,0,P|209:74|222:102,1,62.9999980773926,0|0,2:2|2:2,2:2:0:0:
356,188,93866,101,0,3:2:0:0:
324,202,93945,1,0,2:2:0:0:
289,199,94023,1,0,2:2:0:0:
445,280,94180,6,0,P|336:228|216:236,1,242.999992584229,8|0,2:2|2:2,2:2:0:0:
136,264,94494,102,0,L|130:201,1,62.9999980773926,0|0,3:2|2:2,2:2:0:0:
51,154,94651,2,0,B|34:178|34:178|40:211,1,62.9999980773926,0|0,2:2|2:2,2:2:0:0:
42,367,94808,6,0,L|47:304,1,62.9999980773926,8|0,2:2|2:2,2:2:0:0:
226,258,94966,2,0,B|231:291|231:291|215:315,1,62.9999980773926,0|0,2:2|2:2,2:2:0:0:
131,348,95123,101,0,3:2:0:0:
217,175,95280,1,0,2:2:0:0:
316,351,95437,6,2,L|320:256,1,94.499997116089,8|0,3:2|2:2,1:2:0:0:
331,174,95751,102,0,P|361:176|383:198,1,62.9999980773926,0|0,3:2|2:2,2:2:0:0:
465,308,95908,2,0,B|434:310|434:310|412:288,1,62.9999980773926,0|0,2:2|2:2,2:2:0:0:
265,277,96065,6,0,B|287:256|287:256|320:257,1,62.9999980773926,8|0,2:2|2:2,2:2:0:0:
463,164,96222,2,0,P|476:191|467:221,1,62.9999980773926,0|0,2:2|2:2,2:2:0:0:
417,351,96379,102,0,L|410:270,1,62.9999980773926,0|0,3:2|2:2,2:2:0:0:
383,198,96536,1,0,2:2:0:0:
292,368,96693,6,0,B|360:268|249:239|315:131,1,242.999992584229,8|0,2:2|2:2,2:2:0:0:
432,82,97007,102,0,B|399:88|399:88|371:78,1,62.9999980773926,0|0,3:2|2:2,2:2:0:0:
320,15,97164,2,0,P|293:29|292:59,1,62.9999980773926,0|0,2:2|2:2,2:2:0:0:
274,210,97322,6,0,B|241:204|241:204|208:215,1,62.9999980773926,8|0,2:2|2:2,2:2:0:0:
203,74,97479,2,0,P|203:104|230:118,1,62.9999980773926,0|0,2:2|2:2,2:2:0:0:
363,219,97636,101,0,3:2:0:0:
360,185,97714,1,0,2:2:0:0:
340,155,97793,1,0,2:2:0:0:
144,163,97950,6,2,B|122:204|122:204|142:275,1,94.499997116089,8|0,0:2|2:2,1:2:0:0:
219,283,98264,102,0,P|227:246|224:195,1,62.9999980773926,0|0,3:2|2:2,2:2:0:0:
304,172,98421,2,0,P|315:202|321:233,1,62.9999980773926,0|0,2:2|2:2,2:2:0:0:
136,331,98578,6,0,P|128:294|131:243,1,62.9999980773926,8|0,2:2|2:2,2:2:0:0:
50,220,98735,2,0,P|39:250|34:281,1,62.9999980773926,0|0,2:2|2:2,2:2:0:0:
50,384,98892,101,0,3:2:0:0:
140,187,99049,1,0,2:2:0:0:
262,369,99206,6,2,B|260:309|260:309|219:274|219:274|216:191,1,161.999995056153,8|0,2:2|2:2,2:2:0:0:
175,53,99442,1,0,2:2:0:0:
164,29,99521,102,0,L|252:38,1,62.9999980773926,0|0,3:2|2:2,2:2:0:0:
291,129,99678,2,0,L|229:134,1,62.9999980773926,0|0,2:2|2:2,2:2:0:0:
42,94,99835,6,0,L|104:99,1,62.9999980773926,8|0,2:2|2:2,2:2:0:0:
317,43,99992,2,0,L|255:48,1,62.9999980773926,0|0,2:2|2:2,2:2:0:0:
129,233,100149,102,0,P|129:200|146:174,1,62.9999980773926,0|0,3:2|2:2,2:2:0:0:
319,132,100306,1,0,2:2:0:0:
218,225,100463,6,2,B|238:210|261:205|261:205|284:209|306:223,1,94.499997116089,8|0,0:2|2:2,1:2:0:0:
399,168,100777,102,0,L|399:281,1,90,0|0,3:2|2:2,2:2:0:0:
399,272,101013,1,0,2:2:0:0:
399,287,101091,1,0,2:2:0:0:
279,323,101248,69,0,2:2:0:0:
205,237,101405,37,0,2:2:0:0:
118,224,101562,5,0,2:2:0:0:
60,248,101719,5,2,2:2:0:0:
42,270,101877,101,0,2:2:0:0:
38,284,102034,86,0,P|44:334|77:363,1,90,6|0,2:2|2:2,2:2:0:0:
154,353,102505,1,0,2:2:0:0:
306,198,102976,102,0,B|219:189|225:294|123:270,1,188.999994232178,2|0,2:2|2:2,2:2:0:0:
70,227,103604,1,0,2:2:0:0:
229,196,103918,21,0,2:2:0:0:
217,191,104075,5,0,2:2:0:0:
198,173,104233,5,2,2:2:0:0:
184,125,104390,5,0,2:2:0:0:
222,46,104547,54,0,P|258:30|347:43,1,107.999996704102,2|0,0:2|0:2,0:2:0:0:
421,27,105018,1,0,2:2:0:0:
295,194,105489,102,0,B|332:127|410:107,1,125.999996154785,2|0,2:2|2:2,2:2:0:0:
477,98,105960,1,0,2:2:0:0:
437,322,106746,6,0,P|412:315|392:318,1,36,2|0,2:2|2:2,2:2:0:0:
383,237,107060,2,0,P|345:254|302:303,1,90,2|0,2:2|2:2,2:2:0:0:
225,294,107531,1,0,2:2:0:0:
31,198,108002,101,2,2:2:0:0:
95,143,108159,2,0,B|182:134|176:239|278:215,1,188.999994232178,0|0,2:2|2:2,2:2:0:0:
345,202,108788,6,0,P|349:171|349:136,1,45,0|0,0:2|0:2,0:2:0:0:
441,233,109102,1,0,2:2:0:0:
441,233,109259,2,0,P|433:200|433:181,1,45,2|0,2:2|2:2,2:2:0:0:
456,110,109573,2,0,B|383:92|379:159|295:128,1,161.999995056153,2|0,2:2|2:2,2:2:0:0:
75,111,110515,102,0,P|107:105|141:126,1,62.9999980773926,2|0,2:2|2:2,2:2:0:0:
184,49,110829,2,0,P|210:95|204:204,1,161.999995056153,0|0,2:2|2:2,2:2:0:0:
124,221,111458,1,0,2:2:0:0:
186,289,111615,5,0,2:2:0:0:
186,289,111693,1,0,2:2:0:0:
186,289,111772,2,0,P|182:325|187:344,1,53.9999983520508,2|0,2:2|2:2,2:2:0:0:
267,315,112086,2,0,P|288:335|328:351,1,53.9999983520508,2|0,2:2|2:2,2:2:0:0:
398,266,112400,1,0,2:2:0:0:
398,266,112557,2,0,P|371:268|345:264,1,53.9999983520508,0|0,2:2|2:2,2:2:0:0:
205,184,113028,102,0,B|303:217|318:117|420:157,1,216,2|0,2:2|2:2,2:2:0:0:
472,214,113657,1,0,2:2:0:0:
486,91,113971,21,0,2:2:0:0:
482,78,114128,5,0,2:2:0:0:
459,45,114286,5,2,2:2:0:0:
387,30,114443,5,0,2:2:0:0:
311,75,114600,54,0,P|297:112|301:146,1,53.9999983520508,2|0,2:2|2:2,2:2:0:0:
337,217,114913,1,0,2:2:0:0:
337,217,114992,1,0,2:2:0:0:
337,217,115070,1,0,2:2:0:0:
205,81,115541,102,0,P|122:88|53:124,1,144,2|0,2:2|2:2,2:2:0:0:
0,177,116013,1,0,2:2:0:0:
146,86,116327,5,0,2:2:0:0:
192,158,116484,1,0,2:2:0:0:
107,160,116641,1,0,2:2:0:0:
99,157,116719,1,0,2:2:0:0:
90,151,116798,102,0,P|62:118|55:101,1,45,2|0,2:2|2:2,2:2:0:0:
146,86,117112,2,0,P|138:45|147:15,1,53.9999983520508,2|0,2:2|2:2,2:2:0:0:
227,51,117426,1,0,2:2:0:0:
227,51,117583,2,0,P|251:30|281:27,1,53.9999983520508,0|0,2:2|2:2,2:2:0:0:
464,176,118055,5,2,2:2:0:0:
423,98,118212,2,0,B|330:61|315:161|217:128,1,216,0|0,2:2|2:2,2:2:0:0:
146,183,118840,102,0,P|120:187|81:181,1,45,0|0,2:2|2:2,2:2:0:0:
227,229,119154,1,0,2:2:0:0:
227,229,119311,2,0,P|260:219|289:223,1,45,2|0,2:2|2:2,2:2:0:0:
294,135,119625,2,0,P|344:166|370:209,1,90,2|0,2:2|2:2,2:2:0:0:
441,166,120096,2,0,P|445:200|436:228,1,45,0|0,2:2|2:2,2:2:0:0:
474,324,120568,6,0,P|422:293|362:286,1,121.499996292114,2|0,2:2|2:2,2:2:0:0:
378,263,120882,102,0,P|343:282|332:303,1,40.4999987640381,0|0,2:2|2:2,2:2:0:0:
351,253,121039,2,0,P|325:283|322:306,1,40.4999987640381,0|0,2:2|2:2,2:2:0:0:
325,251,121196,2,0,P|311:287|316:311,1,40.4999987640381,0|0,2:2|2:2,2:2:0:0:
299,259,121353,6,0,P|260:271|220:270,1,80.9999975280763,0|0,2:2|2:2,2:2:0:0:
145,216,121667,102,0,P|144:240|137:264,1,40.4999987640381,0|0,2:2|2:2,2:2:0:0:
62,225,121824,5,0,2:2:0:0:
54,193,121903,1,0,2:2:0:0:
63,163,121981,1,0,2:2:0:0:
55,132,122060,1,0,2:2:0:0:
60,94,122138,70,2,B|89:64|110:54|110:54|139:62|161:80|161:80|207:66|258:73|258:73|237:86|217:129,1,270,2|0,3:2|2:2,1:2:0:0:
155,166,122452,6,0,P|153:204|171:238,1,76.5000014591217,8|0,2:2|2:2,2:2:0:0:
314,150,122610,101,0,2:2:0:0:
314,150,122689,1,0,2:2:0:0:
314,150,122767,2,0,P|290:181|289:251,1,76.5000014591217,8|0,2:2|2:2,2:2:0:0:
435,273,122924,5,2,2:2:0:0:
415,258,123002,2,0,P|403:220|426:153,1,76.5000014591217,10|0,2:2|2:2,2:2:0:0:
410,26,123159,101,2,2:2:0:0:
418,41,123238,2,0,P|417:69|414:85,1,45,10|0,2:2|2:2,2:2:0:0:
483,155,123473,6,0,B|443:174|443:174|392:167|401:168,1,90,0|0,3:2|2:2,2:2:0:0:
306,30,123709,102,0,P|308:63|316:96,1,67.5000025749208,8|0,2:2|2:2,2:2:0:0:
309,194,123866,5,0,2:2:0:0:
309,194,123945,1,0,2:2:0:0:
309,194,124023,2,0,P|277:171|240:183,1,76.5000014591217,8|0,2:2|2:2,2:2:0:0:
158,273,124180,102,2,B|179:219|136:201|169:126|169:126|125:135|78:109|78:109|69:148|87:180,1,297.000009063721,0|0,3:2|2:2,1:2:0:0:
37,233,124494,6,0,B|34:228|52:244|78:243,1,45,2|0,2:2|2:2,2:2:0:0:
306,277,124651,2,0,P|227:264|151:289,1,161.999995056153,2|0,3:2|2:2,1:2:0:0:
0,325,124887,101,0,2:2:0:0:
14,337,124966,2,0,B|45:345|45:345|77:325,1,67.5000025749208,8|0,2:2|2:2,2:2:0:0:
248,225,125123,2,2,B|210:233|210:233|172:213,1,80.9999975280763,2|0,2:2|2:2,2:1:0:0:
21,84,125280,6,0,P|60:148|74:223,1,153.000002918243,8|0,2:2|2:2,2:2:0:0:
164,94,125515,101,8,2:2:0:0:
177,129,125594,2,0,P|176:168|168:205,1,76.5000014591217,0|0,3:2|2:2,2:2:0:0:
293,159,125751,5,8,2:2:0:0:
283,190,125830,2,0,P|266:213|245:235,1,58.4999973220826,0|0,3:2|2:2,2:2:0:0:
353,266,125986,101,8,2:2:0:0:
339,279,126065,2,0,P|322:289|303:295,1,40.4999987640381,0|0,3:2|2:2,2:2:0:0:
227,323,126222,5,10,2:2:0:0:
219,285,126301,1,2,2:2:0:0:
235,249,126379,1,2,2:2:0:0:
252,213,126458,1,2,2:2:0:0:
242,176,126536,102,0,P|206:189|224:240,1,67.5000025749208,8|8,2:2|2:2,2:2:0:0:
342,372,126693,6,2,B|390:330|392:261|392:261|358:229|332:221|332:221|346:176|327:126,1,270,0|0,3:2|2:2,1:1:0:0:
424,125,127007,2,0,P|422:158|440:192,1,45,0|0,2:2|2:2,2:2:0:0:
487,232,127164,102,2,B|522:194|522:194|496:65|496:65|447:42,1,229.500004377365,2|0,3:2|2:2,1:2:0:0:
360,40,127479,5,8,2:2:0:0:
358,47,127557,1,0,2:2:0:0:
356,54,127636,1,0,2:2:0:0:
355,61,127714,1,0,2:2:0:0:
353,68,127793,102,0,P|307:69|255:100,1,76.5000014591217,8|0,2:2|2:2,2:2:0:0:
230,17,127950,5,2,2:2:0:0:
188,36,128028,1,10,2:2:0:0:
176,75,128107,1,2,2:2:0:0:
183,105,128185,1,2,2:2:0:0:
191,124,128264,102,0,P|182:171|175:180,1,45,10|0,2:2|2:2,2:2:0:0:
112,134,128500,6,0,L|21:146,1,90,0|0,3:2|2:2,2:2:0:0:
8,230,128735,102,0,B|-2:269|-2:269|13:302,1,76.5000014591217,8|0,2:2|2:2,2:2:0:0:
158,275,128892,5,0,2:2:0:0:
158,275,128971,1,0,2:2:0:0:
158,275,129049,2,0,P|127:251|90:262,1,76.5000014591217,8|0,2:2|2:2,2:2:0:0:
74,365,129206,102,2,B|178:314|182:417|292:361|292:361|251:352|230:315,1,297.000009063721,0|0,3:2|2:2,1:2:0:0:
232,243,129521,6,0,P|240:221|256:205,1,45,2|0,2:2|2:2,2:2:0:0:
456,233,129678,2,2,P|385:271|305:271,1,153.000002918243,2|0,3:2|2:2,1:2:0:0:
312,144,129913,101,0,2:2:0:0:
312,144,129992,2,0,P|335:179|331:222,1,58.4999973220826,8|0,2:2|2:2,2:2:0:0:
432,355,130149,2,2,P|408:334|395:276,1,80.9999975280763,0|0,2:2|2:2,2:1:0:0:
415,158,130306,6,0,B|445:142|445:142|479:150,1,67.5000025749208,8|0,2:2|2:2,2:2:0:0:
512,261,130463,101,2,2:2:0:0:
473,271,130541,1,10,2:2:0:0:
436,253,130620,1,2,3:2:0:0:
396,265,130699,1,2,2:2:0:0:
359,248,130777,5,10,2:2:0:0:
343,231,130856,2,0,P|331:196|338:127,1,67.5000025749208,0|0,3:2|2:2,2:2:0:0:
226,195,131013,101,8,2:2:0:0:
226,183,131091,2,0,P|237:150|264:125,1,45,0|0,3:2|2:2,2:2:0:0:
306,12,131248,6,0,P|292:55|317:102,1,67.5000025749208,10|2,2:2|2:2,2:2:0:0:
406,119,131405,1,10,2:2:0:0:
406,119,131484,1,10,2:2:0:0:
406,119,131562,102,2,B|350:126|350:126|297:101|297:101|238:128|238:128|152:102,1,256.499993150711,0|0,3:2|2:2,1:1:0:0:
154,101,132034,22,0,L|170:166,1,45,0|0,3:2|2:2,2:2:0:0:
73,306,132191,6,2,P|127:260|236:244,1,180,2|0,3:2|2:2,1:2:0:0:
304,196,132662,70,0,B|319:228|319:228|311:286,1,67.5000025749208,2|0,2:2|2:2,2:2:0:0:
424,355,132819,6,0,P|397:310|410:254,1,76.5000014591217,8|0,2:2|2:2,2:2:0:0:
512,190,132976,101,2,2:2:0:0:
490,207,133055,2,0,P|438:207|395:168,1,76.5000014591217,10|0,2:2|2:2,2:2:0:0:
480,57,133212,5,2,2:2:0:0:
481,72,133290,2,0,P|466:108|451:120,1,45,10|0,2:2|2:2,2:2:0:0:
371,121,133526,102,0,L|245:112,1,90,0|0,3:2|2:2,2:2:0:0:
188,31,133761,6,0,B|184:66|184:66|213:127,1,67.5000025749208,8|0,2:2|2:2,2:2:0:0:
224,184,133918,101,0,2:2:0:0:
224,184,133997,1,0,2:2:0:0:
224,184,134075,2,0,L|119:177,1,67.5000025749208,8|0,2:2|2:2,2:2:0:0:
16,113,134233,6,2,B|5:65|5:65|95:62|95:62|92:124|92:124|71:164|71:164|87:246,1,297.000009063721,0|0,3:2|2:2,1:2:0:0:
0,260,134547,102,0,L|3:215,1,45,0|0,2:2|2:2,2:2:0:0:
154,255,134704,2,2,B|185:315|185:315|164:378,1,135,2|0,3:2|2:2,1:2:0:0:
74,363,135018,6,0,P|72:338|109:283,1,58.4999973220826,8|0,2:2|2:2,2:2:0:0:
223,168,135175,2,2,P|221:192|280:253,1,80.9999975280763,0|0,2:2|2:2,2:1:0:0:
367,340,135332,102,0,L|181:314,1,153.000002918243,8|0,2:2|2:2,2:2:0:0:
396,252,135568,5,8,2:2:0:0:
363,226,135646,2,0,L|304:176,1,76.5000014591217,0|0,3:2|2:2,2:2:0:0:
435,174,135803,101,8,2:2:0:0:
422,144,135881,2,0,L|397:90,1,58.4999973220826,0|0,3:2|2:2,2:2:0:0:
505,126,136039,5,8,2:2:0:0:
505,107,136117,2,0,L|505:66,1,40.4999987640381,0|0,3:2|2:2,2:2:0:0:
512,209,136274,101,10,2:2:0:0:
474,217,136353,1,2,2:2:0:0:
438,201,136431,1,2,2:2:0:0:
402,184,136510,1,2,2:2:0:0:
365,192,136588,6,0,P|350:214|375:269,1,67.5000025749208,8|8,2:2|2:2,2:2:0:0:
498,371,136746,102,2,B|475:319|435:296|435:296|422:350|382:364|382:364|355:339|333:334|333:334|307:357|269:354,1,297.000009063721,2|0,3:2|2:2,1:1:0:0:
212,322,137060,2,0,L|150:323,1,45,0|0,2:2|2:2,2:2:0:0:
223,166,137217,6,0,B|278:117|278:117|279:309,1,229.500004377365,2|0,3:2|2:2,1:2:0:0:
194,241,137531,101,8,2:2:0:0:
186,241,137610,1,0,2:2:0:0:
178,241,137688,1,0,2:2:0:0:
170,241,137767,1,0,2:2:0:0:
162,241,137845,6,0,P|99:268|87:310,1,76.5000014591217,8|0,2:2|2:2,2:2:0:0:
10,152,138002,101,2,2:2:0:0:
28,131,138081,2,0,P|96:135|121:170,1,76.5000014591217,10|0,2:2|2:2,2:2:0:0:
203,54,138238,5,2,2:2:0:0:
189,47,138317,2,0,P|161:47|143:56,1,45,10|0,2:2|2:2,2:2:0:0:
185,135,138552,102,0,B|172:179|172:179|189:219,1,90,0|0,3:2|2:2,2:2:0:0:
269,265,138788,6,0,L|272:169,1,67.5000025749208,8|0,2:2|2:2,2:2:0:0:
347,117,138945,101,0,2:2:0:0:
347,117,139023,1,0,2:2:0:0:
347,117,139102,2,0,P|312:127|280:108,1,76.5000014591217,8|0,2:2|2:2,2:2:0:0:
321,36,139259,6,2,B|345:29|363:17|363:17|389:18|405:26|405:26|433:15|450:0|450:0|490:-12|536:17|536:17|510:53|408:42,1,297.000009063721,0|0,3:2|2:2,1:2:0:0:
435,151,139573,102,0,P|429:129|430:107,1,45,2|0,2:2|2:2,2:2:0:0:
512,122,139730,2,0,P|524:196|499:268,1,153.000002918243,2|0,3:2|2:2,1:2:0:0:
448,326,139966,5,0,2:2:0:0:
448,326,140044,2,0,B|419:312|419:312|341:331,1,58.4999973220826,8|0,2:2|2:2,2:2:0:0:
285,162,140201,2,2,B|319:139|319:139|358:146,1,80.9999975280763,0|0,2:2|2:2,2:1:0:0:
417,230,140358,102,0,L|315:223,1,67.5000025749208,8|0,2:2|2:2,2:2:0:0:
321,342,140515,5,2,2:2:0:0:
316,300,140594,1,10,2:2:0:0:
280,280,140672,1,2,3:2:0:0:
270,241,140751,1,2,2:2:0:0:
235,221,140829,101,10,2:2:0:0:
210,227,140908,2,0,P|186:247|172:307,1,67.5000025749208,0|0,3:2|2:2,2:2:0:0:
93,224,141065,5,8,2:2:0:0:
87,239,141144,2,0,P|86:259|110:292,1,45,0|0,3:2|2:2,2:2:0:0:
20,360,141301,101,10,2:2:0:0:
29,322,141380,1,2,2:2:0:0:
15,285,141458,1,2,2:2:0:0:
0,248,141537,1,2,2:2:0:0:
11,211,141615,6,0,P|19:181|52:163,1,67.5000025749208,8|8,2:2|2:2,2:2:0:0:
198,102,141772,6,2,B|154:81|83:93|108:162|57:168|9:160|-35:119|-2:32|69:41|106:92,1,337.500012874604,0|0,3:2|2:2,1:2:0:0:
171,179,142243,5,0,3:2:0:0:
171,179,142400,1,0,2:2:0:0:
261,38,142557,102,0,B|288:68|288:68|285:125,1,80.9999975280763,2|0,2:3|2:2,2:2:0:0:
257,193,142793,1,0,2:2:0:0:
257,193,142871,6,0,L|261:243,1,36,8|0,2:2|2:2,2:2:0:0:
333,174,143185,2,0,L|339:236,1,62.9999980773926,0|0,2:2|2:2,2:2:0:0:
257,193,143500,38,0,B|343:155|341:250|457:185,1,161.999995056153,6|0,3:2|2:2,2:2:0:0:
501,220,143814,2,0,B|505:192|505:192|494:160,1,53.9999983520508,8|0,2:2|2:2,2:2:0:0:
383,114,143971,1,0,2:2:0:0:
383,114,144049,1,0,2:2:0:0:
383,114,144128,1,2,2:2:0:0:
413,204,144285,5,0,3:2:0:0:
285,135,144442,2,0,B|278:101|278:101|292:71,1,67.5000025749208,8|0,2:2|2:2,2:2:0:0:
478,77,144599,2,0,P|401:116|349:100,1,107.999996704102,2|0,2:2|3:2,2:2:0:0:
105,98,144913,102,0,B|168:130|227:77,1,76.5000014591217,2|0,2:2|2:2,2:2:0:0:
284,51,145070,5,8,2:2:0:0:
299,155,145227,1,0,3:2:0:0:
155,208,145384,101,0,2:2:0:0:
170,116,145541,1,0,3:2:0:0:
19,45,145699,6,0,L|31:134,1,62.9999980773926,10|0,2:2|2:2,2:2:0:0:
32,134,145856,2,0,L|44:223,1,62.9999980773926,2|0,2:2|2:2,2:2:0:0:
33,284,146013,102,0,B|108:241|133:326|211:267,1,161.999995056153,0|0,3:2|2:2,2:2:0:0:
181,194,146327,6,0,B|153:184|153:184|115:192,1,53.9999983520508,10|0,2:2|2:2,2:2:0:0:
267,222,146484,2,0,P|318:209|368:228,1,107.999996704102,2|0,2:2|2:2,2:2:0:0:
435,296,146719,1,0,2:2:0:0:
435,296,146798,1,0,3:2:0:0:
279,332,146955,102,0,P|305:302|336:298,1,53.9999983520508,10|0,2:2|2:2,2:2:0:0:
438,170,147112,1,2,2:2:0:0:
438,170,147191,1,0,2:2:0:0:
438,170,147269,2,0,P|454:213|452:254,1,53.9999983520508,0|0,3:2|2:2,2:2:0:0:
437,317,147426,5,0,2:2:0:0:
290,216,147583,1,8,2:2:0:0:
218,283,147740,1,0,3:2:0:0:
218,283,147819,1,0,2:2:0:0:
218,283,147897,2,0,B|193:307|173:315|173:315|138:298|116:251,1,107.999996704102,2|0,2:2|3:2,2:2:0:0:
202,116,148212,102,0,P|242:110|283:151,1,67.5000025749208,10|0,2:2|2:2,2:2:0:0:
379,247,148369,2,0,B|277:284|291:156|146:213,1,216,2|0,2:2|2:2,2:2:0:0:
120,147,148683,6,0,P|103:164|103:217,1,67.5000025749208,2|0,2:2|2:2,2:2:0:0:
6,310,148840,2,0,P|19:271|-16:154,1,135.000005149842,10|0,2:2|2:2,2:2:0:0:
0,95,149075,101,0,2:2:0:0:
0,95,149154,2,0,P|30:96|69:83,1,58.4999973220826,2|0,2:2|2:2,2:2:0:0:
87,163,149311,2,0,P|117:161|156:174,1,58.4999973220826,2|0,3:2|2:2,2:2:0:0:
156,75,149468,2,0,P|184:67|213:69,1,58.4999973220826,10|0,2:2|2:2,2:2:0:0:
226,182,149625,2,0,P|254:189|283:187,1,58.4999973220826,2|0,2:2|2:2,2:2:0:0:
296,44,149782,6,0,P|297:78|334:118,1,67.5000025749208,2|0,3:2|2:2,2:2:0:0:
351,241,149939,2,0,P|368:212|369:179,1,67.5000025749208,2|0,2:2|2:2,2:2:0:0:
423,38,150096,2,0,P|424:71|391:115,1,67.5000025749208,10|0,2:2|2:2,2:2:0:0:
463,183,150253,101,0,3:2:0:0:
463,183,150332,1,0,2:2:0:0:
463,183,150411,1,0,2:2:0:0:
315,106,150568,1,0,3:2:0:0:
190,178,150725,6,0,P|190:214|240:264,1,58.4999973220826,10|0,2:2|2:2,2:2:0:0:
226,336,150882,1,2,2:2:0:0:
226,336,150960,1,0,2:2:0:0:
226,336,151039,2,0,P|283:272|279:187,1,175.499991966248,0|0,3:2|2:2,2:2:0:0:
388,158,151353,102,0,P|372:191|382:243,1,58.4999973220826,10|0,2:2|2:2,2:2:0:0:
413,316,151510,1,2,2:2:0:0:
413,316,151589,1,0,2:2:0:0:
413,316,151667,1,0,2:2:0:0:
512,217,151824,6,0,L|453:209,1,58.4999973220826,2|0,3:2|2:2,2:2:0:0:
265,304,151981,2,0,L|323:296,1,58.4999973220826,10|0,2:2|2:2,2:2:0:0:
403,146,152138,101,2,2:2:0:0:
403,146,152217,1,2,2:2:0:0:
403,146,152295,2,0,P|454:228|402:322,1,202.500007724762,2|0,3:2|2:2,2:2:0:0:
346,264,152845,5,0,2:2:0:0:
338,275,152924,2,0,P|331:291|329:308,1,31.4999990386963,2|0,3:2|2:2,2:2:0:0:
257,349,153081,2,0,P|245:329|241:308,1,45,2|0,2:2|2:2,2:2:0:0:
134,171,153238,102,0,P|160:183|179:206,1,58.4999973220826,8|0,2:3|2:2,2:2:0:0:
255,157,153395,2,0,P|265:208|246:261,1,72,2|0,2:2|2:2,2:2:0:0:
157,290,153552,6,0,L|94:290,1,62.9999980773926,2|0,3:2|2:2,2:2:0:0:
79,290,154023,1,0,2:2:0:0:
23,142,154180,102,0,B|2:181|2:181|17:237,1,90,2|0,2:3|2:2,2:2:0:0:
104,193,154415,1,0,2:2:0:0:
104,193,154494,1,8,2:2:0:0:
82,64,154651,6,0,L|70:4,1,31.4999990386963,2|0,3:2|2:2,2:2:0:0:
82,64,154966,102,0,B|199:-2|214:130|311:75,1,225,2|0,2:3|2:2,2:2:0:0:
363,28,155437,6,0,P|382:79|370:133,1,67.5000025749208,2|0,2:2|2:2,2:2:0:0:
486,75,155594,2,0,P|470:116|479:159,1,49.5000015106202,2|0,2:2|2:2,2:2:0:0:
399,176,155751,101,2,2:2:0:0:
440,205,155829,1,2,2:2:0:0:
412,233,155908,1,2,2:2:0:0:
427,259,155986,1,2,2:2:0:0:
420,277,156065,6,0,P|312:305|236:274,1,161.999995056153,4|0,2:2|2:2,2:2:0:0:
191,335,156379,102,0,B|178:307|178:307|185:262,1,53.9999983520508,10|0,2:2|2:2,2:2:0:0:
314,165,156536,2,0,P|235:214|180:197,1,107.999996704102,2|0,2:2|2:2,2:2:0:0:
145,206,156772,1,0,2:2:0:0:
145,206,156850,1,0,3:2:0:0:
199,82,157007,6,0,P|202:108|196:134,1,53.9999983520508,10|0,2:2|2:2,2:2:0:0:
59,215,157164,1,2,2:2:0:0:
59,215,157243,1,0,2:2:0:0:
59,215,157322,2,0,P|71:163|105:136,1,53.9999983520508,0|0,3:2|2:2,2:2:0:0:
119,99,157479,101,0,2:2:0:0:
306,153,157636,1,8,2:2:0:0:
145,206,157793,1,0,3:2:0:0:
145,206,157871,1,0,2:2:0:0:
145,206,157950,6,0,B|170:182|189:176|189:176|225:191|253:232,1,107.999996704102,2|0,2:2|3:2,2:2:0:0:
399,345,158264,102,0,P|360:357|313:324,1,67.5000025749208,10|0,2:2|2:2,2:2:0:0:
193,280,158421,2,0,B|293:331|304:216|419:272,1,216,2|0,2:2|2:2,2:2:0:0:
413,181,158735,6,0,P|374:166|325:197,1,67.5000025749208,2|0,2:2|2:2,2:2:0:0:
252,74,158892,2,0,P|262:140|240:203,1,135.000005149842,10|0,2:2|2:2,2:2:0:0:
157,203,159128,101,0,2:2:0:0:
147,191,159206,2,0,P|133:143|151:100,1,58.4999973220826,2|0,2:2|2:2,2:2:0:0:
41,41,159363,2,0,P|58:64|82:79,1,58.4999973220826,2|0,3:2|2:2,2:2:0:0:
159,64,159521,2,0,P|175:40|181:12,1,58.4999973220826,10|0,2:2|2:2,2:2:0:0:
58,154,159678,2,0,P|30:158|2:152,1,58.4999973220826,2|0,2:2|2:2,2:2:0:0:
214,148,159835,6,0,P|248:155|271:175,1,67.5000025749208,2|0,3:2|2:2,2:2:0:0:
340,304,159992,2,0,P|328:270|335:240,1,67.5000025749208,2|0,2:2|2:2,2:2:0:0:
414,114,160149,2,0,P|390:140|361:149,1,67.5000025749208,10|0,2:2|2:2,2:2:0:0:
271,176,160306,1,0,3:2:0:0:
271,176,160384,1,0,2:2:0:0:
271,176,160463,1,0,2:2:0:0:
421,270,160620,1,0,3:2:0:0:
249,260,160777,102,0,P|213:260|163:310,1,58.4999973220826,10|0,2:2|2:2,2:2:0:0:
88,291,160934,1,2,2:2:0:0:
88,291,161012,1,0,2:2:0:0:
88,291,161091,2,0,P|152:348|237:344,1,175.499991966248,0|0,3:2|2:2,2:2:0:0:
326,302,161405,6,0,B|336:278|336:278|333:229,1,58.4999973220826,10|0,2:2|2:2,2:2:0:0:
301,163,161562,1,2,2:2:0:0:
301,163,161641,1,0,2:2:0:0:
301,163,161719,1,0,2:2:0:0:
193,269,161877,102,0,P|222:269|252:259,1,58.4999973220826,2|0,3:2|2:2,2:2:0:0:
445,172,162034,2,0,P|417:163|388:163,1,58.4999973220826,10|0,2:2|2:2,2:2:0:0:
316,312,162191,5,2,2:2:0:0:
323,305,162270,1,2,2:2:0:0:
327,296,162348,2,0,B|355:224|278:198|313:123,1,175.499991966248,2|0,3:2|2:2,2:2:0:0:
374,76,162897,1,0,2:2:0:0:
374,76,162976,1,2,2:3:0:0:
397,161,163290,101,0,0:0:0:0:
227,153,163447,2,0,B|204:156|204:156|183:149,1,45,0|0,2:2|2:2,2:2:0:0:
311,127,163604,86,0,P|316:155|300:198,1,62.9999980773926,4|0,3:2|2:2,2:2:0:0:
242,317,163761,2,0,B|230:289|230:289|245:239,1,62.9999980773926,0|0,2:2|2:2,2:2:0:0:
100,122,163918,2,0,P|95:150|111:193,1,62.9999980773926,8|0,2:2|2:2,2:2:0:0:
80,310,164075,5,0,2:2:0:0:
118,269,164154,1,0,2:2:0:0:
164,258,164233,1,0,3:2:0:0:
200,267,164311,1,0,2:2:0:0:
222,286,164390,1,0,2:2:0:0:
232,305,164468,1,0,2:2:0:0:
234,318,164547,102,2,L|125:314,1,94.499997116089,8|0,0:2|2:2,1:2:0:0:
68,371,164861,6,0,P|51:336|63:278,1,62.9999980773926,0|0,3:2|2:2,2:2:0:0:
0,229,165018,2,0,B|25:212|25:212|62:218,1,62.9999980773926,0|0,2:2|2:2,2:2:0:0:
154,228,165175,102,0,P|161:199|186:170,1,62.9999980773926,8|0,2:2|2:2,2:2:0:0:
47,95,165332,2,0,B|77:98|77:98|101:126,1,62.9999980773926,0|0,2:2|2:2,2:2:0:0:
246,243,165489,6,0,B|338:269|365:171|440:221,1,188.999994232178,0|0,3:2|2:2,2:2:0:0:
468,54,165803,102,0,P|350:58|273:147,1,242.999992584229,8|0,2:2|2:2,2:2:0:0:
316,285,166117,6,0,P|323:234|291:198,1,62.9999980773926,0|0,3:2|2:2,2:2:0:0:
416,128,166274,2,0,P|368:146|353:192,1,62.9999980773926,0|0,2:2|2:2,2:2:0:0:
217,122,166432,102,0,P|265:147|301:144,1,62.9999980773926,8|0,2:2|2:2,2:2:0:0:
458,208,166589,2,0,P|409:233|373:230,1,62.9999980773926,0|0,2:2|2:2,2:2:0:0:
223,275,166746,1,0,3:2:0:0:
209,250,166825,1,0,2:2:0:0:
209,223,166903,1,0,2:2:0:0:
319,225,167060,6,2,L|314:322,1,90,8|0,0:2|2:2,1:2:0:0:
223,359,167295,101,0,2:2:0:0:
207,359,167374,2,0,P|174:347|142:301,1,58.4999973220826,0|0,3:2|2:2,2:2:0:0:
329,330,167531,2,0,P|361:318|394:272,1,58.4999973220826,0|0,2:2|2:2,2:2:0:0:
217,267,167688,6,0,P|207:241|207:211,1,58.4999973220826,8|0,2:2|2:2,2:2:0:0:
317,237,167845,2,0,P|327:211|327:181,1,58.4999973220826,0|0,2:2|2:2,2:2:0:0:
231,116,168002,101,0,3:2:0:0:
231,116,168081,1,0,2:2:0:0:
231,116,168159,1,0,2:2:0:0:
498,160,168316,5,8,2:2:0:0:
422,205,168473,2,0,P|410:176|412:148,1,58.4999973220826,0|0,2:2|2:2,2:2:0:0:
474,49,168630,102,0,B|446:62|446:62|365:52,1,62.9999980773926,0|0,3:2|2:2,2:2:0:0:
314,153,168788,2,0,P|307:125|332:109,1,62.9999980773926,0|0,2:2|2:2,2:2:0:0:
503,135,168945,2,0,P|515:164|511:199,1,62.9999980773926,8|0,2:2|2:2,2:2:0:0:
462,285,169102,5,0,2:2:0:0:
408,297,169181,1,0,2:2:0:0:
364,274,169259,1,0,3:2:0:0:
337,245,169338,1,0,2:2:0:0:
310,235,169416,1,0,2:2:0:0:
288,236,169495,1,0,2:2:0:0:
278,243,169573,101,8,0:2:0:0:
187,334,169730,2,0,P|203:305|198:276,1,62.9999980773926,0|0,2:2|2:2,2:2:0:0:
217,145,169887,6,0,P|203:183|210:241,1,53.9999983520508,0|0,3:2|2:2,2:2:0:0:
115,177,170044,2,0,P|122:216|156:263,1,53.9999983520508,0|0,2:2|2:2,2:2:0:0:
21,68,170201,102,0,P|34:106|27:164,1,53.9999983520508,8|0,2:2|2:2,2:2:0:0:
122,100,170358,2,0,P|113:139|79:186,1,53.9999983520508,0|0,2:2|2:2,2:2:0:0:
17,213,170515,5,0,3:2:0:0:
5,242,170594,1,0,2:2:0:0:
5,273,170672,1,0,2:2:0:0:
16,302,170751,1,0,2:2:0:0:
36,323,170829,102,0,P|99:272|253:249,1,229.500004377365,8|0,2:2|2:2,2:2:0:0:
325,188,171144,6,0,P|322:216|331:250,1,58.4999973220826,0|0,3:2|2:2,2:2:0:0:
228,333,171301,2,0,P|257:333|290:321,1,58.4999973220826,0|0,2:2|2:2,2:2:0:0:
494,288,171458,101,8,2:2:0:0:
471,324,171536,1,0,2:2:0:0:
430,338,171615,2,0,P|400:337|374:325,1,58.4999973220826,0|0,2:2|2:2,2:2:0:0:
397,145,171772,6,0,B|416:119|446:115|446:115|468:184|411:277,1,202.500007724762,0|0,3:2|2:2,2:2:0:0:
319,237,172086,102,2,P|256:216|136:232,1,135.000005149842,8|0,0:2|2:2,1:2:0:0:
96,200,172322,5,0,2:2:0:0:
96,200,172400,2,0,B|92:231|92:231|120:293,1,62.9999980773926,0|0,3:2|2:2,2:2:0:0:
273,243,172557,102,0,P|277:206|254:152,1,62.9999980773926,0|0,2:2|2:2,2:2:0:0:
135,108,172714,2,0,B|207:147|228:61|316:101,1,188.999994232178,8|0,2:2|2:2,2:2:0:0:
389,43,173028,5,0,3:2:0:0:
407,75,173107,1,0,2:2:0:0:
407,111,173185,1,0,2:2:0:0:
270,232,173343,102,0,P|268:186|279:173,1,54,8|0,2:2|2:2,2:2:0:0:
353,207,173657,6,2,B|423:219|423:219|518:180|518:180|497:270|497:270|382:312,1,297.000009063721,2|0,3:1|2:2,2:2:0:0:
379,306,173971,101,0,2:2:0:0:
371,301,174128,1,0,2:2:0:0:
363,296,174285,5,0,2:2:0:0:
335,252,174363,1,0,2:2:0:0:
329,200,174442,1,0,2:2:0:0:
343,150,174521,1,0,2:2:0:0:
379,114,174599,102,0,P|414:166|394:246,1,144,12|0,2:2|2:2,2:2:0:0:
330,308,174835,5,0,2:2:0:0:
330,308,174913,2,0,P|293:299|227:298,1,62.9999980773926,0|0,3:2|2:2,2:2:0:0:
330,187,175070,2,0,P|300:195|269:199,1,62.9999980773926,0|0,2:2|2:2,2:2:0:0:
243,311,175227,102,0,P|211:314|181:322,1,62.9999980773926,8|0,2:2|2:2,2:2:0:0:
249,178,175384,2,0,P|217:174|187:166,1,62.9999980773926,0|0,2:2|2:2,2:2:0:0:
27,227,175541,5,0,3:2:0:0:
108,42,175699,101,0,2:2:0:0:
122,78,175778,1,0,2:2:0:0:
114,115,175856,2,2,B|95:157|95:157|108:218|108:218|143:245,1,153.000002918243,8|0,2:2|2:2,2:2:0:0:
302,225,176091,1,0,2:2:0:0:
319,205,176170,6,0,L|309:118,1,62.9999980773926,0|0,3:2|2:2,2:2:0:0:
206,158,176327,2,0,P|215:127|213:96,1,62.9999980773926,0|0,2:2|2:2,2:2:0:0:
416,123,176484,2,0,P|398:96|390:66,1,62.9999980773926,8|0,2:2|2:2,2:2:0:0:
296,44,176641,101,0,2:2:0:0:
296,44,176719,1,0,2:2:0:0:
296,44,176798,1,0,3:2:0:0:
485,0,176955,2,0,P|483:45|465:89,1,62.9999980773926,0|0,2:2|2:2,2:2:0:0:
501,180,177112,6,2,P|425:143|389:144,1,94.499997116089,8|0,3:2|2:2,1:2:0:0:
326,118,177426,102,0,P|327:163|345:199,1,58.4999973220826,0|0,3:2|2:2,2:2:0:0:
406,281,177583,2,0,B|415:253|415:253|401:215,1,58.4999973220826,0|0,2:2|2:2,2:2:0:0:
269,237,177740,6,0,P|309:258|348:261,1,58.4999973220826,8|0,2:2|2:2,2:2:0:0:
427,366,177897,2,0,B|457:362|457:362|473:337,1,58.4999973220826,0|0,2:2|2:2,2:2:0:0:
512,223,178055,102,0,L|501:151,1,72,0|0,3:2|2:2,2:2:0:0:
401,211,178212,6,0,L|364:164,1,58.4999973220826,0|0,2:2|2:2,2:2:0:0:
305,244,178369,102,0,L|263:227,1,45,8|0,2:2|2:2,2:2:0:0:
245,303,178526,6,0,L|213:307,1,31.4999990386963,0|0,2:2|2:2,2:2:0:0:
145,362,178683,102,2,P|65:346|106:277,1,188.999994232178,0|0,3:2|2:2,1:2:0:0:
184,296,178997,6,0,P|213:305|245:303,1,62.9999980773926,8|0,2:2|2:2,2:2:0:0:
383,177,179154,101,0,2:2:0:0:
331,167,179233,1,0,2:2:0:0:
289,189,179311,1,0,3:2:0:0:
264,216,179390,1,0,2:2:0:0:
238,226,179468,1,0,2:2:0:0:
217,225,179547,1,0,2:2:0:0:
207,219,179625,6,2,B|187:197|181:178|181:178|182:148|204:117,1,94.499997116089,8|0,0:2|2:2,1:2:0:0:
268,165,179939,102,0,P|295:154|319:138,1,58.4999973220826,0|0,3:2|2:2,2:2:0:0:
258,81,180096,2,0,P|267:53|267:24,1,58.4999973220826,0|0,2:2|2:2,2:2:0:0:
136,194,180253,6,0,P|106:195|78:189,1,58.4999973220826,8|0,2:2|2:2,2:2:0:0:
117,112,180411,2,0,P|96:91|86:63,1,58.4999973220826,0|0,2:2|2:2,2:2:0:0:
177,41,180568,101,0,3:2:0:0:
8,123,180725,1,0,2:2:0:0:
194,135,180882,6,2,B|222:130|244:111|244:111|258:127|284:139|284:139|359:134,1,153.000002918243,8|0,2:2|2:2,2:2:0:0:
485,56,181117,1,0,2:2:0:0:
507,43,181196,6,0,P|496:89|494:163,1,62.9999980773926,0|0,3:2|2:2,2:2:0:0:
424,175,181353,2,0,P|419:143|412:113,1,62.9999980773926,0|0,2:2|2:2,2:2:0:0:
300,0,181510,102,0,P|307:30|311:61,1,62.9999980773926,8|0,2:2|2:2,2:2:0:0:
318,216,181667,2,0,P|322:184|329:154,1,62.9999980773926,0|0,2:2|2:2,2:2:0:0:
396,26,181824,101,0,3:2:0:0:
241,133,181981,1,0,2:2:0:0:
132,63,182138,6,2,P|175:42|222:40,1,94.499997116089,8|0,0:2|2:2,1:2:0:0:
345,159,182452,102,0,B|302:179|234:167|258:101|209:95|163:103|121:142|153:226|221:217|256:168,1,314.999990386963,0|0,3:2|2:2,2:2:0:0:
317,82,182924,86,0,P|370:81|396:101,1,62.9999980773926,0|0,2:3|2:2,2:2:0:0:
508,120,183081,5,8,2:3:0:0:
459,132,183159,1,0,2:2:0:0:
431,163,183238,1,0,2:2:0:0:
424,191,183316,1,0,2:2:0:0:
424,208,183395,102,2,P|425:224|430:236,1,27,2|0,2:3|2:2,1:2:0:0:
505,200,183709,5,4,2:2:0:0:
