osu file format v14

[General]
AudioFilename: audio.mp3
AudioLeadIn: 0
PreviewTime: 142871
Countdown: 0
SampleSet: Soft
StackLeniency: 0.7
Mode: 0
LetterboxInBreaks: 0
WidescreenStoryboard: 1

[Editor]
Bookmarks: 254,20358,41719,61824,81929,102034,122138,143500,163604,183709,203814
DistanceSpacing: 0.4
BeatDivisor: 8
GridSize: 32
TimelineZoom: 0.9999996

[Metadata]
Title:Ordirehv
TitleUnicode:Ordirehv
Artist:Feryquitous
ArtistUnicode:Feryquitous
Creator:JeZag
Version:Easy
Source:
Tags:freedom ep diverse system c95 artcore dnb drum and bass electronic instrumental nanashima asami captin1
BeatmapID:2154179
BeatmapSetID:935602

[Difficulty]
HPDrainRate:4
CircleSize:3
OverallDifficulty:3
ApproachRate:3
SliderMultiplier:0.799999999999999
SliderTickRate:1

[Events]
//Background and Video events
0,0,"67101372_p0.jpg",0,0
//Break Periods
2,62024,70437
2,102233,110332
//Storyboard Layer 0 (Background)
//Storyboard Layer 1 (Fail)
//Storyboard Layer 2 (Pass)
//Storyboard Layer 3 (Foreground)
//Storyboard Layer 4 (Overlay)
//Storyboard Sound Samples

[TimingPoints]
254,314.13612565445,4,2,1,50,1,0
20044,-100,4,2,1,50,0,0
41719,-100,4,2,1,70,0,0
61824,-100,4,2,1,50,0,0
81929,-100,4,2,1,70,0,0
111772,-100,4,2,1,50,0,0
122138,-100,4,2,3,70,0,0
143500,-100,4,2,2,70,0,1
153552,-100,4,2,2,70,0,0
156065,-100,4,2,2,70,0,1
162976,-100,4,2,2,70,0,0
163604,-100,4,2,2,70,0,1
173657,-100,4,2,2,70,0,0

[Colours]
Combo1 : 233,78,241
Combo2 : 227,227,227
Combo3 : 163,163,163
Combo4 : 236,155,207
Combo5 : 255,208,157
Combo6 : 150,160,237
Combo7 : 173,140,234
Combo8 : 248,97,101

[HitObjects]
26,69,41719,70,0,P|100:45|186:91,1,160,4|0,3:2|0:2,0:2:0:0:
212,154,42662,1,8,0:2:0:0:
260,80,42976,1,0,3:2:0:0:
435,76,43604,6,0,P|453:133|445:161,1,79.9999999999999,2|10,0:2|0:2,0:2:0:0:
463,238,44233,2,0,L|275:218,1,160,2|2,3:2|0:2,0:2:0:0:
257,146,45175,2,0,P|215:208|257:294,1,160,10|8,0:2|0:2,0:2:0:0:
263,368,46117,2,0,P|311:338|328:296,1,79.9999999999999,0|8,3:2|0:2,0:2:0:0:
404,286,46746,102,0,P|378:244|382:119,1,160,2|2,3:2|0:2,0:2:0:0:
448,87,47688,1,10,0:2:0:0:
396,15,48002,1,0,3:2:0:0:
281,148,48630,6,0,P|241:148|210:124,1,79.9999999999999,2|10,0:2|0:2,0:2:0:0:
131,85,49259,2,0,P|39:60|24:128,1,160,0|0,3:2|0:2,0:2:0:0:
3,188,50201,2,0,P|52:210|180:168,1,160,8|8,0:2|0:2,0:2:0:0:
213,255,51144,2,0,P|262:233|307:247,1,79.9999999999999,0|8,0:2|0:2,0:2:0:0:
339,306,51772,102,0,P|394:276|504:297,1,160,4|0,3:2|3:2,0:2:0:0:
501,199,52714,1,8,0:2:0:0:
429,147,53028,1,0,3:2:0:0:
274,232,53657,6,0,L|275:126,1,79.9999999999999,2|10,3:2|0:2,0:2:0:0:
337,89,54285,2,0,P|265:63|198:102,1,160,2|2,3:2|0:2,0:2:0:0:
156,180,55227,2,0,P|89:140|16:167,1,160,10|8,0:2|0:2,0:2:0:0:
3,253,56170,1,2,3:2:0:0:
175,286,56798,102,0,B|228:257|228:257|339:286,1,160,2|2,3:2|3:2,0:2:0:0:
374,354,57740,2,0,P|409:291|368:209,1,160,10|8,0:2|0:2,0:2:0:0:
281,66,58997,1,10,0:2:0:0:
236,141,59311,6,0,P|297:150|369:72,1,160,2|0,3:2|0:2,0:2:0:0:
449,63,60253,2,0,L|461:238,1,160,10|0,0:2|0:2,0:2:0:0:
392,279,61196,2,0,P|368:261|289:253,1,79.9999999999999,0|0,0:2|0:2,0:2:0:0:
239,284,61824,1,4,3:2:0:0:
41,138,71877,38,0,L|145:124,1,79.9999999999999,2|2,0:0|0:0,0:0:0:0:
190,74,72505,2,0,P|213:120|209:178,1,79.9999999999999,8|2,3:3|0:0,0:0:0:0:
279,208,73133,2,0,P|332:150|345:72,1,160,2|2,0:0|0:0,0:0:0:0:
494,168,74390,2,0,L|490:333,1,160,2|0,0:0|0:0,0:0:0:0:
319,286,75646,2,0,L|159:282,1,160,2|0,0:0|0:0,0:0:0:0:
35,156,76903,6,0,P|18:89|163:32,2,240,2|10|2,0:0|0:3|0:0,0:0:0:0:
201,198,79416,2,0,P|214:306|82:340,2,240,2|0|0,0:0|0:0|0:0,0:0:0:0:
67,112,81929,6,0,P|152:158|289:120,1,240,4|8,3:2|0:2,0:2:0:0:
363,82,83185,2,0,B|399:70|399:70|452:87,2,79.9999999999999,0|8|0,3:2|0:2|3:2,0:2:0:0:
364,170,84128,1,8,0:2:0:0:
418,238,84442,6,0,P|342:258|197:202,1,240,0|8,3:2|0:2,0:2:0:0:
118,160,85699,2,0,P|106:203|127:254,1,79.9999999999999,0|8,3:2|0:2,0:2:0:0:
76,315,86327,2,0,P|119:327|170:306,1,79.9999999999999,0|8,3:2|0:2,0:2:0:0:
252,324,86955,102,0,B|227:249|227:249|292:89,1,240,0|10,3:2|0:2,0:2:0:0:
375,89,88212,2,0,L|468:86,2,79.9999999999999,0|8|0,3:2|0:2|3:2,0:2:0:0:
357,175,89154,1,8,0:2:0:0:
396,253,89468,6,0,P|342:266|302:247,1,79.9999999999999,0|8,3:2|0:2,0:2:0:0:
278,336,90096,2,0,P|239:295|236:251,1,79.9999999999999,0|8,3:2|0:2,0:2:0:0:
160,320,90725,2,0,B|139:283|139:283|160:209|160:209|194:187,1,160,0|0,0:2|0:2,0:2:0:0:
283,184,91667,101,8,0:2:0:0:
312,101,91981,1,2,0:1:0:0:
62,15,92924,5,4,0:2:0:0:
62,102,93238,2,0,L|252:87,1,160,0|0,3:2|3:2,0:2:0:0:
296,43,94180,1,10,0:2:0:0:
377,76,94494,102,0,P|424:116|426:224,1,160,2|0,3:2|3:2,0:2:0:0:
369,270,95437,2,0,P|313:216|235:215,1,160,10|8,0:2|0:2,0:2:0:0:
165,269,96379,1,2,3:2:0:0:
0,209,97007,6,0,P|59:162|173:204,1,160,2|2,3:2|3:2,0:2:0:0:
173,90,97950,2,0,P|251:79|312:127,1,160,10|10,0:2|0:2,0:2:0:0:
297,302,99206,1,10,0:2:0:0:
352,232,99521,102,0,P|276:217|216:265,1,160,2|0,3:2|3:2,0:2:0:0:
132,291,100463,1,10,0:2:0:0:
54,250,100777,2,0,P|30:157|202:185,1,320,0|4,3:2|0:2,0:2:0:0:
443,97,111772,85,2,0:0:0:0:
391,168,112086,2,0,B|340:191|340:191|218:158,1,160,2|0,0:0|0:0,0:0:0:0:
200,85,113028,2,0,P|118:62|125:197,1,240,2|0,0:0|0:0,0:0:0:0:
83,271,114285,1,2,0:0:0:0:
145,333,114599,2,0,P|206:341|316:277,1,160,2|0,0:0|0:0,0:0:0:0:
377,336,115541,2,0,P|439:333|401:203,1,240,2|0,0:0|0:0,0:0:0:0:
352,139,116798,5,2,0:0:0:0:
278,187,117112,2,0,P|217:195|107:131,1,160,2|0,0:0|0:0,0:0:0:0:
114,69,118055,2,0,P|198:53|342:121,1,240,2|0,0:0|0:0,0:0:0:0:
422,102,119311,1,2,0:0:0:0:
434,189,119625,2,0,L|377:357,1,160,2|0,0:0|0:0,0:0:0:0:
300,309,120568,2,0,B|253:284|253:284|170:301|170:301|79:254|79:254|117:257|117:257|155:236,1,320,2|0,0:0|0:0,0:0:0:0:
98,167,122138,70,0,P|144:148|207:163,1,79.9999999999999,0|8,3:2|0:2,0:2:0:0:
256,179,122767,2,0,P|309:174|251:64,1,240,8|8,0:2|0:2,0:2:0:0:
182,111,124023,1,8,0:2:0:0:
24,33,124651,6,0,L|37:162,1,79.9999999999999,0|8,3:2|0:2,0:2:0:0:
53,204,125280,2,0,B|175:189|157:291|299:283,1,240,8|8,0:2|0:2,0:2:0:0:
359,273,126536,1,8,0:2:0:0:
472,139,127164,102,0,B|432:148|432:148|377:124,1,79.9999999999999,0|8,3:2|0:2,0:2:0:0:
350,56,127793,2,0,P|299:119|270:293,1,240,8|8,0:2|0:2,0:2:0:0:
311,348,129049,1,8,0:2:0:0:
141,300,129678,6,0,P|157:256|153:212,1,79.9999999999999,0|8,3:2|0:2,0:2:0:0:
151,135,130306,2,0,B|222:152|222:152|321:105|321:105|391:122,1,240,8|8,0:2|0:2,0:2:0:0:
437,182,131562,1,8,0:2:0:0:
440,358,132191,102,0,L|282:358,1,79.9999999999999,0|0,3:2|0:2,0:2:0:0:
301,292,132819,2,0,B|183:254|191:365|61:320,1,240,8|8,0:2|0:2,0:2:0:0:
15,256,134075,1,8,0:2:0:0:
37,81,134704,6,0,P|97:71|130:93,1,79.9999999999999,0|8,3:2|0:2,0:2:0:0:
186,29,135332,2,0,P|262:88|161:154,1,240,8|8,0:2|0:2,0:2:0:0:
104,109,136589,1,8,0:2:0:0:
161,275,137217,102,0,P|198:261|280:285,1,79.9999999999999,0|8,3:2|0:2,0:2:0:0:
309,314,137845,2,0,B|359:200|248:201|286:79,1,240,8|8,0:2|0:2,0:2:0:0:
346,22,139102,1,8,0:2:0:0:
469,147,139730,6,0,L|374:135,1,79.9999999999999,0|8,3:2|0:2,0:2:0:0:
340,209,140358,2,0,B|266:217|266:217|201:159|201:159|105:150,1,240,8|8,0:2|0:2,0:2:0:0:
44,192,141615,2,0,P|25:237|96:345,1,160,0|0,3:2|3:2,3:2:0:0:
345,333,143500,70,0,P|387:268|370:192,2,160,6|2|0,3:2|0:2|3:2,0:2:0:0:
257,329,145070,2,0,L|58:321,1,160,10|8,0:2|0:2,0:2:0:0:
17,283,146013,5,0,3:2:0:0:
52,202,146327,2,0,P|119:198|217:259,1,160,10|10,0:2|0:2,0:2:0:0:
272,189,147269,2,0,P|357:226|449:224,1,160,0|0,3:2|0:2,0:2:0:0:
482,162,148212,1,10,0:2:0:0:
443,83,148526,102,0,P|366:57|269:103,1,160,2|2,3:2|0:2,0:2:0:0:
208,57,149468,1,10,0:2:0:0:
197,144,149782,2,0,P|142:216|3:178,1,240,0|10,3:2|0:2,0:2:0:0:
11,100,151039,6,0,P|118:62|197:144,1,240,0|8,3:2|0:2,0:2:0:0:
218,231,152295,1,2,3:2:0:0:
375,310,152924,102,0,P|414:306|446:283,2,79.9999999999999,2|8|2,0:2|2:3|0:2,0:2:0:0:
350,135,154180,2,0,P|429:143|469:196,1,120,2|0,0:3|3:2,0:2:0:0:
381,217,154966,6,0,B|291:243|269:176|167:217,1,200,2|2,0:2|0:2,0:2:0:0:
130,280,156065,1,4,3:2:0:0:
42,280,156379,2,0,P|2:238|28:135,1,160,10|10,0:2|0:2,0:2:0:0:
11,56,157322,2,0,B|97:53|89:128|179:111,1,160,0|2,3:2|0:2,0:2:0:0:
232,71,158264,1,10,0:2:0:0:
308,114,158578,102,0,P|375:96|481:133,1,160,0|2,3:2|0:2,0:2:0:0:
511,188,159521,1,10,0:2:0:0:
455,256,159835,2,0,L|290:246,1,160,2|0,3:2|0:2,0:2:0:0:
218,203,160777,1,10,0:2:0:0:
195,117,161091,6,0,P|249:44|389:83,1,240,0|8,3:2|0:2,0:2:0:0:
378,160,162348,2,0,P|274:206|220:185,1,160,0|8,3:2|0:3,0:2:0:0:
96,302,163604,70,0,L|262:306,1,160,4|0,3:2|3:2,0:2:0:0:
329,354,164547,1,8,0:2:0:0:
407,313,164861,1,0,3:2:0:0:
384,138,165489,6,0,P|345:132|289:162,1,79.9999999999999,2|8,3:2|0:2,0:2:0:0:
277,63,166117,2,0,P|226:109|226:230,1,160,2|0,3:2|3:2,0:2:0:0:
272,261,167060,1,10,0:2:0:0:
185,277,167374,2,0,P|103:284|47:214,1,160,0|2,3:2|3:2,0:2:0:0:
20,152,168316,1,8,0:2:0:0:
99,113,168630,102,0,P|175:70|319:99,1,240,2|8,3:2|0:2,0:2:0:0:
364,22,169887,2,0,P|429:119|415:236,1,240,2|8,3:2|0:2,0:2:0:0:
376,315,171144,6,0,P|332:289|197:287,1,160,2|0,3:2|3:2,0:2:0:0:
159,336,172086,2,0,P|81:339|53:325,1,79.9999999999999,10|0,0:2|3:2,0:2:0:0:
19,276,172714,2,0,L|23:184,1,79.9999999999999,8|0,0:2|3:2,0:2:0:0:
91,141,173343,101,8,0:2:0:0:
170,179,173657,1,2,0:1:0:0:
429,58,174599,5,4,0:2:0:0:
355,106,174913,2,0,L|165:91,1,160,0|0,3:2|3:2,0:2:0:0:
119,48,175855,1,10,0:2:0:0:
52,105,176169,102,0,P|26:162|70:260,1,160,2|0,3:2|3:2,0:2:0:0:
143,270,177112,2,0,P|199:216|277:215,1,160,10|8,0:2|0:2,0:2:0:0:
347,269,178054,1,2,3:2:0:0:
512,209,178682,6,0,P|453:162|339:204,1,160,2|2,3:2|3:2,0:2:0:0:
339,90,179625,2,0,P|261:79|200:127,1,160,10|10,0:2|0:2,0:2:0:0:
215,302,180881,1,10,0:2:0:0:
160,232,181196,102,0,P|236:217|296:265,1,160,2|0,3:2|3:2,0:2:0:0:
380,291,182138,1,10,0:2:0:0:
458,250,182452,2,0,P|452:159|312:179,1,240,0|0,3:2|0:2,0:2:0:0:
242,130,183709,1,4,0:2:0:0:
