osu file format v14

[General]
AudioFilename: audio.mp3
AudioLeadIn: 0
PreviewTime: 12654
Countdown: 0
SampleSet: Soft
StackLeniency: 0.2
Mode: 0
LetterboxInBreaks: 0
WidescreenStoryboard: 1

[Editor]
DistanceSpacing: 1.5
BeatDivisor: 4
GridSize: 16
TimelineZoom: 3.199999

[Metadata]
Title:Misogi Kakuriyo e no Gi / Ehgze
TitleUnicode:禊 幽世への儀 / Ehgze
Artist:Feryquitous
ArtistUnicode:Feryquitous
Creator:Reywateil
Version:phynta's insane
Source:
Tags:Sennzai ZheleNaught Irui Diverse System YsK439 japanese breakcore electronic instrumental yooh jezag phynta
BeatmapID:3565361
BeatmapSetID:1742876

[Difficulty]
HPDrainRate:4.5
CircleSize:3.5
OverallDifficulty:8
ApproachRate:9
SliderMultiplier:2.2
SliderTickRate:1

[Events]
//Background and Video events
0,0,"bg_01.jpg",0,0
//Break Periods
//Storyboard Layer 0 (Background)
//Storyboard Layer 1 (Fail)
//Storyboard Layer 2 (Pass)
//Storyboard Layer 3 (Foreground)
//Storyboard Layer 4 (Overlay)
//Storyboard Sound Samples

[TimingPoints]
1988,666.666666666667,4,2,1,40,1,0
2988,-200,4,2,1,40,0,0
4321,-66.6666666666667,4,2,1,40,0,0
5654,-200,4,2,1,40,0,0
6988,-66.6666666666667,4,2,1,40,0,0
7988,-200,4,2,1,40,0,0
9654,-66.6666666666667,4,2,1,40,0,0
10988,-200,4,2,1,40,0,0
12654,-66.6666666666667,4,2,1,50,0,0
13654,-200,4,2,1,50,0,0
14988,-50,4,2,1,50,0,0
16321,-200,4,2,1,50,0,0
17654,-50,4,2,1,50,0,0
17988,-66.6666666666667,4,2,1,50,0,0
18988,-200,4,2,1,50,0,0
20321,-50,4,2,1,50,0,0
21654,-200,4,2,1,50,0,0
22988,-50,4,2,1,50,0,0
23321,-66.6666666666667,4,2,1,50,0,0
24321,-133.333333333333,4,2,1,50,0,0
25654,-50,4,2,1,50,0,0
26988,-133.333333333333,4,2,1,50,0,0
28321,-50,4,2,1,50,0,0
28654,-66.6666666666667,4,2,1,50,0,0
29654,-133.333333333333,4,2,1,50,0,0
30988,-50,4,2,1,50,0,0
31988,-133.333333333333,4,2,1,50,0,0
33988,-50,4,2,1,60,0,0
34988,-133.333333333333,4,2,1,60,0,0
36321,-44.4444444444445,4,2,1,60,0,0
37654,-133.333333333333,4,2,1,60,0,0
38988,-44.4444444444445,4,2,1,60,0,0
39321,-50,4,2,1,60,0,0
40321,-133.333333333333,4,2,1,60,0,0
41654,-44.4444444444445,4,2,1,60,0,0
42654,-133.333333333333,4,2,1,60,0,0
44321,-44.4444444444445,4,2,1,60,0,0
44654,-50,4,2,1,60,0,0
45654,-133.333333333333,4,2,1,60,0,0
46988,-44.4444444444445,4,2,1,60,0,0
48321,-133.333333333333,4,2,1,60,0,0
49654,-44.4444444444445,4,2,1,60,0,0
49988,-50,4,2,1,60,0,0
50988,-133.333333333333,4,2,1,60,0,0
52321,-44.4444444444445,4,2,1,60,0,0
53321,-133.333333333333,4,2,1,60,0,0
54654,-100,4,2,1,60,0,0
55315,300,4,2,1,75,1,0
55390,-100,4,2,2,5,0,0
57715,-100,4,2,1,80,0,1
58315,-66.6666666666667,4,2,1,80,0,1
59140,-133.333333333333,4,2,1,80,0,1
59440,-80,4,2,1,80,0,1
60865,-100,4,2,2,5,0,1
60940,-66.6666666666667,4,2,1,80,0,1
61615,-100,4,2,1,80,0,1
61915,-80,4,2,1,80,0,1
63115,-66.6666666666667,4,2,1,80,0,1
65665,-100,4,2,2,5,0,1
65740,-100,4,2,1,80,0,1
65965,-66.6666666666667,4,2,1,80,0,1
66115,-100,4,2,1,5,0,1
66190,-100,4,2,1,80,0,1
66415,-80,4,2,1,80,0,1
67315,-142.857142857143,4,2,1,80,0,0

[Colours]
Combo1 : 255,255,128
Combo2 : 175,255,255
Combo3 : 255,255,160
Combo4 : 128,255,255

[HitObjects]
44,362,1988,6,0,P|36:281|6:133,1,220,8|0,3:1|0:0,0:0:0:0:
45,131,2988,6,0,P|23:177|4:243,1,110,8|0,3:2|0:0,0:0:0:0:
79,287,3988,1,0,0:0:0:0:
272,188,4321,6,0,B|315:169|315:169|440:203,2,165.000006294251,8|4|4,3:1|3:2|3:2,0:0:0:0:
205,338,5321,2,0,B|175:299|198:237|198:237|210:264|244:273,1,165.000006294251,8|8,3:1|3:2,0:0:0:0:
58,35,6321,6,0,L|29:44,2,27.5
198,158,6988,1,8,3:1:0:0:
409,19,7321,6,0,B|379:68|379:68|404:181,1,165.000006294251,8|0,3:1|0:0,0:0:0:0:
425,253,7821,2,0,B|435:226|435:226|420:159,1,82.5000031471254
450,340,8321,1,8,3:2:0:0:
450,340,9321,1,0,0:0:0:0:
110,362,9654,6,0,P|56:361|22:266,2,165.000006294251,8|4|4,3:1|3:2|3:2,0:0:0:0:
199,213,10654,2,0,P|167:242|156:284,1,82.5000031471254,8|0,3:2|0:0,0:0:0:0:
199,359,10988,6,0,B|248:355|248:355|260:362|260:362|308:358,1,110,8|0,3:2|0:0,0:0:0:0:
348,288,11821,1,0,0:0:0:0:
348,288,11988,1,8,3:2:0:0:
489,370,12321,2,0,B|499:352|499:352|493:324,1,41.25,0|0,3:0|0:0,0:0:0:0:
475,289,12654,6,0,B|451:206|514:218|489:126,1,165.000006294251,8|0,3:1|0:0,0:0:0:0:
330,39,13321,2,0,P|354:34|409:2,1,82.5000031471254
315,29,13654,1,8,3:2:0:0:
315,29,14654,1,0,0:0:0:0:
24,138,14988,6,0,B|17:156|17:156|60:172|70:219|70:219|73:170|120:145|120:145|111:127,2,220,8|4|4,3:1|3:2|3:2,0:0:0:0:
75,302,15988,1,8,3:1:0:0:
57,47,16321,1,8,3:2:0:0:
375,367,17654,6,0,P|403:314|453:309,1,110,8|0,3:2|0:0,0:0:0:0:
510,360,17988,6,0,P|419:344|244:328,1,247.500009441376,8|0,3:1|0:0,0:0:0:0:
185,354,18654,1,0,0:0:0:0:
351,243,18988,1,8,3:2:0:0:
143,111,20321,6,0,B|114:77|114:77|118:32|118:32|152:4|152:4|196:8|196:8|225:41,2,220,8|4|4,3:1|3:2|3:2,0:0:0:0:
326,51,21321,2,0,P|378:66|408:119,1,110,8|0,3:2|0:0,0:0:0:0:
312,62,21654,1,8,3:2:0:0:
466,16,22321,6,0,L|474:53,1,27.5
478,64,22654,1,8,3:2:0:0:
376,195,22988,1,0,3:0:0:0:
488,347,23321,6,0,B|495:361|514:374|514:374|411:358|411:358|390:274|478:282|470:184,1,330.000012588501,8|0,3:1|0:0,0:0:0:0:
298,366,24321,1,8,3:2:0:0:
35,23,25654,6,0,B|72:31|72:31|40:170|40:170|77:179,2,220,8|4|4,3:1|3:2|3:2,0:0:0:0:
115,258,26654,1,8,3:1:0:0:
363,162,26988,1,8,3:2:0:0:
363,162,27654,6,0,P|339:151|328:135,1,41.2500015735627
315,108,27988,1,0,0:0:0:0:
481,180,28321,1,0,3:0:0:0:
364,341,28654,6,0,B|288:338|288:338|243:337|250:370|201:368|201:368|124:367,1,247.500009441376,8|0,3:1|0:0,0:0:0:0:
31,361,29321,2,0,P|8:338|20:285,1,82.5000031471254
45,362,29654,1,8,3:2:0:0:
418,170,30988,6,0,B|405:144|405:144|462:86|462:86|500:157|500:157|481:178,2,220,8|4|4,3:1|3:2|3:2,0:0:0:0:
476,4,31988,1,8,3:2:0:0:
436,254,32321,1,8,3:2:0:0:
236,113,32988,6,0,P|238:139|250:160,1,41.2500015735627
262,168,33321,1,8,3:2:0:0:
318,21,33654,1,0,3:0:0:0:
117,122,33988,6,0,B|71:144|71:144|-7:121|-7:121|-25:31|-25:31|-17:23|-17:23|61:41|61:41|64:75,1,330,8|0,3:1|0:0,0:0:0:0:
92,230,34654,2,0,P|65:267|58:334,1,110
107,227,34988,1,8,3:2:0:0:
464,258,36321,6,0,B|437:252|418:268|418:268|365:255|343:165|426:186|393:81,2,247.500009441376,8|8|8,3:1|3:2|3:2,0:0:0:0:
496,69,37321,2,0,P|504:26|434:17,1,123.750004720688,8|0,3:1|0:0,0:0:0:0:
491,82,37654,1,8,3:2:0:0:
348,278,38321,6,0,L|356:320,1,41.2500015735627
360,340,38654,1,0,0:0:0:0:
502,364,38988,1,0,3:0:0:0:
372,108,39321,6,0,P|278:141|41:184,1,330,8|0,3:1|0:0,0:0:0:0:
0,122,39988,2,0,P|61:138|108:168,1,110
162,219,40321,1,8,3:2:0:0:
162,219,41321,1,0,0:0:0:0:
452,342,41654,6,0,B|468:354|470:368|470:368|528:329|490:273|495:271|500:269|456:224|510:162,2,247.500009441376,8|8|8,3:1|3:2|3:2,0:0:0:0:
306,252,42654,2,0,P|329:239|351:238,1,41.2500015735627,8|0,3:2|0:0,0:0:0:0:
376,245,42988,1,8,3:2:0:0:
158,369,43654,5,0,0:0:0:0:
81,356,43821,1,0,0:0:0:0:
5,343,43988,1,8,3:2:0:0:
250,176,44321,1,0,3:0:0:0:
67,34,44654,6,0,B|9:58|-22:147|45:219|119:210|157:181|157:181|157:161|166:142,1,330,8|0,3:1|0:0,0:0:0:0:
275,40,45321,2,0,P|316:75|321:133,1,110
198,67,45654,1,8,3:2:0:0:
473,142,46988,6,0,B|430:162|425:218|425:218|497:258|497:363,2,247.500009441376,8|8|8,3:1|3:2|3:2,0:0:0:0:
327,361,47988,2,0,P|257:339|192:311,1,123.750004720688,8|0,3:1|0:0,0:0:0:0:
341,356,48321,1,8,3:2:0:0:
44,212,48988,5,0,0:0:0:0:
18,282,49154,1,0,0:0:0:0:
93,269,49321,1,8,3:2:0:0:
7,23,49654,1,0,3:0:0:0:
455,90,49988,6,0,B|511:61|472:-60|274:8|330:168,1,330,8|0,3:1|0:0,0:0:0:0:
420,232,50654,2,0,B|433:206|419:174|419:174|414:203|394:222,1,110
319,249,50988,1,8,3:2:0:0:
487,359,51988,1,0,0:0:0:0:
241,193,52321,6,0,B|138:210|138:210|128:219|133:228|122:240|122:240|8:257,2,247.500009441376,8|8|8,3:1|3:2|3:2,0:0:0:0:
419,26,53321,2,0,P|402:52|402:71,1,41.2500015735627,8|0,3:2|0:0,0:0:0:0:
408,87,53654,1,8,3:2:0:0:
498,66,54321,5,0,0:0:0:0:
408,87,54488,1,0,0:0:0:0:
317,108,54654,1,8,3:2:0:0:
455,261,54988,1,0,3:0:0:0:
37,352,55315,5,12,3:3:0:0:
231,2,57715,6,0,P|204:44|215:103,1,110,8|0,3:0|0:0,0:0:0:0:
257,269,58015,2,0,P|283:226|272:167,1,110,8|0,3:0|0:0,0:0:0:0:
123,141,58315,6,0,B|225:130|225:130|256:139|256:139|367:128,3,247.500009441376,4|4|0|8,3:0|3:0|3:0|3:0,0:0:0:0:
445,20,59140,2,0,L|452:68,1,41.2500015735627,0|4,0:0|3:0,0:0:0:0:
471,169,59365,1,0,0:0:0:0:
471,169,59440,2,0,P|417:207|419:280,1,137.5,0|0,3:0|3:0,0:0:0:0:
463,349,59665,5,8,3:0:0:0:
469,349,59740,1,0,3:0:0:0:
475,348,59815,1,0,3:0:0:0:
482,348,59890,1,8,3:0:0:0:
488,347,59965,1,0,3:0:0:0:
278,265,60115,5,8,3:0:0:0:
209,204,60265,2,0,B|183:248|183:248|207:343,1,137.5,4|0,3:0|0:0,0:0:0:0:
347,326,60565,5,0,3:0:0:0:
347,326,60640,1,12,3:0:0:0:
347,326,60715,2,0,B|373:282|373:282|349:187,1,137.5
279,154,60940,6,0,B|253:110|253:110|281:-6,1,165.000006294251,8|0,3:0|3:0,0:0:0:0:
360,1,61165,5,4,3:0:0:0:
135,152,61390,5,4,3:0:0:0:
274,371,61615,6,0,P|236:340|171:340,1,110,8|0,3:0|0:0,0:0:0:0:
98,372,61840,1,0,3:0:0:0:
98,372,61915,2,0,P|42:360|119:296,1,206.25,8|0,3:0|3:0,0:0:0:0:
181,255,62215,5,8,3:0:0:0:
189,244,62290,1,0,0:0:0:0:
196,231,62365,1,0,0:0:0:0:
201,215,62440,1,0,3:0:0:0:
200,198,62515,6,0,B|166:153|166:153|178:60,1,137.5,8|0,3:0|0:0,0:0:0:0:
243,24,62740,2,0,B|263:44|263:44|257:87,1,68.75,0|4,3:0|3:0,0:0:0:0:
91,121,62965,5,0,0:0:0:0:
91,121,63040,1,0,3:0:0:0:
91,121,63115,2,0,L|336:91,3,247.500009441376,12|8|4|4,3:0|3:0|3:0|3:0,0:0:0:0:
446,51,64015,6,0,B|459:34|459:34|456:12|456:12|439:0|439:0|418:2|418:2|405:18|405:18|407:40|407:40|424:53|424:53|445:51,1,165.000006294251,8|0,3:0|0:0,0:0:0:0:
451,134,64240,2,0,B|460:199|460:199|448:230|448:230|457:297,1,165.000006294251,0|0,3:0|3:0,0:0:0:0:
411,360,64465,2,0,L|330:371,1,82.5000031471254,8|0,3:0|3:0,0:0:0:0:
257,327,64615,5,0,3:0:0:0:
253,316,64690,1,8,3:0:0:0:
256,304,64765,1,0,3:0:0:0:
213,216,64915,6,0,P|174:202|133:214,1,82.5000031471254,8|0,3:0|0:0,0:0:0:0:
111,233,65065,2,0,P|96:299|171:357,1,165.000006294251,4|0,3:0|0:0,0:0:0:0:
312,222,65365,5,0,3:0:0:0:
312,222,65440,1,12,3:0:0:0:
312,222,65515,2,0,L|295:39,1,165.000006294251
293,32,65740,2,0,B|264:6|264:6|191:14,1,110,8|0,3:0|3:0,0:0:0:0:
104,47,65965,6,0,B|107:92|107:92|127:108|127:108|235:98,1,165.000006294251,4|0,3:0|0:0,0:0:0:0:
250,128,66190,2,0,L|359:117,1,110,4|0,3:0|0:0,0:0:0:0:
391,80,66415,2,0,P|477:78|487:181,1,206.25,8|0,3:0|3:0,0:0:0:0:
429,232,66715,6,0,P|409:260|412:297,3,68.75,8|0|0|0,3:0|3:0|3:0|3:0,0:0:0:0:
464,361,67015,5,8,3:0:0:0:
469,360,67090,1,0,3:0:0:0:
475,359,67165,1,0,3:0:0:0:
481,358,67240,1,0,3:0:0:0:
484,358,67315,1,12,3:0:0:0:
