osu file format v14

[General]
AudioFilename: audio.mp3
AudioLeadIn: 0
PreviewTime: 12654
Countdown: 0
SampleSet: Soft
StackLeniency: 0.7
Mode: 0
LetterboxInBreaks: 0
WidescreenStoryboard: 1

[Editor]
Bookmarks: 33988
DistanceSpacing: 1.2
BeatDivisor: 4
GridSize: 8
TimelineZoom: 3.199999

[Metadata]
Title:Misogi Kakuriyo e no Gi / Ehgze
TitleUnicode:禊 幽世への儀 / Ehgze
Artist:Feryquitous
ArtistUnicode:Feryquitous
Creator:Reywateil
Version:normal
Source:
Tags:Sennzai ZheleNaught Irui Diverse System YsK439 japanese breakcore electronic instrumental yooh jezag phynta
BeatmapID:3563589
BeatmapSetID:1742876

[Difficulty]
HPDrainRate:3
CircleSize:3
OverallDifficulty:4
ApproachRate:5
SliderMultiplier:1.1
SliderTickRate:1

[Events]
//Background and Video events
0,0,"bg_01.jpg",0,0
//Break Periods
2,55515,56515
//Storyboard Layer 0 (Background)
//Storyboard Layer 1 (Fail)
//Storyboard Layer 2 (Pass)
//Storyboard Layer 3 (Foreground)
//Storyboard Layer 4 (Overlay)
//Storyboard Sound Samples

[TimingPoints]
1988,666.666666666667,4,2,1,40,1,0
1988,-76.9230769230769,4,2,1,40,0,0
12654,-76.9230769230769,4,2,1,50,0,0
33988,-76.9230769230769,4,2,1,60,0,0
55315,300,4,2,1,75,1,0
55315,-100,4,2,1,75,0,0
57715,-100,4,2,1,80,0,1
67315,-100,4,2,1,80,0,0

[Colours]
Combo1 : 255,255,128
Combo2 : 175,255,255
Combo3 : 255,255,160
Combo4 : 128,255,255

[HitObjects]
506,22,1988,6,0,L|443:249,1,214.49999018097,8|8,3:1|3:2,0:0:0:0:
116,315,4321,2,0,L|134:387,2,71.4999967269899,8|4|4,3:1|3:2|3:2,0:0:0:0:
37,279,5321,2,0,L|58:210,1,71.4999967269899,8|8,3:1|3:2,0:0:0:0:
373,349,6988,5,8,3:1:0:0:
457,333,7321,2,0,B|471:278|471:278|328:160,1,214.49999018097,8|8,3:1|3:2,0:0:0:0:
39,31,9654,6,0,L|10:104,2,71.4999967269899,8|4|4,3:1|3:2|3:2,0:0:0:0:
120,3,10654,2,0,B|160:21|160:21|178:73,1,71.4999967269899,8|8,3:2|3:2,0:0:0:0:
502,130,12321,5,0,3:0:0:0:
490,45,12654,2,0,B|447:59|447:59|343:210,1,214.49999018097,8|8,3:1|3:2,0:0:0:0:
135,339,14654,6,0,L|93:326,1,35.749998363495
59,316,14988,2,0,L|35:395,2,71.4999967269899,8|4|4,3:1|3:2|3:2,0:0:0:0:
103,242,15988,2,0,B|112:223|112:223|93:160,1,71.4999967269899,8|8,3:1|3:2,0:1:0:0:
0,34,16988,6,0,L|13:-9,2,35.749998363495,0|0|0,0:0|0:0|0:2,0:0:0:0:
66,87,17654,1,8,3:2:0:0:
150,69,17988,2,0,L|314:36,1,142.99999345398,8|0,3:1|0:0,0:0:0:0:
374,24,18988,1,8,3:2:0:0:
511,241,19988,6,0,L|500:278,1,35.749998363495
470,305,20321,2,0,L|494:374,2,71.4999967269899,8|4|4,3:1|3:2|3:2,0:0:0:0:
386,284,21321,2,0,L|305:266,1,71.4999967269899,8|8,3:2|3:2,0:0:0:0:
160,341,22321,6,0,L|169:375,2,35.749998363495,0|0|8,0:0|0:0|3:2,0:0:0:0:
94,285,22988,1,0,3:0:0:0:
101,199,23321,2,0,B|125:189|125:189|199:1,1,214.49999018097,8|8,3:1|3:2,0:0:0:0:
257,263,25321,6,0,L|266:299,1,35.749998363495
305,314,25654,2,0,L|290:393,2,71.4999967269899,8|4|4,3:1|3:2|3:2,0:0:0:0:
361,249,26654,2,0,L|441:232,1,71.4999967269899,8|8,3:1|3:2,0:0:0:0:
477,69,27654,6,0,L|517:79,2,35.749998363495
414,9,28321,1,0,3:0:0:0:
338,50,28654,2,0,L|371:215,1,142.99999345398,8|0,3:1|0:0,0:0:0:0:
304,250,29654,1,8,3:2:0:0:
6,366,30654,6,0,L|16:330,1,35.749998363495
51,307,30988,2,0,B|35:277|35:277|0:259,2,71.4999967269899,8|4|4,3:1|3:2|3:2,0:0:0:0:
129,341,31988,2,0,B|138:307|138:307|129:267,1,71.4999967269899,8|8,3:2|3:2,0:0:0:0:
78,108,32988,6,0,L|68:72,2,35.749998363495,0|0|8,0:0|0:0|3:2,0:0:0:0:
147,158,33654,1,0,3:0:0:0:
232,153,33988,6,0,L|283:4,1,142.99999345398,8|0,3:1|0:0,0:0:0:0:
364,24,34988,1,8,3:2:0:0:
507,239,35988,6,0,L|469:248,1,35.749998363495
435,225,36321,2,0,L|422:153,2,71.4999967269899,8|8|8,3:1|3:2|3:2,0:0:0:0:
394,300,37321,2,0,B|371:286|371:286|345:250,1,71.4999967269899,8|8,3:1|3:2,0:0:0:0:
202,153,38321,6,0,L|164:144,2,35.749998363495
285,171,38988,1,0,3:0:0:0:
368,151,39321,6,0,B|356:115|356:115|264:43,1,142.99999345398,8|0,3:1|0:0,0:0:0:0:
202,1,40321,1,8,3:2:0:0:
8,171,41321,6,0,L|-2:206,1,35.749998363495
24,239,41654,2,0,L|94:223,2,71.4999967269899,8|8|8,3:1|3:2|3:2,0:0:0:0:
11,324,42654,2,0,L|95:349,1,71.4999967269899,8|8,3:2|3:2,0:0:0:0:
251,350,43654,6,0,L|260:386,2,35.749998363495,0|0|8,0:0|0:0|3:2,0:0:0:0:
293,275,44321,1,0,3:0:0:0:
378,285,44654,6,0,L|420:147,1,142.99999345398,8|0,3:1|0:0,0:0:0:0:
497,109,45654,1,8,3:2:0:0:
263,0,46654,6,0,L|271:35,1,35.749998363495
282,76,46988,2,0,L|352:92,2,71.4999967269899,8|8|8,3:1|3:2|3:2,0:0:0:0:
201,104,47988,2,0,B|172:120|172:120|154:158,1,71.4999967269899,8|8,3:1|3:2,0:0:0:0:
103,318,48988,6,0,L|92:363,2,35.749998363495,0|0|8,0:0|0:0|3:2,0:0:0:0:
186,298,49654,1,0,3:0:0:0:
247,358,49988,6,0,L|388:331,1,142.99999345398,8|0,3:1|0:0,0:0:0:0:
461,375,50988,1,8,3:2:0:0:
500,120,51988,6,0,L|487:85,1,35.749998363495
458,55,52321,2,0,B|476:27|476:27|515:13,2,71.4999967269899,8|8|8,3:1|3:2|3:2,0:0:0:0:
387,104,53321,2,0,L|310:88,1,71.4999967269899,8|8,3:2|3:2,0:0:0:0:
183,197,54321,6,0,L|151:230,2,35.749998363495,0|0|8,0:0|0:0|3:2,0:0:0:0:
267,211,54988,2,0,L|304:217,1,35.749998363495,0|0,3:0|3:0,0:0:0:0:
363,224,55315,1,12,3:3:0:0:
389,254,57715,6,0,L|423:375,2,110,8|8|4,3:0|3:0|3:0,0:0:0:0:
367,174,58540,1,4,3:0:0:0:
400,98,58765,2,0,B|484:121|484:121,2,82.5,0|8|4,3:0|3:0|3:0,0:0:0:0:
331,51,59440,6,0,B|290:79|290:79|134:114|134:114|111:152,1,247.5,0|8,3:0|3:0,0:0:0:0:
86,193,60265,1,4,3:0:0:0:
37,321,60640,6,0,L|166:356,1,110,12|8,3:0|3:0,0:0:0:0:
213,307,61165,2,0,B|194:252|194:252|157:231,2,82.5,4|4|8,3:0|3:0|3:0,0:0:0:0:
273,363,61840,2,0,B|308:348|308:348|384:138,1,247.5,0|8,3:0|3:0,0:0:0:0:
409,74,62740,1,0,3:0:0:0:
289,6,63115,6,0,L|201:32,1,82.5,12|8,3:0|3:0,0:0:0:0:
151,88,63565,2,0,B|128:78|128:78|93:14,2,82.5,4|4|8,3:0|3:0|3:0,0:0:0:0:
172,167,64240,2,0,B|63:191|63:191|47:203|47:203|41:292|41:292|68:332,1,247.5,0|8,3:0|3:0,0:0:0:0:
94,352,65065,1,4,3:0:0:0:
229,376,65440,6,0,L|266:267,1,110,12|8,3:0|3:0,0:0:0:0:
291,193,65965,2,0,L|239:114,2,82.5,4|4|8,3:0|3:0|3:0,0:0:0:0:
371,212,66640,2,0,B|413:191|413:191|458:37|458:37|443:-5,1,247.5,0|12,3:0|3:0,0:0:0:0:
