osu file format v14

[General]
AudioFilename: audio.mp3
AudioLeadIn: 0
PreviewTime: 12654
Countdown: 0
SampleSet: Soft
StackLeniency: 0.5
Mode: 0
LetterboxInBreaks: 0
WidescreenStoryboard: 1

[Editor]
Bookmarks: 33988
DistanceSpacing: 1.5
BeatDivisor: 4
GridSize: 8
TimelineZoom: 3.199999

[Metadata]
Title:Misogi Kakuriyo e no Gi / Ehgze
TitleUnicode:禊 幽世への儀 / Ehgze
Artist:Feryquitous
ArtistUnicode:Feryquitous
Creator:Reywateil
Version:hard
Source:
Tags:Sennzai ZheleNaught Irui Diverse System YsK439 japanese breakcore electronic instrumental yooh jezag phynta
BeatmapID:3565105
BeatmapSetID:1742876

[Difficulty]
HPDrainRate:4
CircleSize:3.5
OverallDifficulty:7
ApproachRate:8
SliderMultiplier:1.4
SliderTickRate:1

[Events]
//Background and Video events
0,0,"bg_01.jpg",0,0
//Break Periods
2,55515,56965
//Storyboard Layer 0 (Background)
//Storyboard Layer 1 (Fail)
//Storyboard Layer 2 (Pass)
//Storyboard Layer 3 (Foreground)
//Storyboard Layer 4 (Overlay)
//Storyboard Sound Samples

[TimingPoints]
1988,666.666666666667,4,2,1,40,1,0
1988,-111.111111111111,4,2,1,40,0,0
12654,-90.9090909090909,4,2,1,40,0,0
33988,-76.9230769230769,4,2,1,50,0,0
55315,300,4,2,1,75,1,0
55315,-100,4,2,1,75,0,0
57715,-90.9090909090909,4,2,1,80,0,1
67315,-100,4,2,1,80,0,0

[Colours]
Combo1 : 255,255,128
Combo2 : 175,255,255
Combo3 : 255,255,160
Combo4 : 128,255,255

[HitObjects]
2,13,1988,6,0,B|24:24|24:24|62:134,1,125.999996154785,8|0,3:1|0:0,0:0:0:0:
107,263,2988,1,8,3:2:0:0:
107,263,3988,6,0,L|139:273,1,31.4999990386963
165,342,4321,2,0,L|103:357,2,62.9999980773926,8|4|4,3:1|3:2|3:2,0:0:0:0:
312,305,5321,2,0,L|330:235,1,62.9999980773926,8|8,3:1|3:2,0:0:0:0:
511,3,6321,6,0,L|497:42,2,31.4999990386963
362,31,6988,1,8,3:1:0:0:
277,156,7321,6,0,B|321:148|321:148|402:189,1,125.999996154785,8|0,3:1|0:0,0:0:0:0:
430,331,8321,1,8,3:2:0:0:
430,331,9321,6,0,L|389:320,1,31.4999990386963
325,305,9654,2,0,B|315:349|315:349|323:364,2,62.9999980773926,8|4|4,3:1|3:2|3:2,0:0:0:0:
178,266,10654,2,0,L|243:240,1,62.9999980773926,8|8,3:2|3:2,0:0:0:0:
470,51,11654,2,0,L|484:14,2,31.4999990386963,0|0|8,0:0|0:0|3:2,0:0:0:0:
407,188,12321,1,0,3:0:0:0:
225,219,12654,6,0,B|174:234|174:234|131:286|131:286|99:302,1,154.000004699707,8|0,3:1|0:0,0:0:0:0:
3,143,13654,1,8,3:2:0:0:
3,143,14654,6,0,L|49:153,1,38.5000011749268
131,130,14988,2,0,L|148:209,2,77.0000023498536,8|4|4,3:1|3:2|3:2,0:0:0:0:
270,7,15988,2,0,L|253:86,1,77.0000023498536,8|8,3:1|3:2,0:0:0:0:
284,240,16988,6,0,L|240:230,2,38.5000011749268,0|0|0,0:0|0:0|0:2,0:0:0:0:
349,335,17654,1,8,3:2:0:0:
349,335,17821,1,0,0:0:0:0:
349,335,17988,2,0,B|379:310|379:310|429:196,1,154.000004699707,8|0,3:1|0:0,0:0:0:0:
495,34,18988,1,8,3:2:0:0:
495,34,19988,6,0,L|450:45,1,38.5000011749268
368,16,20321,2,0,B|354:33|354:33|377:99,2,77.0000023498536,8|4|4,3:1|3:2|3:2,0:0:0:0:
484,159,21321,2,0,L|465:237,1,77.0000023498536,8|8,3:2|3:2,0:0:0:0:
390,368,22321,6,0,L|431:378,2,38.5000011749268,0|0|8,0:0|0:0|3:2,0:0:0:0:
294,303,22988,1,0,3:0:0:0:
294,303,23154,1,0,3:0:0:0:
294,303,23321,2,0,B|287:263|287:263|269:249|269:249|165:264,1,154.000004699707,8|0,3:1|0:0,0:0:0:0:
63,117,24321,1,8,3:2:0:0:
63,117,25321,6,0,L|76:67,1,38.5000011749268
140,16,25654,2,0,L|223:-3,2,77.0000023498536,8|4|4,3:1|3:2|3:2,0:0:0:0:
106,198,26654,2,0,L|179:229,1,77.0000023498536,8|8,3:1|3:2,0:0:0:0:
286,336,27654,6,0,L|301:382,2,38.5000011749268
441,290,28321,1,0,3:0:0:0:
431,129,28654,2,0,B|419:150|419:150|321:183|321:183|295:180,1,154.000004699707,8|0,3:1|0:0,0:0:0:0:
196,64,29654,1,8,3:2:0:0:
196,64,30654,6,0,L|188:112,1,38.5000011749268
110,151,30988,2,0,L|32:132,2,77.0000023498536,8|4|4,3:1|3:2|3:2,0:0:0:0:
203,311,31988,2,0,B|179:363|179:363|154:378,1,77.0000023498536,8|8,3:2|3:2,0:0:0:0:
46,272,32988,6,0,L|8:284,2,38.5000011749268,0|0|8,0:0|0:0|3:2,0:0:0:0:
120,183,33654,1,0,3:0:0:0:
120,183,33821,1,0,3:0:0:0:
120,183,33988,2,0,B|310:232,1,181.999991668702,8|0,3:1|0:0,0:0:0:0:
507,283,34988,1,8,3:2:0:0:
507,283,35988,6,0,L|487:231,1,45.4999979171754
447,140,36321,2,0,B|425:160|425:160|396:222,2,90.9999958343508,8|8|8,3:1|3:2|3:2,0:0:0:0:
455,358,37321,2,0,L|365:341,1,90.9999958343508,8|8,3:1|3:2,0:0:0:0:
184,326,38321,6,0,L|197:373,2,45.4999979171754
206,191,38988,1,0,3:0:0:0:
206,191,39154,1,0,0:0:0:0:
206,191,39321,2,0,B|99:168|99:168|110:129|110:129|138:101,1,181.999991668702,8|0,3:1|0:0,0:0:0:0:
347,65,40321,1,8,3:2:0:0:
347,65,41321,6,0,L|359:115,1,45.4999979171754
450,166,41654,2,0,L|482:58,2,90.9999958343508,8|8|8,3:1|3:2|3:2,0:0:0:0:
245,87,42654,2,0,L|222:-1,1,90.9999958343508,8|8,3:2|3:2,0:0:0:0:
309,158,43654,6,0,L|355:168,2,45.4999979171754,0|0|8,0:0|0:0|3:2,0:0:0:0:
239,276,44321,1,0,3:0:0:0:
239,276,44488,1,0,3:0:0:0:
239,276,44654,2,0,B|209:249|209:249|61:218,1,181.999991668702,8|0,3:1|0:0,0:0:0:0:
10,9,45654,1,8,3:2:0:0:
10,9,46654,6,0,L|26:67,1,45.4999979171754
115,111,46988,1,8,3:1:0:0:
317,29,47321,1,8,3:2:0:0:
496,152,47654,1,8,3:2:0:0:
322,19,47988,2,0,L|352:129,1,90.9999958343508,8|8,3:1|3:2,0:0:0:0:
342,288,48988,6,0,L|401:274,2,45.4999979171754,0|0|8,0:0|0:0|3:2,0:0:0:0:
206,296,49654,1,0,3:0:0:0:
206,296,49821,1,0,3:0:0:0:
206,296,49988,2,0,B|177:273|177:273|67:256|67:256|19:224,1,181.999991668702,8|0,3:1|0:0,0:0:0:0:
8,20,50988,1,8,3:2:0:0:
8,20,51988,6,0,L|75:3,1,45.4999979171754
150,57,52321,1,8,3:1:0:0:
212,266,52654,1,8,3:2:0:0:
421,330,52988,1,8,3:2:0:0:
208,280,53321,2,0,L|108:307,1,90.9999958343508,8|8,3:2|3:2,0:0:0:0:
293,249,54321,6,0,L|350:267,2,45.4999979171754,0|0|8,0:0|0:0|3:2,0:0:0:0:
255,118,54988,1,0,3:0:0:0:
256,104,55154,1,0,3:0:0:0:
256,24,55315,1,12,3:3:0:0:
509,52,57715,6,0,B|517:76|517:76|471:219,1,154.000004699707,8|8,3:0|3:0,0:0:0:0:
440,312,58240,1,0,3:0:0:0:
440,312,58315,2,0,B|382:300|382:300|340:234,1,115.50000352478,4|4,3:0|3:0,0:0:0:0:
261,234,58690,1,0,0:0:0:0:
261,234,58765,2,0,B|280:176|280:176|347:158,1,115.50000352478,0|8,3:0|3:0,0:0:0:0:
468,131,59215,1,4,3:0:0:0:
364,38,59440,5,0,3:0:0:0:
364,38,59515,2,0,L|268:18,1,77.0000023498536,8|8,3:0|3:0,0:0:0:0:
198,3,59815,1,0,3:0:0:0:
198,3,59890,1,8,3:0:0:0:
198,3,59965,1,0,3:0:0:0:
130,67,60115,1,8,3:0:0:0:
39,49,60265,1,4,3:0:0:0:
155,248,60640,5,12,3:0:0:0:
155,248,60715,2,0,L|177:379,1,115.50000352478,0|8,0:0|3:0,0:0:0:0:
267,366,61090,1,0,3:0:0:0:
267,366,61165,2,0,B|304:377|304:377|402:348,2,115.50000352478,4|4|8,3:0|3:0|3:0,0:0:0:0:
309,234,61840,5,0,3:0:0:0:
309,234,61915,2,0,L|469:270,1,154.000004699707,8|8,3:0|3:0,0:0:0:0:
501,135,62440,1,0,3:0:0:0:
501,135,62515,2,0,B|492:96|492:96|417:26,1,115.50000352478,8|0,3:0|3:0,0:0:0:0:
253,20,63040,5,0,3:0:0:0:
253,20,63115,2,0,L|125:48,1,115.50000352478,12|8,3:0|3:0,0:0:0:0:
53,9,63490,1,0,3:0:0:0:
53,9,63565,2,0,B|59:50|59:50|45:131,1,115.50000352478,4|4,3:0|3:0,0:0:0:0:
18,259,64015,1,8,3:0:0:0:
109,363,64240,5,0,3:0:0:0:
109,363,64315,2,0,L|194:341,1,77.0000023498536,8|8,3:0|3:0,0:0:0:0:
272,370,64615,1,0,3:0:0:0:
272,370,64690,1,8,3:0:0:0:
272,370,64765,1,0,3:0:0:0:
289,279,64915,1,8,3:0:0:0:
306,188,65065,1,4,3:0:0:0:
457,13,65440,5,12,3:0:0:0:
457,13,65515,2,0,L|489:136,1,115.50000352478,0|8,0:0|3:0,0:0:0:0:
418,188,65890,1,0,3:0:0:0:
418,188,65965,2,0,L|527:273,2,115.50000352478,4|4|8,3:0|3:0|3:0,0:0:0:0:
281,164,66640,1,0,3:0:0:0:
281,164,66715,2,0,B|379:95|379:95|382:45,1,154.000004699707,8|8,3:0|3:0,0:0:0:0:
221,7,67315,5,12,3:0:0:0:
