osu file format v14

[General]
AudioFilename: audio.mp3
AudioLeadIn: 0
PreviewTime: 12654
Countdown: 0
SampleSet: Soft
StackLeniency: 0
Mode: 0
LetterboxInBreaks: 0
WidescreenStoryboard: 0

[Editor]
DistanceSpacing: 0.3
BeatDivisor: 8
GridSize: 8
TimelineZoom: 3.199999

[Metadata]
Title:Misogi Kakuriyo e no Gi / Ehgze
TitleUnicode:禊 幽世への儀 / Ehgze
Artist:Feryquitous
ArtistUnicode:Feryquitous
Creator:Reywateil
Version:ethereal
Source:
Tags:Sennzai ZheleNaught Irui Diverse System YsK439 japanese breakcore electronic instrumental yooh jezag phynta
BeatmapID:3563009
BeatmapSetID:1742876

[Difficulty]
HPDrainRate:6
CircleSize:4.8
OverallDifficulty:8.9
ApproachRate:9.4
SliderMultiplier:2.18
SliderTickRate:1

[Events]
//Background and Video events
0,0,"bg_01.jpg",0,0
//Break Periods
2,55590,57175
//Storyboard Layer 0 (Background)
//Storyboard Layer 1 (Fail)
//Storyboard Layer 2 (Pass)
//Storyboard Layer 3 (Foreground)
//Storyboard Layer 4 (Overlay)
//Storyboard Sound Samples

[TimingPoints]
1988,666.666666666667,4,2,1,40,1,0
2988,-250,4,2,1,40,0,0
4321,-33.3333333333333,4,2,1,40,0,0
5654,-250,4,2,1,40,0,0
6988,-33.3333333333333,4,2,1,40,0,0
7988,-250,4,2,1,40,0,0
9654,-33.3333333333333,4,2,1,40,0,0
10988,-250,4,2,1,40,0,0
12654,-50,4,2,1,50,0,0
13654,-166.666666666667,4,2,1,50,0,0
14988,-30.3030303030303,4,2,1,50,0,0
16321,-166.666666666667,4,2,1,50,0,0
17654,-30.3030303030303,4,2,1,50,0,0
17988,-50,4,2,1,50,0,0
18988,-166.666666666667,4,2,1,50,0,0
20321,-30.3030303030303,4,2,1,50,0,0
21654,-166.666666666667,4,2,1,50,0,0
22988,-30.3030303030303,4,2,1,50,0,0
23321,-43.4782608695652,4,2,1,50,0,0
24321,-125,4,2,1,50,0,0
25654,-28.5714285714286,4,2,1,50,0,0
26988,-125,4,2,1,50,0,0
28321,-30.3030303030303,4,2,1,50,0,0
28654,-43.4782608695652,4,2,1,50,0,0
29654,-125,4,2,1,50,0,0
30988,-30.3030303030303,4,2,1,50,0,0
31988,-125,4,2,1,50,0,0
33988,-40,4,2,1,60,0,0
34988,-100,4,2,1,60,0,0
36321,-28.5714285714286,4,2,1,60,0,0
37654,-100,4,2,1,60,0,0
38988,-28.5714285714286,4,2,1,60,0,0
39321,-40,4,2,1,60,0,0
40321,-100,4,2,1,60,0,0
41654,-30.3030303030303,4,2,1,60,0,0
42654,-100,4,2,1,60,0,0
44654,-40,4,2,1,60,0,0
45654,-100,4,2,1,60,0,0
46988,-28.5714285714286,4,2,1,60,0,0
48321,-100,4,2,1,60,0,0
49988,-40,4,2,1,60,0,0
50988,-100,4,2,1,60,0,0
52321,-28.5714285714286,4,2,1,60,0,0
53321,-100,4,2,1,60,0,0
54654,-100,4,2,1,60,0,0
55315,300,4,2,1,75,1,0
55315,-25,4,2,1,75,0,0
55390,-100,4,2,2,5,0,0
57715,-50,4,2,1,80,0,1
60865,-50,4,2,2,5,0,1
60940,-50,4,2,1,80,0,1
65665,-50,4,2,2,5,0,1
65740,-50,4,2,1,80,0,1
67315,-142.857142857143,4,2,1,80,0,0

[Colours]
Combo1 : 255,255,128
Combo2 : 175,255,255
Combo3 : 255,255,160
Combo4 : 128,255,255

[HitObjects]
117,72,1988,6,0,L|40:286,1,218,8|0,3:1|0:0,0:0:0:0:
6,41,2988,2,0,L|53:173,1,130.8,8|0,3:2|0:0,0:0:0:0:
50,164,4154,1,0,0:0:0:0:
143,262,4321,6,0,B|169:189|169:189|319:94|319:94|350:9,2,327.000012474061,8|4|4,3:1|3:2|3:2,0:0:0:0:
240,55,5321,2,0,L|411:116,1,163.50000623703,8|0,3:1|0:0,0:0:0:0:
123,176,5654,6,0,L|143:264,1,87.2,8|0,3:2|0:0,0:0:0:0:
142,261,6488,1,0,0:0:0:0:
225,306,6654,2,0,L|200:300,1,21.8
63,280,6988,6,0,L|242:322,1,163.50000623703,8|0,3:1|0:0,0:0:0:0:
436,367,7321,2,0,B|409:352|409:352|341:146|341:146|317:355|317:355|275:387,1,490.500018711091,8|0,3:1|0:0,0:0:0:0:
291,374,7988,1,0,0:0:0:0:
395,220,8321,6,0,L|513:278,1,130.8,8|0,3:2|0:0,0:0:0:0:
512,277,9488,1,0,0:0:0:0:
462,163,9654,6,0,B|220:273|220:273|130:249,2,327.000012474061,8|4|4,3:1|3:2|3:2,0:0:0:0:
226,186,10654,2,0,L|200:376,1,163.50000623703,8|0,3:2|0:0,0:0:0:0:
5,261,10988,6,0,L|107:226,1,87.2,8|0,3:2|0:0,0:0:0:0:
87,232,11821,1,0,0:0:0:0:
139,157,11988,2,0,L|133:194,1,21.8,8|0,3:2|0:0,0:0:0:0:
85,231,12321,5,0,3:0:0:0:
154,56,12488,1,0,3:0:0:0:
72,0,12654,6,0,B|77:23|77:23|332:319|332:319|346:363,1,436,8|0,3:1|0:0,0:0:0:0:
512,151,13654,6,0,L|311:184,1,196.199994012451,8|0,3:2|0:0,0:0:0:0:
318,182,14821,1,0,0:0:0:0:
356,342,14988,6,0,B|322:354|322:354|151:289|151:289|83:121,2,359.700003430367,8|4|4,3:1|3:2|3:2,0:0:0:0:
268,57,15988,2,0,L|222:234,1,179.850001715183,8|0,3:1|0:0,0:0:0:0:
0,384,16321,6,0,L|143:347,1,130.799996008301,8|0,3:2|0:0,0:0:0:0:
126,351,17154,1,0,0:0:0:0:
159,260,17321,2,0,L|174:308,1,32.6999990020752,0|0,0:2|0:0,0:0:0:0:
333,289,17654,6,0,L|122:242,1,179.850001715183,8|0,3:2|0:0,0:0:0:0:
9,87,17988,2,0,B|31:61|31:61|120:60|120:60|160:162|160:162|54:215,1,327,8|0,3:1|0:0,0:0:0:0:
75,204,18654,1,0,0:0:0:0:
308,11,18988,6,0,L|506:81,1,196.199994012451,8|0,3:2|0:0,0:0:0:0:
492,76,20154,1,0,0:0:0:0:
354,161,20321,6,0,B|320:153|320:153|218:17|218:17|254:182,2,359.700003430367,8|4|4,3:1|3:2|3:2,0:0:0:0:
437,349,21321,2,0,L|273:256,1,179.850001715183,8|0,3:2|0:0,0:0:0:0:
60,251,21654,6,0,L|208:227,1,130.799996008301,8|0,3:2|0:0,0:0:0:0:
189,230,22488,1,0,0:0:0:0:
245,157,22654,2,0,L|212:162,1,32.6999990020752,8|0,3:2|0:0,0:0:0:0:
189,230,22988,5,0,3:0:0:0:
218,362,23154,1,0,3:0:0:0:
61,165,23321,6,0,B|433:241|433:241|456:233|456:233|511:144,1,501.400009563446,8|0,3:1|0:0,0:0:0:0:
255,49,24321,6,0,L|-7:106,1,261.6,8|0,3:2|0:0,0:0:0:0:
0,104,25488,1,0,0:0:0:0:
116,4,25654,6,0,B|155:27|155:27|233:310|233:310|215:366,2,381.500003638268,8|4|4,3:1|3:2|3:2,0:0:0:0:
139,291,26654,2,0,L|323:338,1,190.750001819134,8|0,3:1|0:0,0:0:0:0:
62,234,26988,6,0,L|231:191,1,174.4,8|0,3:2|0:0,0:0:0:0:
231,191,27821,1,0,0:0:0:0:
305,199,27988,2,0,L|286:238,1,43.6
374,372,28321,6,0,L|307:167,1,179.850001715183,0|0,3:0|0:0,0:0:0:0:
512,17,28654,6,0,B|468:138|468:138|445:152|445:152|206:107,1,376.050007172585,8|0,3:1|0:0,0:0:0:0:
228,111,29321,1,0,0:0:0:0:
415,8,29654,6,0,B|396:4|396:4|141:45,1,261.6,8|0,3:2|0:0,0:0:0:0:
156,42,30821,1,0,0:0:0:0:
0,0,30988,6,0,B|45:113|45:113|152:238|152:238|180:358,2,359.700003430367,8|4|4,3:1|3:2|3:2,0:0:0:0:
43,263,31988,2,0,L|114:279,1,43.6,8|0,3:2|0:0,0:0:0:0:
221,192,32321,6,8,L|261:366,1,174.4,8|0,3:2|0:0,0:2:0:0:
260,361,33154,1,0,0:0:0:0:
364,338,33321,2,0,L|321:328,1,43.6,8|0,3:2|0:0,0:0:0:0:
260,361,33654,5,0,3:0:0:0:
453,360,33821,1,0,3:0:0:0:
511,180,33988,6,0,B|305:140|305:140|201:53|201:53|96:29,1,408.75,8|0,3:1|0:0,0:0:0:0:
139,38,34654,1,0,0:0:0:0:
496,9,34988,6,0,B|368:240|368:240|312:273,1,327,8|0,3:2|0:0,0:0:0:0:
314,271,36154,1,0,0:0:0:0:
418,377,36321,6,0,L|189:321,1,190.750001819134,8|0,3:1|0:0,0:0:0:0:
115,199,36654,2,0,L|181:425,1,190.750001819134,8|0,3:2|0:0,0:0:0:0:
420,366,36988,2,0,L|191:310,1,190.750001819134,8|0,3:2|0:0,0:0:0:0:
32,151,37321,2,0,B|18:68|18:68|39:56|39:56|107:109,1,190.750001819134,8|0,3:1|0:0,0:0:0:0:
259,5,37654,6,0,L|216:219,1,218,8|0,3:2|0:0,0:0:0:0:
216,218,38488,1,0,0:0:0:0:
260,278,38654,2,0,L|314:263,1,54.5
448,238,38988,6,0,L|264:289,1,190.750001819134,0|0,3:0|0:0,0:0:0:0:
326,118,39321,6,0,B|364:105|364:105|523:147|523:147|357:0,1,408.75,8|0,3:1|0:0,0:0:0:0:
370,11,39988,1,0,0:0:0:0:
7,243,40321,6,0,B|-4:205|-4:205|81:115|81:115|109:135|109:135|68:285,1,327,8|0,3:2|0:0,0:0:0:0:
75,260,41488,1,0,0:0:0:0:
267,309,41654,2,0,B|282:289|282:289|232:121,1,179.850001715183,8|0,3:1|0:0,0:0:0:0:
4,132,41988,2,0,L|230:207,1,179.850001715183,8|0,3:2|0:0,0:0:0:0:
282,378,42321,2,0,B|306:380|306:380|427:253,1,179.850001715183,8|0,3:2|0:0,0:0:0:0:
501,31,42654,6,0,L|415:59,1,54.5,8|0,3:2|0:0,0:0:0:0:
287,0,42988,2,0,L|353:211,1,218,8|0,3:2|0:0,0:0:0:0:
352,208,43821,1,0,0:0:0:0:
465,187,43988,2,0,L|379:158,1,54.5,8|0,3:2|0:0,0:0:0:0:
352,208,44321,5,0,3:0:0:0:
223,93,44488,1,0,3:0:0:0:
7,122,44654,6,0,B|-10:44|-10:44|44:-2|44:-2|71:-7|71:-7|21:251,1,408.75,8|0,3:1|0:0,0:0:0:0:
27,219,45321,1,0,0:0:0:0:
349,53,45654,6,0,B|419:348|419:348|407:368,1,327,8|0,3:2|0:0,0:0:0:0:
407,368,46821,1,0,0:0:0:0:
305,228,46988,6,0,L|491:270,1,190.750001819134,8|0,3:1|0:0,0:0:0:0:
234,273,47321,2,0,B|218:242|218:242|275:62,1,190.750001819134,8|0,3:2|0:0,0:0:0:0:
493,260,47654,2,0,L|306:217,1,190.750001819134,8|0,3:2|0:0,0:0:0:0:
111,0,47988,2,0,L|162:195,1,190.750001819134,8|0,3:1|0:0,0:0:0:0:
0,364,48321,6,0,B|7:333|7:333|88:273|88:273|110:355,1,218,8|0,3:2|0:0,0:0:0:0:
110,355,49154,1,0,0:0:0:0:
217,337,49321,2,0,L|175:379,1,54.5,8|0,3:2|0:0,0:0:0:0:
110,355,49654,5,0,3:0:0:0:
266,280,49821,1,0,3:0:0:0:
290,194,49988,6,0,B|497:228|497:228|512:216|512:216|499:118|499:118|363:155,1,408.75,8|0,3:1|0:0,0:0:0:0:
420,139,50654,1,0,0:0:0:0:
178,375,50988,6,0,L|61:51,1,327,8|0,3:2|0:0,0:0:0:0:
66,67,52154,1,0,0:0:0:0:
188,179,52321,6,0,B|169:189|169:189|29:153|29:153|-17:162,1,190.750001819134,8|0,3:1|0:0,0:0:0:0:
236,287,52654,2,0,L|353:-37,1,190.750001819134,8|0,3:2|0:0,0:0:0:0:
393,337,52988,2,0,B|374:327|374:327|234:363|234:363|188:354,1,190.750001819134,8|0,3:2|0:0,0:0:0:0:
189,52,53321,6,0,L|207:103,1,54.5,8|0,3:2|0:0,0:0:0:0:
358,179,53654,2,0,B|377:161|377:161|523:128,1,163.5,8|0,3:2|0:0,0:0:0:0:
512,131,54321,5,0,0:0:0:0:
360,72,54488,1,0,0:0:0:0:
291,93,54654,2,0,L|366:107,1,54.5,8|0,3:2|0:0,0:0:0:0:
429,51,54988,5,0,3:0:0:0:
360,72,55154,1,0,3:0:0:0:
15,19,55315,2,0,B|49:29|49:29|90:97|90:97|28:50|28:50|14:19,1,218,12|0,3:3|0:0,0:0:0:0:
118,384,57715,6,0,B|173:369|173:369|239:252|239:252|265:247,1,218,8|0,3:0|0:0,0:0:0:0:
413,296,58015,2,0,B|387:291|387:291|321:174|321:174|237:152,1,218,8|0,3:0|0:0,0:0:0:0:
175,144,58240,1,0,3:0:0:0:
166,150,58315,2,0,B|129:169|129:169|47:159|47:159|-10:61,1,218,4|0,3:0|0:0,0:0:0:0:
80,23,58540,6,0,L|41:262,1,218,4|0,3:0|0:0,0:0:0:0:
30,308,58765,1,0,3:0:0:0:
34,321,58840,2,0,B|47:333|47:333|30:373|30:373|12:366|12:366|15:323,1,109,8|0,3:0|0:0,0:0:0:0:
153,303,58990,2,0,L|407:240,1,218,8|0,3:0|0:0,0:0:0:0:
432,233,59215,1,4,3:0:0:0:
229,0,59440,5,0,3:0:0:0:
273,52,59515,5,8,3:0:0:0:
267,73,59590,1,0,3:0:0:0:
303,137,59665,5,8,3:0:0:0:
293,94,59740,1,0,3:0:0:0:
286,51,59815,1,0,3:0:0:0:
218,2,59890,5,8,3:0:0:0:
192,62,59965,1,0,3:0:0:0:
167,123,60040,1,0,3:0:0:0:
97,136,60115,6,0,B|99:159|99:159|167:226,1,109,8|0,3:0|0:0,0:0:0:0:
409,75,60265,1,4,3:0:0:0:
512,367,60565,5,0,3:0:0:0:
505,357,60640,2,0,L|184:292,1,327,12|0,3:0|0:0,0:0:0:0:
116,278,60940,1,8,3:0:0:0:
262,381,61090,1,0,3:0:0:0:
275,384,61165,2,0,B|284:354|284:354|190:26,2,327,4|4|8,3:0|3:0|3:0,0:0:0:0:
366,164,61840,5,0,3:0:0:0:
424,129,61915,5,8,3:0:0:0:
444,135,61990,1,0,3:0:0:0:
503,101,62065,5,0,3:0:0:0:
460,110,62140,1,0,3:0:0:0:
417,119,62215,2,0,B|395:91|395:91|222:-9,1,218,8|0,3:0|0:0,0:0:0:0:
127,28,62440,1,0,3:0:0:0:
131,42,62515,2,0,L|58:273,1,218,8|0,3:0|0:0,0:0:0:0:
125,343,62740,1,0,3:0:0:0:
128,356,62815,1,4,3:0:0:0:
0,141,63040,5,0,3:0:0:0:
4,153,63115,2,0,B|36:165|36:165|295:118,1,218,12|0,3:0|0:0,0:0:0:0:
285,116,63340,1,8,3:0:0:0:
471,169,63490,1,0,3:0:0:0:
483,166,63565,2,0,B|509:195|509:195|467:303|467:303|374:279|374:279|361:264|361:264|351:203,2,327,4|4|8,3:0|3:0|3:0,0:0:0:0:
257,255,64240,5,0,3:0:0:0:
207,305,64315,5,8,3:0:0:0:
213,325,64390,1,0,3:0:0:0:
178,384,64465,5,8,3:0:0:0:
187,341,64540,1,0,3:0:0:0:
196,298,64615,1,0,3:0:0:0:
267,250,64690,5,8,3:0:0:0:
242,189,64765,1,0,3:0:0:0:
217,128,64840,1,0,3:0:0:0:
272,85,64915,6,0,B|246:65|246:65|202:1,1,109,8|0,3:0|0:0,0:0:0:0:
19,279,65065,1,4,3:0:0:0:
451,373,65365,5,0,3:0:0:0:
445,384,65440,2,0,B|434:372|434:372|350:36,1,327,12|0,3:0|0:0,0:0:0:0:
341,4,65740,1,8,3:0:0:0:
266,194,65890,1,0,3:0:0:0:
277,201,65965,2,0,B|299:183|299:183|460:127|460:127|514:2,2,327,4|4|8,3:0|3:0|3:0,0:0:0:0:
15,197,66640,5,0,3:0:0:0:
37,264,66715,5,8,3:0:0:0:
45,284,66790,1,0,3:0:0:0:
1,337,66865,5,0,3:0:0:0:
67,351,66940,1,0,3:0:0:0:
133,365,67015,1,8,3:0:0:0:
142,358,67090,2,0,B|152:339|152:339|104:229,1,109,0|0,3:0|0:0,0:0:0:0:
39,77,67240,5,0,3:0:0:0:
29,2,67315,2,0,L|-3:132,1,114.449996507263,12|0,3:0|0:0,0:0:0:0:
