osu file format v14

[General]
AudioFilename: audio.mp3
AudioLeadIn: 0
PreviewTime: 66340
Countdown: 0
SampleSet: Soft
StackLeniency: 0.2
Mode: 0
LetterboxInBreaks: 0
WidescreenStoryboard: 1

[Editor]
Bookmarks: 126916,127378
DistanceSpacing: 0.4
BeatDivisor: 4
GridSize: 8
TimelineZoom: 1.999999

[Metadata]
Title:I can avoid it.#owo
TitleUnicode:I can avoid it.#φωφ
Artist:Feryquitous
ArtistUnicode:Feryquitous
Creator:Natsume Shiki
Version:XLT's Insane
Source:Cytus II
Tags:neko rayark scubdomino jungkyuyoung anime girl 8972308 liuyiqiangbu x light 1814662 z1085684963 kiryu 1816779 hynix xcyccg6 10507557 -[Pino]- C_Pino 10120527 NEKO#ΦωΦ You can Disconnected electronic english infinite infinit rhythm video game
BeatmapID:2428125
BeatmapSetID:1157872

[Difficulty]
HPDrainRate:5
CircleSize:4
OverallDifficulty:7
ApproachRate:8.5
SliderMultiplier:1.6
SliderTickRate:1

[Events]
//Background and Video events
0,0,"77991355_p0.jpg",0,0
//Break Periods
2,98040,110088
//Storyboard Layer 0 (Background)
//Storyboard Layer 1 (Fail)
//Storyboard Layer 2 (Pass)
//Storyboard Layer 3 (Foreground)
//Storyboard Layer 4 (Overlay)
//Storyboard Sound Samples

[TimingPoints]
1840,461.538461538462,4,2,1,60,1,0
8763,-76.9230769230769,4,2,1,60,0,0
9224,-76.9230769230769,4,2,1,70,0,0
23070,-66.6666666666667,4,2,1,70,0,0
23993,-111.111111111111,4,2,1,70,0,0
24455,-76.9230769230769,4,2,1,70,0,0
38763,-83.3333333333333,4,2,1,60,0,0
53532,-83.3333333333333,4,2,1,60,0,0
66685,-83.3333333333333,4,2,1,5,0,0
66916,-83.3333333333333,4,2,1,60,0,0
67724,-66.6666666666667,4,2,1,70,0,0
68301,-66.6666666666667,4,2,1,70,0,1
68763,-71.4285714285714,4,2,1,70,0,1
81686,-100,4,2,1,70,0,1
82147,-71.4285714285714,4,2,1,70,0,1
83532,-76.9230769230769,4,2,1,60,0,0
89532,-62.5,4,2,1,60,0,0
90916,-71.4285714285714,4,2,1,60,0,0
96916,-83.3333333333333,4,2,1,60,0,0
110763,-100,4,2,1,60,0,0
111916,-66.6666666666667,4,2,1,60,0,0
112609,-66.6666666666667,4,2,1,60,0,1
112840,-76.9230769230769,4,2,1,70,0,1
114916,-71.4285714285714,4,2,1,70,0,1
124609,-62.5,4,2,1,70,0,1
125301,-66.6666666666667,4,2,1,70,0,1
125532,-100,4,2,1,70,0,0
126455,-76.9230769230769,4,2,1,70,0,0

[Colours]
Combo1 : 129,207,50
Combo2 : 255,149,32
Combo3 : 218,221,217
Combo4 : 140,115,91

[HitObjects]
256,192,1840,5,0,1:0:0:0:
256,192,2301,1,0,1:0:0:0:
256,192,2763,1,0,1:0:0:0:
256,192,3224,1,0,1:0:0:0:
256,192,3686,1,0,1:0:0:0:
256,192,4147,1,0,1:0:0:0:
256,192,4609,1,0,1:0:0:0:
256,192,5070,1,0,1:0:0:0:
66,274,5532,6,0,P|132:266|198:256,1,120,2|0,1:2|0:0,0:0:0:0:
198,268,5993,2,0,L|289:271,1,80,10|0,1:2|0:0,0:0:0:0:
106,183,6455,2,0,B|89:118|126:129|106:58,2,120,2|0|0,1:2|0:0|0:0,0:0:0:0:
91,56,7378,5,4,1:2:0:0:
199,120,7609,1,2,2:0:0:0:
216,111,7724,2,0,L|308:103,2,80,8|4|2,2:3|2:3|2:3,0:0:0:0:
409,47,8532,5,0,1:0:0:0:
417,65,8647,1,0,0:0:0:0:
424,83,8763,2,0,P|411:162|411:250,1,155.999992858887,8|0,1:0|0:0,0:0:0:0:
470,300,9224,6,0,P|432:343|381:342,1,103.999995239258,6|2,1:2|2:3,0:0:0:0:
243,213,9686,2,0,P|281:170|332:171,1,103.999995239258,10|2,1:2|2:3,0:0:0:0:
231,330,10147,2,0,P|145:347|67:383,2,155.999992858887,2|0|2,1:2|3:2|2:3,0:0:0:0:
101,272,11070,5,2,1:2:0:0:
167,376,11301,1,2,2:3:0:0:
167,376,11416,1,0,3:2:0:0:
222,215,11647,1,2,3:2:0:0:
48,343,11878,2,0,P|11:292|39:209,1,155.999992858887,0|2,3:2|2:3,0:0:0:0:
174,54,12455,2,0,P|121:66|67:71,1,103.999995239258,10|2,1:2|2:3,0:0:0:0:
134,163,12916,6,0,P|143:225|145:281,1,103.999995239258,2|2,1:2|2:3,0:0:0:0:
336,168,13378,2,0,P|327:106|325:50,1,103.999995239258,10|2,1:2|2:3,0:0:0:0:
330,50,13724,1,0,3:2:0:0:
341,39,13840,2,0,B|436:28|393:88|496:76,2,155.999992858887,2|0|2,1:2|3:2|2:3,0:0:0:0:
131,42,14763,6,0,P|197:39|235:32,1,103.999995239258,2|2,1:2|2:3,0:0:0:0:
246,16,15109,1,0,3:2:0:0:
209,191,15340,1,2,3:2:0:0:
246,16,15570,6,0,P|256:67|261:122,1,103.999995239258,0|0,3:2|0:0,0:0:0:0:
306,255,15916,2,0,P|308:207|311:187,1,51.999997619629,2|0,2:3|3:2,0:0:0:0:
367,122,16147,2,0,P|414:166|460:150,1,103.999995239258,10|2,1:2|2:3,0:0:0:0:
219,183,16609,6,0,P|154:188|110:202,1,103.999995239258,2|2,1:2|2:3,0:0:0:0:
66,368,17070,2,0,P|131:363|175:349,1,103.999995239258,10|2,1:2|2:3,0:0:0:0:
246,337,17416,1,0,3:2:0:0:
260,345,17532,6,0,P|310:358|361:361,1,103.999995239258,2|2,1:2|2:3,0:0:0:0:
373,377,17878,2,0,P|375:320|381:266,1,103.999995239258,0|0,3:2|0:0,0:0:0:0:
418,174,18224,1,2,2:3:0:0:
268,252,18455,5,2,1:2:0:0:
476,309,18686,1,2,2:3:0:0:
476,309,18801,1,0,3:2:0:0:
316,116,19032,1,2,3:2:0:0:
366,280,19263,6,0,P|416:247|413:194,1,103.999995239258,0|0,3:2|0:0,0:0:0:0:
438,118,19609,2,0,P|457:88|475:75,1,51.999997619629,2|0,2:3|3:2,0:0:0:0:
354,146,19840,2,0,P|290:154|226:157,1,103.999995239258,10|2,1:2|2:3,0:0:0:0:
200,62,20301,6,0,P|255:45|295:65,1,103.999995239258,2|2,1:2|2:3,0:0:0:0:
288,253,20763,2,0,P|232:269|192:249,1,103.999995239258,10|2,1:2|2:3,0:0:0:0:
177,236,21109,1,0,3:2:0:0:
161,221,21224,2,0,B|68:231|104:271|14:281,2,155.999992858887,2|0|2,1:2|3:2|2:3,0:0:0:0:
18,382,22147,6,0,P|27:324|6:280,1,103.999995239258,2|2,1:2|2:3,0:0:0:0:
24,194,22493,2,0,P|35:145|84:139,2,103.999995239258,2|0|0,2:3|3:0|3:0,0:0:0:0:
98,128,23070,6,0,P|134:125|177:119,2,80.0000030517579,8|8|8,1:3|1:3|1:3,0:0:0:0:
128,46,23532,2,0,P|164:43|207:37,2,80.0000030517579,8|8|8,1:3|1:3|1:3,0:0:0:0:
244,53,23993,6,0,P|276:93|286:154,1,107.999996704102,0|0,1:3|0:0,0:0:0:0:
353,230,24455,2,0,P|296:222|263:281,1,103.999995239258,12|2,1:2|2:3,0:0:0:0:
241,335,24801,1,0,3:2:0:0:
255,346,24916,6,0,P|314:356|394:372,1,103.999995239258,2|2,1:2|2:3,0:0:0:0:
440,318,25263,2,0,P|465:311|491:306,1,51.999997619629,0|10,3:2|1:2,0:0:0:0:
272,63,25609,6,0,P|302:123|328:228,1,155.999992858887,2|0,2:3|0:0,0:0:0:0:
396,162,26070,1,2,2:3:0:0:
396,162,26186,2,0,P|428:150|453:148,1,51.999997619629,0|10,3:2|1:2,0:0:0:0:
439,231,26416,2,0,P|461:251|475:274,1,51.999997619629,2|2,3:2|2:3,0:0:0:0:
376,282,26647,6,0,P|335:326|288:324,1,103.999995239258,0|0,3:2|0:0,0:0:0:0:
284,334,26993,2,0,P|314:334|338:347,1,51.999997619629,2|0,2:3|3:2,0:0:0:0:
182,306,27224,2,0,P|123:315|64:324,1,103.999995239258,10|2,1:2|2:3,0:0:0:0:
9,237,27570,1,0,3:2:0:0:
25,230,27686,6,0,P|84:221|143:212,1,103.999995239258,2|2,1:2|2:3,0:0:0:0:
370,300,28147,2,0,P|316:283|267:276,1,103.999995239258,10|2,1:2|2:3,0:0:0:0:
233,196,28493,1,0,3:2:0:0:
242,184,28609,6,0,P|238:113|272:93,1,103.999995239258,2|2,1:2|2:3,0:0:0:0:
330,60,28955,2,0,L|331:9,1,51.999997619629,0|10,3:2|1:2,0:0:0:0:
485,136,29301,6,0,P|464:204|387:228,1,155.999992858887,2|0,2:3|0:0,0:0:0:0:
312,243,29763,1,2,2:3:0:0:
324,288,29878,2,0,P|330:324|333:346,1,51.999997619629,0|10,3:2|1:2,0:0:0:0:
245,268,30109,2,0,P|210:277|177:291,1,51.999997619629,2|2,3:2|2:3,0:0:0:0:
246,183,30340,6,0,P|239:91|216:39,1,103.999995239258,0|0,3:2|0:0,0:0:0:0:
233,65,30686,2,0,P|245:91|256:116,1,51.999997619629,2|0,2:3|3:2,0:0:0:0:
311,40,30916,2,0,P|370:31|432:25,1,103.999995239258,10|2,1:2|2:3,0:0:0:0:
166,136,31378,6,0,P|111:146|52:154,1,103.999995239258,2|2,1:2|2:3,0:0:0:0:
25,254,31840,2,0,P|61:296|97:343,1,103.999995239258,10|2,1:2|2:3,0:0:0:0:
153,379,32186,1,0,3:2:0:0:
192,312,32301,6,0,P|210:259|233:204,1,103.999995239258,2|2,1:2|2:3,0:0:0:0:
275,304,32647,2,0,P|285:342|279:357,1,51.999997619629,0|10,3:2|1:2,0:0:0:0:
426,163,32993,6,0,P|347:138|308:71,1,155.999992858887,2|0,2:3|0:0,0:0:0:0:
226,12,33455,1,2,2:3:0:0:
212,23,33570,2,0,P|218:58|221:79,1,51.999997619629,0|10,3:2|1:2,0:0:0:0:
140,115,33801,2,0,P|131:70|129:55,1,51.999997619629,2|2,3:2|2:3,0:0:0:0:
239,167,34032,6,0,P|208:229|166:248,1,103.999995239258,0|0,3:2|0:0,0:0:0:0:
158,248,34378,2,0,P|168:226|195:217,1,51.999997619629,2|0,2:3|3:2,0:0:0:0:
78,320,34609,2,0,P|133:330|192:339,1,103.999995239258,10|2,1:2|2:3,0:0:0:0:
269,312,34955,1,0,3:2:0:0:
282,305,35070,6,0,P|337:295|396:287,1,103.999995239258,2|2,1:2|2:3,0:0:0:0:
423,187,35532,2,0,P|386:144|350:97,1,103.999995239258,10|2,1:2|2:3,0:0:0:0:
293,61,35878,1,0,3:2:0:0:
256,129,35993,6,0,P|237:181|214:236,1,103.999995239258,2|2,1:2|2:3,0:0:0:0:
212,320,36340,2,0,P|169:333|168:305,1,51.999997619629,0|10,3:2|1:2,0:0:0:0:
6,169,36686,6,0,P|73:196|140:265,1,155.999992858887,2|0,2:3|0:0,0:0:0:0:
205,221,37147,1,2,2:3:0:0:
219,226,37263,2,0,L|287:215,1,51.999997619629,2|10,2:3|1:2,0:0:0:0:
329,296,37493,2,0,P|280:329|256:380,1,103.999995239258,0|0,3:0|3:0,0:0:0:0:
183,327,37840,6,0,L|93:316,5,69.3333301595054,4|4|4|4|4|4,1:3|1:3|1:3|1:3|1:3|1:3,0:0:0:0:
43,348,38763,6,0,P|81:313|106:220,1,143.999995605469,4|0,1:2|0:0,0:0:0:0:
144,121,39224,2,0,P|200:111|250:102,1,95.9999970703126,8|0,1:2|0:0,0:0:0:0:
6,63,39686,6,0,P|33:110|44:155,1,95.9999970703126,0|0,1:2|0:0,0:0:0:0:
109,218,40032,2,0,P|155:253|208:243,1,95.9999970703126
220,257,40378,6,0,B|109:262|172:331|51:338,1,191.999994140625
158,384,41070,1,8,1:2:0:0:
268,343,41301,6,0,P|336:354|390:366,1,95.9999970703126,0|0,0:0|1:2,0:0:0:0:
163,204,41763,2,0,P|95:193|41:181,1,95.9999970703126,0|8,0:0|1:2,0:0:0:0:
34,268,42224,1,0,0:0:0:0:
110,104,42455,6,0,P|144:71|205:80,1,95.9999970703126,0|0,1:2|0:0,0:0:0:0:
247,184,42801,2,0,P|247:152|248:126,1,47.9999985351563,0|8,0:0|1:2,0:0:0:0:
279,14,43032,2,0,P|290:38|294:65,1,47.9999985351563
350,132,43263,6,0,P|407:173|497:158,1,143.999995605469
201,359,43840,2,0,P|255:350|305:346,1,95.9999970703126,8|0,1:2|0:0,0:0:0:0:
227,148,44301,6,0,P|238:216|240:275,1,95.9999970703126,0|0,1:2|0:0,0:0:0:0:
152,248,44647,2,0,P|119:286|69:278,1,95.9999970703126
1,323,44993,2,0,B|-20:211|52:254|29:118,1,191.999994140625
144,0,45686,2,0,P|140:58|139:109,1,95.9999970703126,8|0,1:2|0:0,0:0:0:0:
32,45,46147,5,0,1:2:0:0:
145,196,46378,1,0,0:0:0:0:
230,12,46609,1,8,1:2:0:0:
75,130,46840,5,0,0:0:0:0:
75,130,46955,1,0,0:0:0:0:
75,130,47070,2,0,P|128:104|173:104,1,95.9999970703126,0|0,1:2|0:0,0:0:0:0:
245,171,47416,2,0,P|200:161|173:107,1,95.9999970703126
230,9,47763,2,0,P|227:51|225:68,1,47.9999985351563
317,44,47993,6,0,B|396:68|348:103|441:125,1,143.999995605469,0|0,1:2|0:0,0:0:0:0:
406,292,48570,2,0,L|454:287,1,47.9999985351563
512,200,48801,6,0,P|462:203|417:208,1,95.9999970703126
351,373,49263,2,0,P|401:370|446:365,1,95.9999970703126
470,377,49609,1,0,0:0:0:0:
277,251,49840,5,0,1:2:0:0:
268,384,50070,2,0,P|259:355|249:337,1,47.9999985351563
144,268,50301,2,0,P|188:276|206:273,1,47.9999985351563,8|0,1:2|0:0,0:0:0:0:
277,251,50532,2,0,P|300:211|320:191,1,47.9999985351563
392,161,50763,6,0,P|339:142|308:98,1,95.9999970703126,0|0,1:2|0:0,0:0:0:0:
294,121,51109,2,0,P|286:64|281:23,1,95.9999970703126
204,86,51455,2,0,L|142:98,1,47.9999985351563
44,117,51686,5,0,1:2:0:0:
177,179,51916,1,0,3:2:0:0:
177,179,52032,1,8,1:2:0:0:
27,239,52263,1,0,3:2:0:0:
27,239,52378,1,0,1:2:0:0:
230,311,52724,6,0,L|118:295,1,95.9999970703126,0|0,1:2|3:2,0:0:0:0:
121,291,53070,1,8,1:2:0:0:
108,284,53186,2,0,P|102:231|91:172,1,95.9999970703126,0|0,0:0|1:2,0:0:0:0:
180,26,53532,6,0,P|186:80|191:131,1,95.9999970703126,0|2,1:2|2:3,0:0:0:0:
193,143,53840,2,0,L|189:175,2,31.9999990234375,0|0|8,2:0|2:0|1:2,0:0:0:0:
268,89,54109,2,0,P|301:115|364:117,1,95.9999970703126,0|0,2:3|2:3,0:0:0:0:
459,116,54455,5,0,1:2:0:0:
469,93,54570,1,0,2:3:0:0:
469,68,54686,1,2,2:3:0:0:
411,194,54916,5,8,1:2:0:0:
411,194,55032,2,0,P|420:248|424:307,1,95.9999970703126,0|0,0:0|2:3,0:0:0:0:
366,351,55378,6,0,L|254:366,1,95.9999970703126,0|2,1:2|2:3,0:0:0:0:
254,351,55686,2,0,L|216:348,2,31.9999990234375,0|0|8,2:0|2:0|1:2,0:0:0:0:
203,333,55955,2,0,P|150:357|97:350,1,95.9999970703126,0|0,2:3|2:3,0:0:0:0:
16,381,56301,5,0,1:2:0:0:
21,352,56416,1,0,2:3:0:0:
18,323,56532,1,2,2:3:0:0:
10,295,56647,2,0,P|5:229|3:179,1,95.9999970703126,0|0,2:3|0:0,0:0:0:0:
83,204,56993,2,0,P|83:173|69:145,1,47.9999985351563,2|0,2:3|2:3,0:0:0:0:
33,87,57224,6,0,P|83:66|130:65,1,95.9999970703126,0|2,1:2|2:3,0:0:0:0:
140,70,57532,2,0,L|178:64,2,31.9999990234375,0|0|8,2:0|2:0|1:2,0:0:0:0:
176,146,57801,2,0,P|174:184|173:242,1,95.9999970703126,0|0,2:3|2:3,0:0:0:0:
87,308,58147,5,0,1:2:0:0:
86,279,58263,1,0,2:3:0:0:
74,252,58378,1,2,2:3:0:0:
212,374,58609,5,8,1:2:0:0:
212,374,58724,2,0,P|261:346|311:340,1,95.9999970703126,0|0,0:0|2:3,0:0:0:0:
363,285,59070,5,0,1:2:0:0:
377,309,59185,1,0,2:0:0:0:
402,322,59300,1,2,2:3:0:0:
430,320,59416,1,0,2:0:0:0:
456,307,59532,2,0,P|487:303|506:299,1,47.9999985351563,8|0,1:2|2:3,0:0:0:0:
471,223,59763,2,0,P|445:221|424:221,1,47.9999985351563,2|0,2:3|2:3,0:0:0:0:
446,137,59993,6,0,L|498:126,1,47.9999985351563,0|0,1:2|2:3,0:0:0:0:
436,136,60224,1,0,0:0:0:0:
359,159,60340,2,0,B|306:138|330:122|277:102,1,95.9999970703126,0|0,2:3|0:0,0:0:0:0:
237,35,60686,2,0,P|260:25|292:24,1,47.9999985351563,2|0,2:3|2:3,0:0:0:0:
199,105,60916,6,0,P|195:157|196:206,1,95.9999970703126,0|2,1:2|2:3,0:0:0:0:
192,218,61224,2,0,L|206:248,2,31.9999990234375,0|0|8,2:0|2:0|1:2,0:0:0:0:
118,187,61493,2,0,P|71:217|74:264,1,95.9999970703126,0|0,2:3|2:3,0:0:0:0:
21,381,61840,5,0,1:2:0:0:
24,352,61955,1,0,2:3:0:0:
27,323,62070,1,2,2:3:0:0:
146,376,62301,5,8,1:2:0:0:
146,376,62416,2,0,P|155:315|172:283,1,95.9999970703126,0|0,0:0|2:3,0:0:0:0:
192,288,62763,6,0,P|242:295|284:248,1,95.9999970703126,0|2,1:2|2:3,0:0:0:0:
287,253,63070,2,0,L|295:210,2,31.9999990234375,0|0|8,2:0|2:0|1:2,0:0:0:0:
230,172,63340,2,0,P|225:123|214:67,1,95.9999970703126,0|0,2:3|2:3,0:0:0:0:
277,11,63686,5,0,1:2:0:0:
301,34,63801,1,0,2:3:0:0:
332,46,63916,1,2,2:3:0:0:
365,46,64032,2,0,P|426:41|482:38,1,95.9999970703126,0|0,2:3|0:0,0:0:0:0:
498,132,64378,2,0,P|474:118|446:116,1,47.9999985351563,2|0,2:3|2:3,0:0:0:0:
378,151,64609,6,0,P|360:197|381:250,1,95.9999970703126,0|2,1:2|2:3,0:0:0:0:
381,260,64916,2,0,L|412:277,2,31.9999990234375,0|0|8,2:0|2:0|1:2,0:0:0:0:
350,338,65186,2,0,P|288:346|232:358,1,95.9999970703126,0|0,2:3|2:3,0:0:0:0:
138,326,65532,5,0,1:2:0:0:
165,345,65647,1,0,2:3:0:0:
183,372,65763,1,2,2:3:0:0:
191,232,65993,5,8,1:2:0:0:
221,218,66109,2,0,P|260:187|280:129,1,95.9999970703126,0|0,0:0|2:3,0:0:0:0:
249,43,66455,5,0,1:0:0:0:
249,43,66916,1,2,2:3:0:0:
249,43,67378,1,2,2:3:0:0:
166,28,67724,6,0,P|170:59|172:91,1,60.0000022888184,2|0,1:3|0:0,2:1:0:0:
330,73,67955,2,0,P|326:42|324:10,1,60.0000022888184,2|0,1:3|0:0,1:0:0:0:
255,131,68186,1,2,2:3:0:0:
255,131,68301,6,0,B|275:234|224:203|244:315,1,180.000006866455,6|2,1:2|2:3,0:0:0:0:
344,384,68763,2,0,P|341:335|329:310,1,55.9999982910157,10|0,1:2|0:0,0:0:0:0:
381,242,68993,2,0,L|441:232,1,55.9999982910157,2|0,2:3|3:2,0:0:0:0:
242,307,69224,6,0,P|195:348|136:338,1,111.999996582031,2|2,1:2|2:3,0:0:0:0:
121,322,69570,1,0,3:2:0:0:
175,171,69801,1,0,0:0:0:0:
48,384,70032,6,0,P|40:315|29:259,1,111.999996582031,2|0,2:3|0:0,0:0:0:0:
56,184,70378,2,0,L|-11:198,1,55.9999982910157,2|0,2:3|3:2,0:0:0:0:
23,105,70609,2,0,P|58:62|127:75,1,111.999996582031,10|2,1:2|2:3,0:0:0:0:
201,49,70955,6,0,P|256:105|344:104,1,167.999994873047,2|2,3:2|2:3,0:0:0:0:
507,43,71532,2,0,P|469:42|437:39,1,55.9999982910157,10|0,1:2|0:0,0:0:0:0:
431,141,71763,2,0,P|469:142|501:145,1,55.9999982910157,2|2,2:3|2:3,0:0:0:0:
346,93,71993,6,0,P|325:157|354:205,1,111.999996582031,2|2,1:2|2:3,0:0:0:0:
387,262,72340,2,0,P|408:326|379:374,1,111.999996582031,2|0,2:3|0:0,0:0:0:0:
416,370,72686,1,2,2:3:0:0:
204,331,72916,6,0,P|286:317|326:311,1,111.999996582031,2|2,1:2|2:3,0:0:0:0:
266,243,73263,2,0,P|212:232|214:177,1,111.999996582031,0|0,3:2|0:0,0:0:0:0:
287,165,73609,2,0,P|329:147|310:60,1,111.999996582031,2|2,2:3|1:2,0:0:0:0:
455,262,74070,5,2,2:3:0:0:
439,255,74186,1,0,3:2:0:0:
423,248,74301,1,10,1:2:0:0:
407,242,74416,2,0,L|346:249,1,55.9999982910157,2|2,3:2|2:3,0:0:0:0:
320,343,74647,1,2,3:2:0:0:
297,329,74763,6,0,L|175:343,1,111.999996582031,2|2,1:2|2:3,0:0:0:0:
51,312,75109,2,0,P|107:342|96:381,2,111.999996582031,2|2|2,3:2|2:0|2:3,0:0:0:0:
157,258,75686,6,0,P|161:188|161:128,1,111.999996582031,2|2,1:2|2:3,0:0:0:0:
245,169,76032,2,0,L|387:154,1,111.999996582031,2|0,2:3|0:0,0:0:0:0:
373,172,76378,1,2,2:3:0:0:
143,41,76609,6,0,P|212:45|243:86,1,111.999996582031,2|2,1:2|2:3,0:0:0:0:
260,97,76955,1,0,3:2:0:0:
360,0,77186,1,0,0:0:0:0:
489,94,77416,6,0,L|483:232,1,111.999996582031,2|0,2:3|0:0,0:0:0:0:
403,253,77763,2,0,P|376:246|355:230,1,55.9999982910157,2|0,2:3|3:2,0:0:0:0:
471,295,77993,2,0,P|425:337|365:323,1,111.999996582031,10|2,1:2|2:3,0:0:0:0:
277,340,78340,6,0,P|218:348|156:367,1,111.999996582031,2|0,3:2|0:0,0:0:0:0:
157,378,78686,2,0,L|162:321,1,55.9999982910157,2|0,2:3|3:2,0:0:0:0:
78,218,78916,2,0,L|124:250,1,55.9999982910157,10|0,1:2|0:0,0:0:0:0:
261,228,79147,2,0,L|209:252,1,55.9999982910157,2|2,2:3|2:3,0:0:0:0:
60,322,79378,6,0,P|9:288|6:225,1,111.999996582031,2|2,1:2|2:3,0:0:0:0:
23,158,79724,2,0,P|17:90|5:35,1,111.999996582031,2|0,2:3|0:0,0:0:0:0:
15,16,80070,1,2,2:3:0:0:
99,223,80301,6,0,P|159:236|211:267,1,111.999996582031,2|2,1:2|2:3,0:0:0:0:
261,365,80647,2,0,P|270:298|311:242,1,111.999996582031,0|0,3:2|0:0,0:0:0:0:
313,164,80993,2,0,P|359:190|373:204,1,55.9999982910157,2|2,2:3|2:3,0:0:0:0:
384,286,81224,6,0,P|453:279|458:189,1,167.999994873047,6|8,1:2|2:3,0:0:0:0:
440,117,81686,6,0,L|443:59,1,53.3333333333333,8|8,2:3|2:3,0:0:0:0:
452,60,81916,2,0,B|460:29|460:29|455:2,1,53.3333333333333,4|4,2:3|2:3,0:0:0:0:
257,293,82378,6,0,P|250:252|243:216,1,55.9999982910157,0|0,1:0|0:0,0:0:0:0:
258,140,82609,2,0,P|288:146|322:168,1,55.9999982910157,8|0,2:0|0:0,0:0:0:0:
177,197,82840,2,0,P|156:216|138:263,1,55.9999982910157,8|0,2:0|0:0,0:0:0:0:
139,274,83070,6,0,P|59:271|51:166,1,167.999994873047,0|0,1:2|0:0,0:0:0:0:
52,105,83532,5,12,1:2:0:0:
93,107,83647,1,0,0:0:0:0:
131,92,83762,1,2,2:3:0:0:
160,63,83878,1,0,0:0:0:0:
172,23,83993,6,0,P|171:52|169:82,2,51.999997619629,0|0|2,1:3|2:3|2:3,2:3:0:0:
260,80,84340,2,0,L|316:66,1,51.999997619629,0|8,0:0|1:2,0:0:0:0:
201,149,84570,2,0,P|214:197|226:255,1,103.999995239258
230,384,84916,6,0,P|233:349|234:328,1,51.999997619629,0|0,1:2|0:0,0:0:0:0:
304,284,85147,1,2,2:3:0:0:
303,252,85263,1,0,0:0:0:0:
333,280,85378,5,8,1:2:0:0:
373,288,85493,1,0,0:0:0:0:
411,272,85609,1,2,2:3:0:0:
433,238,85724,1,0,0:0:0:0:
433,197,85840,6,0,L|435:130,3,51.999997619629,0|0|2|0,1:0|0:0|2:3|0:0,0:0:0:0:
337,99,86301,1,8,1:2:0:0:
290,97,86416,1,0,0:0:0:0:
245,75,86532,2,0,P|216:61|186:58,1,51.999997619629,2|0,2:3|0:0,0:0:0:0:
311,15,86763,6,0,L|362:8,1,51.999997619629,0|0,1:2|0:0,0:0:0:0:
37,104,87109,2,0,P|72:105|86:97,1,51.999997619629,0|8,0:0|1:2,0:0:0:0:
143,156,87340,1,0,0:0:0:0:
141,166,87455,1,2,2:3:0:0:
139,176,87570,1,0,0:0:0:0:
136,186,87686,6,0,L|142:248,1,51.999997619629,0|0,1:2|0:0,0:0:0:0:
98,351,87916,2,0,L|39:367,1,51.999997619629,2|0,2:3|0:0,0:0:0:0:
212,321,88147,5,8,1:2:0:0:
221,325,88263,1,0,0:0:0:0:
230,328,88378,2,0,L|293:319,1,51.999997619629,2|0,2:3|0:0,0:0:0:0:
390,320,88609,2,0,P|374:349|337:351,1,51.999997619629,0|0,1:2|0:0,0:0:0:0:
466,357,88840,5,2,2:3:0:0:
472,316,88955,1,0,0:0:0:0:
458,277,89070,1,8,1:2:0:0:
427,251,89186,1,0,0:0:0:0:
379,231,89301,1,2,2:3:0:0:
353,185,89416,1,0,0:0:0:0:
359,133,89532,6,0,P|355:84|347:49,1,64,0|0,1:2|0:0,0:0:0:0:
283,12,89763,1,2,2:3:0:0:
273,49,89878,1,0,0:0:0:0:
270,85,89993,2,0,P|229:133|154:116,1,128,8|2,1:2|2:3,0:0:0:0:
96,79,90340,1,0,0:0:0:0:
101,70,90455,6,0,P|59:80|30:87,1,64,0|0,1:2|0:0,0:0:0:0:
29,201,90686,2,0,P|71:191|100:184,1,64,2|0,2:3|0:0,0:0:0:0:
182,253,90916,5,8,1:2:0:0:
219,262,91031,1,0,0:0:0:0:
251,282,91146,1,2,2:3:0:0:
276,311,91262,1,0,0:0:0:0:
306,324,91378,6,0,L|371:309,3,55.9999982910157,0|0|2|0,1:0|0:0|0:3|0:0,0:0:0:0:
429,246,91840,1,8,1:2:0:0:
437,202,91955,1,0,0:0:0:0:
417,158,92070,1,2,2:3:0:0:
370,141,92186,2,0,P|404:137|431:131,1,55.9999982910157,0|0,0:0|1:2,0:0:0:0:
258,172,92532,5,2,2:3:0:0:
258,172,92647,2,0,P|247:104|241:60,1,111.999996582031
279,270,93109,1,0,0:0:0:0:
149,178,93340,5,0,0:0:0:0:
119,210,93455,1,2,2:3:0:0:
114,254,93570,1,0,0:0:0:0:
129,297,93686,2,0,P|129:333|128:362,1,55.9999982910157,8|0,1:2|0:0,0:0:0:0:
7,323,93916,2,0,P|7:283|5:257,1,55.9999982910157,2|0,2:3|0:0,0:0:0:0:
55,161,94147,6,0,P|36:181|0:189,1,55.9999982910157,0|0,1:2|0:0,0:0:0:0:
251,282,94493,2,0,P|232:262|196:254,1,55.9999982910157,0|8,0:0|1:2,0:0:0:0:
293,195,94724,5,0,0:0:0:0:
295,183,94840,1,2,2:3:0:0:
297,172,94955,1,0,0:0:0:0:
300,161,95070,2,0,L|373:145,1,55.9999982910157,0|0,1:2|0:0,0:0:0:0:
346,278,95301,2,0,L|355:341,1,55.9999982910157,2|0,2:3|0:0,0:0:0:0:
430,201,95532,5,8,1:2:0:0:
439,205,95647,1,0,0:0:0:0:
449,209,95763,2,0,L|515:198,1,55.9999982910157,2|0,2:3|0:0,0:0:0:0:
455,298,95993,6,0,L|450:370,1,55.9999982910157,0|0,1:2|0:0,0:0:0:0:
329,382,96224,2,0,L|334:310,1,55.9999982910157,2|0,2:3|0:0,0:0:0:0:
384,195,96455,6,0,L|379:267,1,55.9999982910157,8|0,1:2|0:0,0:0:0:0:
258,279,96686,2,0,L|263:207,1,55.9999982910157,2|0,2:3|0:0,0:0:0:0:
321,90,96916,6,0,L|316:158,5,63.9999980468751,8|8|8|4|4|4,1:3|1:3|1:3|1:3|1:3|1:3,0:0:0:0:
261,223,97840,5,4,1:2:0:0:
256,352,110763,5,4,1:2:0:0:
128,196,111109,1,8,2:3:0:0:
139,208,111224,2,0,L|193:200,1,53.3333333333333,8|8,2:3|2:3,0:0:0:0:
207,185,111455,2,0,L|223:126,1,53.3333333333333,4|4,2:3|2:3,0:0:0:0:
157,354,111916,6,0,P|153:315|145:274,1,60.0000022888184,0|0,1:0|0:0,0:0:0:0:
338,315,112147,2,0,P|342:354|350:395,1,60.0000022888184,8|0,2:0|0:0,0:0:0:0:
243,268,112378,2,0,P|239:229|231:188,1,60.0000022888184,8|0,2:0|0:0,0:0:0:0:
358,136,112609,6,0,B|433:148|395:174|468:186,1,120.000004577637,6|2,1:2|2:3,0:0:0:0:
470,95,112955,2,0,P|481:43|427:6,1,103.999995239258,2|0,2:3|0:0,0:0:0:0:
363,8,113301,2,0,P|372:50|374:65,1,51.999997619629,2|0,2:3|3:2,0:0:0:0:
285,65,113532,6,0,P|245:74|183:89,1,103.999995239258,2|2,1:2|2:3,0:0:0:0:
150,77,113878,1,0,3:2:0:0:
304,174,114109,1,0,0:0:0:0:
64,51,114340,6,0,P|81:117|87:167,1,103.999995239258,2|0,2:3|0:0,0:0:0:0:
60,263,114686,2,0,P|28:251|19:226,1,51.999997619629,2|0,2:3|3:2,0:0:0:0:
155,223,114916,6,0,B|206:255|177:275|231:306,1,111.999996582031,10|2,1:2|2:3,0:0:0:0:
134,347,115263,2,0,P|217:337|305:379,1,167.999994873047,2|2,3:2|2:3,0:0:0:0:
483,346,115840,6,0,L|473:282,1,55.9999982910157,10|0,1:2|0:0,0:0:0:0:
363,329,116070,2,0,L|370:385,1,55.9999982910157,2|2,2:3|2:3,0:0:0:0:
402,225,116301,6,0,P|401:163|420:96,1,111.999996582031,2|2,1:2|2:3,0:0:0:0:
474,54,116647,2,0,P|418:88|351:79,1,111.999996582031,2|0,2:3|0:0,0:0:0:0:
343,66,116993,1,2,2:3:0:0:
167,15,117224,6,0,P|246:25|291:29,1,111.999996582031,2|2,1:2|2:3,0:0:0:0:
231,109,117571,2,0,P|177:120|169:169,1,111.999996582031,0|0,3:2|0:0,0:0:0:0:
258,185,117917,2,0,P|300:203|293:283,1,111.999996582031,2|2,2:3|1:2,0:0:0:0:
61,100,118378,5,2,2:3:0:0:
75,91,118493,1,0,3:2:0:0:
89,82,118609,1,10,1:2:0:0:
104,75,118724,2,0,P|137:68|172:62,1,55.9999982910157,2|2,3:2|2:3,0:0:0:0:
260,17,118955,1,2,3:2:0:0:
247,28,119070,6,0,P|241:89|242:149,1,111.999996582031,2|2,1:2|2:3,0:0:0:0:
301,230,119416,2,0,P|359:251|400:285,2,111.999996582031,2|2|2,3:2|2:0|2:3,0:0:0:0:
195,237,119993,6,0,P|149:282|91:287,1,111.999996582031,2|2,1:2|2:3,0:0:0:0:
59,214,120340,2,0,P|105:169|163:164,1,111.999996582031,2|0,2:3|0:0,0:0:0:0:
178,75,120686,2,0,P|152:76|112:85,1,55.9999982910157,2|0,2:3|3:2,0:0:0:0:
238,140,120916,6,0,P|296:154|352:153,1,111.999996582031,2|2,1:2|2:3,0:0:0:0:
387,174,121263,1,0,3:2:0:0:
439,19,121493,1,0,0:0:0:0:
307,223,121724,6,0,P|358:259|371:328,1,111.999996582031,2|0,2:3|0:0,0:0:0:0:
447,365,122070,2,0,P|449:325|453:297,1,55.9999982910157,2|0,2:3|3:2,0:0:0:0:
296,384,122301,1,10,1:2:0:0:
296,384,122416,2,0,L|354:375,1,55.9999982910157,2|2,3:2|2:3,0:0:0:0:
221,321,122647,6,0,L|86:299,1,111.999996582031,2|0,3:2|0:0,0:0:0:0:
11,316,122993,2,0,P|29:341|37:365,1,55.9999982910157,2|0,2:3|3:2,0:0:0:0:
60,244,123224,2,0,P|81:205|101:186,1,55.9999982910157,10|0,1:2|0:0,0:0:0:0:
71,113,123455,2,0,P|23:126|-1:132,1,55.9999982910157,2|2,2:3|2:3,0:0:0:0:
158,138,123686,6,0,P|216:134|282:167,1,111.999996582031,2|2,1:2|2:3,0:0:0:0:
316,273,124032,2,0,B|407:257|355:203|459:181,1,167.999994873047,2|2,2:3|2:3,0:0:0:0:
218,224,124609,6,0,P|232:319|237:364,1,128,2|2,1:2|2:3,0:0:0:0:
152,335,124955,2,0,P|88:360|49:303,1,128,0|0,3:2|0:0,0:0:0:0:
317,366,125301,2,0,L|382:350,1,60.0000022888184,2|2,2:3|2:3,0:0:0:0:
492,378,125532,5,6,1:2:0:0:
128,196,125916,1,0,0:0:0:0:
139,208,125993,2,0,L|193:200,1,53.3333333333333,8|8,2:3|2:3,0:0:0:0:
212,210,126224,2,0,L|137:226,1,53.3333333333333,4|0,2:3|0:0,0:0:0:0:
380,296,126686,1,0,1:0:0:0:
294,162,126916,6,0,P|295:121|294:78,1,69.3333301595054,8|0,2:0|3:0,0:0:0:0:
379,120,127147,2,0,L|449:110,1,69.3333301595054,8|0,2:0|3:0,0:0:0:0:
332,18,127378,5,4,1:2:0:0:
