osu file format v14

[General]
AudioFilename: audio.mp3
AudioLeadIn: 0
PreviewTime: 66340
Countdown: 0
SampleSet: Soft
StackLeniency: 0.5
Mode: 0
LetterboxInBreaks: 0
WidescreenStoryboard: 1

[Editor]
Bookmarks: 83070,97840,127378
DistanceSpacing: 1.3
BeatDivisor: 4
GridSize: 4
TimelineZoom: 1.999999

[Metadata]
Title:I can avoid it.#owo
TitleUnicode:I can avoid it.#φωφ
Artist:Feryquitous
ArtistUnicode:Feryquitous
Creator:Natsume Shiki
Version:Normal
Source:Cytus II
Tags:neko rayark scubdomino jungkyuyoung anime girl 8972308 liuyiqiangbu x light 1814662 z1085684963 kiryu 1816779 hynix xcyccg6 10507557 -[Pino]- C_Pino 10120527 NEKO#ΦωΦ You can Disconnected electronic english infinite infinit rhythm video game
BeatmapID:2436863
BeatmapSetID:1157872

[Difficulty]
HPDrainRate:4
CircleSize:3.8
OverallDifficulty:4
ApproachRate:6
SliderMultiplier:1.2
SliderTickRate:1

[Events]
//Background and Video events
0,0,"77991355_p0.jpg",0,0
//Break Periods
2,98039,109713
//Storyboard Layer 0 (Background)
//Storyboard Layer 1 (Fail)
//Storyboard Layer 2 (Pass)
//Storyboard Layer 3 (Foreground)
//Storyboard Layer 4 (Overlay)
//Storyboard Sound Samples

[TimingPoints]
1840,461.538461538462,4,2,1,60,1,0
9224,-100,4,2,1,70,0,0
38763,-100,4,2,1,70,0,0
66455,-100,4,2,1,100,0,0
66685,-100,4,2,1,5,0,0
66916,-100,4,2,1,60,0,0
67724,-100,4,2,1,80,0,0
83532,-100,4,2,1,70,0,0
112840,-100,4,2,1,70,0,0
124609,-100,4,2,1,70,0,1
125532,-100,4,2,1,70,0,0

[Colours]
Combo1 : 129,207,50
Combo2 : 255,149,32
Combo3 : 218,221,217
Combo4 : 140,115,91

[HitObjects]
63,217,1840,6,0,P|41:270|52:341,1,120,0|0,1:0|1:0,0:0:0:0:
194,383,2763,2,0,P|216:330|205:259,1,120,0|0,1:0|1:0,0:0:0:0:
70,198,3686,2,0,P|48:251|59:322,1,120,0|0,1:0|1:0,0:0:0:0:
201,364,4609,2,0,P|223:311|212:240,1,120,0|0,1:0|1:0,0:0:0:0:
123,124,5532,5,2,1:2:0:0:
235,16,5993,1,10,1:2:0:0:
368,97,6455,1,2,1:2:0:0:
480,0,6916,1,10,1:2:0:0:
383,122,7378,6,0,L|369:255,1,120,4|2,1:2|2:3,0:0:0:0:
412,308,8070,1,0,0:0:0:0:
184,368,8763,5,8,1:0:0:0:
243,223,9224,6,0,P|157:278|148:322,1,120,6|10,1:2|1:2,0:0:0:0:
77,310,9916,1,2,2:3:0:0:
32,245,10147,2,0,P|23:168|30:138,2,90,2|0|2,1:2|3:2|2:3,0:0:0:0:
77,310,11070,1,2,1:2:0:0:
229,343,11532,2,0,L|300:360,1,60,10|2,1:2|2:3,0:0:0:0:
358,323,11993,1,2,1:2:0:0:
504,377,12455,1,10,1:2:0:0:
405,256,12916,6,0,P|414:177|463:139,1,120,2|10,1:2|1:2,0:0:0:0:
446,71,13609,1,2,2:3:0:0:
389,16,13840,2,0,P|325:12|282:25,2,90,2|0|2,1:2|3:2|2:3,0:0:0:0:
446,71,14763,1,2,1:2:0:0:
325,169,15224,2,0,L|212:150,1,90,10|0,1:2|3:2,0:0:0:0:
121,133,15916,1,2,2:3:0:0:
82,65,16147,1,10,1:2:0:0:
32,213,16609,6,0,P|79:286|133:304,1,120,2|10,1:2|1:2,0:0:0:0:
184,293,17301,1,2,2:3:0:0:
238,236,17532,2,0,L|354:253,2,90,2|0|2,1:2|3:2|2:3,0:0:0:0:
162,215,18455,2,0,P|162:173|174:140,1,60,2|2,1:2|2:3,0:0:0:0:
213,93,18916,1,10,1:2:0:0:
351,164,19378,1,2,1:2:0:0:
488,237,19840,1,10,1:2:0:0:
377,346,20301,6,0,L|253:359,1,120,2|10,1:2|1:2,0:0:0:0:
201,303,20993,1,2,2:3:0:0:
131,336,21224,2,0,L|14:315,2,90,2|0|2,1:2|3:2|2:3,0:0:0:0:
201,303,22147,2,0,P|188:251|188:192,1,90,2|2,1:2|2:3,0:0:0:0:
238,110,22840,1,2,2:3:0:0:
314,137,23070,6,0,B|304:134|308:172|308:172|296:168|300:206|300:206|286:201|290:241|290:241|256:222|255:236|255:236|226:215|224:229|224:229|195:208|164:217,1,240,8|0,1:3|1:3,0:0:0:0:
107,79,24455,2,0,L|94:11,1,60,12|2,1:2|2:3,0:0:0:0:
173,15,24916,2,0,P|234:28|286:26,2,90,2|0|2,1:2|3:2|2:3,0:0:0:0:
95,20,25840,1,2,1:2:0:0:
21,157,26301,2,0,L|11:224,1,60,10|2,1:2|2:3,0:0:0:0:
56,280,26763,1,2,1:2:0:0:
130,143,27224,2,0,L|140:76,1,60,10|2,1:2|2:3,0:0:0:0:
200,35,27686,6,0,P|248:48|335:33,1,120,2|10,1:2|1:2,0:0:0:0:
394,48,28378,1,2,2:3:0:0:
441,109,28609,2,0,P|447:182|442:215,2,90,2|0|2,1:2|3:2|2:3,0:0:0:0:
394,48,29532,1,2,1:2:0:0:
263,133,29993,2,0,L|162:117,1,90,10|0,1:2|3:2,0:0:0:0:
111,217,30686,1,2,2:3:0:0:
38,244,30916,1,10,1:2:0:0:
147,355,31378,6,0,P|196:321|255:316,1,120,2|10,1:2|1:2,0:0:0:0:
315,366,32070,1,2,2:3:0:0:
392,373,32301,2,0,P|436:349|465:297,2,90,2|0|2,1:2|3:2|2:3,0:0:0:0:
315,366,33224,1,2,1:2:0:0:
343,215,33686,2,0,L|355:135,1,60,10|2,1:2|2:3,0:0:0:0:
419,117,34147,1,2,1:2:0:0:
265,90,34609,2,0,L|185:78,1,60,10|2,1:2|2:3,0:0:0:0:
130,100,35070,6,0,P|123:158|166:228,1,120,2|10,1:2|1:2,0:0:0:0:
176,285,35763,1,2,2:3:0:0:
134,350,35993,2,0,L|37:369,2,90,2|0|2,1:2|3:2|2:3,0:0:0:0:
207,377,36916,2,0,L|317:357,1,90,2|2,1:2|2:3,0:0:0:0:
302,243,37609,1,0,0:0:0:0:
342,176,37840,6,0,B|344:165|375:188|375:188|377:175|408:198|408:198|411:183|444:207|444:207|445:192|478:215|478:215|482:201|514:227|514:227,1,200,4|4,1:3|1:3,0:0:0:0:
512,250,38763,6,0,P|433:251|390:287,1,120,4|8,1:2|1:2,0:0:0:0:
259,339,39686,2,0,L|158:356,1,90,0|0,1:2|0:0,0:0:0:0:
124,246,40378,2,0,L|245:266,1,120
311,228,41070,2,0,L|301:155,1,60,8|0,1:2|0:0,0:0:0:0:
232,133,41532,2,0,P|165:155|95:135,1,120,0|8,1:2|1:2,0:0:0:0:
205,17,42455,6,0,P|272:-5|342:15,1,120,0|8,1:2|1:2,0:0:0:0:
420,122,43378,2,0,L|535:138,1,90,0|0,1:2|0:0,0:0:0:0:
502,251,44070,1,0,0:0:0:0:
437,294,44301,2,0,P|421:346|430:398,2,90,0|0|0,1:2|0:0|0:0,0:0:0:0:
502,251,45224,2,0,P|420:248|366:277,2,120,0|8|0,1:2|1:2|1:0,0:0:0:0:
501,172,46378,5,0,0:0:0:0:
458,106,46609,2,0,L|464:41,1,60,8|0,1:2|0:0,0:0:0:0:
394,10,47070,2,0,P|348:39|294:45,2,90,0|0|0,1:2|0:0|0:0,0:0:0:0:
463,46,47993,1,0,1:2:0:0:
328,125,48455,2,0,L|259:130,1,60,8|0,1:2|0:0,0:0:0:0:
217,69,48916,2,0,L|148:74,1,60,0|0,1:2|0:0,0:0:0:0:
85,42,49378,2,0,P|45:91|55:165,1,120,8|0,1:2|1:2,0:0:0:0:
90,208,50070,5,0,0:0:0:0:
166,225,50301,2,0,L|183:301,1,60,8|0,1:2|0:0,0:0:0:0:
201,358,50763,2,0,L|318:374,2,90,0|0|0,1:2|0:0|0:0,0:0:0:0:
126,343,51686,6,0,B|37:358|37:358|-4:276|-4:276|62:216|62:216|148:256,1,360,0|0,1:0|1:0,0:0:0:0:
277,333,53532,6,0,L|395:317,1,120,0|8,1:2|1:2,0:0:0:0:
457,268,54224,1,2,2:3:0:0:
490,197,54455,2,0,L|498:117,1,60,0|2,1:2|2:3,0:0:0:0:
418,124,54916,2,0,L|412:183,1,60,8|2,1:2|2:3,0:0:0:0:
342,222,55378,1,0,1:2:0:0:
360,384,55840,1,8,1:2:0:0:
283,369,56070,1,2,2:3:0:0:
228,312,56301,2,0,L|153:300,1,60,0|2,1:2|2:3,0:0:0:0:
101,262,56763,2,0,L|29:249,1,60,8|2,1:2|2:3,0:0:0:0:
48,173,57224,6,0,L|26:32,1,120,0|8,1:2|1:2,0:0:0:0:
107,55,57916,1,2,2:3:0:0:
171,10,58147,2,0,L|243:20,1,60,0|2,1:2|2:3,0:0:0:0:
276,81,58609,2,0,L|263:157,1,60,8|2,1:2|2:3,0:0:0:0:
321,195,59070,2,0,P|380:167|450:178,1,120,0|8,1:2|1:2,0:0:0:0:
475,237,59763,1,2,2:3:0:0:
477,314,59993,1,0,1:2:0:0:
324,356,60455,2,0,L|251:341,1,60,8|2,1:2|2:3,0:0:0:0:
189,362,60916,5,0,1:2:0:0:
123,220,61378,2,0,P|122:176|132:148,1,60,8|2,1:2|2:3,0:0:0:0:
198,129,61840,2,0,L|279:119,1,60,0|2,1:2|2:3,0:0:0:0:
247,44,62301,2,0,L|187:51,1,60,8|2,1:2|2:3,0:0:0:0:
115,82,62763,2,0,L|-10:53,1,120,0|8,1:2|1:2,0:0:0:0:
0,132,63455,1,2,2:3:0:0:
46,194,63686,2,0,L|33:265,1,60,0|2,1:2|2:3,0:0:0:0:
1,323,64147,1,8,1:2:0:0:
144,384,64609,6,0,P|200:362|281:369,1,120,0|8,1:2|1:2,0:0:0:0:
332,384,65301,1,2,2:3:0:0:
364,315,65532,2,0,P|369:258|359:220,1,90,0|0,1:2|2:3,0:0:0:0:
402,117,66224,1,2,2:3:0:0:
480,117,66455,5,0,1:0:0:0:
148,307,67724,5,2,1:3:0:0:
165,384,67955,1,2,1:3:0:0:
27,375,68301,6,0,L|0:234,1,120,6|10,1:2|1:2,0:0:0:0:
1,179,68993,1,2,2:3:0:0:
74,151,69224,2,0,P|120:177|177:176,1,90,2|0,1:2|3:2,0:0:0:0:
263,227,69916,2,0,P|300:180|357:167,1,120,2|2,2:3|2:3,0:0:0:0:
411,222,70609,2,0,L|503:237,1,90,10|2,1:2|3:2,0:0:0:0:
477,124,71301,2,0,L|464:57,2,60,2|10|2,2:3|1:2|2:3,0:0:0:0:
401,143,71993,6,0,L|272:119,1,120,2|10,1:2|1:2,0:0:0:0:
206,136,72686,1,2,2:3:0:0:
169,204,72916,2,0,P|161:256|181:303,2,90,2|0|2,1:2|3:2|2:3,0:0:0:0:
206,134,73840,6,0,L|192:63,1,60,2|2,1:2|2:3,0:0:0:0:
175,0,74301,2,0,L|104:14,1,60,10|2,1:2|2:3,0:0:0:0:
39,26,74763,2,0,L|144:45,2,90,2|2|2,1:2|3:2|2:3,0:0:0:0:
6,96,75686,6,0,P|47:128|68:216,1,120,2|10,1:2|1:2,0:0:0:0:
47,265,76378,1,2,2:3:0:0:
88,331,76609,2,0,L|198:351,1,90,2|0,1:2|3:2,0:0:0:0:
273,282,77301,2,0,L|137:256,1,120,2|2,2:3|2:3,0:0:0:0:
134,181,77993,2,0,P|122:144|123:99,1,60,10|2,1:2|2:3,0:0:0:0:
196,104,78455,2,0,P|208:141|207:186,1,60,2|2,1:2|2:3,0:0:0:0:
278,201,78916,2,0,P|353:149|391:154,1,120,10|2,1:2|1:2,0:0:0:0:
436,201,79609,5,2,2:3:0:0:
449,277,79840,2,0,L|439:353,1,60,10|2,1:2|2:3,0:0:0:0:
370,368,80301,2,0,P|318:367|258:386,2,90,2|0|2,1:2|3:2|2:3,0:0:0:0:
441,336,81224,1,6,1:2:0:0:
67,53,82609,1,8,2:0:0:0:
142,73,82840,1,8,2:0:0:0:
212,40,83070,2,0,P|287:46|325:81,1,120,0|12,1:2|1:2,0:0:0:0:
346,147,83763,5,2,2:3:0:0:
421,127,83993,2,0,L|525:140,2,90,0|0|2,1:2|0:0|2:3,0:0:0:0:
442,281,85147,2,0,L|373:291,1,60,2|8,2:3|1:2,0:0:0:0:
309,318,85609,2,0,L|299:249,1,60,2|0,2:3|1:2,0:0:0:0:
240,208,86070,1,2,2:3:0:0:
172,246,86301,1,8,1:2:0:0:
146,91,86763,6,0,P|179:78|272:103,1,120,0|8,1:2|1:2,0:0:0:0:
325,135,87455,1,2,2:3:0:0:
368,69,87686,2,0,L|475:53,2,90,0|0|2,1:2|0:0|2:3,0:0:0:0:
325,134,88609,2,0,L|315:207,1,60,0|2,1:2|2:3,0:0:0:0:
393,209,89070,2,0,L|401:149,1,60,8|2,1:2|2:3,0:0:0:0:
479,145,89532,1,0,1:2:0:0:
507,217,89763,1,2,2:3:0:0:
496,293,89993,1,8,1:2:0:0:
358,367,90455,6,0,P|282:349|243:302,1,120,0|8,1:2|1:2,0:0:0:0:
196,267,91147,1,2,2:3:0:0:
132,312,91378,2,0,L|32:334,1,90,0|0,1:2|0:0,0:0:0:0:
60,215,92070,2,0,L|199:181,1,120,2|2,2:3|2:3,0:0:0:0:
235,134,92763,2,0,P|248:95|246:67,2,60,8|2|0,1:2|2:3|1:2,0:0:0:0:
250,210,93455,1,2,2:3:0:0:
304,266,93686,2,0,L|315:334,1,60,8|2,1:2|2:3,0:0:0:0:
383,358,94147,6,0,P|450:350|510:387,1,120,0|8,1:2|1:2,0:0:0:0:
512,294,94840,1,2,2:3:0:0:
458,238,95070,2,0,P|421:168|423:135,1,90,0|0,1:2|0:0,0:0:0:0:
319,100,95763,1,2,2:3:0:0:
251,138,95993,2,0,L|178:127,1,60,0|2,1:2|2:3,0:0:0:0:
115,112,96455,1,8,1:2:0:0:
38,97,96686,1,2,2:3:0:0:
10,172,96916,6,0,B|20:169|16:207|16:207|28:203|24:241|24:241|38:236|34:276|34:276|47:270|44:310|44:310|58:307|52:347|52:347|69:342|64:389,1,240,8|4,1:3|1:2,0:0:0:0:
256,192,110763,5,4,1:2:0:0:
445,331,112147,1,8,2:0:0:0:
370,311,112378,1,8,2:0:0:0:
300,344,112608,6,0,P|225:338|187:303,1,120,6|10,1:2|1:2,0:0:0:0:
116,300,113301,1,2,2:3:0:0:
84,228,113532,2,0,L|61:122,1,90,2|0,1:2|3:2,0:0:0:0:
152,62,114224,2,0,P|236:58|272:26,1,120,2|2,2:3|2:3,0:0:0:0:
337,57,114916,2,0,P|405:53|429:61,1,90,10|2,1:2|3:2,0:0:0:0:
495,153,115609,2,0,L|485:241,2,60,2|10|2,2:3|1:2|2:3,0:0:0:0:
417,147,116301,6,0,L|398:279,1,120,2|10,1:2|1:2,0:0:0:0:
364,337,116993,1,2,2:3:0:0:
288,360,117224,2,0,P|236:353|175:364,2,90,2|0|2,1:2|3:2|2:3,0:0:0:0:
363,337,118147,2,0,L|437:359,1,60,2|2,1:2|2:3,0:0:0:0:
462,287,118609,2,0,L|393:267,1,60,10|2,1:2|2:3,0:0:0:0:
357,207,119070,2,0,L|224:225,1,120,2|10,1:2|1:2,0:0:0:0:
160,237,119763,1,2,2:3:0:0:
85,253,119993,6,0,P|75:326|89:360,2,90,2|2|2,1:2|2:3|2:3,0:0:0:0:
104,177,120916,2,0,L|90:94,1,60,2|2,1:2|2:3,0:0:0:0:
140,54,121378,1,10,1:2:0:0:
215,73,121609,1,2,2:3:0:0:
279,28,121840,2,0,P|361:46|390:88,1,120,2|10,1:2|1:2,0:0:0:0:
440,122,122532,2,0,L|420:259,1,120,2|2,2:3|2:3,0:0:0:0:
409,317,123224,2,0,L|327:335,1,60,10|2,1:2|2:3,0:0:0:0:
291,278,123686,6,0,L|164:254,1,120,2|10,1:2|1:2,0:0:0:0:
164,178,124378,1,2,2:3:0:0:
220,124,124609,2,0,L|347:148,1,120,2|10,1:2|1:2,0:0:0:0:
267,6,125532,2,0,P|185:44|77:49,1,180,6|4,1:2|2:3,0:0:0:0:
235,239,126916,1,8,2:0:0:0:
239,316,127147,1,8,2:0:0:0:
276,384,127378,5,4,1:2:0:0:
