osu file format v14

[General]
AudioFilename: audio.mp3
AudioLeadIn: 0
PreviewTime: 66340
Countdown: 0
SampleSet: Soft
StackLeniency: 0.2
Mode: 0
LetterboxInBreaks: 0
WidescreenStoryboard: 1

[Editor]
Bookmarks: 38763,53532,82916,97840,110763,112551
DistanceSpacing: 0.4
BeatDivisor: 4
GridSize: 16
TimelineZoom: 2.799999

[Metadata]
Title:I can avoid it.#owo
TitleUnicode:I can avoid it.#φωφ
Artist:Feryquitous
ArtistUnicode:Feryquitous
Creator:Natsume Shiki
Version:Chaos
Source:Cytus II
Tags:neko rayark scubdomino jungkyuyoung anime girl 8972308 liuyiqiangbu x light 1814662 z1085684963 kiryu 1816779 hynix xcyccg6 10507557 -[Pino]- C_Pino 10120527 NEKO#ΦωΦ You can Disconnected electronic english infinite infinit rhythm video game
BeatmapID:2416428
BeatmapSetID:1157872

[Difficulty]
HPDrainRate:5
CircleSize:4
OverallDifficulty:8
ApproachRate:9.2
SliderMultiplier:2.1
SliderTickRate:2

[Events]
//Background and Video events
0,0,"77991355_p0.jpg",0,0
//Break Periods
2,98040,110193
//Storyboard Layer 0 (Background)
//Storyboard Layer 1 (Fail)
//Storyboard Layer 2 (Pass)
//Storyboard Layer 3 (Foreground)
//Storyboard Layer 4 (Overlay)
//Storyboard Sound Samples

[TimingPoints]
1840,461.538461538462,4,2,1,60,1,0
5532,-200,4,2,1,60,0,0
7378,-100,4,2,1,60,0,0
8532,-133.333333333333,4,2,1,60,0,0
8763,-50,4,2,1,60,0,0
9224,-66.6666666666667,4,2,1,70,0,0
9686,-83.3333333333333,4,2,1,70,0,0
10147,-58.8235294117647,4,2,1,70,0,0
11416,-83.3333333333333,4,2,1,70,0,0
12224,-40,4,2,1,70,0,0
12455,-133.333333333333,4,2,1,70,0,0
12916,-66.6666666666667,4,2,1,70,0,0
13378,-83.3333333333333,4,2,1,70,0,0
13840,-58.8235294117647,4,2,1,70,0,0
15109,-83.3333333333333,4,2,1,70,0,0
15686,-58.8235294117647,4,2,1,70,0,0
16147,-133.333333333333,4,2,1,70,0,0
16609,-66.6666666666667,4,2,1,70,0,0
17070,-83.3333333333333,4,2,1,70,0,0
17532,-58.8235294117647,4,2,1,70,0,0
18801,-83.3333333333333,4,2,1,70,0,0
19609,-40,4,2,1,70,0,0
19840,-66.6666666666667,4,2,1,70,0,0
21224,-58.8235294117647,4,2,1,70,0,0
21570,-76.9230769230769,4,2,1,70,0,0
23070,-100,4,2,1,70,0,0
23993,-50,4,2,1,70,0,0
24916,-66.6666666666667,4,2,1,70,0,0
25840,-58.8235294117647,4,2,1,70,0,0
26186,-76.9230769230769,4,2,1,70,0,0
27455,-66.6666666666667,4,2,1,70,0,0
27686,-58.8235294117647,4,2,1,70,0,0
28955,-76.9230769230769,4,2,1,70,0,0
29532,-66.6666666666667,4,2,1,70,0,0
30109,-83.3333333333333,4,2,1,70,0,0
30686,-55.5555555555556,4,2,1,70,0,0
31378,-66.6666666666667,4,2,1,70,0,0
31840,-55.5555555555556,4,2,1,70,0,0
32301,-58.8235294117647,4,2,1,70,0,0
32647,-83.3333333333333,4,2,1,70,0,0
33224,-55.5555555555556,4,2,1,70,0,0
33570,-83.3333333333333,4,2,1,70,0,0
34840,-45.4545454545455,4,2,1,70,0,0
35070,-55.5555555555556,4,2,1,70,0,0
35532,-66.6666666666667,4,2,1,70,0,0
35993,-58.8235294117647,4,2,1,70,0,0
36340,-83.3333333333333,4,2,1,70,0,0
36916,-66.6666666666667,4,2,1,70,0,0
37493,-83.3333333333333,4,2,1,70,0,0
38763,-66.6666666666667,4,2,1,70,0,0
39455,-100,4,2,1,70,0,0
39686,-66.6666666666667,4,2,1,70,0,0
40032,-100,4,2,1,70,0,0
40493,-76.9230769230769,4,2,1,70,0,0
41993,-58.8235294117647,4,2,1,70,0,0
42455,-83.3333333333333,4,2,1,70,0,0
42801,-66.6666666666667,4,2,1,70,0,0
50763,-50,4,2,1,70,0,0
51109,-66.6666666666667,4,2,1,70,0,0
53186,-133.333333333333,4,2,1,70,0,0
53993,-66.6666666666667,4,2,1,70,0,0
60340,-58.8235294117647,4,2,1,70,0,0
60801,-66.6666666666667,4,2,1,70,0,0
66109,-100,4,2,1,70,0,0
66455,-12.5,4,2,1,100,0,0
66685,-12.5,4,2,1,5,0,0
66916,-50,4,2,1,60,0,0
67146,-50,4,2,1,60,0,0
67378,-50,4,2,1,60,0,0
67608,-50,4,2,1,60,0,0
67724,-25,4,2,1,80,0,0
68301,-66.6666666666667,4,2,1,80,0,0
68763,-50,4,2,1,80,0,0
69916,-40,4,2,1,80,0,0
70147,-66.6666666666667,4,2,1,80,0,0
70724,-50,4,2,1,80,0,0
71301,-33.3333333333333,4,2,1,80,0,0
71532,-50,4,2,1,80,0,0
72916,-66.6666666666667,4,2,1,80,0,0
73263,-50,4,2,1,80,0,0
73840,-66.6666666666667,4,2,1,80,0,0
74301,-43.4782608695652,4,2,1,80,0,0
74532,-55.5555555555556,4,2,1,80,0,0
74763,-50,4,2,1,80,0,0
75109,-66.6666666666667,4,2,1,80,0,0
76147,-50,4,2,1,80,0,0
77301,-40,4,2,1,80,0,0
77532,-66.6666666666667,4,2,1,80,0,0
77763,-50,4,2,1,80,0,0
80301,-66.6666666666667,4,2,1,80,0,0
81224,-133.333333333333,4,2,1,80,0,0
82609,-50,4,2,1,80,0,0
83532,-66.6666666666667,4,2,1,70,0,0
83763,-50,4,2,1,70,0,0
84686,-66.6666666666667,4,2,1,70,0,0
85609,-50,4,2,1,70,0,0
85955,-66.6666666666667,4,2,1,70,0,0
88032,-58.8235294117647,4,2,1,70,0,0
91147,-66.6666666666667,4,2,1,70,0,0
91724,-58.8235294117647,4,2,1,70,0,0
95763,-40,4,2,1,70,0,0
95993,-58.8235294117647,4,2,1,70,0,0
111224,-100,4,2,1,70,0,0
112147,-33.3333333333333,4,2,1,70,0,0
112609,-66.6666666666667,4,2,1,70,0,0
112840,-66.6666666666667,4,2,1,70,0,0
113301,-50,4,2,1,70,0,0
114224,-40,4,2,1,70,0,0
114455,-66.6666666666667,4,2,1,70,0,0
115032,-50,4,2,1,70,0,0
115609,-33.3333333333333,4,2,1,70,0,0
115840,-50,4,2,1,70,0,0
116993,-66.6666666666667,4,2,1,70,0,0
117570,-43.4782608695652,4,2,1,70,0,0
117801,-83.3333333333333,4,2,1,70,0,0
118032,-50,4,2,1,70,0,0
118378,-66.6666666666667,4,2,1,70,0,0
118609,-43.4782608695652,4,2,1,70,0,0
118840,-55.5555555555556,4,2,1,70,0,0
119416,-66.6666666666667,4,2,1,70,0,0
120455,-50,4,2,1,70,0,0
120686,-66.6666666666667,4,2,1,70,0,0
122416,-50,4,2,1,70,0,0
124378,-100,4,2,1,70,0,0
124609,-33.3333333333333,4,2,1,70,0,1
124840,-66.6666666666667,4,2,1,70,0,1
125070,-40,4,2,1,70,0,1
125301,-100,4,2,1,70,0,1
125532,-250,4,2,1,70,0,0
126916,-50,4,2,1,70,0,0

[Colours]
Combo1 : 129,207,50
Combo2 : 255,149,32
Combo3 : 218,221,217
Combo4 : 140,115,91

[HitObjects]
0,192,1840,5,0,1:0:0:0:
0,192,2301,1,0,1:0:0:0:
0,192,2763,1,0,1:0:0:0:
0,192,3224,1,0,1:0:0:0:
0,192,3686,1,0,1:0:0:0:
0,192,4147,1,0,1:0:0:0:
0,192,4609,1,0,1:0:0:0:
0,192,5070,1,0,1:0:0:0:
5,29,5532,6,0,P|36:43|15:70,1,78.7850000000001,2|0,1:2|0:0,0:0:0:0:
295,120,5993,2,0,P|263:105|284:78,1,78.7850000000001,10|0,1:2|0:0,0:0:0:0:
14,45,6455,6,0,P|42:64|16:87,1,78.7850000000001,2|0,1:2|0:0,0:0:0:0:
285,103,6916,2,0,P|256:83|282:60,1,78.7850000000001,10|0,1:2|0:0,0:0:0:0:
141,194,7378,6,0,L|150:81,1,105.35,4|2,1:2|2:0,0:0:0:0:
150,84,7724,2,0,L|156:-6,1,52.5,8|0,2:3|0:0,0:0:0:0:
137,207,7955,2,0,L|26:194,1,105.35,4|2,2:3|2:3,0:0:0:0:
395,235,8416,1,2,2:0:0:0:
399,239,8532,2,0,L|408:289,1,39.5062515020371,0|0,1:0|0:0,0:0:0:0:
426,367,8763,6,0,B|465:235|465:235|407:277,1,210.7,8|0,1:0|0:0,0:0:0:0:
405,277,9224,6,0,L|220:305,1,157.500006008148,6|2,1:2|2:3,0:0:0:0:
0,338,9686,2,0,L|136:362,1,126.419996154785,10|2,1:2|2:3,0:0:0:0:
233,297,10032,1,0,3:2:0:0:
237,301,10147,6,0,B|165:258|102:307|102:307|119:334|164:311,1,179.095003404617,2|2,1:2|2:3,0:0:0:0:
317,294,10493,2,0,P|310:338|281:371,1,89.5475017023088,0|10,3:2|1:2,0:0:0:0:
106,83,10840,2,0,P|113:39|142:6,1,89.5475017023088,2|2,2:3|2:3,0:0:0:0:
184,73,11070,6,0,B|29:112|29:112|45:82,1,179.095003404617,2|2,1:2|2:3,0:0:0:0:
42,88,11416,2,0,L|132:103,1,63.2099980773927,0|10,3:2|1:2,0:0:0:0:
308,185,11647,2,0,L|245:174,1,63.2099980773927,2|2,3:2|2:3,0:0:0:0:
102,257,11878,6,0,L|192:272,1,63.2099980773927,0|2,3:2|1:2,0:0:0:0:
351,357,12109,1,0,0:0:0:0:
355,361,12224,2,0,P|332:276|427:303,1,196.9625,2|0,2:3|0:0,0:0:0:0:
420,278,12455,6,0,L|436:356,1,79.0125030040743,10|2,1:2|2:3,0:0:0:0:
512,111,12916,6,0,P|445:46|492:-14,1,158.025006008148,2|2,1:2|2:3,0:0:0:0:
245,174,13378,2,0,P|294:205|280:262,1,126.419996154785,10|2,1:2|2:3,0:0:0:0:
154,380,13724,1,0,3:2:0:0:
158,384,13840,6,0,B|182:236|182:236|194:256|194:256|173:266,1,179.095003404617,2|2,1:2|2:3,0:0:0:0:
279,264,14186,2,0,L|141:295,1,89.5475017023088,0|10,3:2|1:2,0:0:0:0:
466,0,14532,2,0,L|378:19,1,89.5475017023088,2|2,2:3|2:3,0:0:0:0:
325,75,14763,6,0,B|227:75|267:-4|152:1,1,179.095003404617,2|2,1:2|2:3,0:0:0:0:
171,1,15109,2,0,L|61:23,1,63.2099980773927,0|10,3:2|1:2,0:0:0:0:
18,137,15340,2,0,L|40:247,1,63.2099980773927,2|2,3:2|2:3,0:0:0:0:
185,254,15570,1,0,3:2:0:0:
189,258,15686,6,0,B|51:230|51:230|115:203,1,179.095003404617,2|2,1:2|2:3,0:0:0:0:
151,168,16032,1,0,3:2:0:0:
229,184,16147,2,0,L|141:166,1,79.0125030040743,10|2,1:2|2:3,0:0:0:0:
0,354,16493,1,0,3:2:0:0:
4,358,16609,6,0,L|159:334,1,158.025006008148,2|2,1:2|2:3,0:0:0:0:
501,359,17070,2,0,L|358:381,1,126.419996154785,10|2,1:2|2:3,0:0:0:0:
233,355,17416,1,0,3:2:0:0:
237,359,17532,6,0,B|285:369|322:342|336:299|336:299|357:339|322:366,1,179.095003404617,2|2,1:2|2:3,0:0:0:0:
512,356,17878,2,0,L|416:334,1,89.5475017023088,0|10,3:2|1:2,0:0:0:0:
265,36,18224,2,0,L|360:14,1,89.5475017023088,2|2,2:3|2:3,0:0:0:0:
328,99,18455,6,0,P|328:183|408:209,1,179.095003404617,2|2,1:2|2:3,0:0:0:0:
512,126,18801,2,0,L|432:108,1,63.2099980773927,0|10,3:2|1:2,0:0:0:0:
234,173,19032,2,0,L|323:191,1,63.2099980773927,2|2,3:2|2:3,0:0:0:0:
408,311,19263,6,0,L|328:293,1,63.2099980773927,0|2,3:2|1:2,0:0:0:0:
261,345,19493,1,0,0:0:0:0:
265,349,19609,2,0,P|176:353|248:282,1,196.9625,2|0,2:3|0:0,0:0:0:0:
198,277,19840,6,0,L|363:246,1,158.025006008148,10|2,1:2|2:3,0:0:0:0:
508,380,20186,1,0,3:2:0:0:
512,384,20301,6,0,P|442:354|457:244,1,158.025006008148,2|2,1:2|2:3,0:0:0:0:
430,0,20763,2,0,P|500:30|485:140,1,158.025006008148,10|2,1:2|2:3,0:0:0:0:
441,158,21109,1,0,3:2:0:0:
445,162,21224,6,0,B|297:138|297:138|341:113,1,179.095003404617,2|2,1:2|2:3,0:0:0:0:
391,74,21570,2,0,L|402:141,1,68.4774968757632,0|10,3:2|1:2,0:0:0:0:
180,383,21916,2,0,L|191:315,1,68.4774968757632,2|0,2:3|3:2,0:0:0:0:
204,238,22147,6,0,P|254:266|255:362,1,136.954993751526,2|2,1:2|2:3,0:0:0:0:
267,339,22493,6,0,L|360:322,1,68.4774968757632,2|10,2:3|1:2,0:0:0:0:
136,248,22724,2,0,L|203:237,1,68.4774968757632,0|2,3:0|2:3,0:0:0:0:
232,57,22955,1,0,3:0:0:0:
176,0,23070,6,0,L|128:48,1,35.42,8|0,1:3|0:0,0:0:0:0:
48,64,23224,2,0,L|112:64,1,35.42,8|0,1:3|0:0,0:0:0:0:
176,128,23378,2,0,L|144:96,1,35.42,8|0,1:3|0:0,0:0:0:0:
0,161,23532,6,0,L|48:209,1,35.42,4|0,1:3|0:0,0:0:0:0:
128,225,23686,2,0,L|64:225,1,35.42,4|0,1:3|0:0,0:0:0:0:
0,289,23840,2,0,L|32:257,1,35.42,4|0,1:3|0:0,0:0:0:0:
168,384,23993,6,0,B|98:305|130:157|280:165|293:295|129:270,1,315.14,0|0,1:3|0:0,0:0:0:0:
147,258,24455,6,0,P|182:214|244:190,1,105.35,12|0,1:2|0:0,0:0:0:0:
310,268,24686,1,2,2:3:0:0:
314,272,24801,1,0,3:2:0:0:
234,341,24916,6,0,L|391:362,1,158.025006008148,2|2,1:2|2:3,0:0:0:0:
398,362,25263,2,0,P|431:306|400:245,1,79.0125030040743,0|10,3:2|1:2,0:0:0:0:
423,56,25609,2,0,P|464:106|443:171,1,79.0125030040743,2|2,2:3|2:3,0:0:0:0:
387,126,25840,6,0,B|409:-10|409:-10|428:13|428:13|410:34,1,179.095003404617,2|2,1:2|2:3,0:0:0:0:
465,117,26186,2,0,L|449:208,1,68.4774968757632,0|10,3:2|1:2,0:0:0:0:
251,72,26416,2,0,L|262:4,1,68.4774968757632,2|2,3:2|2:3,0:0:0:0:
51,20,26647,1,0,3:2:0:0:
15,266,26878,5,0,0:0:0:0:
15,266,26936,1,0,0:0:0:0:
15,266,26993,2,0,L|112:249,1,68.4774968757632,2|0,2:3|3:2,0:0:0:0:
60,340,27224,5,10,1:2:0:0:
283,307,27455,2,0,P|297:361|275:407,1,79.0125030040743,2|0,2:3|3:2,0:0:0:0:
215,352,27686,6,0,P|273:287|360:280,1,179.095003404617,2|2,1:2|2:3,0:0:0:0:
181,14,28147,2,0,P|123:79|36:86,1,179.095003404617,10|2,1:2|2:3,0:0:0:0:
22,191,28493,1,0,3:2:0:0:
26,195,28609,6,0,B|58:60|58:60|32:82|32:82|49:93,1,179.095003404617,2|2,1:2|2:3,0:0:0:0:
22,208,28955,2,0,L|91:195,1,68.4774968757632,0|10,3:2|1:2,0:0:0:0:
377,85,29301,2,0,L|309:97,1,68.4774968757632,2|2,2:3|2:3,0:0:0:0:
196,138,29532,6,0,B|217:166|268:168|294:133|294:133|276:105|243:108,1,158.025006008148,2|2,1:2|2:3,0:0:0:0:
267,25,29878,2,0,L|382:3,1,79.0125030040743,0|10,3:2|1:2,0:0:0:0:
421,203,30109,2,0,L|368:167,1,63.2099980773927,2|2,3:2|2:3,0:0:0:0:
242,323,30340,2,0,L|253:384,1,63.2099980773927,0|2,3:2|1:2,0:0:0:0:
332,343,30570,5,0,0:0:0:0:
332,343,30628,1,0,0:0:0:0:
332,343,30686,2,0,P|362:295|358:256,1,94.8149971160891,2|0,2:3|3:2,0:0:0:0:
172,225,30916,6,0,L|368:260,1,189.629994232178,10|2,1:2|2:3,0:0:0:0:
421,203,31263,1,0,3:2:0:0:
494,235,31378,6,0,B|422:203|422:203|480:151,1,158.025006008148,2|2,1:2|2:3,0:0:0:0:
160,40,31840,2,0,B|247:78|247:78|178:141,1,189.629994232178,10|2,1:2|2:3,0:0:0:0:
263,62,32186,1,0,3:2:0:0:
267,66,32301,6,0,P|349:43|409:104,1,179.095003404617,2|2,1:2|2:3,0:0:0:0:
467,211,32647,2,0,L|477:149,1,63.2099980773927,0|10,3:2|1:2,0:0:0:0:
82,35,32993,2,0,L|92:98,1,63.2099980773927,2|2,2:3|2:3,0:0:0:0:
22,275,33224,6,0,B|9:249|9:249|42:262|42:262|65:398,1,189.629994232178,2|2,1:2|2:3,0:0:0:0:
62,384,33570,2,0,L|0:370,1,63.2099980773927,0|10,3:2|1:2,0:0:0:0:
125,223,33801,2,0,L|186:236,1,63.2099980773927,2|2,3:2|2:3,0:0:0:0:
326,343,34032,6,0,L|388:357,1,63.2099980773927,0|2,3:2|1:2,0:0:0:0:
512,209,34263,1,0,0:0:0:0:
512,209,34320,1,0,0:0:0:0:
512,209,34378,2,0,L|450:195,1,63.2099980773927,2|0,2:3|3:2,0:0:0:0:
467,280,34609,5,10,1:2:0:0:
439,20,34840,2,0,P|402:58|409:131,1,115.88500352478,2|0,2:3|3:2,0:0:0:0:
477,89,35070,6,0,L|255:122,1,189.629994232178,2|2,1:2|2:3,0:0:0:0:
77,318,35532,2,0,L|233:343,1,158.025006008148,10|2,1:2|2:3,0:0:0:0:
305,380,35878,1,0,3:2:0:0:
309,384,35993,6,0,B|325:251|325:251|302:259|302:259|307:286,1,179.095003404617,2|2,1:2|2:3,0:0:0:0:
257,190,36340,2,0,P|235:212|224:242,1,63.2099980773927,0|10,3:2|1:2,0:0:0:0:
0,384,36686,2,0,P|21:361|32:332,1,63.2099980773927,2|0,2:3|3:2,0:0:0:0:
157,113,36916,6,0,L|1:138,1,158.025006008148,2|2,1:2|2:3,0:0:0:0:
1,138,37263,2,0,L|114:162,1,78.3300030040743,2|10,2:3|1:2,0:0:0:0:
212,303,37493,2,0,L|227:223,1,63.2099980773927,0|0,3:0|0:0,0:0:0:0:
325,150,37724,1,0,3:0:0:0:
512,297,37840,5,4,1:3:0:0:
511,296,37993,5,4,1:3:0:0:
512,297,38147,5,4,1:3:0:0:
511,296,38301,5,4,1:3:0:0:
512,297,38455,5,4,1:3:0:0:
511,296,38609,5,4,1:3:0:0:
411,369,38763,6,0,P|471:302|366:296,1,236.355009012223,4|0,1:2|0:0,0:0:0:0:
328,355,39224,1,8,1:2:0:0:
328,355,39455,2,0,L|258:340,1,52.6750000000001
83,384,39686,6,0,B|200:363|200:363|190:377|190:377|169:372,1,158.025006008148,0|0,1:2|0:0,0:0:0:0:
379,366,40032,2,0,L|309:351,1,52.6750000000001,0|8,0:0|1:2,0:0:0:0:
22,317,40378,5,0,0:0:0:0:
26,321,40493,2,0,P|-19:265|12:196,1,136.954993751526
96,285,40840,6,0,P|129:248|89:280,1,136.954993751526,0|8,0:0|1:2,0:0:0:0:
208,301,41186,2,0,P|214:257|199:208,1,68.4774968757632
280,192,41416,1,0,0:0:0:0:
284,196,41532,2,0,P|239:158|153:177,1,136.954993751526,0|0,1:2|0:0,0:0:0:0:
379,366,41993,2,0,B|401:221|401:221|383:230|383:230|378:263,1,179.095003404617,8|0,1:2|0:0,0:0:0:0:
408,141,42340,1,0,0:0:0:0:
412,145,42455,6,0,P|452:159|481:238,1,126.419996154785,0|0,1:2|0:0,0:0:0:0:
484,239,42801,2,0,L|501:141,1,79.0125030040743,0|8,0:0|1:2,0:0:0:0:
295,118,43032,2,0,L|280:216,1,79.0125030040743
169,151,43263,1,0,0:0:0:0:
173,155,43378,6,0,P|107:229|33:223,1,158.025006008148,0|0,1:2|0:0,0:0:0:0:
47,226,43724,2,0,P|70:277|63:329,1,79.0125030040743,0|8,0:0|1:2,0:0:0:0:
331,348,44070,2,0,P|308:297|315:245,1,79.0125030040743
437,224,44301,6,0,L|411:386,1,158.025006008148,0|0,1:2|0:0,0:0:0:0:
217,384,44647,2,0,L|233:284,1,79.0125030040743,0|8,0:0|1:2,0:0:0:0:
369,129,44993,2,0,L|351:238,1,79.0125030040743
85,301,45224,5,0,1:2:0:0:
89,305,45340,2,0,B|118:329|118:329|187:349|232:303,1,158.025006008148
403,145,45686,2,0,B|374:121|374:121|305:101|263:145,2,157.683756008148,8|0|0,1:2|0:0|1:2,0:0:0:0:
402,144,46378,6,0,L|320:138,1,79.0125030040743
192,6,46609,2,0,L|109:0,1,79.0125030040743,8|0,1:2|0:0,0:0:0:0:
81,70,46840,5,0,0:0:0:0:
141,133,46955,2,0,P|215:109|254:46,1,118.177504506111
245,73,47186,6,0,L|323:78,1,79.0125030040743
147,219,47416,2,0,L|40:211,1,79.0125030040743,0|8,0:0|1:2,0:0:0:0:
68,213,47763,2,0,L|83:298,1,79.0125030040743
201,357,47993,6,0,B|247:314|306:331|306:331|262:362,1,158.025006008148,0|0,1:2|0:0,0:0:0:0:
251,286,48340,6,0,P|258:236|235:185,1,79.0125030040743,0|8,0:0|1:2,0:0:0:0:
356,30,48570,2,0,P|349:80|372:131,1,79.0125030040743
512,58,48801,6,0,L|399:70,1,79.0125030040743,0|0,0:0|1:2,0:0:0:0:
334,195,49032,2,0,P|368:214|407:218,1,79.0125030040743
433,106,49263,6,0,P|376:103|427:127,1,158.025006008148
418,223,49609,2,0,L|443:390,1,158.025006008148,0|0,0:0|1:2,0:0:0:0:
441,378,50070,6,0,P|451:328|486:291,1,79.0125030040743
334,195,50301,2,0,P|265:220|188:307,1,158.025006008148,8|0,1:2|0:0,0:0:0:0:
42,380,50647,1,0,0:0:0:0:
46,384,50763,6,0,P|0:297|72:232,1,210.7,0|0,1:2|0:0,0:0:0:0:
80,310,51109,2,0,L|68:205,1,79.0125030040743,0|8,0:0|1:2,0:0:0:0:
41,0,51455,2,0,L|52:104,1,79.0125030040743
0,164,51686,5,0,1:2:0:0:
236,252,51916,1,0,3:2:0:0:
240,256,52032,5,8,1:2:0:0:
0,164,52263,1,0,3:2:0:0:
4,168,52378,5,0,1:2:0:0:
205,26,52609,1,0,1:2:0:0:
209,30,52724,5,0,1:2:0:0:
240,256,52955,1,0,3:2:0:0:
240,256,53013,1,0,2:0:0:0:
240,256,53070,5,8,1:2:0:0:
227,177,53186,2,0,L|213:70,1,79.0125030040743,0|0,0:0|1:2,0:0:0:0:
205,26,53532,1,0,1:2:0:0:
454,122,53763,5,2,2:3:0:0:
454,122,53840,1,0,2:0:0:0:
454,122,53916,1,0,2:0:0:0:
454,122,53993,2,0,P|471:79|508:51,1,79.0125030040743,8|0,1:2|2:3,0:0:0:0:
458,299,54340,1,0,2:3:0:0:
461,303,54455,6,0,L|372:321,1,79.0125030040743,0|0,1:2|2:3,0:0:0:0:
295,328,54686,1,2,2:3:0:0:
299,332,54801,2,0,B|423:355|423:355|381:373,1,158.025,0|0,2:3|0:0,0:0:0:0:
436,229,55147,2,0,L|520:207,2,79.0125030040743,2|0|0,2:3|2:3|1:2,0:0:0:0:
143,384,55609,5,2,2:3:0:0:
143,384,55686,1,0,2:0:0:0:
143,384,55763,1,0,2:0:0:0:
143,384,55840,2,0,L|227:362,1,79.0125030040743,8|0,1:2|2:3,0:0:0:0:
270,216,56186,1,0,2:3:0:0:
274,220,56301,6,0,P|276:173|234:129,1,79.0125030040743,0|0,1:2|2:3,0:0:0:0:
79,198,56532,1,2,2:3:0:0:
83,202,56647,2,0,P|41:281|128:362,1,158.025006008148,0|0,2:3|0:0,0:0:0:0:
143,384,56993,2,0,L|227:362,2,79.0125030040743,2|0|0,2:3|2:3|1:2,0:0:0:0:
260,146,57455,5,2,2:3:0:0:
260,146,57532,1,0,2:0:0:0:
260,146,57609,1,0,2:0:0:0:
260,146,57686,2,0,L|336:165,1,79.0125030040743,8|0,1:2|2:3,0:0:0:0:
51,20,58032,1,0,2:3:0:0:
55,24,58147,6,0,L|150:3,1,79.0125030040743,0|0,1:2|2:3,0:0:0:0:
207,0,58378,1,2,2:3:0:0:
211,4,58493,2,0,P|203:44|144:88,1,79.0125030040743,0|8,2:3|1:2,0:0:0:0:
336,165,58724,2,0,B|307:197|264:192|264:192|304:225|344:207,1,158.025006008148,0|0,0:0|2:3,0:0:0:0:
296,371,59070,6,0,P|270:322|278:264,1,79.0125030040743,0|0,1:2|2:0,0:0:0:0:
184,289,59301,1,2,2:3:0:0:
188,293,59416,1,0,2:0:0:0:
121,364,59532,6,0,L|228:375,1,79.0125030040743,8|0,1:2|2:3,0:0:0:0:
347,307,59763,2,0,L|268:298,1,79.0125030040743,2|0,2:3|2:3,0:0:0:0:
397,377,59993,5,0,1:2:0:0:
401,381,60109,1,0,2:3:0:0:
264,294,60224,1,2,2:3:0:0:
260,290,60340,6,0,P|261:236|354:168,1,179.095003404617,0|0,2:3|0:0,0:0:0:0:
431,302,60686,1,2,2:3:0:0:
435,306,60801,2,0,L|512:293,1,79.0125030040743,0|0,2:3|1:2,0:0:0:0:
512,138,61147,5,2,2:3:0:0:
512,138,61224,1,0,2:0:0:0:
512,138,61301,1,0,2:0:0:0:
512,138,61378,2,0,P|465:120|442:80,1,79.0125030040743,8|0,1:2|2:3,0:0:0:0:
201,0,61724,1,0,2:3:0:0:
205,4,61840,6,0,L|194:111,1,79.0125030040743,0|0,1:2|2:3,0:0:0:0:
190,169,62070,1,2,2:3:0:0:
195,173,62186,2,0,L|209:37,1,79.0125030040743,0|8,2:3|1:2,0:0:0:0:
88,311,62416,2,0,P|164:313|207:251,1,158.025006008148,0|0,0:0|2:3,0:0:0:0:
280,298,62763,1,0,1:2:0:0:
81,159,62993,5,2,2:3:0:0:
81,159,63070,1,0,2:0:0:0:
81,159,63147,1,0,2:0:0:0:
81,159,63224,2,0,L|-7:174,1,79.0125030040743,8|0,1:2|2:3,0:0:0:0:
201,0,63570,1,0,2:3:0:0:
205,4,63686,6,0,L|305:18,1,79.0125030040743,0|0,1:2|2:3,0:0:0:0:
416,94,63916,1,2,2:3:0:0:
420,98,64032,2,0,P|384:180|474:244,1,158.025006008148,0|0,2:3|0:0,0:0:0:0:
512,292,64378,2,0,L|492:183,2,79.3537530040743,2|0|0,2:3|2:3|1:2,0:0:0:0:
435,19,64840,5,2,2:3:0:0:
435,19,64916,1,0,2:0:0:0:
435,19,64993,1,0,2:0:0:0:
435,19,65070,2,0,L|528:37,1,79.0125030040743,8|0,1:2|2:3,0:0:0:0:
413,226,65416,1,0,2:3:0:0:
417,230,65532,6,0,L|433:328,1,79.0125030040743,0|0,1:2|2:3,0:0:0:0:
226,231,65763,1,2,2:3:0:0:
230,235,65878,6,0,P|183:247|139:293,1,79.0125030040743,0|8,2:3|1:2,0:0:0:0:
190,68,66109,2,0,P|156:34|85:14,1,105.35,0|0,0:0|2:3,0:0:0:0:
94,13,66455,6,2,B|114:27|114:27|99:19|99:19|115:59|77:60|77:60|88:51|88:51|76:101|116:94|116:94|105:89|105:89|126:139|77:136|77:136|88:128|88:128|77:172|123:166|123:166|109:158|109:158|127:206|83:205|83:205|97:191|97:191|82:253|129:234|129:234|118:226|118:226|133:277|87:275|87:275|96:266|96:266|86:315|130:299|130:299|116:295|116:295|131:330|87:343|87:343|98:332|98:332|100:370|119:382,1,842.800000000001,0|0,1:0|2:0,1:2:0:0:
121,384,66916,6,0,B|107:356|123:261|154:222|166:273|151:353|123:380,1,210.7,2|0,2:3|0:0,0:0:0:0:
136,359,67378,2,0,B|122:331|138:236|169:197|181:248|166:328|138:355,1,210.7,2|0,2:3|0:0,0:0:0:0:
151,334,67724,6,0,L|135:231,1,106.26,2|0,1:3|2:0,2:1:0:0:
111,103,67955,6,0,L|95:0,1,106.26,2|0,1:3|2:0,1:0:0:0:
109,110,68186,5,2,2:3:0:0:
5,276,68301,6,0,P|105:307|184:357,1,158.025006008148,6|2,1:2|2:3,0:0:0:0:
262,173,68647,1,2,2:3:0:0:
136,218,68763,6,0,B|166:164|229:161|229:161|252:178|244:222,1,157.57,10|0,1:2|0:0,0:0:0:0:
246,216,68993,2,0,P|279:236|240:236,1,105.35,2|0,2:3|3:2,0:0:0:0:
345,384,69224,6,0,B|319:242|319:242|365:271|365:271|345:314,1,210.7,2|2,1:2|2:3,0:0:0:0:
235,335,69570,2,0,L|352:351,1,105.35,0|10,3:2|1:2,0:0:0:0:
467,176,69801,1,0,0:0:0:0:
423,344,69916,6,0,P|491:251|439:197,1,196.9625,2|0,2:3|0:0,0:0:0:0:
313,105,70147,6,0,B|277:86|277:86|322:83,1,79.0125030040743,2|0,1:2|0:0,0:0:0:0:
512,130,70378,2,0,L|403:113,1,79.0125030040743,2|0,2:3|3:2,0:0:0:0:
260,81,70609,5,10,1:2:0:0:
434,108,70724,2,0,L|313:209,1,157.57,2|0,3:2|0:0,0:0:0:0:
311,199,70955,6,0,L|192:181,1,105.35,2|2,3:2|1:2,0:0:0:0:
86,287,71186,1,0,0:0:0:0:
180,246,71301,6,0,P|150:136|97:34,1,158.025006008148,2|0,2:3|3:2,0:0:0:0:
6,230,71532,6,0,P|73:189|133:138,1,157.570006008148,10|0,1:2|0:0,0:0:0:0:
127,0,71763,6,0,P|95:71|77:148,1,157.57,2|0,2:3|0:0,0:0:0:0:
170,260,71993,6,0,P|190:228|159:250,1,105.35,2|0,1:2|0:0,0:0:0:0:
245,160,72224,1,2,2:3:0:0:
184,291,72340,2,0,P|131:306|43:310,2,105.35,2|10|0,2:3|1:2|0:0,0:0:0:0:
336,223,72686,2,0,B|350:301|350:301|287:349|287:349,1,157.57,2|0,2:3|0:0,0:0:0:0:
274,353,72916,6,0,P|259:327|284:341,1,79.0125030040743,2|0,1:2|0:0,0:0:0:0:
128,282,73147,1,2,2:3:0:0:
346,219,73263,2,0,P|430:222|525:237,1,157.57,0|0,3:2|0:0,0:0:0:0:
499,309,73493,5,0,0:0:0:0:
422,206,73609,2,0,B|408:128|408:128|471:80|471:80,1,157.57,2|0,2:3|0:0,0:0:0:0:
484,76,73840,6,0,P|499:102|474:88,1,79.0125030040743,2|0,1:2|0:0,0:0:0:0:
353,93,74070,2,0,L|498:78,1,118.177504506111,2|0,2:3|0:0,0:0:0:0:
492,124,74301,6,0,B|385:124|433:49|320:50,1,181.205503454685,10|0,1:2|0:0,0:0:0:0:
272,102,74532,2,0,P|236:99|262:62,1,94.8149971160891,2|2,2:3|3:2,0:0:0:0:
0,19,74763,6,0,B|139:49|139:49|155:33|155:33|94:-30,1,210.7,2|2,1:2|2:3,0:0:0:0:
123,0,75109,6,0,L|137:78,1,79.0125030040743,2|10,3:2|1:2,0:0:0:0:
319,177,75340,2,0,L|333:255,1,79.0125030040743,2|2,2:0|2:3,0:0:0:0:
512,384,75570,1,2,2:3:0:0:
407,301,75686,6,0,P|361:285|239:273,1,158.025006008148,2|2,1:2|2:3,0:0:0:0:
353,365,76032,1,2,2:3:0:0:
176,284,76147,6,0,B|134:243|173:182|173:182|232:209,1,157.57,10|0,1:2|0:0,0:0:0:0:
224,214,76378,2,0,P|199:212|222:212,1,105.35,2|0,2:3|3:2,0:0:0:0:
2,373,76609,6,0,B|30:271|30:271|97:351,1,210.7,2|2,1:2|2:3,0:0:0:0:
0,384,76955,2,0,L|137:355,1,105.35,0|10,3:2|1:2,0:0:0:0:
181,215,77186,1,0,0:0:0:0:
9,243,77301,6,0,P|36:156|146:188,1,196.9625,2|0,2:3|0:0,0:0:0:0:
348,293,77532,6,0,L|271:309,1,79.0125030040743,2|0,1:2|0:0,0:0:0:0:
206,349,77763,2,0,B|240:312|240:312|189:297,1,105.35,2|0,2:3|3:2,0:0:0:0:
125,348,77993,5,10,1:2:0:0:
356,291,78109,2,0,B|430:306|430:306|412:226,1,157.570006008148,2|0,3:2|0:0,0:0:0:0:
343,107,78340,6,0,L|326:251,1,105.35,2|2,3:2|1:2,0:0:0:0:
272,275,78570,1,0,0:0:0:0:
210,141,78686,6,0,B|340:89|340:89|342:105,1,157.57,2|0,2:3|0:0,0:0:0:0:
437,203,78916,6,0,B|327:116|327:116|341:105,1,157.57,10|0,1:2|0:0,0:0:0:0:
359,7,79147,6,0,B|344:107|344:107|328:100,1,105.35,2|2,2:3|2:3,0:0:0:0:
371,241,79378,6,0,P|355:210|375:239,1,105.35,2|0,1:2|0:0,0:0:0:0:
421,139,79609,1,2,2:3:0:0:
271,281,79724,6,0,P|271:333|283:384,2,105.35,2|10|0,2:3|1:2|0:0,0:0:0:0:
481,201,80070,2,0,B|505:124|505:124|453:38,1,157.57,2|0,2:3|0:0,0:0:0:0:
451,57,80301,6,0,P|424:52|452:51,1,79.0125030040743,2|0,1:2|0:0,0:0:0:0:
512,0,80532,1,2,2:3:0:0:
332,70,80647,6,0,P|291:60|231:50,1,79.0125030040743,0|10,3:2|1:2,0:0:0:0:
35,68,80878,2,0,P|76:58|136:48,1,79.0125030040743,0|2,0:0|2:3,0:0:0:0:
185,0,81109,1,2,2:3:0:0:
184,129,81224,6,0,L|184:221,1,79.0125030040743,6|0,1:2|0:0,0:0:0:0:
185,358,81570,1,8,2:3:0:0:
185,358,81628,1,8,2:3:0:0:
185,358,81686,6,0,P|144:340|115:337,1,52.7887520027162,8|8,2:3|2:3,0:0:0:0:
382,364,81916,2,0,P|361:333|335:311,1,52.7887520027162,4|4,2:3|2:3,0:0:0:0:
512,384,82378,5,0,1:0:0:0:
315,265,82609,6,0,B|346:293|389:284|389:284|368:314|328:318,1,140.77,8|0,2:0|3:0,0:0:0:0:
428,103,82840,2,0,B|397:75|354:84|354:84|375:54|415:50,1,140.77,8|0,2:0|3:0,0:0:0:0:
63,54,83070,2,0,B|33:41|-6:45|-6:45|23:8|125:3|121:103|121:103|98:68|62:54,1,315.14,0|0,1:2|0:0,0:0:0:0:
32,131,83532,6,0,P|35:177|107:244,1,79.0125030040743,12|0,1:2|0:0,0:0:0:0:
123,302,83763,2,0,P|124:267|117:302,1,105.35,2|0,2:3|0:0,0:0:0:0:
0,341,83993,5,0,1:2:0:0:
4,345,84109,2,0,B|153:315|153:315|134:351|134:351|104:333,1,210.7
201,227,84455,2,0,L|358:259,1,105.35,8|0,1:2|0:0,0:0:0:0:
378,263,84686,2,0,P|387:294|330:333,2,79.0125030040743,2|0|0,2:3|0:0|1:2,0:0:0:0:
497,384,85147,5,2,2:3:0:0:
497,384,85224,1,0,0:0:0:0:
497,384,85301,1,0,0:0:0:0:
497,384,85378,2,0,P|488:353|545:314,1,79.0125030040743,8|0,1:2|0:0,0:0:0:0:
378,263,85609,2,0,B|327:264|327:264|369:299,1,105.35,2|0,2:3|0:0,0:0:0:0:
251,242,85840,5,0,1:2:0:0:
200,307,85955,2,0,L|175:416,1,79.0125030040743,0|2,0:0|2:3,0:0:0:0:
248,237,86186,5,0,0:0:0:0:
233,161,86301,2,0,L|210:21,1,118.177504506111,8|0,1:2|0:0,0:0:0:0:
211,38,86532,2,0,P|183:35|208:44,1,79.0125030040743,2|0,2:3|0:0,0:0:0:0:
0,57,86763,5,0,1:2:0:0:
4,61,86878,2,0,P|64:107|148:116,1,158.025006008148
325,191,87224,2,0,B|301:118|301:118|232:161,1,158.025006008148,8|2,1:2|2:3,0:0:0:0:
321,40,87570,5,0,0:0:0:0:
380,99,87686,2,0,P|403:110|381:86,1,79.0125030040743,0|0,1:2|0:0,0:0:0:0:
411,190,87916,5,2,2:3:0:0:
415,194,88032,2,0,B|395:309|395:309|417:328|417:328|413:293,1,179.095003404617
492,303,88378,2,0,P|495:352|462:394,1,89.5475017023088,2|0,2:3|0:0,0:0:0:0:
338,368,88609,5,0,1:2:0:0:
342,372,88724,1,0,0:0:0:0:
309,290,88840,2,0,P|308:240|349:200,1,89.5475017023088,2|0,2:3|0:0,0:0:0:0:
178,205,89070,5,8,1:2:0:0:
182,209,89186,1,0,0:0:0:0:
210,287,89301,2,0,P|211:337|170:377,1,89.5475017023088,2|0,2:3|0:0,0:0:0:0:
15,279,89532,6,0,B|136:305|136:305|131:279|131:279|116:276|116:276|106:290,1,179.095003404617,0|2,1:2|2:3,0:0:0:0:
210,287,89878,1,0,0:0:0:0:
15,279,89993,6,0,P|14:229|55:189,1,89.5475017023088,8|0,1:2|0:0,0:0:0:0:
102,146,90224,1,2,2:3:0:0:
66,48,90340,1,0,0:0:0:0:
106,138,90455,6,0,P|165:131|192:67,1,89.5475017023088,0|0,1:2|0:0,0:0:0:0:
210,38,90686,2,0,L|190:197,1,133.934502553463,2|0,2:3|0:0,0:0:0:0:
223,279,90916,6,0,P|233:246|230:280,1,89.5475017023088,8|0,1:2|0:0,0:0:0:0:
145,384,91147,2,0,P|136:345|136:306,1,79.0125030040743,2|0,2:3|0:0,0:0:0:0:
327,282,91378,6,0,P|335:320|335:359,1,79.0125030040743,0|0,1:2|0:0,0:0:0:0:
273,176,91609,1,2,2:3:0:0:
356,200,91724,2,0,B|367:153|367:153|322:89,1,89.5475017023088,0|8,0:0|1:2,0:0:0:0:
345,0,91955,1,0,0:0:0:0:
349,4,92070,1,2,2:3:0:0:
278,47,92186,6,0,B|292:83|366:99|396:71|396:71|390:48|390:48|368:55,1,179.095003404617
481,1,92532,1,2,2:3:0:0:
485,5,92647,6,0,P|506:25|480:9,1,89.5475017023088,0|8,0:0|1:2,0:0:0:0:
278,47,92878,2,0,P|245:16|161:29,1,89.5475017023088,0|2,0:0|2:3,0:0:0:0:
106,124,93109,6,0,L|-18:145,1,89.5475017023088,0|0,0:0|1:2,0:0:0:0:
59,17,93340,1,0,0:0:0:0:
63,21,93455,2,0,B|162:42|162:42|152:55|152:55|136:52,1,133.934502553463,2|0,2:3|0:0,0:0:0:0:
106,124,93686,6,0,P|96:166|133:213,1,89.5475017023088,8|0,1:2|0:0,0:0:0:0:
289,127,93916,2,0,P|299:85|262:38,1,89.5475017023088,2|0,2:3|0:0,0:0:0:0:
177,154,94147,5,0,1:2:0:0:
181,158,94263,2,0,P|159:232|234:299,1,179.095003404617
294,258,94609,6,0,B|337:266|337:266|304:295,1,89.5475017023088,8|0,1:2|0:0,0:0:0:0:
136,316,94840,2,0,L|224:297,1,89.5475017023088,2|0,2:3|0:0,0:0:0:0:
294,258,95070,6,0,L|369:305,1,89.5475017023088,0|0,1:2|0:0,0:0:0:0:
448,293,95301,5,2,2:3:0:0:
452,297,95416,2,0,L|471:384,1,89.5475017023088,0|8,0:0|1:2,0:0:0:0:
455,291,95763,6,0,B|477:137|477:137|447:155|447:155|449:170,1,196.9625,2|0,2:3|0:0,0:0:0:0:
512,66,95993,6,0,P|476:56|421:77,1,89.5475017023088,0|0,1:2|0:0,0:0:0:0:
306,29,96224,1,2,2:3:0:0:
310,33,96340,2,0,P|289:54|311:36,1,89.5475017023088,0|8,0:0|1:2,0:0:0:0:
122,93,96570,22,0,B|107:194|107:194|126:183|126:183|125:173,1,133.934502553463
106,208,96801,2,0,L|96:265,1,45.1605008511543
82,359,96916,5,8,1:3:0:0:
175,341,97070,5,8,1:3:0:0:
235,122,97224,5,8,1:3:0:0:
328,145,97378,5,4,1:3:0:0:
381,301,97532,5,4,1:3:0:0:
474,283,97686,5,4,1:3:0:0:
512,192,97840,5,4,1:2:0:0:
192,373,110763,6,0,B|151:326|66:330|16:388|83:407|166:380|182:324,1,267.869005106926,4|8,1:2|2:3,0:0:0:0:
266,339,111166,1,8,2:3:0:0:
266,339,111224,6,0,L|351:348,1,70.3850000000001,8|8,2:3|2:3,0:0:0:0:
122,365,111455,2,0,L|207:374,1,70.3850000000001,4|4,2:3|2:3,0:0:0:0:
509,279,111916,5,0,1:0:0:0:
468,384,112147,2,0,B|453:243|453:243|432:267|432:267|443:286|443:286|454:270,1,211.155008010865,8|0,2:0|3:0,0:0:0:0:
443,309,112378,2,0,B|428:168|428:168|407:192|407:192|418:211|418:211|429:195,1,211.155008010865,8|0,2:0|3:0,0:0:0:0:
440,87,112609,6,0,P|391:90|274:184,1,158.025006008148,6|2,1:2|2:3,0:0:0:0:
264,336,112955,1,2,2:3:0:0:
295,150,113070,6,0,P|298:218|232:237,1,118.177504506111,10|0,1:2|0:0,0:0:0:0:
250,240,113301,2,0,P|215:230|250:235,1,105.35,2|0,2:3|3:2,0:0:0:0:
19,174,113532,6,0,B|166:150|166:150|158:171|158:171|109:165,1,210.7,2|2,1:2|2:3,0:0:0:0:
125,249,113878,2,0,L|88:386,1,105.35,0|10,3:2|1:2,0:0:0:0:
291,146,114109,5,0,0:0:0:0:
295,150,114224,2,0,P|318:109|216:40,1,196.9625,2|0,2:3|0:0,0:0:0:0:
321,56,114455,6,0,L|436:42,1,79.0125030040743,2|0,1:2|0:0,0:0:0:0:
512,133,114686,2,0,L|490:244,1,79.0125030040743,2|0,2:3|3:2,0:0:0:0:
465,373,114916,5,10,1:2:0:0:
495,220,115032,2,0,L|355:317,1,157.57,2|0,3:2|0:0,0:0:0:0:
356,312,115263,6,0,L|246:288,1,105.35,2|2,3:2|1:2,0:0:0:0:
161,384,115493,1,0,0:0:0:0:
228,316,115609,6,0,L|200:130,1,157.500006008148,2|0,2:3|3:2,0:0:0:0:
94,0,115840,6,0,L|125:205,1,157.5,10|0,1:2|0:0,0:0:0:0:
54,266,116070,6,0,L|19:69,1,157.5,2|0,2:3|0:0,0:0:0:0:
39,105,116301,6,0,P|36:68|25:104,1,105.35,2|0,1:2|0:0,0:0:0:0:
0,0,116532,1,2,2:3:0:0:
118,190,116647,6,0,B|113:244|74:277|19:264|19:264|37:228|37:228|84:236,1,210,2|0,2:3|0:0,0:0:0:0:
26,110,116993,2,0,L|13:207,1,79.0125030040743,2|0,2:3|3:2,0:0:0:0:
179,346,117224,6,0,L|42:326,1,79.0125030040743,2|0,1:2|0:0,0:0:0:0:
21,190,117455,1,2,2:3:0:0:
99,343,117570,6,0,P|183:371|261:330,1,181.205503454685,0|0,3:2|0:0,0:0:0:0:
295,265,117801,2,0,L|365:257,1,63.2099980773927,0|2,0:0|2:3,0:0:0:0:
512,384,118032,6,0,B|468:355|451:287|490:242|490:242|475:266|484:323,1,210.7,2|0,2:3|0:0,0:0:0:0:
383,141,118378,6,0,L|365:265,1,118.177504506111,2|0,2:3|0:0,0:0:0:0:
377,368,118609,2,0,P|354:335|354:385,1,121.152502303124,10|2,1:2|3:2,0:0:0:0:
386,129,118840,6,0,L|305:78,1,94.8149971160891,2|2,2:3|3:2,0:0:0:0:
191,0,119070,2,0,B|212:143|212:143|229:123|229:123|217:108,1,189.629994232178,2|2,1:2|2:3,0:0:0:0:
299,84,119416,6,0,P|336:95|374:87,1,79.0125030040743,2|10,3:2|1:2,0:0:0:0:
450,320,119647,2,0,P|414:358|436:445,1,79.0125030040743,2|2,2:0|2:3,0:0:0:0:
192,342,119878,1,2,2:3:0:0:
335,219,119993,6,0,P|409:189|487:186,1,158.025006008148,2|2,1:2|2:3,0:0:0:0:
356,296,120340,1,2,2:3:0:0:
496,191,120455,6,0,B|489:139|489:139|459:183,1,105.35,10|0,1:2|0:0,0:0:0:0:
351,305,120686,2,0,L|364:382,1,79.0125030040743,2|0,2:3|3:2,0:0:0:0:
99,211,120916,6,0,B|146:206|166:258|166:258|126:252|98:265,1,158.025006008148,2|2,1:2|2:3,0:0:0:0:
20,218,121263,2,0,P|22:179|44:146,1,79.0125030040743,0|10,3:2|1:2,0:0:0:0:
66,52,121493,5,0,0:0:0:0:
216,174,121609,2,0,P|222:135|206:99,1,78.7500030040742,2|2,2:3|2:3,0:0:0:0:
50,136,121840,6,0,L|128:124,1,79.0125030040743,2|0,1:2|0:0,0:0:0:0:
315,269,122070,2,0,L|238:256,1,79.0125030040743,2|0,2:3|3:2,0:0:0:0:
147,43,122301,5,10,1:2:0:0:
151,47,122416,2,0,B|201:76|201:76|217:174,1,157.57,2|0,3:2|0:0,0:0:0:0:
166,285,122647,6,0,P|182:251|176:288,1,105,2|0,3:2|1:0,0:0:0:0:
456,344,122878,1,0,0:0:0:0:
367,384,122993,6,0,B|387:254|387:254|358:305,1,157.57,2|0,2:3|0:0,0:0:0:0:
298,193,123224,6,0,B|400:275|400:275|370:224,1,157.57,10|0,1:2|0:0,0:0:0:0:
498,227,123455,6,0,B|375:274|375:274|434:274,1,157.57,2|0,2:3|0:0,0:0:0:0:
180,346,123686,6,0,P|189:308|173:340,1,105.35,2|0,1:2|0:0,0:0:0:0:
292,341,123916,1,2,2:3:0:0:
110,263,124032,2,0,P|34:266|-18:279,2,105.35,2|10|0,2:3|1:2|0:0,0:0:0:0:
241,89,124378,6,0,P|202:96|163:96,1,78.75,2|0,2:3|0:0,0:0:0:0:
155,95,124609,6,0,B|179:68|169:33|169:33|254:53|290:139|197:211,1,236.355009012223,2|0,1:2|0:0,0:0:0:0:
88,57,124840,2,0,L|10:64,1,79.0125030040743,2|0,2:3|3:2,0:0:0:0:
252,167,125070,6,0,B|322:206|373:147|373:147|351:123|351:123|325:149,1,196.9625,10|0,1:2|0:0,0:0:0:0:
317,51,125301,2,0,L|331:-20,1,52.6750000000001,2|2,2:3|2:3,0:0:0:0:
512,321,125532,6,0,L|430:337,1,84.0980000000001,6|8,1:2|2:3,0:0:0:0:
297,376,126147,1,8,2:3:0:0:
294,365,126224,5,4,2:3:0:0:
231,292,126378,5,4,2:3:0:0:
268,192,126686,5,0,1:0:0:0:
429,277,126916,2,0,B|453:288|466:327|466:327|430:309|393:302,1,140.77,8|0,2:0|3:0,0:0:0:0:
173,267,127147,2,0,B|199:264|230:291|230:291|189:294|154:306,1,140.77,8|0,2:0|3:0,0:0:0:0:
0,384,127378,5,4,1:2:0:0:
