osu file format v14

[General]
AudioFilename: audio.mp3
AudioLeadIn: 0
PreviewTime: 175949
Countdown: 0
SampleSet: Soft
StackLeniency: 0.3
Mode: 0
LetterboxInBreaks: 0
EpilepsyWarning: 1
WidescreenStoryboard: 1

[Editor]
Bookmarks: 43384,103698,143908
DistanceSpacing: 1
BeatDivisor: 4
GridSize: 4
TimelineZoom: 2.3

[Metadata]
Title:Dstorv -Endorfin. Remix-
TitleUnicode:Dstorv -Endorfin. Remix-
Artist:Feryquitous
ArtistUnicode:Feryquitous
Creator:Cellina
Version:Collab Insane
Source:
Tags:sincuvate sky_delta nakuru aitsuki dailycare morinaga toybot reana down half zzx supporter plz chrisia scanter sonnyc beomsan 藍月なくる
BeatmapID:1572200
BeatmapSetID:708045

[Difficulty]
HPDrainRate:6
CircleSize:4
OverallDifficulty:8
ApproachRate:9.2
SliderMultiplier:1.50000000596047
SliderTickRate:1

[Events]
//Background and Video events
0,0,"58505184_p0.jpg",0,0
//Break Periods
2,83783,98092
//Storyboard Layer 0 (Background)
//Storyboard Layer 1 (Fail)
//Storyboard Layer 2 (Pass)
//Storyboard Layer 3 (Foreground)
//Storyboard Sound Samples

[TimingPoints]
-1861,314.13612565445,4,2,1,40,1,0
3165,-133.333333333333,4,2,1,40,0,0
13217,-100,4,2,1,40,0,0
31830,-100,4,2,1,40,0,0
31908,-100,4,2,1,40,0,0
38348,-100,4,2,1,40,0,0
40861,-100,4,2,1,40,0,0
43374,-83.3333333333333,4,2,1,60,0,0
43688,-83.3333333333333,4,2,1,60,0,0
44159,-83.3333333333333,4,2,1,60,0,0
44474,-83.3333333333333,4,2,2,60,0,0
45887,-83.3333333333333,4,2,1,60,0,0
46044,-83.3333333333333,4,2,2,60,0,0
47144,-83.3333333333333,4,2,1,60,0,0
47301,-83.3333333333333,4,2,2,60,0,0
48950,-83.3333333333333,4,2,2,60,0,0
49029,-83.3333333333333,4,2,2,60,0,0
49343,-83.3333333333333,4,2,1,60,0,0
49500,-83.3333333333333,4,2,2,60,0,0
50207,-83.3333333333333,4,2,2,60,0,0
50285,-83.3333333333333,4,2,2,60,0,0
51856,-83.3333333333333,4,2,1,60,0,0
52013,-83.3333333333333,4,2,2,60,0,0
52798,-83.3333333333333,4,2,1,60,0,0
53584,-83.3333333333333,4,2,2,60,0,0
63165,-125,4,2,2,60,0,0
63479,-83.3333333333333,4,2,2,60,0,0
63950,-83.3333333333333,4,2,1,60,0,0
64107,-83.3333333333333,4,2,2,60,0,0
64264,-83.3333333333333,4,2,1,60,0,0
64578,-83.3333333333333,4,2,2,60,0,0
64892,-83.3333333333333,4,2,1,60,0,0
65207,-83.3333333333333,4,2,2,60,0,0
65678,-83.3333333333333,4,2,1,60,0,0
65992,-83.3333333333333,4,2,2,60,0,0
66777,-83.3333333333333,4,2,1,60,0,0
66934,-83.3333333333333,4,2,2,60,0,0
68976,-83.3333333333333,4,2,1,60,0,0
69055,-83.3333333333333,4,2,2,60,0,0
70076,-83.3333333333333,4,2,1,60,0,0
70233,-83.3333333333333,4,2,2,60,0,0
70547,-83.3333333333333,4,2,1,60,0,0
71018,-83.3333333333333,4,2,2,60,0,0
71803,-83.3333333333333,4,2,1,60,0,0
71960,-83.3333333333333,4,2,2,60,0,0
72589,-83.3333333333333,4,2,1,60,0,0
72667,-83.3333333333333,4,2,2,60,0,0
73531,-83.3333333333333,4,2,2,60,0,0
79814,-83.3333333333333,4,2,1,60,0,0
79971,-83.3333333333333,4,2,2,60,0,0
80128,-83.3333333333333,4,2,1,60,0,0
81070,-83.3333333333333,4,2,2,60,0,0
83584,-125,4,2,1,40,0,0
91358,-125,4,2,1,40,0,0
91437,-125,4,2,1,40,0,0
92772,-125,4,2,1,40,0,0
92851,-125,4,2,1,40,0,0
100782,-125,4,2,1,40,0,0
100861,-125,4,2,1,40,0,0
103374,-125,4,2,2,40,0,0
103688,-83.3333333333333,4,2,2,60,0,0
105102,-83.3333333333333,4,2,1,60,0,0
105259,-83.3333333333333,4,2,2,60,0,0
106673,-83.3333333333333,4,2,1,60,0,0
106751,-83.3333333333333,4,2,2,60,0,0
107144,-83.3333333333333,4,2,1,60,0,0
107301,-83.3333333333333,4,2,2,60,0,0
110128,-83.3333333333333,4,2,1,60,0,0
110285,-83.3333333333333,4,2,2,60,0,0
115154,-83.3333333333333,4,2,1,60,0,0
115311,-83.3333333333333,4,2,2,60,0,0
120180,-83.3333333333333,4,2,1,60,0,0
120337,-83.3333333333333,4,2,2,60,0,0
124107,-83.3333333333333,4,2,1,60,0,0
124892,-83.3333333333333,4,2,2,60,0,0
125364,-83.3333333333333,4,2,1,60,0,0
125835,-83.3333333333333,4,2,2,60,0,0
129762,-83.3333333333333,4,2,1,60,0,0
129919,-83.3333333333333,4,2,2,60,0,0
134317,-83.3333333333333,4,2,1,60,0,0
134395,-83.3333333333333,4,2,2,60,0,0
136044,-83.3333333333333,4,2,1,60,0,0
136358,-83.3333333333333,4,2,2,60,0,0
138557,-83.3333333333333,4,2,1,60,0,0
138871,-83.3333333333333,4,2,2,60,0,0
141070,-83.3333333333333,4,2,1,60,0,0
141385,-83.3333333333333,4,2,2,60,0,0
145782,-100,4,2,2,60,0,0
146411,-133.333333333333,4,2,1,50,0,0
153793,-117.647058823529,4,2,1,50,0,0
161489,-105.263157894737,4,2,1,50,0,0
175940,-100,4,2,2,85,0,0
176411,-83.3333333333333,6,2,2,85,0,1
176568,314.13612565445,6,2,2,85,1,1
176568,-83.3333333333333,6,2,2,85,0,1
186149,-83.3333333333333,6,2,1,85,0,1
186306,-83.3333333333333,6,2,2,85,0,1
191175,-83.3333333333333,6,2,1,85,0,1
191489,-100,6,2,1,85,0,0
191646,-100,6,2,2,55,0,0
193688,-100,6,2,1,55,0,0
193845,-100,6,2,2,55,0,0
194787,-100,6,2,1,55,0,0
195259,-111.111111111111,6,2,1,55,0,0
195416,-111.111111111111,6,2,2,55,0,0
199342,-111.111111111111,6,2,1,55,0,0
199814,-111.111111111111,6,2,2,55,0,0
202327,-111.111111111111,6,2,1,55,0,0
202955,-111.111111111111,6,2,2,55,0,0
205939,-111.111111111111,6,2,1,55,0,0
206096,-111.111111111111,6,2,2,55,0,0
206410,-111.111111111111,6,2,1,55,0,0

[Colours]
Combo1 : 16,139,239
Combo2 : 155,44,158
Combo3 : 223,49,140
Combo4 : 70,165,196

[HitObjects]
256,192,1280,12,0,2536,0:0:0:0:
177,265,3165,5,4,0:0:0:0:
403,69,5049,2,0,L|461:24,2,56.2500023692849,0|0|0,3:0|0:0|0:0,0:0:0:0:
405,183,5678,1,2,0:0:0:0:
105,71,8191,5,0,0:0:0:0:
302,275,10076,2,0,L|349:323,2,56.2500023692849,0|0|0,0:0|0:0|0:0,0:0:0:0:
299,151,10704,1,0,0:0:0:0:
256,192,11646,12,0,12903,0:0:0:0:
237,258,13217,6,0,L|315:282,1,75.0000002980235,0|0,0:0|0:0,0:0:0:0:
390,302,13531,1,2,0:0:0:0:
486,186,13845,2,0,L|408:162,1,75.0000002980235,2|0,0:0|0:0,0:0:0:0:
332,16,14159,2,0,L|350:95,1,75.0000002980235,0|2,0:0|0:0,0:0:0:0:
195,136,14474,6,0,L|254:80,1,75.0000002980235,0|0,0:0|0:0,0:0:0:0:
295,187,14788,1,2,0:0:0:0:
208,254,14945,1,0,0:0:0:0:
81,135,15102,2,0,L|99:214,1,75.0000002980235,0|2,0:0|0:0,0:0:0:0:
225,326,15416,2,0,L|206:246,1,75.0000002980235,0|0,0:0|0:0,0:0:0:0:
195,136,15730,6,0,L|272:159,1,75.0000002980235,0|0,0:0|0:0,0:0:0:0:
349,184,16044,1,2,0:0:0:0:
390,338,16358,2,0,L|305:312,1,75.0000002980235,2|0,0:0|0:0,0:0:0:0:
185,276,16673,2,0,L|250:215,1,75.0000002980235,0|2,0:0|0:0,0:0:0:0:
249,84,16987,6,0,L|183:144,1,75.0000002980235,0|0,0:0|0:0,0:0:0:0:
86,192,17301,1,2,0:0:0:0:
87,68,17458,1,0,0:0:0:0:
193,134,17615,2,0,L|272:183,1,75.0000002980235,0|2,0:0|0:0,0:0:0:0:
409,212,17929,2,0,L|327:255,1,75.0000002980235,0|0,0:0|0:0,0:0:0:0:
240,357,18243,6,0,L|242:264,1,75.0000002980235,0|0,0:0|0:0,0:0:0:0:
166,220,18557,1,2,0:0:0:0:
1,220,18871,2,0,L|64:152,1,75.0000002980235,2|0,0:0|0:0,0:0:0:0:
192,129,19186,2,0,L|129:61,1,75.0000002980235,0|2,0:0|0:0,0:0:0:0:
286,160,19500,6,0,L|376:139,1,75.0000002980235,0|0,0:0|0:0,0:0:0:0:
471,83,19814,1,2,0:0:0:0:
471,211,19971,1,0,0:0:0:0:
368,271,20128,2,0,L|277:291,1,75.0000002980235,0|2,0:0|0:0,0:0:0:0:
121,249,20442,2,0,L|211:228,1,75.0000002980235,0|0,0:0|0:0,0:0:0:0:
269,42,20756,6,0,L|269:140,1,75.0000002980235,0|0,0:0|0:0,0:0:0:0:
270,216,21070,1,2,0:0:0:0:
148,361,21385,2,0,L|232:312,1,75.0000002980235,2|0,0:0|0:0,0:0:0:0:
398,364,21699,2,0,L|313:315,1,75.0000002980235,0|2,0:0|0:0,0:0:0:0:
270,141,22013,6,0,L|270:239,1,75.0000002980235,0|0,0:0|0:0,0:0:0:0:
212,323,22327,1,2,0:0:0:0:
93,280,22484,1,0,0:0:0:0:
153,131,22641,2,0,L|180:222,1,75.0000002980235,0|2,0:0|0:0,0:0:0:0:
291,69,22955,2,0,L|264:160,1,75.0000002980235,0|0,0:0|0:0,0:0:0:0:
443,86,23269,5,2,0:0:0:0:
443,86,23426,2,0,L|470:-5,1,75.0000002980235,0|2,0:0|0:0,0:0:0:0:
512,194,23741,2,0,L|462:370,1,150.000000596047,2|2,0:0|0:0,0:0:0:0:
310,228,24212,1,0,0:0:0:0:
274,322,24369,2,0,P|355:322|401:271,2,150.000000596047,2|2|2,0:0|0:0|0:0,0:0:0:0:
229,160,25154,2,0,L|251:68,1,75.0000002980235,0|2,0:0|0:0,0:0:0:0:
162,248,25468,2,0,L|97:304,1,75.0000002980235,0|0,0:0|0:0,0:0:0:0:
0,132,25782,5,2,0:0:0:0:
0,132,25940,2,0,L|91:144,1,75.0000002980235,0|2,0:0|0:0,0:0:0:0:
183,62,26254,2,0,P|161:133|99:178,1,150.000000596047,2|2,0:0|0:0,0:0:0:0:
198,244,26725,1,0,0:0:0:0:
280,156,26882,2,0,P|352:139|422:170,2,150.000000596047,2|2|2,0:0|0:0|0:0,0:0:0:0:
198,244,27667,2,0,P|228:274|266:289,1,75.0000002980235,0|2,0:0|0:0,0:0:0:0:
441,287,27981,2,0,P|410:256|373:242,1,75.0000002980235,0|0,0:0|0:0,0:0:0:0:
287,83,28296,5,2,0:0:0:0:
287,83,28453,2,0,P|275:125|282:164,1,75.0000002980235,0|2,0:0|0:0,0:0:0:0:
162,333,28767,2,0,P|236:308|281:248,1,150.000000596047,2|2,0:0|0:0,0:0:0:0:
158,205,29238,1,0,0:0:0:0:
30,163,29395,2,0,L|58:317,2,150.000000596047,2|2|2,0:0|0:0|0:0,0:0:0:0:
115,40,30180,2,0,L|200:19,1,75.0000002980235,0|2,0:0|0:0,0:0:0:0:
250,127,30495,2,0,L|335:148,1,75.0000002980235,2|0,0:0|0:0,0:0:0:0:
465,73,30809,5,2,0:0:0:0:
465,73,30966,2,0,L|448:173,1,75.0000002980235,0|2,0:0|0:0,0:0:0:0:
297,292,31280,2,0,L|325:128,1,150.000000596047,2|2,0:0|0:0,0:0:0:0:
270,26,31751,1,0,0:0:0:0:
143,16,31908,2,0,P|76:39|29:103,2,150.000000596047,2|2|2,0:0|0:0|0:0,0:0:0:0:
141,142,32693,2,0,L|102:225,1,75.0000002980235,0|2,0:0|0:0,0:0:0:0:
203,283,33008,2,0,L|164:366,1,75.0000002980235,0|0,0:0|0:0,0:0:0:0:
242,172,33322,5,2,0:0:0:0:
242,172,33479,2,0,L|334:154,1,75.0000002980235,0|2,0:0|0:0,0:0:0:0:
369,43,33793,2,0,P|429:88|439:162,1,150.000000596047,2|2,0:0|0:0,0:0:0:0:
373,274,34264,1,0,0:0:0:0:
281,319,34421,2,0,P|332:374|410:372,2,150.000000596047,2|2|2,0:0|0:0|0:0,0:0:0:0:
277,175,35207,2,0,L|361:151,1,75.0000002980235,0|2,0:0|0:0,0:0:0:0:
185,263,35521,2,0,L|101:287,1,75.0000002980235,0|0,0:0|0:0,0:0:0:0:
163,148,35835,5,2,0:0:0:0:
163,148,35992,2,0,L|184:52,1,75.0000002980235,0|2,0:0|0:0,0:0:0:0:
61,31,36306,2,0,L|27:192,1,150.000000596047,2|2,0:0|0:0,0:0:0:0:
112,283,36777,1,0,0:0:0:0:
246,256,36934,2,0,P|301:216|326:137,2,150.000000596047,2|2|2,0:0|0:0|0:0,0:0:0:0:
112,283,37720,2,0,L|26:301,1,75.0000002980235,0|2,0:0|0:0,0:0:0:0:
163,148,38034,2,0,L|180:68,1,75.0000002980235,0|0,0:0|0:0,0:0:0:0:
304,41,38348,5,2,0:0:0:0:
304,41,38505,2,0,L|385:56,1,75.0000002980235,0|2,0:0|0:0,0:0:0:0:
503,121,38819,2,0,P|452:175|371:187,1,150.000000596047,2|2,0:0|0:0,0:0:0:0:
256,147,39290,1,0,0:0:0:0:
161,223,39447,2,0,P|133:291|163:363,2,150.000000596047,2|2|2,0:0|0:0|0:0,0:0:0:0:
256,294,40233,2,0,L|349:311,1,75.0000002980235,0|0,0:0|0:0,0:0:0:0:
256,147,40547,2,0,L|224:57,1,75.0000002980235,2|0,0:0|0:0,0:0:0:0:
346,4,40861,5,2,0:0:0:0:
346,4,41018,2,0,L|380:96,1,75.0000002980235,0|2,0:0|0:0,0:0:0:0:
489,152,41332,2,0,P|438:204|362:211,1,150.000000596047,2|2,0:0|0:0,0:0:0:0:
256,147,41803,1,0,0:0:0:0:
148,205,41960,2,0,P|81:236|51:303,2,150.000000596047,2|2|2,0:0|0:0|0:0,0:0:0:0:
255,270,42746,2,0,B|303:328,1,75.0000002980235,0|2,0:0|0:0,0:0:0:0:
218,147,43060,1,0,3:0:0:0:
215,135,43138,1,0,3:0:0:0:
213,124,43217,1,0,3:0:0:0:
211,113,43295,1,0,3:0:0:0:
209,102,43374,6,0,P|253:113|296:103,1,89.9999976110462,4|8,0:0|0:0,0:0:0:0:
387,44,43688,1,2,0:0:0:0:
398,151,43845,1,0,0:0:0:0:
294,314,44002,5,0,1:0:0:0:
305,207,44159,1,0,3:0:0:0:
392,269,44317,2,0,P|404:312|396:356,1,89.9999976110462,2|2,0:0|0:0,0:0:0:0:
305,207,44631,6,0,L|312:117,1,89.9999976110462,0|2,0:0|0:0,0:0:0:0:
211,154,44945,1,8,0:0:0:0:
211,154,45102,1,2,0:0:0:0:
294,314,45259,5,0,1:0:0:0:
140,221,45416,1,0,3:0:0:0:
214,384,45573,1,0,0:0:0:0:
120,330,45730,1,0,3:0:0:0:
301,224,45887,6,0,L|294:314,1,89.9999976110462,2|2,0:0|0:0,0:0:0:0:
391,359,46201,1,2,0:0:0:0:
489,314,46358,1,0,0:0:0:0:
426,127,46515,5,0,1:0:0:0:
501,206,46673,1,8,0:0:0:0:
489,314,46830,1,0,0:0:0:0:
391,359,46987,6,0,B|281:374|320:311|221:320,1,179.999995222092,8|2,2:0|0:0,0:0:0:0:
221,320,47379,1,0,0:0:0:0:
221,320,47458,1,0,1:0:0:0:
346,163,47615,1,0,0:0:0:0:
391,359,47772,5,0,1:0:0:0:
328,270,47929,1,0,1:0:0:0:
346,163,48086,1,0,3:0:0:0:
436,104,48243,1,0,3:0:0:0:
372,275,48400,6,0,L|327:269,2,44.9999988055231,0|0|2,0:0|0:0|0:0,0:0:0:0:
228,311,48714,1,8,0:0:0:0:
244,204,48871,1,0,0:0:0:0:
148,30,49029,5,0,1:0:0:0:
160,134,49186,1,0,3:0:0:0:
248,73,49343,2,0,P|293:72|338:81,1,89.9999976110462,2|2,0:0|0:0,0:0:0:0:
438,42,49657,6,0,L|431:131,1,89.9999976110462,0|0,0:0|1:0,0:0:0:0:
339,188,49971,2,0,B|410:183|396:231|465:223,1,134.999996416569,0|0,1:0|0:0,0:0:0:0:
485,211,50285,5,0,3:0:0:0:
367,355,50442,2,0,P|360:311|347:268,1,89.9999976110462,0|2,1:0|0:0,0:0:0:0:
378,137,50756,1,2,3:0:0:0:
210,211,50913,6,0,L|120:215,1,89.9999976110462,8|2,0:0|0:0,0:0:0:0:
45,295,51228,1,2,0:0:0:0:
14,191,51385,1,0,0:0:0:0:
175,70,51542,5,0,1:0:0:0:
72,100,51699,1,8,0:0:0:0:
14,191,51856,1,0,0:0:0:0:
45,295,52013,6,0,B|136:327|122:246|216:275,1,179.999995222092,8|2,0:0|0:0,0:0:0:0:
215,275,52406,1,0,0:0:0:0:
215,275,52484,1,8,0:0:0:0:
184,378,52641,1,0,0:0:0:0:
158,182,52798,6,0,P|202:184|246:193,2,89.9999976110462,2|2|2,0:0|0:0|0:0,0:0:0:0:
312,278,53269,1,2,0:0:0:0:
346,88,53426,6,0,L|354:178,1,89.9999976110462,4|8,0:0|0:0,0:0:0:0:
311,278,53741,2,0,P|374:256|435:281,1,134.999996416569,2|0,0:0|0:0,0:0:0:0:
372,346,54055,5,0,1:0:0:0:
354,178,54212,1,0,3:0:0:0:
354,178,54290,1,0,0:0:0:0:
353,178,54369,2,0,P|398:178|442:191,1,89.9999976110462,2|2,0:0|0:0,0:0:0:0:
311,278,54683,5,0,0:0:0:0:
283,94,54840,1,2,0:0:0:0:
442,191,54997,2,0,L|436:281,1,89.9999976110462,8|0,0:0|0:0,0:0:0:0:
234,353,55311,5,0,1:0:0:0:
214,246,55468,1,0,3:0:0:0:
297,177,55625,1,0,0:0:0:0:
398,212,55782,1,0,3:0:0:0:
214,246,55940,6,0,L|124:240,1,89.9999976110462,2|2,0:0|0:0,0:0:0:0:
41,309,56254,2,0,L|30:173,1,134.999996416569,2|0,0:0|0:0,0:0:0:0:
22,84,56568,5,0,1:0:0:0:
124,240,56725,1,8,0:0:0:0:
189,24,56882,1,0,0:0:0:0:
189,24,56960,1,0,0:0:0:0:
189,24,57039,6,0,L|178:158,1,134.999996416569,8|0,2:0|0:0,0:0:0:0:
186,180,57353,1,2,0:0:0:0:
363,110,57510,2,0,L|274:117,1,89.9999976110462,0|0,1:0|0:0,0:0:0:0:
90,130,57824,5,0,1:0:0:0:
186,180,57981,1,0,1:0:0:0:
185,287,58138,1,0,3:0:0:0:
90,340,58296,1,0,3:0:0:0:
186,180,58453,6,0,L|275:185,1,89.9999976110462,2|2,0:0|0:0,0:0:0:0:
362,121,58767,2,0,B|368:174|368:174|383:197|383:197|389:251,1,134.999996416569,8|0,0:0|0:0,0:0:0:0:
362,337,59081,1,0,1:0:0:0:
457,168,59238,1,0,3:0:0:0:
491,359,59395,1,2,0:0:0:0:
465,166,59552,6,0,B|389:177|412:134|335:142,1,134.999996416569,2|0,0:0|0:0,0:0:0:0:
316,153,59866,1,0,1:0:0:0:
434,2,60023,2,0,P|444:45|445:90,1,89.9999976110462,0|0,1:0|0:0,0:0:0:0:
362,251,60337,5,0,3:0:0:0:
362,251,60416,1,0,0:0:0:0:
362,251,60495,1,0,1:0:0:0:
316,153,60652,1,0,0:0:0:0:
208,148,60809,1,2,3:0:0:0:
362,250,60966,6,0,P|405:241|450:243,1,89.9999976110462,8|2,0:0|0:0,0:0:0:0:
504,149,61280,2,0,P|438:159|375:136,1,134.999996416569,2|0,0:0|0:0,0:0:0:0:
315,69,61594,1,0,1:0:0:0:
362,250,61751,1,8,0:0:0:0:
164,133,61908,1,0,0:0:0:0:
164,133,62065,6,0,B|235:132|211:177|287:176,1,134.999996416569,8|0,0:0|0:0,0:0:0:0:
309,169,62379,1,2,0:0:0:0:
233,333,62536,2,0,P|219:290|221:245,1,89.9999976110462,8|0,0:0|0:0,0:0:0:0:
311,79,62851,2,0,L|308:168,1,89.9999976110462,8|10,0:0|0:0,0:0:0:0:
388,250,63165,6,0,L|444:240,2,45.0000001788141,0|0|0,0:0|0:0|0:0,0:0:0:0:
332,350,63479,6,0,B|228:367|259:298|162:313,1,179.999995222092,6|0,0:0|0:0,0:0:0:0:
64,359,63950,2,0,P|73:315|72:270,1,89.9999976110462,2|0,0:0|1:0,0:0:0:0:
13,179,64264,2,0,L|147:187,1,134.999996416569,0|0,0:0|0:0,0:0:0:0:
163,205,64578,6,0,L|154:116,1,89.9999976110462,2|0,0:0|0:0,0:0:0:0:
245,58,64892,2,0,L|263:237,1,179.999995222092,2|2,0:0|0:0,0:0:0:0:
364,277,65364,1,0,1:0:0:0:
452,213,65521,2,0,P|453:169|443:125,1,89.9999976110462,2|0,0:0|0:0,0:0:0:0:
343,84,65835,1,0,0:0:0:0:
207,210,65992,6,0,B|283:203|283:203|303:178|303:178|374:170,1,179.999995222092,2|0,0:0|0:0,0:0:0:0:
453,243,66463,2,0,L|441:332,1,89.9999976110462,0|0,0:0|1:0,0:0:0:0:
343,324,66777,2,0,L|361:190,1,134.999996416569,2|0,0:0|0:0,0:0:0:0:
374,170,67091,6,0,B|281:181,1,89.9999976110462,2|0,0:0|0:0,0:0:0:0:
230,86,67406,2,0,B|409:69,1,179.999995222092,2|0,0:0|0:0,0:0:0:0:
461,163,67877,1,0,1:0:0:0:
432,268,68034,2,0,P|429:312|442:355,1,89.9999976110462,2|0,0:0|0:0,0:0:0:0:
442,355,68348,1,0,0:0:0:0:
355,193,68505,6,0,L|359:13,1,179.999995222092,2|0,0:0|0:0,0:0:0:0:
263,63,68976,2,0,P|220:72|175:68,1,89.9999976110462,0|0,0:0|1:0,0:0:0:0:
77,20,69290,2,0,L|85:154,1,134.999996416569,2|0,0:0|0:0,0:0:0:0:
71,172,69604,6,0,P|115:167|159:176,1,89.9999976110462,0|0,0:0|0:0,0:0:0:0:
232,257,69919,2,0,L|411:244,1,179.999995222092,2|2,0:0|0:0,0:0:0:0:
455,145,70390,1,0,1:0:0:0:
387,60,70547,2,0,P|343:50|300:64,1,89.9999976110462,2|0,0:0|0:0,0:0:0:0:
251,160,70861,1,0,0:0:0:0:
377,296,71018,6,0,B|395:200|326:220|347:124,1,179.999995222092,2|0,0:0|0:0,0:0:0:0:
263,56,71489,2,0,L|173:61,1,89.9999976110462,0|0,0:0|1:0,0:0:0:0:
116,151,71803,2,0,L|250:159,1,134.999996416569,2|0,0:0|0:0,0:0:0:0:
265,177,72118,6,0,P|223:190|191:220,1,89.9999976110462,0|0,1:0|0:0,0:0:0:0:
111,293,72432,2,0,L|117:113,1,179.999995222092,0|2,1:0|0:0,0:0:0:0:
207,53,72903,1,0,0:0:0:0:
110,2,73060,2,0,P|67:13|33:41,1,89.9999976110462,2|0,0:0|1:0,0:0:0:0:
33,41,73374,1,0,0:0:0:0:
194,136,73531,6,0,L|286:128,1,89.9999976110462,6|0,0:0|0:0,0:0:0:0:
380,33,73845,1,0,0:0:0:0:
380,33,74002,2,0,L|472:41,1,89.9999976110462,0|0,0:0|1:0,0:0:0:0:
496,173,74317,2,0,L|406:165,1,89.9999976110462,0|0,0:0|0:0,0:0:0:0:
316,265,74631,6,0,L|302:85,1,179.999995222092,2|2,0:0|0:0,0:0:0:0:
302,85,75102,1,0,0:0:0:0:
176,33,75259,2,0,P|132:31|89:44,1,89.9999976110462,0|0,0:0|1:0,0:0:0:0:
21,161,75573,1,2,0:0:0:0:
125,246,75730,1,0,0:0:0:0:
149,113,75887,1,0,0:0:0:0:
23,266,76044,6,0,L|34:355,1,89.9999976110462,2|0,0:0|0:0,0:0:0:0:
165,326,76358,1,0,0:0:0:0:
164,326,76515,2,0,P|209:328|251:344,1,89.9999976110462,0|0,0:0|1:0,0:0:0:0:
366,273,76830,2,0,P|410:270|452:254,1,89.9999976110462,2|0,0:0|0:0,0:0:0:0:
512,132,77144,6,0,L|506:42,1,89.9999976110462,2|0,0:0|0:0,0:0:0:0:
375,8,77458,2,0,L|380:97,1,89.9999976110462,2|2,0:0|0:0,0:0:0:0:
254,145,77772,2,0,L|248:55,1,89.9999976110462,0|0,0:0|1:0,0:0:0:0:
341,209,78086,2,0,P|256:185|182:230,1,179.999995222092,2|0,0:0|0:0,0:0:0:0:
31,368,78557,6,0,P|71:350|116:353,1,89.9999976110462,2|0,0:0|0:0,0:0:0:0:
57,232,78871,1,0,0:0:0:0:
57,232,79029,2,0,L|54:142,1,89.9999976110462,0|0,0:0|1:0,0:0:0:0:
187,121,79343,2,0,L|189:31,1,89.9999976110462,2|0,0:0|0:0,0:0:0:0:
321,3,79657,6,0,P|365:3|410:11,1,89.9999976110462,0|0,0:0|0:0,0:0:0:0:
478,127,79971,2,0,P|433:127|388:135,1,89.9999976110462,2|0,0:0|3:0,0:0:0:0:
321,251,80285,2,0,P|365:251|410:259,1,89.9999976110462,0|0,0:0|1:0,0:0:0:0:
354,382,80599,1,2,0:0:0:0:
354,382,80756,2,0,L|219:373,1,134.999996416569,0|0,0:0|0:0,0:0:0:0:
193,381,81070,6,0,P|200:337|196:292,1,89.9999976110462,2|0,0:0|0:0,0:0:0:0:
94,203,81385,1,0,0:0:0:0:
94,203,81542,2,0,L|4:209,1,89.9999976110462,0|0,0:0|1:0,0:0:0:0:
41,79,81856,2,0,L|130:72,1,89.9999976110462,2|2,0:0|0:0,0:0:0:0:
219,174,82170,6,0,P|211:218|215:263,1,89.9999976110462,0|0,1:0|0:0,0:0:0:0:
328,337,82484,2,0,L|417:332,1,89.9999976110462,0|0,1:0|0:0,0:0:0:0:
501,173,82798,2,0,B|398:167|442:236|337:228,1,179.999995222092,2|2,0:0|0:0,0:0:0:0:
340,61,83269,1,0,3:0:0:0:
349,81,83347,1,0,3:0:0:0:
355,103,83426,1,0,3:0:0:0:
358,125,83504,1,0,3:0:0:0:
357,147,83583,1,6,0:0:0:0:
256,192,98662,12,0,103374,0:0:0:0:
112,94,103688,6,0,L|23:88,1,89.9999976110462,6|0,0:0|0:0,0:0:0:0:
209,174,104002,2,0,L|299:168,1,89.9999976110462,2|2,0:0|0:0,0:0:0:0:
84,187,104317,1,0,1:0:0:0:
161,287,104474,1,0,0:0:0:0:
262,55,104631,1,2,0:0:0:0:
262,55,104788,6,0,B|216:135|292:152|245:228,1,179.999995222092,2|2,0:0|0:0,0:0:0:0:
439,146,105259,2,0,P|407:117|363:106,1,89.9999976110462,8|0,0:0|0:0,0:0:0:0:
412,269,105573,2,0,P|456:274|497:258,1,89.9999976110462,0|0,1:0|1:0,0:0:0:0:
312,193,105887,5,0,3:0:0:0:
308,215,105965,1,0,3:0:0:0:
303,237,106044,1,0,3:0:0:0:
299,259,106122,1,0,3:0:0:0:
293,280,106201,6,0,L|311:368,1,89.9999976110462,6|0,0:0|0:0,0:0:0:0:
175,234,106515,2,0,L|193:322,1,89.9999976110462,0|0,0:0|0:0,0:0:0:0:
67,197,106830,1,0,1:0:0:0:
130,23,106987,1,2,0:0:0:0:
253,137,107144,1,2,0:0:0:0:
0,126,107301,6,0,P|60:96|122:116,1,134.999996416569,4|0,1:0|0:0,0:0:0:0:
141,141,107615,1,0,1:0:0:0:
71,284,107772,6,0,P|61:240|67:196,1,89.9999976110462,0|2,1:0|0:0,0:0:0:0:
259,142,108086,2,0,P|264:186|254:230,1,89.9999976110462,2|0,0:0|1:0,0:0:0:0:
136,93,108400,2,0,P|124:49|125:4,1,89.9999976110462,0|0,1:0|1:0,0:0:0:0:
365,132,108714,6,0,P|333:52|249:30,1,179.999995222092,6|2,0:0|0:0,0:0:0:0:
141,141,109186,1,0,0:0:0:0:
238,217,109343,2,0,P|283:211|325:225,1,89.9999976110462,0|0,1:0|0:0,0:0:0:0:
418,311,109657,1,2,0:0:0:0:
272,303,109814,6,0,B|187:332|184:260|98:301,1,179.999995222092,2|2,0:0|0:0,0:0:0:0:
248,130,110285,2,0,P|253:174|239:216,1,89.9999976110462,8|0,0:0|0:0,0:0:0:0:
127,156,110599,1,0,1:0:0:0:
336,40,110756,1,0,1:0:0:0:
194,18,110913,5,0,3:0:0:0:
171,13,110991,1,0,3:0:0:0:
148,9,111070,1,0,3:0:0:0:
125,5,111148,1,0,3:0:0:0:
100,0,111228,6,0,P|93:44|102:87,1,89.9999976110462,6|0,0:0|0:0,0:0:0:0:
238,216,111542,2,0,P|252:174|248:130,1,89.9999976110462,0|0,0:0|0:0,0:0:0:0:
194,18,111856,5,0,1:0:0:0:
135,222,112013,1,2,0:0:0:0:
38,146,112170,1,2,0:0:0:0:
135,222,112327,6,0,L|224:217,1,89.9999976110462,4|0,1:0|0:0,0:0:0:0:
426,165,112641,2,0,L|337:161,1,89.9999976110462,0|0,1:0|1:0,0:0:0:0:
134,85,112955,2,0,L|223:80,1,89.9999976110462,2|2,0:0|0:0,0:0:0:0:
358,36,113269,5,0,1:0:0:0:
337,161,113426,1,0,1:0:0:0:
313,294,113584,1,0,1:0:0:0:
445,319,113741,6,0,L|434:229,1,89.9999976110462,6|0,0:0|0:0,0:0:0:0:
246,176,114055,1,2,0:0:0:0:
313,294,114212,1,2,0:0:0:0:
140,344,114369,2,0,P|152:301|181:267,1,89.9999976110462,0|0,1:0|0:0,0:0:0:0:
180,268,114604,1,0,0:0:0:0:
180,268,114683,1,2,0:0:0:0:
280,362,114840,6,0,B|364:404|376:330|452:366,1,179.999995222092,2|2,0:0|0:0,0:0:0:0:
351,197,115311,2,0,P|327:234|328:278,1,89.9999976110462,8|0,0:0|0:0,0:0:0:0:
462,271,115625,5,0,1:0:0:0:
360,98,115782,2,0,L|270:92,1,89.9999976110462,0|0,1:0|3:0,0:0:0:0:
169,183,116097,1,0,3:0:0:0:
169,183,116175,1,0,0:0:0:0:
169,183,116254,6,0,L|162:48,1,134.999996416569,6|0,0:0|0:0,0:0:0:0:
130,15,116568,2,0,L|125:104,1,89.9999976110462,0|0,0:0|0:0,0:0:0:0:
31,239,116882,1,0,1:0:0:0:
153,267,117039,1,2,0:0:0:0:
247,101,117196,1,2,0:0:0:0:
371,79,117353,6,0,L|366:168,1,89.9999976110462,4|0,1:0|0:0,0:0:0:0:
230,247,117667,1,0,1:0:0:0:
230,247,117824,2,0,P|241:203|238:159,1,89.9999976110462,0|2,1:0|0:0,0:0:0:0:
124,104,118138,5,0,1:0:0:0:
16,171,118296,2,0,L|24:261,1,89.9999976110462,2|0,0:0|1:0,0:0:0:0:
127,332,118610,1,0,1:0:0:0:
127,332,118688,1,0,0:0:0:0:
127,332,118767,6,0,P|171:326|210:305,2,89.9999976110462,6|0|2,0:0|0:0|0:0,0:0:0:0:
54,187,119238,1,2,0:0:0:0:
220,134,119395,2,0,P|215:178|190:215,1,89.9999976110462,0|0,1:0|0:0,0:0:0:0:
54,187,119709,1,2,0:0:0:0:
137,52,119866,6,0,B|202:24|213:76|267:46,1,134.999996416569,2|0,0:0|0:0,0:0:0:0:
291,31,120180,2,0,P|282:74|296:117,1,89.9999976110462,2|8,0:0|0:0,0:0:0:0:
374,228,120495,1,0,0:0:0:0:
491,132,120652,6,0,P|449:118|405:124,1,89.9999976110462,0|0,1:0|1:0,0:0:0:0:
337,328,120966,2,0,P|382:334|424:319,1,89.9999976110462,0|0,3:0|3:0,0:0:0:0:
298,217,121280,5,6,0:0:0:0:
129,259,121437,1,0,0:0:0:0:
129,259,121594,2,0,L|103:345,1,89.9999976110462,0|0,0:0|0:0,0:0:0:0:
68,169,121908,6,0,P|108:150|152:152,1,89.9999976110462,0|2,1:0|0:0,0:0:0:0:
214,319,122222,1,2,0:0:0:0:
296,117,122379,1,4,1:0:0:0:
190,94,123479,5,0,1:0:0:0:
190,94,123557,1,0,0:0:0:0:
190,94,123636,1,0,0:0:0:0:
296,117,123793,6,0,B|282:210|212:162|199:258,1,179.999995222092,6|0,0:0|0:0,0:0:0:0:
266,12,124264,2,0,P|310:8|352:23,1,89.9999976110462,0|0,0:0|1:0,0:0:0:0:
348,186,124578,2,0,P|314:157|295:116,1,89.9999976110462,0|0,0:0|0:0,0:0:0:0:
460,93,124892,6,0,B|484:154|484:154|478:204|478:204|504:263,1,179.999995222092,2|2,0:0|0:0,0:0:0:0:
391,343,125364,2,0,P|435:354|478:344,1,89.9999976110462,0|0,0:0|0:0,0:0:0:0:
336,251,125678,1,0,1:0:0:0:
245,384,125835,1,2,0:0:0:0:
190,214,125992,5,0,0:0:0:0:
185,237,126070,1,0,0:0:0:0:
181,259,126149,1,0,0:0:0:0:
176,281,126227,1,0,0:0:0:0:
170,304,126306,6,0,P|86:330|14:282,1,179.999995222092,2|0,0:0|0:0,0:0:0:0:
96,139,126777,1,0,0:0:0:0:
95,139,126934,2,0,P|111:180|106:225,1,89.9999976110462,0|2,1:0|0:0,0:0:0:0:
14,281,127248,1,2,0:0:0:0:
220,248,127406,6,0,L|228:382,1,134.999996416569,2|0,0:0|0:0,0:0:0:0:
228,382,127720,1,2,0:0:0:0:
404,246,127877,2,0,L|409:335,1,89.9999976110462,2|0,0:0|0:0,0:0:0:0:
445,145,128191,1,0,1:0:0:0:
445,145,128348,2,0,P|363:143|301:218,1,179.999995222092,2|0,0:0|0:0,0:0:0:0:
130,246,128819,6,0,L|216:270,1,89.9999976110462,2|0,0:0|0:0,0:0:0:0:
23,330,129133,1,0,0:0:0:0:
23,330,129290,2,0,B|9:200,1,89.9999976110462,0|0,0:0|1:0,0:0:0:0:
1,125,129604,2,0,P|43:140|86:129,1,89.9999976110462,2|0,0:0|0:0,0:0:0:0:
265,288,129919,6,0,L|176:282,1,89.9999976110462,0|0,0:0|0:0,0:0:0:0:
152,178,130233,2,0,L|331:191,1,179.999995222092,2|0,0:0|0:0,0:0:0:0:
412,262,130704,1,0,1:0:0:0:
449,92,130861,1,2,0:0:0:0:
329,93,131018,5,0,0:0:0:0:
330,117,131097,1,0,0:0:0:0:
330,142,131175,1,0,0:0:0:0:
331,167,131254,1,0,0:0:0:0:
332,192,131332,6,0,L|421:198,1,89.9999976110462,2|0,0:0|0:0,0:0:0:0:
255,91,131646,1,0,0:0:0:0:
362,0,131803,1,0,0:0:0:0:
362,0,131960,2,0,P|363:43|380:85,1,89.9999976110462,0|2,1:0|0:0,0:0:0:0:
510,260,132275,1,2,0:0:0:0:
428,189,132432,6,0,L|339:183,1,89.9999976110462,0|0,1:0|0:0,0:0:0:0:
220,269,132746,2,0,L|130:276,1,89.9999976110462,0|0,1:0|0:0,0:0:0:0:
63,118,133060,2,0,L|153:125,1,89.9999976110462,2|0,0:0|0:0,0:0:0:0:
218,344,133374,5,2,0:0:0:0:
227,218,133531,1,0,1:0:0:0:
236,92,133688,1,2,0:0:0:0:
426,174,133845,6,0,L|336:167,1,89.9999976110462,6|0,0:0|0:0,0:0:0:0:
422,324,134159,2,0,L|512:317,1,89.9999976110462,0|0,0:0|0:0,0:0:0:0:
511,317,134395,1,0,0:0:0:0:
511,317,134474,1,0,1:0:0:0:
324,277,134631,2,0,P|309:318|317:362,1,89.9999976110462,0|0,0:0|0:0,0:0:0:0:
473,242,134945,6,0,P|506:185|487:122,1,134.999996416569,2|0,0:0|0:0,0:0:0:0:
467,103,135259,1,2,0:0:0:0:
326,116,135416,2,0,B|322:136|322:136|342:202,1,89.9999976110462,0|0,0:0|0:0,0:0:0:0:
412,44,135730,1,0,1:0:0:0:
245,7,135887,1,2,0:0:0:0:
273,123,136044,5,2,0:0:0:0:
274,145,136123,1,0,0:0:0:0:
274,167,136201,1,0,0:0:0:0:
275,190,136280,1,0,0:0:0:0:
275,213,136358,6,0,L|276:302,1,89.9999976110462,2|0,0:0|0:0,0:0:0:0:
129,295,136673,2,0,L|146:383,1,89.9999976110462,0|0,0:0|0:0,0:0:0:0:
50,165,136987,1,0,1:0:0:0:
200,225,137145,1,2,0:0:0:0:
168,23,137301,1,0,0:0:0:0:
168,23,137458,6,0,B|233:50|234:0|297:27,1,134.999996416569,2|0,0:0|0:0,0:0:0:0:
338,65,137772,1,2,0:0:0:0:
277,215,137929,2,0,P|259:174|263:129,1,89.9999976110462,2|0,0:0|0:0,0:0:0:0:
440,32,138243,2,0,P|443:76|431:119,1,89.9999976110462,0|2,1:0|0:0,0:0:0:0:
390,219,138557,1,2,0:0:0:0:
390,219,138714,1,0,0:0:0:0:
213,182,138871,6,0,P|256:172|300:177,1,89.9999976110462,2|0,0:0|0:0,0:0:0:0:
103,245,139186,1,0,0:0:0:0:
114,137,139343,1,0,0:0:0:0:
114,137,139500,2,0,P|103:94|72:63,1,89.9999976110462,0|2,1:0|0:0,0:0:0:0:
5,151,139814,1,0,0:0:0:0:
117,273,139971,6,0,B|205:232|214:309|289:263,1,179.999995222092,0|2,0:0|0:0,0:0:0:0:
245,85,140442,2,0,P|234:128|245:172,1,89.9999976110462,0|0,3:0|0:0,0:0:0:0:
430,151,140756,2,0,P|392:130|347:127,1,89.9999976110462,0|2,1:0|0:0,0:0:0:0:
422,269,141070,1,2,0:0:0:0:
443,261,141148,1,0,0:0:0:0:
464,254,141227,1,0,0:0:0:0:
485,246,141305,1,0,0:0:0:0:
505,238,141385,6,0,P|515:281|509:326,1,89.9999976110462,2|0,0:0|0:0,0:0:0:0:
393,384,141699,1,0,0:0:0:0:
333,247,141856,1,0,0:0:0:0:
201,324,142013,2,0,L|290:330,2,89.9999976110462,0|2|2,1:0|0:0|0:0,0:0:0:0:
97,211,142484,6,0,L|276:224,1,179.999995222092,0|0,1:0|1:0,0:0:0:0:
109,362,142955,2,0,P|148:340|165:300,1,89.9999976110462,0|2,0:0|0:0,0:0:0:0:
131,133,143269,1,0,0:0:0:0:
223,88,143426,2,0,L|264:105,1,44.9999988055231,2|0,0:0|0:0,0:0:0:0:
137,7,143584,5,2,0:0:0:0:
135,38,143662,1,0,0:0:0:0:
134,70,143741,1,2,0:0:0:0:
132,101,143819,1,0,0:0:0:0:
131,133,143898,1,0,0:0:0:0:
256,192,143976,12,0,145311,0:0:0:0:
151,149,145782,5,0,0:0:0:0:
237,224,145940,2,0,P|298:213|411:211,1,150.000000596047
459,170,146411,6,0,P|430:218|448:290,1,112.50000473857,4|2,0:0|0:0,0:0:0:0:
384,118,146882,2,0,P|390:58|394:-7,1,112.50000473857,0|0,0:0|0:0,0:0:0:0:
473,68,147353,1,2,0:0:0:0:
304,69,147510,2,0,P|261:77|224:78,1,56.2500023692849,2|0,0:0|0:0,0:0:0:0:
56,106,147824,6,0,P|130:124|157:156,1,112.50000473857,2|0,0:0|0:0,0:0:0:0:
261,264,148296,2,0,L|268:190,1,56.2500023692849,2|0,0:0|0:0,0:0:0:0:
168,341,148610,1,0,0:0:0:0:
99,295,148767,2,0,L|31:299,1,56.2500023692849,2|0,0:0|0:0,0:0:0:0:
257,356,149081,6,0,P|325:347|381:345,1,112.50000473857,0|0,0:0|0:0,0:0:0:0:
441,378,149552,2,0,P|408:336|424:274,1,112.50000473857,2|0,0:0|0:0,0:0:0:0:
496,182,150023,6,0,L|490:262,1,56.2500023692849,2|2,0:0|0:0,0:0:0:0:
405,130,150337,1,0,0:0:0:0:
346,206,150495,2,0,P|305:194|270:192,1,56.2500023692849,0|2,0:0|0:0,0:0:0:0:
363,43,150809,2,0,P|390:38|417:29,1,56.2500023692849,0|0,0:0|0:0,0:0:0:0:
247,98,151123,2,0,P|231:71|235:33,1,56.2500023692849,2|0,0:0|0:0,0:0:0:0:
187,185,151437,6,0,P|146:150|69:154,1,112.50000473857,0|0,0:0|0:0,0:0:0:0:
23,211,151908,2,0,P|30:243|29:286,1,56.2500023692849,0|2,0:0|0:0,0:0:0:0:
140,365,152222,2,0,P|141:336|147:309,1,56.2500023692849,0|0,0:0|0:0,0:0:0:0:
234,273,152536,1,2,0:0:0:0:
53,344,152693,1,0,0:0:0:0:
234,273,152851,2,0,P|306:284|359:290,1,112.50000473857,0|0,0:0|0:0,0:0:0:0:
460,249,153322,5,0,0:0:0:0:
431,384,153479,2,0,P|416:357|420:316,1,56.2500023692849,0|0,0:0|0:0,0:0:0:0:
484,161,153793,6,0,P|437:214|364:201,1,127.500002938509,0|0,0:0|0:0,0:0:0:0:
326,137,154264,2,0,P|332:91|343:57,1,63.7500014692547,0|2,0:0|0:0,0:0:0:0:
304,259,154578,2,0,P|263:247|224:240,1,63.7500014692547,0|0,0:0|0:0,0:0:0:0:
176,301,154892,1,0,0:0:0:0:
88,278,155049,1,0,0:0:0:0:
154,212,155207,5,0,0:0:0:0:
112,368,155364,1,2,0:0:0:0:
66,192,155521,5,0,0:0:0:0:
88,278,155678,1,2,0:0:0:0:
129,119,155835,6,0,P|125:85|123:42,1,63.7500014692547,0|0,0:0|0:0,0:0:0:0:
247,178,156149,2,0,P|245:210|242:242,1,63.7500014692547,0|0,0:0|0:0,0:0:0:0:
221,88,156463,2,0,P|291:86|346:39,1,127.500002938509,0|0,0:0|0:0,0:0:0:0:
419,99,156934,1,0,0:0:0:0:
489,39,157091,6,0,P|468:117|466:174,1,127.500002938509,2|0,0:0|0:0,0:0:0:0:
410,357,157563,2,0,P|372:300|400:242,1,127.500002938509,2|0,0:0|0:0,0:0:0:0:
486,258,158034,1,0,0:0:0:0:
357,162,158191,2,0,P|313:167|283:170,1,63.7500014692547,0|0,0:0|0:0,0:0:0:0:
181,255,158505,1,0,0:0:0:0:
298,332,158662,2,0,P|254:327|224:324,1,63.7500014692547,2|0,0:0|0:0,0:0:0:0:
49,374,158976,6,0,P|22:332|29:301,1,63.7500014692547,0|2,0:0|0:0,0:0:0:0:
154,201,159290,2,0,P|181:243|174:274,1,63.7500014692547,0|0,0:0|0:0,0:0:0:0:
72,250,159604,6,0,P|60:166|46:108,1,127.500002938509,0|0,0:0|0:0,0:0:0:0:
192,52,160076,1,2,0:0:0:0:
123,6,160233,2,0,P|109:56|117:80,1,63.7500014692547,0|0,0:0|0:0,0:0:0:0:
261,99,160547,2,0,P|275:49|267:25,1,63.7500014692547,2|0,0:0|0:0,0:0:0:0:
367,188,160861,5,0,0:0:0:0:
240,203,161018,2,0,P|299:193|388:187,1,127.500002938509,0|2,0:0|0:0,0:0:0:0:
478,263,161489,6,0,P|469:229|468:181,1,71.2499983805421,4|0,0:0|0:0,0:0:0:0:
377,18,161803,2,0,P|375:53|366:87,1,71.2499983805421,2|0,0:0|0:0,0:0:0:0:
465,93,162118,1,0,0:0:0:0:
465,93,162275,1,0,0:0:0:0:
317,250,162432,2,0,P|287:214|293:165,1,71.2499983805421,2|0,0:0|0:0,0:0:0:0:
366,187,162746,5,0,0:0:0:0:
287,327,162903,2,0,P|206:317|131:315,1,142.499996761084,2|0,0:0|0:0,0:0:0:0:
56,384,163374,6,0,P|35:339|44:307,1,71.2499983805421,2|0,0:0|0:0,0:0:0:0:
154,235,163688,1,0,0:0:0:0:
28,172,163845,1,2,0:0:0:0:
74,239,164002,2,0,P|63:159|58:70,1,142.499996761084,0|0,0:0|0:0,0:0:0:0:
267,52,164474,1,0,0:0:0:0:
128,31,164631,6,0,B|223:20|181:62|282:50,1,142.499996761084,2|0,0:0|0:0,0:0:0:0:
456,94,165102,2,0,P|394:143|334:116,1,142.499996761084,2|0,0:0|0:0,0:0:0:0:
371,31,165573,5,0,0:0:0:0:
371,31,165730,1,0,0:0:0:0:
259,132,165887,2,0,P|266:179|268:216,1,71.2499983805421,0|0,0:0|0:0,0:0:0:0:
364,281,166201,2,0,P|357:234|355:197,1,71.2499983805421,2|0,0:0|0:0,0:0:0:0:
442,231,166515,5,0,0:0:0:0:
284,320,166673,1,2,0:0:0:0:
473,343,166830,1,0,0:0:0:0:
364,281,166987,1,0,0:0:0:0:
474,218,167144,6,0,P|491:170|475:128,1,71.2499983805421,2|0,0:0|0:0,0:0:0:0:
354,56,167458,2,0,P|337:104|353:146,1,71.2499983805421,0|2,0:0|0:0,0:0:0:0:
422,106,167772,1,0,0:0:0:0:
267,202,167929,2,0,P|175:187|117:186,1,142.499996761084,0|0,0:0|0:0,0:0:0:0:
60,132,168400,5,0,0:0:0:0:
93,270,168557,2,0,P|80:198|57:125,1,142.499996761084,2|0,0:0|0:0,0:0:0:0:
204,35,169029,5,0,0:0:0:0:
204,35,169186,1,0,0:0:0:0:
41,46,169343,2,0,P|79:52|130:51,1,71.2499983805421,2|0,0:0|0:0,0:0:0:0:
271,160,169657,2,0,P|290:112|282:81,1,71.2499983805421,0|0,0:0|0:0,0:0:0:0:
165,147,169971,1,0,0:0:0:0:
209,250,170128,1,0,0:0:0:0:
59,131,170285,5,0,0:0:0:0:
140,341,170442,1,2,0:0:0:0:
99,235,170599,5,0,0:0:0:0:
209,250,170756,1,2,0:0:0:0:
294,174,170913,6,0,P|339:179|391:180,1,71.2499983805421,0|0,0:0|0:0,0:0:0:0:
427,270,171228,2,0,P|382:265|330:264,1,71.2499983805421,0|0,0:0|0:0,0:0:0:0:
468,41,171542,2,0,P|489:118|449:170,1,142.499996761084,2|0,0:0|0:0,0:0:0:0:
393,95,172013,1,0,0:0:0:0:
266,248,172170,6,0,P|252:174|232:100,1,142.499996761084,2|2,0:0|0:0,0:0:0:0:
125,57,172641,2,0,P|98:101|104:125,1,71.2499983805421,2|2,0:0|0:0,0:0:0:0:
167,184,172955,1,0,0:0:0:0:
25,255,173112,2,0,L|107:247,1,71.2499983805421,0|0,0:0|0:0,0:0:0:0:
203,369,173426,6,0,P|187:323|174:296,1,71.2499983805421,0|0,0:0|0:0,0:0:0:0:
266,248,173741,2,0,P|270:200|281:160,1,71.2499983805421,2|0,0:0|0:0,0:0:0:0:
361,122,174055,5,0,0:0:0:0:
246,35,174212,1,2,0:0:0:0:
335,42,174369,2,0,L|387:29,3,35.624999190271,0|0|0|0,0:0|0:0|0:0|0:0,0:0:0:0:
386,177,175940,6,0,L|392:232,1,37.5000001490117,0|0,0:0|0:0,0:0:0:0:
406,307,176097,2,0,P|406:278|337:278,1,112.500000447035,0|0,0:0|0:0,0:0:0:0:
333,356,176411,6,0,P|227:336|182:338,1,134.999996416569,12|0,0:0|0:0,0:0:0:0:
116,369,176725,2,0,P|98:332|110:305,1,44.9999988055231,0|0,0:0|0:0,0:0:0:0:
117,163,176882,2,0,P|173:215|155:268,1,134.999996416569,0|0,1:0|0:0,0:0:0:0:
53,236,177196,5,8,0:0:0:0:
14,104,177353,1,8,0:0:0:0:
160,43,177510,1,0,1:0:0:0:
117,163,177667,1,0,0:0:0:0:
4,93,177824,6,0,L|67:100,1,44.9999988055231,0|0,0:0|0:0,0:0:0:0:
204,143,177981,2,0,B|260:137|260:137|288:146|288:146|357:139,1,134.999996416569,8|0,0:0|0:0,0:0:0:0:
366,138,178295,1,0,0:0:0:0:
445,72,178452,5,0,0:0:0:0:
433,229,178609,1,8,0:0:0:0:
295,62,178766,6,0,L|289:11,1,44.9999988055231,0|0,1:0|0:0,0:0:0:0:
315,274,178924,1,8,0:0:0:0:
204,143,179081,5,2,0:0:0:0:
192,259,179238,2,0,P|99:249|42:245,1,134.999996416569,2|0,0:0|0:0,0:0:0:0:
34,209,179552,1,2,0:0:0:0:
112,140,179709,6,0,P|138:95|120:47,1,89.9999976110462,0|2,1:0|0:0,0:0:0:0:
24,122,180023,1,0,0:0:0:0:
86,332,180180,1,0,1:0:0:0:
192,259,180337,5,12,0:0:0:0:
192,259,180494,2,0,B|301:239|244:317|383:286,1,179.999995222092,0|0,0:0|0:0,0:0:0:0:
476,205,180965,2,0,P|423:190|382:218,1,89.9999976110462,0|2,1:0|0:0,0:0:0:0:
414,384,181280,1,0,0:0:0:0:
447,304,181437,1,0,1:0:0:0:
317,294,181594,2,0,L|362:290,6,44.9999988055231,0|0|2|0|0|0|0,0:0|0:0|0:0|0:0|1:0|0:0|0:0,0:0:0:0:
447,304,182222,5,0,1:0:0:0:
393,204,182379,1,2,0:0:0:0:
512,116,182536,1,0,0:0:0:0:
477,224,182693,1,0,0:0:0:0:
337,96,182850,6,0,L|406:99,1,44.9999988055231,0|0,1:0|0:0,0:0:0:0:
412,116,183007,2,0,B|434:92|434:92|418:15,1,89.9999976110462,0|0,0:0|0:0,0:0:0:0:
282,180,183321,1,2,0:0:0:0:
242,108,183478,5,0,0:0:0:0:
196,173,183636,2,0,B|184:229|184:229|206:253,1,89.9999976110462,0|2,1:0|0:0,0:0:0:0:
125,338,183950,1,0,0:0:0:0:
243,366,184107,6,0,L|369:356,1,89.9999976110462,12|0,0:0|0:0,0:0:0:0:
483,300,184421,1,0,0:0:0:0:
331,259,184578,1,0,0:0:0:0:
403,217,184735,2,0,B|416:250|416:250|400:319,1,89.9999976110462,0|2,1:0|0:0,0:0:0:0:
328,173,185049,2,0,B|315:140|315:140|331:71,1,89.9999976110462,0|2,0:0|0:0,0:0:0:0:
409,59,185363,5,0,0:0:0:0:
241,102,185520,1,0,1:0:0:0:
403,135,185677,5,2,0:0:0:0:
264,17,185835,1,0,1:0:0:0:
174,177,185992,2,0,P|129:199|83:194,1,89.9999976110462,0|2,0:0|0:0,0:0:0:0:
46,124,186306,6,0,L|42:78,1,44.9999988055231,0|0,0:0|0:0,0:0:0:0:
133,100,186463,1,0,0:0:0:0:
32,271,186620,6,0,L|115:278,1,44.9999988055231,0|0,1:0|0:0,0:0:0:0:
270,314,186777,2,0,B|172:330|172:330|225:346,1,134.999996416569,2|0,0:0|0:0,0:0:0:0:
195,352,187091,1,0,0:0:0:0:
355,267,187248,5,0,1:0:0:0:
349,364,187405,1,2,0:0:0:0:
460,248,187562,1,0,0:0:0:0:
318,183,187719,1,0,1:0:0:0:
467,257,187876,6,0,P|462:203|460:149,1,89.9999976110462,2|0,0:0|0:0,0:0:0:0:
308,80,188191,2,0,P|391:91|443:17,1,179.999995222092,0|0,0:0|1:0,0:0:0:0:
234,37,188662,2,0,P|181:45|117:49,1,89.9999976110462,2|0,0:0|0:0,0:0:0:0:
63,243,188976,6,0,P|39:199|52:152,1,89.9999976110462,0|0,0:0|0:0,0:0:0:0:
145,49,189290,1,0,1:0:0:0:
43,68,189447,5,2,0:0:0:0:
173,181,189604,1,0,0:0:0:0:
78,324,189761,2,0,P|130:312|169:309,1,89.9999976110462,0|8,1:0|0:0,0:0:0:0:
366,350,190075,6,0,P|379:329|361:287,1,44.9999988055231,2|0,0:0|0:0,0:0:0:0:
277,165,190232,1,0,1:0:0:0:
235,366,190389,6,0,P|265:361|290:353,1,44.9999988055231,0|0,0:0|0:0,0:0:0:0:
423,230,190547,2,0,P|417:163|369:225,1,179.999995222092,2|2,0:0|0:0,0:0:0:0:
378,309,191018,5,8,0:0:0:0:
399,312,191175,1,2,0:0:0:0:
363,216,191332,1,0,0:0:0:0:
258,291,191489,1,0,1:0:0:0:
123,208,191646,6,0,P|119:130|101:46,1,150.000000596047,6|0,0:0|0:0,0:0:0:0:
166,7,192117,1,0,0:0:0:0:
216,69,192274,2,0,P|299:55|393:42,1,150.000000596047,0|0,1:0|0:0,0:0:0:0:
449,14,192746,2,0,P|396:72|429:135,1,150.000000596047,2|0,0:0|0:0,0:0:0:0:
361,296,193217,1,0,1:0:0:0:
428,338,193531,6,0,P|442:292|416:245,1,75.0000002980235,2|2,0:0|0:0,0:0:0:0:
293,252,193845,2,0,P|279:298|305:345,1,75.0000002980235,0|0,1:0|0:0,0:0:0:0:
361,296,194159,2,0,P|347:212|346:136,1,150.000000596047,0|0,1:0|0:0,0:0:0:0:
259,166,194630,1,0,0:0:0:0:
286,75,194787,2,0,P|359:101|452:85,1,150.000000596047,2|0,0:0|0:0,0:0:0:0:
192,96,195259,6,0,P|87:176|19:174,1,202.499994624854,2|0,0:0|0:0,0:0:0:0:
21,174,196044,2,0,P|31:220|35:256,1,67.4999982082847,0|0,1:0|0:0,0:0:0:0:
106,368,196358,2,0,P|96:322|92:286,1,67.4999982082847,0|2,0:0|0:0,0:0:0:0:
129,224,196672,5,0,0:0:0:0:
129,224,196829,1,0,0:0:0:0:
199,268,196986,2,0,P|240:259|289:257,1,67.4999982082847,0|0,1:0|0:0,0:0:0:0:
355,277,197300,5,2,0:0:0:0:
323,189,197458,1,0,0:0:0:0:
415,205,197615,2,0,P|451:197|483:192,1,67.4999982082847,0|0,0:0|0:0,0:0:0:0:
492,102,197929,2,0,P|456:110|424:115,1,67.4999982082847,0|0,1:0|0:0,0:0:0:0:
346,72,198243,2,0,P|326:39|333:7,1,67.4999982082847,0|2,0:0|0:0,0:0:0:0:
275,126,198557,5,0,0:0:0:0:
275,126,198714,2,0,P|203:81|138:86,1,134.999996416569,0|0,1:0|0:0,0:0:0:0:
73,100,199185,6,0,P|59:66|60:29,1,67.4999982082847,6|0,0:0|0:0,0:0:0:0:
135,163,199499,1,2,0:0:0:0:
70,215,199657,1,0,0:0:0:0:
117,283,199814,2,0,P|191:272|263:273,1,134.999996416569,0|0,1:0|0:0,0:0:0:0:
337,238,200285,6,0,P|283:291|298:348,1,134.999996416569,0|0,0:0|1:0,0:0:0:0:
397,369,200756,2,0,P|392:335|359:306,1,67.4999982082847,2|0,0:0|1:0,0:0:0:0:
294,342,201070,6,0,P|211:351|148:360,1,134.999996416569,2|0,0:0|0:0,0:0:0:0:
159,358,201698,2,0,L|166:275,2,67.4999982082847,2|0|0,0:0|0:0|0:0,0:0:0:0:
91,248,202170,1,2,0:0:0:0:
159,186,202327,2,0,P|179:134|105:113,1,134.999996416569,0|0,1:0|0:0,0:0:0:0:
49,151,202798,5,0,1:0:0:0:
256,192,202876,12,10,206567,0:0:0:0:
