osu file format v14

[General]
AudioFilename: audio.mp3
AudioLeadIn: 0
PreviewTime: 85205
Countdown: 0
SampleSet: Soft
StackLeniency: 0.7
Mode: 3
LetterboxInBreaks: 0
SpecialStyle: 0
WidescreenStoryboard: 1

[Editor]
Bookmarks: 12640,23949,44053,64158,85519,105624,123059
DistanceSpacing: 0.6
BeatDivisor: 4
GridSize: 16
TimelineZoom: 3.099999

[Metadata]
Title:Dstorv
TitleUnicode:Dstorv
Artist:Feryquitous
ArtistUnicode:Feryquitous
Creator:xBomb72
Version:Apatite -:{5}:-
Source:G2R2014 "GO BACK 2 YOUR ROOTS"
Tags:Sennzai Electronic IDM Ambient Instrumental Techno Video Game Conlang Constructed Language Groundbreaking 2014 COMPILATION ALBUM Disc 4 Resolutions fake out THE BMS OF FIGHTERS 2004 RELOADED G2R
BeatmapID:4185025
BeatmapSetID:2011210

[Difficulty]
HPDrainRate:7.5
CircleSize:10
OverallDifficulty:7
ApproachRate:5
SliderMultiplier:1.4
SliderTickRate:1

[Events]
//Background and Video events
0,0,"BG.jpg",0,0
//Break Periods
//Storyboard Layer 0 (Background)
//Storyboard Layer 1 (Fail)
//Storyboard Layer 2 (Pass)
//Storyboard Layer 3 (Foreground)
//Storyboard Layer 4 (Overlay)
//Storyboard Sound Samples

[TimingPoints]
2588,314.13612565445,4,2,1,25,1,0
85519,-100,4,2,1,25,0,1
95572,-100,4,2,1,25,0,0
98085,-100,4,2,1,25,0,1
102954,-100,4,2,1,25,0,0

[HitObjects]
332,192,2745,5,0,0:0:0:0:
25,192,2902,1,0,0:0:0:0:
435,192,3216,1,0,0:0:0:0:
332,192,3373,1,0,0:0:0:0:
230,192,3530,1,0,0:0:0:0:
128,192,3687,1,0,0:0:0:0:
179,192,4001,1,0,0:0:0:0:
332,192,4158,1,0,0:0:0:0:
332,192,4472,1,0,0:0:0:0:
179,192,4629,1,0,0:0:0:0:
332,192,4944,1,0,0:0:0:0:
230,192,5258,1,0,0:0:0:0:
25,192,5415,1,0,0:0:0:0:
179,192,5729,1,0,0:0:0:0:
332,192,5886,1,0,0:0:0:0:
486,192,6043,1,0,0:0:0:0:
230,192,6200,1,0,0:0:0:0:
128,192,6514,1,0,0:0:0:0:
384,192,6671,1,0,0:0:0:0:
384,192,6985,1,0,0:0:0:0:
128,192,7142,1,0,0:0:0:0:
384,192,7457,1,0,0:0:0:0:
332,192,7771,1,0,0:0:0:0:
25,192,7928,1,0,0:0:0:0:
435,192,8242,1,0,0:0:0:0:
332,192,8399,1,0,0:0:0:0:
230,192,8556,1,0,0:0:0:0:
128,192,8713,1,0,0:0:0:0:
332,192,9027,1,0,0:0:0:0:
179,192,9184,1,0,0:0:0:0:
179,192,9498,1,0,0:0:0:0:
332,192,9656,1,0,0:0:0:0:
179,192,9970,1,0,0:0:0:0:
230,192,10284,1,0,0:0:0:0:
25,192,10441,1,0,0:0:0:0:
179,192,10755,1,0,0:0:0:0:
332,192,10912,1,0,0:0:0:0:
486,192,11069,1,0,0:0:0:0:
230,192,11226,1,0,0:0:0:0:
128,192,11540,1,0,0:0:0:0:
384,192,11697,1,0,0:0:0:0:
179,192,12012,1,0,0:0:0:0:
332,192,12169,1,0,0:0:0:0:
179,192,12326,1,0,0:0:0:0:
332,192,12483,1,0,0:0:0:0:
230,192,12640,1,0,0:0:0:0:
25,192,12640,1,0,0:0:0:0:
435,192,12640,1,0,0:0:0:0:
384,192,12797,1,0,0:0:0:0:
332,192,12954,1,0,0:0:0:0:
179,192,13268,1,0,0:0:0:0:
435,192,13425,1,0,0:0:0:0:
332,192,13582,1,0,0:0:0:0:
76,192,13739,1,0,0:0:0:0:
230,192,14053,1,0,0:0:0:0:
281,192,14053,1,0,0:0:0:0:
128,192,14211,1,0,0:0:0:0:
384,192,14211,1,0,0:0:0:0:
230,192,14368,1,0,0:0:0:0:
281,192,14368,1,0,0:0:0:0:
486,192,14525,1,0,0:0:0:0:
332,192,14682,1,0,0:0:0:0:
179,192,14839,1,0,0:0:0:0:
25,192,14839,1,0,0:0:0:0:
332,192,14996,1,0,0:0:0:0:
486,192,14996,1,0,0:0:0:0:
128,192,15310,1,0,0:0:0:0:
384,192,15310,1,0,0:0:0:0:
281,192,15467,1,0,0:0:0:0:
332,192,15781,1,0,0:0:0:0:
76,192,15938,1,0,0:0:0:0:
179,192,16095,1,0,0:0:0:0:
435,192,16252,1,0,0:0:0:0:
128,192,16567,1,0,0:0:0:0:
384,192,16567,1,0,0:0:0:0:
230,192,16724,1,0,0:0:0:0:
281,192,16724,1,0,0:0:0:0:
128,192,16881,1,0,0:0:0:0:
384,192,16881,1,0,0:0:0:0:
179,192,17038,1,0,0:0:0:0:
25,192,17195,1,0,0:0:0:0:
486,192,17352,1,0,0:0:0:0:
332,192,17352,1,0,0:0:0:0:
179,192,17509,1,0,0:0:0:0:
25,192,17509,1,0,0:0:0:0:
384,192,17666,1,0,0:0:0:0:
281,192,17666,1,0,0:0:0:0:
179,192,17823,1,0,0:0:0:0:
76,192,17980,1,0,0:0:0:0:
384,192,18294,1,0,0:0:0:0:
128,192,18451,1,0,0:0:0:0:
230,192,18608,1,0,0:0:0:0:
486,192,18766,1,0,0:0:0:0:
25,192,19080,1,0,0:0:0:0:
332,192,19080,1,0,0:0:0:0:
179,192,19237,1,0,0:0:0:0:
486,192,19237,1,0,0:0:0:0:
332,192,19394,1,0,0:0:0:0:
25,192,19394,1,0,0:0:0:0:
384,192,19551,1,0,0:0:0:0:
128,192,19708,1,0,0:0:0:0:
435,192,19865,1,0,0:0:0:0:
332,192,19865,1,0,0:0:0:0:
76,192,20022,1,0,0:0:0:0:
179,192,20022,1,0,0:0:0:0:
281,192,20336,1,0,0:0:0:0:
486,192,20336,1,0,0:0:0:0:
179,192,20493,1,0,0:0:0:0:
281,192,20807,1,0,0:0:0:0:
25,192,20964,1,0,0:0:0:0:
128,192,21122,1,0,0:0:0:0:
384,192,21279,1,0,0:0:0:0:
486,192,21593,1,0,0:0:0:0:
179,192,21593,1,0,0:0:0:0:
332,192,21750,1,0,0:0:0:0:
25,192,21750,1,0,0:0:0:0:
486,192,21907,1,0,0:0:0:0:
179,192,21907,1,0,0:0:0:0:
332,192,22064,1,0,0:0:0:0:
179,192,22221,1,0,0:0:0:0:
281,192,22378,1,0,0:0:0:0:
384,192,22378,1,0,0:0:0:0:
230,192,22535,1,0,0:0:0:0:
128,192,22535,1,0,0:0:0:0:
332,192,22692,128,0,23792:0:0:0:0:
25,192,23949,128,0,24263:0:0:0:0:
179,192,23949,128,0,24263:0:0:0:0:
486,192,23949,1,0,0:0:0:0:
384,192,24106,1,0,0:0:0:0:
281,192,24263,1,0,0:0:0:0:
332,192,24577,1,0,0:0:0:0:
435,192,24734,1,0,0:0:0:0:
76,192,24891,1,0,0:0:0:0:
179,192,25048,1,0,0:0:0:0:
281,192,25362,1,0,0:0:0:0:
486,192,25519,1,0,0:0:0:0:
179,192,25834,1,0,0:0:0:0:
25,192,25991,1,0,0:0:0:0:
384,192,26305,1,0,0:0:0:0:
332,192,26619,128,0,27090:0:0:0:0:
486,192,26619,128,0,27090:0:0:0:0:
128,192,26619,1,0,0:0:0:0:
76,192,26776,1,0,0:0:0:0:
179,192,27090,1,0,0:0:0:0:
332,192,27247,1,0,0:0:0:0:
486,192,27404,1,0,0:0:0:0:
179,192,27561,1,0,0:0:0:0:
25,192,27875,1,0,0:0:0:0:
230,192,28033,1,0,0:0:0:0:
486,192,28347,1,0,0:0:0:0:
281,192,28504,1,0,0:0:0:0:
128,192,28661,1,0,0:0:0:0:
332,192,28739,1,0,0:0:0:0:
179,192,28818,1,0,0:0:0:0:
384,192,28896,1,0,0:0:0:0:
230,192,28975,128,0,29289:0:0:0:0:
25,192,28975,128,0,29289:0:0:0:0:
435,192,29132,1,0,0:0:0:0:
332,192,29289,1,0,0:0:0:0:
435,192,29603,1,0,0:0:0:0:
281,192,29760,1,0,0:0:0:0:
230,192,29917,1,0,0:0:0:0:
76,192,30074,1,0,0:0:0:0:
332,192,30389,1,0,0:0:0:0:
486,192,30546,1,0,0:0:0:0:
179,192,30860,1,0,0:0:0:0:
25,192,31017,1,0,0:0:0:0:
384,192,31331,1,0,0:0:0:0:
281,192,31645,128,0,32116:0:0:0:0:
486,192,31645,128,0,32116:0:0:0:0:
179,192,31645,1,0,0:0:0:0:
25,192,31802,1,0,0:0:0:0:
179,192,32116,1,0,0:0:0:0:
332,192,32273,1,0,0:0:0:0:
486,192,32430,1,0,0:0:0:0:
179,192,32587,1,0,0:0:0:0:
25,192,32902,1,0,0:0:0:0:
332,192,33059,1,0,0:0:0:0:
435,192,33373,1,0,0:0:0:0:
76,192,33530,1,0,0:0:0:0:
435,192,33687,1,0,0:0:0:0:
76,192,33844,1,0,0:0:0:0:
486,192,34001,1,0,0:0:0:0:
281,192,34001,1,0,0:0:0:0:
179,192,34001,1,0,0:0:0:0:
384,192,34158,1,0,0:0:0:0:
128,192,34315,1,0,0:0:0:0:
332,192,34629,1,0,0:0:0:0:
435,192,34786,1,0,0:0:0:0:
179,192,34944,1,0,0:0:0:0:
76,192,35101,1,0,0:0:0:0:
179,192,35415,1,0,0:0:0:0:
486,192,35572,1,0,0:0:0:0:
486,192,35886,1,0,0:0:0:0:
179,192,36043,1,0,0:0:0:0:
486,192,36357,1,0,0:0:0:0:
76,192,36671,128,0,37142:0:0:0:0:
128,192,36671,128,0,37142:0:0:0:0:
435,192,36671,1,0,0:0:0:0:
332,192,36828,1,0,0:0:0:0:
281,192,37142,1,0,0:0:0:0:
25,192,37300,1,0,0:0:0:0:
486,192,37457,1,0,0:0:0:0:
230,192,37614,1,0,0:0:0:0:
179,192,37928,1,0,0:0:0:0:
435,192,38085,1,0,0:0:0:0:
435,192,38399,1,0,0:0:0:0:
179,192,38556,1,0,0:0:0:0:
281,192,38713,1,0,0:0:0:0:
128,192,38792,1,0,0:0:0:0:
332,192,38870,1,0,0:0:0:0:
179,192,38949,1,0,0:0:0:0:
384,192,39027,128,0,39341:0:0:0:0:
435,192,39027,128,0,39341:0:0:0:0:
230,192,39184,1,0,0:0:0:0:
76,192,39341,1,0,0:0:0:0:
179,192,39656,1,0,0:0:0:0:
486,192,39813,1,0,0:0:0:0:
76,192,39970,1,0,0:0:0:0:
281,192,40127,1,0,0:0:0:0:
179,192,40441,1,0,0:0:0:0:
384,192,40598,1,0,0:0:0:0:
384,192,40912,1,0,0:0:0:0:
179,192,41069,1,0,0:0:0:0:
384,192,41383,1,0,0:0:0:0:
25,192,41697,128,0,42169:0:0:0:0:
76,192,41697,128,0,42169:0:0:0:0:
486,192,41697,1,0,0:0:0:0:
281,192,41855,1,0,0:0:0:0:
332,192,42169,1,0,0:0:0:0:
230,192,42326,1,0,0:0:0:0:
435,192,42483,1,0,0:0:0:0:
25,192,42640,1,0,0:0:0:0:
384,192,42954,1,0,0:0:0:0:
128,192,43111,1,0,0:0:0:0:
128,192,43425,1,0,0:0:0:0:
384,192,43582,1,0,0:0:0:0:
25,192,43739,1,0,0:0:0:0:
179,192,43818,1,0,0:0:0:0:
332,192,43896,1,0,0:0:0:0:
486,192,43975,1,0,0:0:0:0:
76,192,44053,1,0,0:0:0:0:
128,192,44053,1,0,0:0:0:0:
230,192,44053,1,0,0:0:0:0:
25,192,44368,1,0,0:0:0:0:
128,192,44525,1,0,0:0:0:0:
332,192,44525,1,0,0:0:0:0:
179,192,44839,1,0,0:0:0:0:
486,192,45153,1,0,0:0:0:0:
76,192,45153,1,0,0:0:0:0:
179,192,45467,1,0,0:0:0:0:
76,192,45781,1,0,0:0:0:0:
281,192,45781,1,0,0:0:0:0:
179,192,46095,1,0,0:0:0:0:
76,192,46409,1,0,0:0:0:0:
128,192,46567,1,0,0:0:0:0:
435,192,46567,1,0,0:0:0:0:
25,192,46881,1,0,0:0:0:0:
128,192,47038,1,0,0:0:0:0:
332,192,47038,1,0,0:0:0:0:
179,192,47352,1,0,0:0:0:0:
76,192,47666,1,0,0:0:0:0:
384,192,47666,1,0,0:0:0:0:
128,192,47980,1,0,0:0:0:0:
179,192,48294,1,0,0:0:0:0:
230,192,48608,1,0,0:0:0:0:
128,192,49080,1,0,0:0:0:0:
435,192,49080,1,0,0:0:0:0:
25,192,49394,1,0,0:0:0:0:
128,192,49551,1,0,0:0:0:0:
332,192,49551,1,0,0:0:0:0:
128,192,49865,1,0,0:0:0:0:
486,192,50179,1,0,0:0:0:0:
179,192,50179,1,0,0:0:0:0:
76,192,50493,1,0,0:0:0:0:
179,192,50807,1,0,0:0:0:0:
281,192,50807,1,0,0:0:0:0:
25,192,51122,1,0,0:0:0:0:
76,192,51279,1,0,0:0:0:0:
128,192,51436,1,0,0:0:0:0:
435,192,51593,1,0,0:0:0:0:
179,192,51593,1,0,0:0:0:0:
76,192,51907,1,0,0:0:0:0:
179,192,52064,1,0,0:0:0:0:
332,192,52064,1,0,0:0:0:0:
25,192,52378,1,0,0:0:0:0:
128,192,52692,1,0,0:0:0:0:
384,192,52692,1,0,0:0:0:0:
76,192,53006,1,0,0:0:0:0:
435,192,53163,1,0,0:0:0:0:
384,192,53242,1,0,0:0:0:0:
179,192,53320,1,0,0:0:0:0:
332,192,53320,1,0,0:0:0:0:
435,192,53478,1,0,0:0:0:0:
384,192,53556,1,0,0:0:0:0:
230,192,53635,1,0,0:0:0:0:
332,192,53635,1,0,0:0:0:0:
25,192,53792,128,0,54106:0:0:0:0:
435,192,54106,1,0,0:0:0:0:
179,192,54106,1,0,0:0:0:0:
486,192,54106,1,0,0:0:0:0:
281,192,54420,1,0,0:0:0:0:
384,192,54577,1,0,0:0:0:0:
76,192,54577,1,0,0:0:0:0:
435,192,54891,1,0,0:0:0:0:
332,192,55205,1,0,0:0:0:0:
230,192,55205,1,0,0:0:0:0:
435,192,55519,1,0,0:0:0:0:
332,192,55834,1,0,0:0:0:0:
25,192,55834,1,0,0:0:0:0:
435,192,56148,1,0,0:0:0:0:
332,192,56462,1,0,0:0:0:0:
384,192,56619,1,0,0:0:0:0:
179,192,56619,1,0,0:0:0:0:
281,192,56933,1,0,0:0:0:0:
384,192,57090,1,0,0:0:0:0:
76,192,57090,1,0,0:0:0:0:
486,192,57404,1,0,0:0:0:0:
332,192,57718,1,0,0:0:0:0:
128,192,57718,1,0,0:0:0:0:
384,192,58033,1,0,0:0:0:0:
76,192,58190,1,0,0:0:0:0:
128,192,58268,1,0,0:0:0:0:
435,192,58347,1,0,0:0:0:0:
179,192,58347,1,0,0:0:0:0:
76,192,58504,1,0,0:0:0:0:
128,192,58582,1,0,0:0:0:0:
486,192,58661,1,0,0:0:0:0:
179,192,58661,1,0,0:0:0:0:
281,192,58818,128,0,59132:0:0:0:0:
435,192,59132,1,0,0:0:0:0:
179,192,59132,1,0,0:0:0:0:
281,192,59446,1,0,0:0:0:0:
384,192,59603,1,0,0:0:0:0:
76,192,59603,1,0,0:0:0:0:
332,192,59917,1,0,0:0:0:0:
435,192,60231,1,0,0:0:0:0:
230,192,60231,1,0,0:0:0:0:
332,192,60546,1,0,0:0:0:0:
486,192,60860,1,0,0:0:0:0:
25,192,60860,1,0,0:0:0:0:
281,192,61174,1,0,0:0:0:0:
332,192,61331,1,0,0:0:0:0:
384,192,61488,1,0,0:0:0:0:
435,192,61645,1,0,0:0:0:0:
179,192,61645,1,0,0:0:0:0:
281,192,61959,1,0,0:0:0:0:
384,192,62116,1,0,0:0:0:0:
76,192,62116,1,0,0:0:0:0:
435,192,62430,1,0,0:0:0:0:
486,192,62745,1,0,0:0:0:0:
128,192,62745,128,0,63373:0:0:0:0:
332,192,63059,1,0,0:0:0:0:
384,192,63373,1,0,0:0:0:0:
128,192,63687,1,0,0:0:0:0:
384,192,63844,1,0,0:0:0:0:
128,192,63923,1,0,0:0:0:0:
384,192,64001,1,0,0:0:0:0:
128,192,64080,1,0,0:0:0:0:
281,192,64158,1,0,0:0:0:0:
486,192,64158,1,0,0:0:0:0:
435,192,64158,1,0,0:0:0:0:
25,192,64315,1,0,0:0:0:0:
179,192,64472,1,0,0:0:0:0:
332,192,64472,1,0,0:0:0:0:
486,192,64629,1,0,0:0:0:0:
128,192,64786,1,0,0:0:0:0:
435,192,64944,1,0,0:0:0:0:
128,192,65101,1,0,0:0:0:0:
332,192,65258,128,0,65572:0:0:0:0:
486,192,65258,1,0,0:0:0:0:
25,192,65572,1,0,0:0:0:0:
128,192,65729,1,0,0:0:0:0:
384,192,65729,1,0,0:0:0:0:
332,192,65964,1,0,0:0:0:0:
435,192,65964,1,0,0:0:0:0:
76,192,66043,1,0,0:0:0:0:
179,192,66043,1,0,0:0:0:0:
384,192,66200,1,0,0:0:0:0:
281,192,66357,1,0,0:0:0:0:
179,192,66514,1,0,0:0:0:0:
435,192,66671,1,0,0:0:0:0:
384,192,66828,1,0,0:0:0:0:
332,192,66985,1,0,0:0:0:0:
179,192,66985,1,0,0:0:0:0:
128,192,67142,1,0,0:0:0:0:
76,192,67300,1,0,0:0:0:0:
384,192,67457,1,0,0:0:0:0:
76,192,67614,1,0,0:0:0:0:
281,192,67771,128,0,68085:0:0:0:0:
435,192,67771,1,0,0:0:0:0:
25,192,68085,1,0,0:0:0:0:
128,192,68242,1,0,0:0:0:0:
384,192,68242,1,0,0:0:0:0:
332,192,68478,1,0,0:0:0:0:
486,192,68478,1,0,0:0:0:0:
179,192,68556,1,0,0:0:0:0:
25,192,68556,1,0,0:0:0:0:
384,192,68713,1,0,0:0:0:0:
128,192,68870,1,0,0:0:0:0:
384,192,69027,1,0,0:0:0:0:
332,192,69184,1,0,0:0:0:0:
486,192,69341,1,0,0:0:0:0:
76,192,69498,1,0,0:0:0:0:
128,192,69498,1,0,0:0:0:0:
486,192,69656,1,0,0:0:0:0:
332,192,69813,1,0,0:0:0:0:
486,192,69970,1,0,0:0:0:0:
332,192,70127,1,0,0:0:0:0:
179,192,70284,128,0,70598:0:0:0:0:
25,192,70284,1,0,0:0:0:0:
332,192,70598,1,0,0:0:0:0:
435,192,70755,1,0,0:0:0:0:
76,192,70755,1,0,0:0:0:0:
179,192,70991,1,0,0:0:0:0:
128,192,70991,1,0,0:0:0:0:
332,192,71069,1,0,0:0:0:0:
384,192,71069,1,0,0:0:0:0:
230,192,71226,1,0,0:0:0:0:
25,192,71383,1,0,0:0:0:0:
486,192,71383,1,0,0:0:0:0:
281,192,71540,1,0,0:0:0:0:
76,192,71697,1,0,0:0:0:0:
128,192,71855,1,0,0:0:0:0:
179,192,72012,1,0,0:0:0:0:
332,192,72012,1,0,0:0:0:0:
384,192,72169,1,0,0:0:0:0:
435,192,72326,1,0,0:0:0:0:
76,192,72483,1,0,0:0:0:0:
435,192,72640,1,0,0:0:0:0:
230,192,72797,128,0,72954:0:0:0:0:
25,192,72797,128,0,72954:0:0:0:0:
281,192,73111,128,0,73268:0:0:0:0:
486,192,73111,128,0,73268:0:0:0:0:
25,192,73425,128,0,73582:0:0:0:0:
230,192,73425,128,0,73582:0:0:0:0:
332,192,73582,1,0,0:0:0:0:
384,192,73739,1,0,0:0:0:0:
435,192,73896,1,0,0:0:0:0:
76,192,73896,128,0,74211:0:0:0:0:
179,192,73896,128,0,74211:0:0:0:0:
486,192,74053,1,0,0:0:0:0:
332,192,74211,1,0,0:0:0:0:
281,192,74211,1,0,0:0:0:0:
384,192,74368,1,0,0:0:0:0:
76,192,74525,1,0,0:0:0:0:
435,192,74525,1,0,0:0:0:0:
128,192,74603,1,0,0:0:0:0:
179,192,74682,1,0,0:0:0:0:
128,192,74839,1,0,0:0:0:0:
486,192,74839,1,0,0:0:0:0:
179,192,74917,1,0,0:0:0:0:
230,192,74996,1,0,0:0:0:0:
435,192,74996,1,0,0:0:0:0:
384,192,75153,1,0,0:0:0:0:
179,192,75310,128,0,75624:0:0:0:0:
128,192,75310,128,0,75624:0:0:0:0:
332,192,75310,1,0,0:0:0:0:
281,192,75624,1,0,0:0:0:0:
435,192,75781,1,0,0:0:0:0:
76,192,75781,1,0,0:0:0:0:
230,192,76017,1,0,0:0:0:0:
25,192,76017,1,0,0:0:0:0:
281,192,76095,1,0,0:0:0:0:
486,192,76095,1,0,0:0:0:0:
128,192,76252,1,0,0:0:0:0:
179,192,76409,1,0,0:0:0:0:
332,192,76409,1,0,0:0:0:0:
384,192,76567,1,0,0:0:0:0:
128,192,76724,1,0,0:0:0:0:
230,192,76881,1,0,0:0:0:0:
332,192,77038,1,0,0:0:0:0:
76,192,77038,1,0,0:0:0:0:
435,192,77195,1,0,0:0:0:0:
179,192,77352,1,0,0:0:0:0:
384,192,77509,1,0,0:0:0:0:
128,192,77666,1,0,0:0:0:0:
281,192,77823,128,0,78137:0:0:0:0:
486,192,77823,128,0,78137:0:0:0:0:
76,192,78137,1,0,0:0:0:0:
179,192,78294,1,0,0:0:0:0:
332,192,78294,1,0,0:0:0:0:
76,192,78530,1,0,0:0:0:0:
25,192,78530,1,0,0:0:0:0:
435,192,78608,1,0,0:0:0:0:
486,192,78608,1,0,0:0:0:0:
179,192,78766,1,0,0:0:0:0:
128,192,78923,1,0,0:0:0:0:
384,192,78923,1,0,0:0:0:0:
332,192,79080,1,0,0:0:0:0:
25,192,79237,1,0,0:0:0:0:
76,192,79394,1,0,0:0:0:0:
128,192,79551,1,0,0:0:0:0:
435,192,79551,1,0,0:0:0:0:
384,192,79629,1,0,0:0:0:0:
332,192,79708,1,0,0:0:0:0:
179,192,79865,1,0,0:0:0:0:
384,192,79865,1,0,0:0:0:0:
332,192,79944,1,0,0:0:0:0:
128,192,80022,1,0,0:0:0:0:
281,192,80022,1,0,0:0:0:0:
76,192,80179,1,0,0:0:0:0:
25,192,80336,1,0,0:0:0:0:
384,192,80336,128,0,80650:0:0:0:0:
332,192,80336,128,0,80650:0:0:0:0:
179,192,80650,1,0,0:0:0:0:
25,192,80807,1,0,0:0:0:0:
486,192,80807,1,0,0:0:0:0:
281,192,81043,1,0,0:0:0:0:
384,192,81043,1,0,0:0:0:0:
230,192,81122,1,0,0:0:0:0:
128,192,81122,1,0,0:0:0:0:
332,192,81279,1,0,0:0:0:0:
179,192,81436,1,0,0:0:0:0:
25,192,81436,1,0,0:0:0:0:
332,192,81593,1,0,0:0:0:0:
76,192,81750,1,0,0:0:0:0:
179,192,81907,1,0,0:0:0:0:
384,192,82064,1,0,0:0:0:0:
435,192,82064,1,0,0:0:0:0:
179,192,82221,1,0,0:0:0:0:
76,192,82378,1,0,0:0:0:0:
179,192,82535,1,0,0:0:0:0:
25,192,82692,1,0,0:0:0:0:
332,192,82849,128,0,83163:0:0:0:0:
486,192,82849,128,0,83163:0:0:0:0:
76,192,83163,1,0,0:0:0:0:
128,192,83320,1,0,0:0:0:0:
384,192,83320,1,0,0:0:0:0:
332,192,83556,1,0,0:0:0:0:
435,192,83556,1,0,0:0:0:0:
179,192,83635,1,0,0:0:0:0:
76,192,83635,1,0,0:0:0:0:
486,192,83792,1,0,0:0:0:0:
384,192,83949,1,0,0:0:0:0:
128,192,83949,1,0,0:0:0:0:
25,192,84106,1,0,0:0:0:0:
332,192,84263,128,0,85205:0:0:0:0:
76,192,85205,1,0,0:0:0:0:
179,192,85284,1,0,0:0:0:0:
332,192,85362,1,0,0:0:0:0:
435,192,85441,1,0,0:0:0:0:
25,192,85519,1,0,0:0:0:0:
76,192,85519,1,0,0:0:0:0:
230,192,85519,1,0,0:0:0:0:
486,192,85834,1,0,0:0:0:0:
332,192,85834,1,0,0:0:0:0:
179,192,85991,1,0,0:0:0:0:
25,192,85991,1,0,0:0:0:0:
384,192,86148,1,0,0:0:0:0:
128,192,86305,1,0,0:0:0:0:
76,192,86305,1,0,0:0:0:0:
384,192,86462,1,0,0:0:0:0:
25,192,86619,1,0,0:0:0:0:
179,192,86619,1,0,0:0:0:0:
435,192,86933,1,0,0:0:0:0:
332,192,87090,1,0,0:0:0:0:
128,192,87090,1,0,0:0:0:0:
486,192,87247,1,0,0:0:0:0:
332,192,87404,1,0,0:0:0:0:
76,192,87561,1,0,0:0:0:0:
179,192,87718,1,0,0:0:0:0:
384,192,87718,1,0,0:0:0:0:
25,192,87875,1,0,0:0:0:0:
179,192,88033,128,0,88347:0:0:0:0:
332,192,88033,128,0,88347:0:0:0:0:
230,192,88504,1,0,0:0:0:0:
128,192,88504,1,0,0:0:0:0:
435,192,88661,1,0,0:0:0:0:
230,192,88818,1,0,0:0:0:0:
128,192,88818,1,0,0:0:0:0:
76,192,89132,1,0,0:0:0:0:
179,192,89132,1,0,0:0:0:0:
384,192,89289,1,0,0:0:0:0:
179,192,89446,1,0,0:0:0:0:
76,192,89446,1,0,0:0:0:0:
25,192,89760,1,0,0:0:0:0:
128,192,89760,1,0,0:0:0:0:
332,192,89917,1,0,0:0:0:0:
128,192,90074,1,0,0:0:0:0:
25,192,90074,1,0,0:0:0:0:
179,192,90389,1,0,0:0:0:0:
332,192,90546,1,0,0:0:0:0:
486,192,90860,1,0,0:0:0:0:
435,192,90860,1,0,0:0:0:0:
76,192,91017,1,0,0:0:0:0:
25,192,91017,1,0,0:0:0:0:
384,192,91174,1,0,0:0:0:0:
179,192,91331,1,0,0:0:0:0:
230,192,91331,1,0,0:0:0:0:
384,192,91488,1,0,0:0:0:0:
25,192,91645,1,0,0:0:0:0:
76,192,91645,1,0,0:0:0:0:
332,192,91959,1,0,0:0:0:0:
486,192,92116,1,0,0:0:0:0:
128,192,92116,1,0,0:0:0:0:
332,192,92273,1,0,0:0:0:0:
435,192,92430,1,0,0:0:0:0:
179,192,92587,1,0,0:0:0:0:
25,192,92745,1,0,0:0:0:0:
384,192,92745,1,0,0:0:0:0:
179,192,92902,1,0,0:0:0:0:
435,192,93059,128,0,93373:0:0:0:0:
76,192,93059,128,0,93373:0:0:0:0:
281,192,93530,1,0,0:0:0:0:
384,192,93530,1,0,0:0:0:0:
76,192,93687,1,0,0:0:0:0:
281,192,93844,1,0,0:0:0:0:
384,192,93844,1,0,0:0:0:0:
332,192,94158,1,0,0:0:0:0:
435,192,94158,1,0,0:0:0:0:
128,192,94315,1,0,0:0:0:0:
332,192,94472,1,0,0:0:0:0:
435,192,94472,1,0,0:0:0:0:
384,192,94786,1,0,0:0:0:0:
486,192,94786,1,0,0:0:0:0:
179,192,94944,1,0,0:0:0:0:
384,192,95101,1,0,0:0:0:0:
486,192,95101,1,0,0:0:0:0:
332,192,95415,1,0,0:0:0:0:
128,192,95415,1,0,0:0:0:0:
179,192,95572,128,0,96357:0:0:0:0:
281,192,95572,1,0,0:0:0:0:
435,192,95572,1,0,0:0:0:0:
486,192,95886,1,0,0:0:0:0:
435,192,96043,1,0,0:0:0:0:
384,192,96357,1,0,0:0:0:0:
76,192,96671,128,0,97142:0:0:0:0:
332,192,96671,1,0,0:0:0:0:
230,192,97300,128,0,97614:0:0:0:0:
332,192,97300,1,0,0:0:0:0:
435,192,97614,1,0,0:0:0:0:
384,192,97692,1,0,0:0:0:0:
332,192,97771,1,0,0:0:0:0:
76,192,97849,1,0,0:0:0:0:
128,192,97928,1,0,0:0:0:0:
179,192,98006,1,0,0:0:0:0:
281,192,98085,128,0,98399:0:0:0:0:
486,192,98085,128,0,98399:0:0:0:0:
230,192,98085,1,0,0:0:0:0:
179,192,98556,1,0,0:0:0:0:
76,192,98556,1,0,0:0:0:0:
332,192,98713,1,0,0:0:0:0:
76,192,98870,1,0,0:0:0:0:
179,192,98870,1,0,0:0:0:0:
25,192,99184,1,0,0:0:0:0:
230,192,99184,1,0,0:0:0:0:
384,192,99341,1,0,0:0:0:0:
230,192,99498,1,0,0:0:0:0:
25,192,99498,1,0,0:0:0:0:
76,192,99813,1,0,0:0:0:0:
179,192,99813,1,0,0:0:0:0:
435,192,99970,1,0,0:0:0:0:
179,192,100127,1,0,0:0:0:0:
76,192,100127,1,0,0:0:0:0:
128,192,100441,1,0,0:0:0:0:
384,192,100441,1,0,0:0:0:0:
332,192,100598,1,0,0:0:0:0:
25,192,100912,1,0,0:0:0:0:
179,192,100912,1,0,0:0:0:0:
486,192,101069,1,0,0:0:0:0:
281,192,101069,1,0,0:0:0:0:
128,192,101226,1,0,0:0:0:0:
332,192,101383,1,0,0:0:0:0:
384,192,101383,1,0,0:0:0:0:
128,192,101540,1,0,0:0:0:0:
281,192,101697,1,0,0:0:0:0:
486,192,101697,1,0,0:0:0:0:
179,192,102012,1,0,0:0:0:0:
25,192,102169,1,0,0:0:0:0:
486,192,102169,1,0,0:0:0:0:
332,192,102326,1,0,0:0:0:0:
179,192,102483,1,0,0:0:0:0:
384,192,102640,1,0,0:0:0:0:
179,192,102797,1,0,0:0:0:0:
76,192,102954,128,0,105153:0:0:0:0:
332,192,102954,128,0,105153:0:0:0:0:
486,192,102954,1,0,0:0:0:0:
486,192,105310,1,0,0:0:0:0:
332,192,105389,1,0,0:0:0:0:
179,192,105467,1,0,0:0:0:0:
25,192,105546,1,0,0:0:0:0:
384,192,105624,1,0,0:0:0:0:
435,192,105624,1,0,0:0:0:0:
486,192,105624,1,0,0:0:0:0:
76,192,105938,1,0,0:0:0:0:
128,192,105938,1,0,0:0:0:0:
384,192,106095,1,0,0:0:0:0:
435,192,106095,1,0,0:0:0:0:
179,192,106252,1,0,0:0:0:0:
384,192,106409,1,0,0:0:0:0:
435,192,106409,1,0,0:0:0:0:
179,192,106567,1,0,0:0:0:0:
486,192,106724,1,0,0:0:0:0:
332,192,106724,1,0,0:0:0:0:
128,192,106881,1,0,0:0:0:0:
435,192,107038,1,0,0:0:0:0:
128,192,107195,1,0,0:0:0:0:
486,192,107509,1,0,0:0:0:0:
281,192,107509,1,0,0:0:0:0:
230,192,107823,1,0,0:0:0:0:
128,192,107980,1,0,0:0:0:0:
25,192,108137,1,0,0:0:0:0:
332,192,108137,1,0,0:0:0:0:
25,192,108608,1,0,0:0:0:0:
281,192,108608,1,0,0:0:0:0:
179,192,108766,1,0,0:0:0:0:
76,192,108923,1,0,0:0:0:0:
332,192,108923,1,0,0:0:0:0:
128,192,109237,1,0,0:0:0:0:
384,192,109237,1,0,0:0:0:0:
281,192,109394,1,0,0:0:0:0:
179,192,109551,1,0,0:0:0:0:
435,192,109551,1,0,0:0:0:0:
486,192,109865,1,0,0:0:0:0:
230,192,109865,1,0,0:0:0:0:
230,192,110179,1,0,0:0:0:0:
486,192,110179,1,0,0:0:0:0:
25,192,110336,1,0,0:0:0:0:
179,192,110493,1,0,0:0:0:0:
332,192,110650,1,0,0:0:0:0:
486,192,110964,1,0,0:0:0:0:
435,192,110964,1,0,0:0:0:0:
25,192,111122,1,0,0:0:0:0:
179,192,111122,1,0,0:0:0:0:
332,192,111279,1,0,0:0:0:0:
76,192,111436,1,0,0:0:0:0:
230,192,111436,1,0,0:0:0:0:
384,192,111593,1,0,0:0:0:0:
25,192,111750,1,0,0:0:0:0:
179,192,111750,1,0,0:0:0:0:
435,192,111907,1,0,0:0:0:0:
128,192,112064,1,0,0:0:0:0:
435,192,112221,1,0,0:0:0:0:
230,192,112535,1,0,0:0:0:0:
25,192,112535,1,0,0:0:0:0:
281,192,112849,1,0,0:0:0:0:
384,192,113006,1,0,0:0:0:0:
486,192,113163,1,0,0:0:0:0:
179,192,113163,1,0,0:0:0:0:
230,192,113635,1,0,0:0:0:0:
486,192,113635,1,0,0:0:0:0:
332,192,113792,1,0,0:0:0:0:
435,192,113949,1,0,0:0:0:0:
179,192,113949,1,0,0:0:0:0:
128,192,114263,1,0,0:0:0:0:
384,192,114263,1,0,0:0:0:0:
230,192,114420,1,0,0:0:0:0:
332,192,114577,1,0,0:0:0:0:
76,192,114577,1,0,0:0:0:0:
25,192,114891,1,0,0:0:0:0:
281,192,114891,1,0,0:0:0:0:
281,192,115205,1,0,0:0:0:0:
25,192,115205,1,0,0:0:0:0:
486,192,115362,1,0,0:0:0:0:
332,192,115519,1,0,0:0:0:0:
25,192,115677,1,0,0:0:0:0:
486,192,115677,128,0,116462:0:0:0:0:
179,192,115677,1,0,0:0:0:0:
230,192,115991,1,0,0:0:0:0:
179,192,116148,1,0,0:0:0:0:
128,192,116462,1,0,0:0:0:0:
332,192,116776,128,0,117247:0:0:0:0:
76,192,116776,1,0,0:0:0:0:
435,192,117404,128,0,117718:0:0:0:0:
76,192,117404,1,0,0:0:0:0:
384,192,118033,128,0,118504:0:0:0:0:
179,192,118190,1,0,0:0:0:0:
76,192,118190,1,0,0:0:0:0:
128,192,118190,1,0,0:0:0:0:
281,192,118661,1,0,0:0:0:0:
486,192,118661,1,0,0:0:0:0:
179,192,118818,1,0,0:0:0:0:
281,192,118975,1,0,0:0:0:0:
486,192,118975,1,0,0:0:0:0:
332,192,119289,1,0,0:0:0:0:
435,192,119289,1,0,0:0:0:0:
128,192,119446,1,0,0:0:0:0:
435,192,119603,1,0,0:0:0:0:
332,192,119603,1,0,0:0:0:0:
281,192,119917,1,0,0:0:0:0:
486,192,119917,1,0,0:0:0:0:
76,192,120074,1,0,0:0:0:0:
281,192,120231,1,0,0:0:0:0:
486,192,120231,1,0,0:0:0:0:
128,192,120389,1,0,0:0:0:0:
384,192,120546,1,0,0:0:0:0:
25,192,121017,1,0,0:0:0:0:
76,192,121017,1,0,0:0:0:0:
332,192,121174,1,0,0:0:0:0:
486,192,121174,1,0,0:0:0:0:
179,192,121331,1,0,0:0:0:0:
435,192,121488,1,0,0:0:0:0:
281,192,121488,1,0,0:0:0:0:
128,192,121645,1,0,0:0:0:0:
332,192,121802,1,0,0:0:0:0:
486,192,121802,1,0,0:0:0:0:
179,192,121959,1,0,0:0:0:0:
384,192,122116,1,0,0:0:0:0:
179,192,122273,1,0,0:0:0:0:
486,192,122587,1,0,0:0:0:0:
281,192,122587,1,0,0:0:0:0:
76,192,122745,1,0,0:0:0:0:
179,192,122902,1,0,0:0:0:0:
332,192,123059,128,0,125258:0:0:0:0:
435,192,123059,128,0,125258:0:0:0:0:
