osu file format v14

[General]
AudioFilename: audio.mp3
AudioLeadIn: 0
PreviewTime: 115883
Countdown: 0
SampleSet: Normal
StackLeniency: 0.7
Mode: 1
LetterboxInBreaks: 0
WidescreenStoryboard: 0

[Editor]
DistanceSpacing: 0.5
BeatDivisor: 6
GridSize: 32
TimelineZoom: 3.699998

[Metadata]
Title:Dstorv
TitleUnicode:Dstorv
Artist:Feryquitous
ArtistUnicode:Feryquitous
Creator:D3kuu
Version:Efflorescence
Source:
Tags:BMS fake out groundbreaking G2R2014 g2r 2014 sennzai
BeatmapID:2155117
BeatmapSetID:1030563

[Difficulty]
HPDrainRate:4
CircleSize:5
OverallDifficulty:7
ApproachRate:5
SliderMultiplier:1.2
SliderTickRate:1

[Events]
//Background and Video events
0,0,"BGDstorvW.jpg",0,0
//Break Periods
//Storyboard Layer 0 (Background)
//Storyboard Layer 1 (Fail)
//Storyboard Layer 2 (Pass)
//Storyboard Layer 3 (Foreground)
//Storyboard Layer 4 (Overlay)
//Storyboard Sound Samples

[TimingPoints]
2794,314.13612565445,4,1,0,60,1,0
2794,-117.647058823529,4,1,0,60,0,0
20542,-117.647058823529,4,1,0,60,0,0
20699,-117.647058823529,4,1,0,60,0,0
21013,-114.942528735632,4,1,0,60,0,0
21170,-111.111111111111,4,1,0,60,0,0
21328,-108.695652173913,4,1,0,60,0,0
21485,-105.263157894737,4,1,0,60,0,0
21642,-102.040816326531,4,1,0,60,0,0
21720,-101.010101010101,4,1,0,60,0,0
21799,-100,4,1,0,60,0,0
21877,-99.009900990099,4,1,0,60,0,0
21956,-98.0392156862745,4,1,0,60,0,0
22034,-97.0873786407767,4,1,0,60,0,0
22113,-96.1538461538461,4,1,0,60,0,0
22270,-93.4579439252336,4,1,0,60,0,0
22427,-91.743119266055,4,1,0,60,0,0
22584,-90.0900900900901,4,1,0,60,0,0
22663,-89.2857142857143,4,1,0,60,0,0
22741,-88.4955752212389,4,1,0,60,0,0
22820,-87.719298245614,4,1,0,60,0,0
22898,-86.9565217391304,4,1,0,60,0,0
32558,-87.719298245614,4,1,0,60,0,0
32636,-88.4955752212389,4,1,0,60,0,0
32715,-89.2857142857143,4,1,0,60,0,0
32793,-90.0900900900901,4,1,0,60,0,0
32951,-91.743119266055,4,1,0,60,0,0
33029,-92.5925925925926,4,1,0,60,0,0
33108,-93.4579439252336,4,1,0,60,0,0
33186,-94.3396226415094,4,1,0,60,0,0
33265,-95.2380952380952,4,1,0,60,0,0
33343,-96.1538461538461,4,1,0,60,0,0
33422,-97.0873786407767,4,1,0,60,0,0
33474,-98.0392156862745,4,1,0,60,0,0
33526,-99.009900990099,4,1,0,60,0,0
33579,-100,4,1,0,60,0,0
34102,-99.009900990099,4,1,0,60,0,0
34155,-98.0392156862745,4,1,0,60,0,0
34207,-97.0873786407767,4,1,0,60,0,0
34364,-88.4955752212389,4,1,0,60,0,0
34443,-87.719298245614,4,1,0,60,0,0
34521,-86.9565217391304,4,1,0,60,0,0
44102,-89.2857142857143,4,1,0,60,0,0
44155,-88.4955752212389,4,1,0,60,0,0
44207,-87.719298245614,4,1,0,60,0,0
44259,-86.9565217391304,4,1,0,60,0,0
53998,-76.9230769230769,4,1,0,60,0,0
54050,-77.5193798449612,4,1,0,60,0,0
54102,-78.125,4,1,0,60,0,0
54155,-78.7401574803149,4,1,0,60,0,0
54207,-79.3650793650794,4,1,0,60,0,0
54259,-80,4,1,0,60,0,0
54312,-80.6451612903226,4,1,0,60,0,0
54469,-86.9565217391304,4,1,0,60,0,0
64207,-89.2857142857143,4,1,0,60,0,0
64259,-88.4955752212389,4,1,0,60,0,0
64312,-87.719298245614,4,1,0,60,0,0
64364,-86.9565217391304,4,1,0,60,0,0
73788,-85.4700854700855,4,1,0,60,0,0
73945,-86.9565217391304,4,1,0,60,0,0
74102,-87.719298245614,4,1,0,35,0,0
74155,-88.4955752212389,4,1,0,35,0,0
74207,-89.2857142857143,4,1,0,35,0,0
74259,-90.0900900900901,4,1,0,35,0,0
74312,-90.9090909090909,4,1,0,35,0,0
74364,-91.743119266055,4,1,0,35,0,0
74417,-92.5925925925926,4,1,0,35,0,0
74731,-90.9090909090909,4,1,0,35,0,0
83605,-90.0900900900901,4,1,0,60,0,0
83684,-89.2857142857143,4,1,0,60,0,0
83762,-88.4955752212389,4,1,0,60,0,0
83841,-87.719298245614,4,1,0,60,0,0
83919,-86.9565217391304,4,1,0,60,0,0
83998,-86.2068965517241,4,1,0,60,0,0
84076,-85.4700854700855,4,1,0,60,0,0
84155,-84.7457627118644,4,1,0,60,0,0
84312,-90.9090909090909,4,1,0,60,0,0
88474,-90.0900900900901,4,1,0,60,0,0
88553,-89.2857142857143,4,1,0,60,0,0
88631,-88.4955752212389,4,1,0,60,0,0
88710,-87.719298245614,4,1,0,60,0,0
88788,-86.9565217391304,4,1,0,60,0,0
88867,-86.2068965517241,4,1,0,60,0,0
88945,-85.4700854700855,4,1,0,60,0,0
89024,-84.7457627118644,4,1,0,60,0,0
89102,-84.0336134453781,4,1,0,60,0,0
89181,-83.3333333333333,4,1,0,60,0,0
89338,-90.9090909090909,4,1,0,60,0,0
94050,-95.2380952380952,4,1,0,60,0,0
94207,-93.4579439252336,4,1,0,60,0,0
94286,-92.5925925925926,4,1,0,60,0,0
94364,-91.743119266055,4,1,0,60,0,0
94443,-90.9090909090909,4,1,0,60,0,0
94521,-90.0900900900901,4,1,0,60,0,0
94678,-88.4955752212389,4,1,0,60,0,0
94757,-87.719298245614,4,1,0,60,0,0
94835,-86.9565217391304,4,1,0,60,0,0
95673,-86.2068965517241,4,1,0,60,0,0
95725,-85.4700854700855,4,1,0,60,0,0
95778,-84.7457627118644,4,1,0,60,0,0
95830,-84.0336134453781,4,1,0,60,0,0
95883,-83.3333333333333,4,1,0,60,0,0
95935,-82.6446280991736,4,1,0,60,0,0
96092,-86.9565217391304,4,1,0,60,0,0
98186,-86.2068965517241,4,1,0,60,0,0
98239,-85.4700854700855,4,1,0,60,0,0
98291,-84.7457627118644,4,1,0,60,0,0
98343,-84.0336134453781,4,1,0,60,0,0
98396,-83.3333333333333,4,1,0,60,0,0
98448,-82.6446280991736,4,1,0,60,0,0
98605,-86.9565217391304,4,1,0,60,0,0
100699,-86.2068965517241,4,1,0,60,0,0
100752,-85.4700854700855,4,1,0,60,0,0
100804,-84.7457627118644,4,1,0,60,0,0
100856,-84.0336134453781,4,1,0,60,0,0
100909,-83.3333333333333,4,1,0,60,0,0
100961,-82.6446280991736,4,1,0,60,0,0
101118,-86.9565217391304,4,1,0,60,0,0
103160,-90.9090909090909,4,1,0,60,0,0
103212,-91.743119266055,4,1,0,60,0,0
103265,-92.5925925925926,4,1,0,60,0,0
103317,-93.4579439252336,4,1,0,60,0,0
103474,-90.9090909090909,4,1,0,60,0,0
103526,-91.743119266055,4,1,0,60,0,0
103579,-92.5925925925926,4,1,0,60,0,0
103631,-93.4579439252336,4,1,0,60,0,0
103788,-90.9090909090909,4,1,0,60,0,0
103841,-91.743119266055,4,1,0,60,0,0
103893,-92.5925925925926,4,1,0,60,0,0
103945,-93.4579439252336,4,1,0,60,0,0
104102,-91.743119266055,4,1,0,60,0,0
104259,-90.0900900900901,4,1,0,60,0,0
104417,-88.4955752212389,4,1,0,60,0,0
104495,-87.719298245614,4,1,0,60,0,0
104574,-86.9565217391304,4,1,0,60,0,0
104966,-86.2068965517241,4,1,0,60,0,0
105045,-85.4700854700855,4,1,0,60,0,0
105123,-84.7457627118644,4,1,0,60,0,0
105202,-84.0336134453781,4,1,0,60,0,0
105280,-83.3333333333333,4,1,0,60,0,0
105359,-82.6446280991736,4,1,0,60,0,0
105437,-81.9672131147541,4,1,0,60,0,0
105516,-81.3008130081301,4,1,0,60,0,0
105673,-83.3333333333333,4,1,0,60,0,0
105830,-84.7457627118644,4,1,0,60,0,0
105883,-85.4700854700855,4,1,0,60,0,0
105935,-86.2068965517241,4,1,0,60,0,0
105987,-86.9565217391304,4,1,0,60,0,0
109992,-86.2068965517241,4,1,0,60,0,0
110071,-85.4700854700855,4,1,0,60,0,0
110150,-84.7457627118644,4,1,0,60,0,0
110228,-84.0336134453781,4,1,0,60,0,0
110307,-83.3333333333333,4,1,0,60,0,0
110385,-82.6446280991736,4,1,0,60,0,0
110464,-81.9672131147541,4,1,0,60,0,0
110542,-81.3008130081301,4,1,0,60,0,0
110699,-83.3333333333333,4,1,0,60,0,0
110856,-84.7457627118644,4,1,0,60,0,0
110909,-85.4700854700855,4,1,0,60,0,0
110961,-86.2068965517241,4,1,0,60,0,0
111013,-86.9565217391304,4,1,0,60,0,0
114626,-66.6666666666667,4,1,0,30,0,0
115568,-80,4,1,0,35,0,0
115621,-80.6451612903226,4,1,0,35,0,0
115673,-81.3008130081301,4,1,0,35,0,0
115725,-81.9672131147541,4,1,0,35,0,0
115778,-82.6446280991736,4,1,0,35,0,1
115830,-83.3333333333333,4,1,0,35,0,1
115883,-84.0336134453781,4,1,0,35,0,1
116197,-85.4700854700855,4,1,0,60,0,1
116354,-86.9565217391304,4,1,0,60,0,1
125935,-86.9565217391304,4,1,0,60,0,0
126249,-90.9090909090909,4,1,0,60,0,0
126406,-92.5925925925926,4,1,0,60,0,0
126720,-96.1538461538461,4,1,0,60,0,0
127034,-100,4,1,0,60,0,0
127663,-109.89010989011,4,1,0,60,0,0
128055,-108.695652173913,4,1,0,60,0,0
128134,-107.52688172043,4,1,0,60,0,0
128212,-106.382978723404,4,1,0,60,0,0
128291,-105.263157894737,4,1,0,60,0,0
128369,-104.166666666667,4,1,0,60,0,0
128448,-103.092783505155,4,1,0,60,0,1
128605,-101.010101010101,4,1,0,60,0,1
128684,-100,4,1,0,60,0,1
128762,-99.009900990099,4,1,0,60,0,1
128919,-97.0873786407767,4,1,0,60,0,1
128998,-96.1538461538461,4,1,0,60,0,1
129076,-95.2380952380952,4,1,0,60,0,1
129233,-93.4579439252336,4,1,0,60,0,1
129390,-91.743119266055,4,1,0,60,0,1
129547,-90.0900900900901,4,1,0,60,0,1
129626,-89.2857142857143,4,1,0,60,0,1
129704,-88.4955752212389,4,1,0,60,0,1
129862,-86.9565217391304,4,1,0,60,0,1
132689,-87.719298245614,4,1,0,60,0,1
132741,-88.4955752212389,4,1,0,60,0,1
132793,-89.2857142857143,4,1,0,60,0,1
132846,-90.0900900900901,4,1,0,60,0,1
133003,-91.743119266055,4,1,0,60,0,1
133160,-95.2380952380952,4,1,0,60,0,1
133317,-96.1538461538461,4,1,0,60,0,0
134102,-133.333333333333,4,1,0,30,0,0
135359,-133.333333333333,4,1,0,60,0,0
135437,-125,4,1,0,60,0,0
135516,-117.647058823529,4,1,0,60,0,0
135595,-111.111111111111,4,1,0,60,0,0
135673,-105.263157894737,4,1,0,60,0,0
135752,-100,4,1,0,60,0,0
135830,-95.2380952380952,4,1,0,60,0,0
135909,-90.9090909090909,4,1,0,60,0,0
135987,-86.9565217391304,4,1,0,60,0,0
145411,-71.4285714285714,4,1,0,60,0,0
145568,-74.0740740740741,4,1,0,60,0,0
145725,-76.9230769230769,4,1,0,60,0,0
145883,-80,4,1,0,60,0,0
146040,-83.3333333333333,4,1,0,60,0,0
146197,-86.9565217391304,4,1,0,60,0,0
154600,-87.719298245614,4,1,0,60,0,0
154678,-88.4955752212389,4,1,0,60,0,0
154757,-89.2857142857143,4,1,0,60,0,0
154992,-91.743119266055,4,1,0,60,0,0
155150,-93.4579439252336,4,1,0,60,0,0
155464,-86.9565217391304,4,1,0,60,0,0
155699,-83.3333333333333,4,1,0,60,0,0
156092,-76.9230769230769,4,1,0,60,0,0
156406,-86.9565217391304,4,1,0,60,0,0
160176,-66.6666666666667,4,1,0,60,0,0
160333,-68.9655172413793,4,1,0,60,0,0
160490,-71.4285714285714,4,1,0,60,0,0
160647,-74.0740740740741,4,1,0,60,0,0
160804,-76.9230769230769,4,1,0,60,0,0
160961,-80,4,1,0,60,0,0
161118,-83.3333333333333,4,1,0,60,0,0
161275,-86.9565217391304,4,1,0,60,0,0
165202,-66.6666666666667,4,1,0,60,0,0
165359,-68.9655172413793,4,1,0,60,0,0
165516,-71.4285714285714,4,1,0,60,0,0
165673,-74.0740740740741,4,1,0,60,0,0
165830,-76.9230769230769,4,1,0,60,0,0
165987,-80,4,1,0,60,0,0
166144,-83.3333333333333,4,1,0,60,0,0
166301,-86.9565217391304,4,1,0,60,0,0
170228,-66.6666666666667,4,1,0,60,0,0
170385,-68.9655172413793,4,1,0,60,0,0
170542,-71.4285714285714,4,1,0,60,0,0
170699,-74.0740740740741,4,1,0,60,0,0
170856,-76.9230769230769,4,1,0,60,0,0
171013,-80,4,1,0,60,0,0
171170,-83.3333333333333,4,1,0,60,0,0
174233,-82.6446280991736,4,1,0,60,0,0
174312,-81.9672131147541,4,1,0,60,0,0
174390,-81.3008130081301,4,1,0,60,0,0
174469,-80.6451612903226,4,1,0,60,0,0
174547,-80,4,1,0,60,0,0
174626,-79.3650793650794,4,1,0,60,0,0
174704,-78.7401574803149,4,1,0,60,0,0
174783,-78.125,4,1,0,60,0,0
174862,-77.5193798449612,4,1,0,60,0,0
174940,-76.9230769230769,4,1,0,60,0,0
175568,-86.9565217391304,4,1,0,60,0,0
175647,-86.2068965517241,4,1,0,60,0,0
175804,-84.7457627118644,4,1,0,60,0,0
175883,-84.0336134453781,4,1,0,60,0,0
175961,-83.3333333333333,4,1,0,60,0,0
176040,-82.6446280991736,4,1,0,60,0,0
176197,-81.3008130081301,4,1,0,60,0,0
176354,-83.3333333333333,4,1,0,60,0,0
176746,-82.6446280991736,4,1,0,60,0,0
176825,-81.9672131147541,4,1,0,60,0,0
176903,-81.3008130081301,4,1,0,60,0,0
176982,-80.6451612903226,4,1,0,60,0,0
177061,-80,4,1,0,60,0,0
177139,-79.3650793650794,4,1,0,60,0,0
177218,-78.7401574803149,4,1,0,60,0,0
177296,-78.125,4,1,0,60,0,0
177348,-77.5193798449612,4,1,0,60,0,0
177401,-76.9230769230769,4,1,0,60,0,0
177453,-76.3358778625954,4,1,0,60,0,0
177924,-76.9230769230769,4,1,0,60,0,0
178003,-76.3358778625954,4,1,0,60,0,0
178081,-75.7575757575758,4,1,0,60,0,0
178134,-75.187969924812,4,1,0,60,0,0
178186,-74.6268656716418,4,1,0,60,0,0
178239,-74.0740740740741,4,1,0,60,0,0
178291,-73.5294117647059,4,1,0,60,0,0
178343,-72.992700729927,4,1,0,60,0,0
178396,-72.463768115942,4,1,0,60,0,0
178553,-78.7401574803149,4,1,0,60,0,0
178710,-80,4,1,0,60,0,0
178867,-81.3008130081301,4,1,0,60,0,0
178945,-81.9672131147541,4,1,0,60,0,0
179024,-82.6446280991736,4,1,0,60,0,0
179181,-83.3333333333333,4,1,0,60,0,0
181615,-82.6446280991736,4,1,0,60,0,0
181694,-81.9672131147541,4,1,0,60,0,0
181773,-81.3008130081301,4,1,0,60,0,0
181851,-80.6451612903226,4,1,0,60,0,0
181930,-80,4,1,0,60,0,0
182008,-79.3650793650794,4,1,0,60,0,0
182087,-78.7401574803149,4,1,0,60,0,0
182165,-78.125,4,1,0,60,0,0
182244,-77.5193798449612,4,1,0,60,0,0
182322,-76.9230769230769,4,1,0,60,0,0
182401,-76.3358778625954,4,1,0,60,0,0
182479,-75.7575757575758,4,1,0,60,0,0
182532,-75.187969924812,4,1,0,60,0,0
182584,-74.6268656716418,4,1,0,60,0,0
182636,-74.0740740740741,4,1,0,60,0,0
183108,-74.0740740740741,4,1,0,60,0,0
183160,-73.5294117647059,4,1,0,60,0,0
183212,-72.992700729927,4,1,0,60,0,0
183265,-72.463768115942,4,1,0,60,0,0
183317,-71.9424460431655,4,1,0,60,0,0
183369,-71.4285714285714,4,1,0,60,0,0
183422,-70.9219858156028,4,1,0,60,0,0
183474,-70.4225352112676,4,1,0,60,0,0
183526,-69.9300699300699,4,1,0,60,0,0
183579,-69.4444444444444,4,1,0,60,0,0
183736,-76.9230769230769,4,1,0,60,0,0
183893,-80,4,1,0,60,0,0
183972,-80.6451612903226,4,1,0,60,0,0
184050,-81.3008130081301,4,1,0,60,0,0
184259,-81.9672131147541,4,1,0,60,0,0
184312,-82.6446280991736,4,1,0,60,0,0
184364,-83.3333333333333,4,1,0,60,0,0
184521,-86.9565217391304,4,1,0,60,0,0
184678,-90.9090909090909,4,1,0,60,0,0
184888,-91.743119266055,4,1,0,60,0,0
184940,-92.5925925925926,4,1,0,60,0,0
184992,-93.4579439252336,4,1,0,60,0,0
185150,-90.9090909090909,4,1,0,60,0,0
185202,-91.743119266055,4,1,0,60,0,0
185254,-92.5925925925926,4,1,0,60,0,0
185307,-93.4579439252336,4,1,0,60,0,0
185464,-90.9090909090909,4,1,0,60,0,0
185516,-90.0900900900901,4,1,0,60,0,0
185568,-89.2857142857143,4,1,0,60,0,0
185621,-88.4955752212389,4,1,0,60,0,0
185699,-87.719298245614,4,1,0,60,0,0
185778,-86.9565217391304,4,1,0,60,0,0
185856,-86.2068965517241,4,1,0,60,0,0
185935,-85.4700854700855,4,1,0,60,0,0
186092,-84.7457627118644,4,1,0,60,0,0
186170,-84.0336134453781,4,1,0,60,0,0
186249,-83.3333333333333,4,1,0,60,0,0
186642,-82.6446280991736,4,1,0,60,0,0
186720,-81.9672131147541,4,1,0,60,0,0
186799,-81.3008130081301,4,1,0,60,0,0
186877,-80.6451612903226,4,1,0,60,0,0
186956,-80,4,1,0,60,0,0
187034,-79.3650793650794,4,1,0,60,0,0
187113,-78.7401574803149,4,1,0,60,0,0
187191,-78.125,4,1,0,60,0,0
187270,-77.5193798449612,4,1,0,60,0,0
187348,-76.9230769230769,4,1,0,60,0,0
187506,-81.3008130081301,4,1,0,60,0,0
187558,-81.9672131147541,4,1,0,60,0,0
187610,-82.6446280991736,4,1,0,60,0,0
187663,-83.3333333333333,4,1,0,60,0,0
191668,-82.6446280991736,4,1,0,60,0,0
191746,-81.9672131147541,4,1,0,60,0,0
191825,-81.3008130081301,4,1,0,60,0,0
191903,-80.6451612903226,4,1,0,60,0,0
191982,-80,4,1,0,60,0,0
192061,-79.3650793650794,4,1,0,60,0,0
192139,-78.7401574803149,4,1,0,60,0,0
192218,-78.125,4,1,0,60,0,0
192296,-77.5193798449612,4,1,0,60,0,0
192375,-76.9230769230769,4,1,0,60,0,0
192453,-76.3358778625954,4,1,0,60,0,0
192532,-75.7575757575758,4,1,0,60,0,0
192584,-75.187969924812,4,1,0,60,0,0
192636,-74.6268656716418,4,1,0,60,0,0
192689,-74.0740740740741,4,1,0,60,0,0
192898,-74.6268656716418,4,1,0,60,0,0
192951,-75.187969924812,4,1,0,60,0,0
193003,-75.7575757575758,4,1,0,60,0,0
193160,-74.0740740740741,4,1,0,60,0,0
193212,-74.6268656716418,4,1,0,60,0,0
193265,-75.187969924812,4,1,0,60,0,0
193317,-75.7575757575758,4,1,0,60,0,0
193369,-76.3358778625954,4,1,0,60,0,0
193422,-76.9230769230769,4,1,0,60,0,0
193474,-77.5193798449612,4,1,0,60,0,0
193631,-78.7401574803149,4,1,0,60,0,0
193788,-80,4,1,0,60,0,0
193867,-80.6451612903226,4,1,0,60,0,0
193945,-81.3008130081301,4,1,0,60,0,0
194102,-83.3333333333333,4,1,0,60,0,0
196301,-66.6666666666667,4,1,0,30,0,0
197558,-100,4,1,0,60,0,0
206982,-98.0392156862745,4,1,0,60,0,0
207139,-96.1538461538461,4,1,0,60,0,0
207296,-94.3396226415094,4,1,0,60,0,0
207453,-92.5925925925926,4,1,0,60,0,0
207610,-90.9090909090909,4,1,0,60,0,0
215150,-66.6666666666667,4,1,0,30,0,0
215307,-100,4,1,0,60,0,0
228029,-98.0392156862745,4,1,0,60,0,0
228186,-96.1538461538461,4,1,0,60,0,0
228343,-94.3396226415094,4,1,0,60,0,0
228422,-93.4579439252336,4,1,0,60,0,0
228500,-92.5925925925926,4,1,0,60,0,0
228579,-91.743119266055,4,1,0,60,0,0
228657,-90.9090909090909,4,1,0,60,0,0
252218,-92.5925925925926,4,1,0,60,0,0
252375,-94.3396226415094,4,1,0,60,0,0
252453,-95.2380952380952,4,1,0,60,0,0
252532,-96.1538461538461,4,1,0,60,0,0
252610,-97.0873786407767,4,1,0,60,0,0
252689,-98.0392156862745,4,1,0,60,0,0
252767,-99.009900990099,4,1,0,60,0,0
252846,-100,4,1,0,60,0,0
252924,-66.6666666666667,4,1,0,30,0,0
253002,-100,4,1,0,30,0,0
257872,-111.111111111111,4,1,0,60,0,0
258500,-102.040816326531,4,1,0,60,0,0
258579,-101.010101010101,4,1,0,60,0,0
258657,-100,4,1,0,60,0,0
258736,-99.009900990099,4,1,0,60,0,0
258814,-98.0392156862745,4,1,0,60,0,0
258893,-97.0873786407767,4,1,0,60,0,0
258972,-96.1538461538461,4,1,0,60,0,0
259050,-95.2380952380952,4,1,0,60,0,0
259129,-94.3396226415094,4,1,0,60,0,0
259207,-93.4579439252336,4,1,0,60,0,0
259286,-92.5925925925926,4,1,0,60,0,0
259364,-91.743119266055,4,1,0,60,0,0
259443,-90.9090909090909,4,1,0,60,0,0
259521,-90.0900900900901,4,1,0,60,0,0
259600,-89.2857142857143,4,1,0,60,0,0
259678,-88.4955752212389,4,1,0,60,0,0
259757,-87.719298245614,4,1,0,60,0,0
259835,-86.9565217391304,4,1,0,60,0,0
259914,-86.2068965517241,4,1,0,60,0,0
259992,-85.4700854700855,4,1,0,60,0,0
260071,-84.7457627118644,4,1,0,60,0,0
260149,-84.0336134453781,4,1,0,60,0,0
260228,-83.3333333333333,4,1,0,60,0,0
270673,-82.6446280991736,4,1,0,60,0,0
270751,-81.9672131147541,4,1,0,60,0,0
270830,-81.3008130081301,4,1,0,60,0,0
270908,-80.6451612903226,4,1,0,60,0,0
270987,-80,4,1,0,60,0,0
271065,-79.3650793650794,4,1,0,60,0,0
271144,-78.7401574803149,4,1,0,60,0,0
271222,-78.125,4,1,0,60,0,0
271379,-83.3333333333333,4,1,0,60,0,0
275699,-82.6446280991736,4,1,0,60,0,0
275777,-81.9672131147541,4,1,0,60,0,0
275856,-81.3008130081301,4,1,0,60,0,0
275934,-80.6451612903226,4,1,0,60,0,0
276013,-80,4,1,0,60,0,0
276091,-79.3650793650794,4,1,0,60,0,0
276170,-78.7401574803149,4,1,0,60,0,0
276248,-78.125,4,1,0,60,0,0
276406,-83.3333333333333,4,1,0,60,0,0
280489,-66.6666666666667,4,1,0,30,0,0
281432,-76.9230769230769,4,1,0,35,0,0
281484,-77.5193798449612,4,1,0,35,0,0
281536,-78.125,4,1,0,35,0,0
281589,-78.7401574803149,4,1,0,35,0,0
281641,-79.3650793650794,4,1,0,35,0,0
281693,-80,4,1,0,35,0,0
281746,314.13612565445,4,1,0,35,1,0
281746,-80.6451612903226,4,1,0,35,0,1
282060,-81.9672131147541,4,1,0,60,0,1
282217,-83.3333333333333,4,1,0,60,0,1
291798,-83.3333333333333,4,1,0,60,0,0
292112,-86.9565217391304,4,1,0,60,0,0
292269,-88.4955752212389,4,1,0,60,0,0
292583,-91.743119266055,4,1,0,60,0,0
292897,-95.2380952380952,4,1,0,60,0,0
293526,-109.89010989011,4,1,0,60,0,0
293918,-108.695652173913,4,1,0,60,0,0
293997,-107.52688172043,4,1,0,60,0,0
294075,-106.382978723404,4,1,0,60,0,0
294154,-105.263157894737,4,1,0,60,0,0
294232,-104.166666666667,4,1,0,60,0,0
294311,-103.092783505155,4,1,0,60,0,1
294468,-101.010101010101,4,1,0,60,0,1
294547,-100,4,1,0,60,0,1
294625,-99.009900990099,4,1,0,60,0,1
294782,-97.0873786407767,4,1,0,60,0,1
294861,-96.1538461538461,4,1,0,60,0,1
294939,-95.2380952380952,4,1,0,60,0,1
295096,-93.4579439252336,4,1,0,60,0,1
295253,-91.743119266055,4,1,0,60,0,1
295410,-90.0900900900901,4,1,0,60,0,1
295489,-89.2857142857143,4,1,0,60,0,1
295567,-88.4955752212389,4,1,0,60,0,1
295725,-86.9565217391304,4,1,0,60,0,1
298552,-87.719298245614,4,1,0,60,0,1
298604,-88.4955752212389,4,1,0,60,0,1
298656,-89.2857142857143,4,1,0,60,0,1
298709,-90.0900900900901,4,1,0,60,0,1
299180,-100,4,1,0,60,0,0
299337,-90.9090909090909,4,1,0,30,0,0
302321,-76.9230769230769,4,1,0,35,0,0
302374,-77.5193798449612,4,1,0,35,0,0
302426,-78.125,4,1,0,35,0,0
302478,-78.7401574803149,4,1,0,35,0,0
302531,-79.3650793650794,4,1,0,35,0,0
302583,-80,4,1,0,35,0,0
302636,314.13612565445,4,1,0,35,1,0
302636,-79.3650793650794,4,1,0,35,0,1
302793,-80.6451612903226,4,1,0,60,0,1
302950,-81.9672131147541,4,1,0,60,0,1
303107,-83.3333333333333,4,1,0,60,0,1
313002,-86.2068965517241,4,1,0,60,0,1
313159,-87.719298245614,4,1,0,60,0,1
313473,-90.9090909090909,4,1,0,60,0,1
313787,-94.3396226415094,4,1,0,60,0,1
314416,-102.040816326531,4,1,0,60,0,1
315044,-94.3396226415094,4,1,0,60,0,1
315201,-92.5925925925926,4,1,0,60,0,1
315515,-89.2857142857143,4,1,0,60,0,1
315672,-87.719298245614,4,1,0,60,0,1
315986,-84.7457627118644,4,1,0,60,0,1
316143,-83.3333333333333,4,1,0,60,0,1
316929,-76.9230769230769,4,1,0,60,0,1
316981,-77.5193798449612,4,1,0,60,0,1
317033,-78.125,4,1,0,60,0,1
317086,-78.7401574803149,4,1,0,60,0,1
317243,-83.3333333333333,4,1,0,60,0,1
317400,-76.9230769230769,4,1,0,60,0,1
317452,-77.5193798449612,4,1,0,60,0,1
317505,-78.125,4,1,0,60,0,1
317557,-78.7401574803149,4,1,0,60,0,1
317609,-79.3650793650794,4,1,0,60,0,1
317662,-80,4,1,0,60,0,1
317714,-80.6451612903226,4,1,0,60,0,0
318028,-83.3333333333333,4,1,0,60,0,1
320070,-83.3333333333333,4,1,0,60,0,0
320227,-66.6666666666667,4,1,0,30,0,0

[HitObjects]
402,168,2951,5,8,0:0:0:0:
419,165,3108,1,0,0:0:0:0:
463,150,3422,1,8,0:0:0:0:
463,150,3579,1,8,0:0:0:0:
461,144,3736,1,0,0:0:0:0:
457,147,3893,1,8,0:0:0:0:
463,129,4207,1,0,0:0:0:0:
463,129,4364,1,8,0:0:0:0:
398,133,4678,1,8,0:0:0:0:
398,133,4835,1,8,0:0:0:0:
485,155,5150,1,8,0:0:0:0:
394,162,5464,1,8,0:0:0:0:
341,143,5621,1,0,0:0:0:0:
406,151,5935,1,8,0:0:0:0:
406,151,6092,1,8,0:0:0:0:
386,264,6249,1,8,0:0:0:0:
325,208,6406,1,0,0:0:0:0:
452,151,6720,1,8,0:0:0:0:
352,162,6877,1,8,0:0:0:0:
376,239,7191,5,0,0:0:0:0:
392,183,7348,1,8,0:0:0:0:
394,99,7663,1,8,0:0:0:0:
323,152,7977,5,8,0:0:0:0:
386,162,8134,1,0,0:0:0:0:
209,88,8448,1,8,0:0:0:0:
209,88,8605,1,8,0:0:0:0:
305,238,8762,1,0,0:0:0:0:
365,171,8919,1,0,0:0:0:0:
419,164,9233,1,0,0:0:0:0:
419,164,9390,1,8,0:0:0:0:
417,149,9704,1,8,0:0:0:0:
416,149,9862,1,8,0:0:0:0:
497,173,10176,1,8,0:0:0:0:
451,124,10490,1,8,0:0:0:0:
450,143,10647,1,0,0:0:0:0:
457,155,10961,1,8,0:0:0:0:
457,155,11118,1,0,0:0:0:0:
384,148,11275,1,8,0:0:0:0:
384,148,11432,1,8,0:0:0:0:
470,143,11746,1,8,0:0:0:0:
369,383,11903,1,0,0:0:0:0:
442,169,12218,1,0,0:0:0:0:
397,164,12375,1,8,0:0:0:0:
294,202,12689,1,8,0:0:0:0:
475,124,13003,1,8,0:0:0:0:
423,151,13160,1,0,0:0:0:0:
251,158,13474,1,8,0:0:0:0:
321,142,13631,1,8,0:0:0:0:
321,142,13788,1,0,0:0:0:0:
350,152,13945,1,8,0:0:0:0:
370,215,14259,1,0,0:0:0:0:
281,160,14417,1,8,0:0:0:0:
396,197,14731,1,8,0:0:0:0:
396,197,14888,1,8,0:0:0:0:
369,168,15202,1,8,0:0:0:0:
365,151,15516,1,8,0:0:0:0:
397,155,15673,1,0,0:0:0:0:
409,132,15987,1,8,0:0:0:0:
405,133,16144,1,8,0:0:0:0:
403,133,16301,1,8,0:0:0:0:
401,133,16458,1,0,0:0:0:0:
439,148,16773,1,0,0:0:0:0:
336,158,16930,1,8,0:0:0:0:
319,158,17244,1,8,0:0:0:0:
319,158,17401,1,8,0:0:0:0:
328,276,17715,1,8,0:0:0:0:
400,222,18029,1,8,0:0:0:0:
434,184,18186,1,0,0:0:0:0:
460,120,18500,1,8,0:0:0:0:
465,161,18657,1,8,0:0:0:0:
455,152,18814,1,0,0:0:0:0:
412,164,18972,1,0,0:0:0:0:
445,182,19286,1,0,0:0:0:0:
408,156,19443,1,8,0:0:0:0:
423,151,19757,1,8,0:0:0:0:
423,151,19914,1,8,0:0:0:0:
423,151,20228,1,8,0:0:0:0:
368,197,20542,1,8,0:0:0:0:
378,166,20699,1,0,0:0:0:0:
389,180,21013,1,8,0:0:0:0:
417,160,21170,1,0,0:0:0:0:
417,160,21328,1,8,0:0:0:0:
356,157,21485,1,8,0:0:0:0:
379,134,21642,1,0,0:0:0:0:
217,53,21720,1,0,0:0:0:0:
203,160,21799,1,8,0:0:0:0:
203,160,21877,1,8,0:0:0:0:
373,90,21956,1,8,0:0:0:0:
373,90,22034,1,0,0:0:0:0:
373,90,22113,1,8,0:0:0:0:
373,90,22270,1,0,0:0:0:0:
488,147,22427,1,8,0:0:0:0:
252,65,22584,1,8,0:0:0:0:
252,65,22663,1,8,0:0:0:0:
252,65,22741,1,8,0:0:0:0:
252,65,22820,1,8,0:0:0:0:
478,127,22898,1,4,0:0:0:0:
277,152,23055,1,0,0:0:0:0:
353,140,23212,1,0,0:0:0:0:
353,140,23369,1,8,0:0:0:0:
319,151,23422,1,8,0:0:0:0:
319,151,23474,1,8,0:0:0:0:
392,162,23526,1,0,0:0:0:0:
423,91,23684,5,8,0:0:0:0:
423,91,23762,1,8,0:0:0:0:
441,128,23841,1,0,0:0:0:0:
441,128,23919,1,8,0:0:0:0:
441,128,23998,1,8,0:0:0:0:
441,128,24076,1,8,0:0:0:0:
406,153,24155,5,0,0:0:0:0:
406,153,24207,1,0,0:0:0:0:
406,153,24259,1,0,0:0:0:0:
344,122,24312,1,8,0:0:0:0:
328,162,24390,1,8,0:0:0:0:
402,133,24469,1,0,0:0:0:0:
406,145,24626,1,0,0:0:0:0:
425,134,24783,1,8,0:0:0:0:
322,48,24835,5,8,0:0:0:0:
322,48,24888,1,8,0:0:0:0:
323,159,24940,1,0,0:0:0:0:
383,238,25019,1,8,0:0:0:0:
476,158,25097,1,0,0:0:0:0:
214,82,25254,1,8,0:0:0:0:
214,82,25333,1,8,0:0:0:0:
402,133,25411,1,0,0:0:0:0:
350,126,25490,1,0,0:0:0:0:
350,126,25568,1,8,0:0:0:0:
362,152,25725,1,0,0:0:0:0:
362,152,25883,1,8,0:0:0:0:
130,155,25935,1,8,0:0:0:0:
130,155,25987,1,8,0:0:0:0:
362,158,26040,1,0,0:0:0:0:
362,158,26118,1,0,0:0:0:0:
426,142,26197,1,0,0:0:0:0:
425,142,26275,1,0,0:0:0:0:
425,142,26354,1,8,0:0:0:0:
316,213,26511,1,8,0:0:0:0:
434,149,26668,1,0,0:0:0:0:
277,183,26720,1,0,0:0:0:0:
277,183,26773,1,0,0:0:0:0:
426,142,26825,1,8,0:0:0:0:
426,142,26982,1,8,0:0:0:0:
430,112,27139,1,0,0:0:0:0:
432,159,27296,1,8,0:0:0:0:
302,147,27453,1,8,0:0:0:0:
302,147,27532,1,8,0:0:0:0:
330,162,27610,1,8,0:0:0:0:
330,162,27663,1,8,0:0:0:0:
166,61,27715,1,8,0:0:0:0:
376,102,27767,1,0,0:0:0:0:
448,128,27924,1,0,0:0:0:0:
234,75,27977,1,8,0:0:0:0:
234,75,28029,1,8,0:0:0:0:
174,72,28081,1,0,0:0:0:0:
370,169,28239,1,0,0:0:0:0:
223,77,28396,1,0,0:0:0:0:
369,175,28448,1,0,0:0:0:0:
369,174,28500,1,0,0:0:0:0:
416,93,28553,1,8,0:0:0:0:
448,120,28710,1,0,0:0:0:0:
474,135,28788,1,8,0:0:0:0:
387,131,28867,1,0,0:0:0:0:
440,128,29024,1,8,0:0:0:0:
365,153,29181,1,0,0:0:0:0:
365,153,29233,1,0,0:0:0:0:
365,153,29286,1,0,0:0:0:0:
360,137,29338,1,8,0:0:0:0:
306,206,29417,1,0,0:0:0:0:
396,142,29495,1,8,0:0:0:0:
384,171,29652,1,0,0:0:0:0:
422,86,29809,1,8,0:0:0:0:
422,86,29862,1,8,0:0:0:0:
188,148,29914,1,8,0:0:0:0:
426,126,29966,1,0,0:0:0:0:
403,143,30123,1,8,0:0:0:0:
327,208,30280,1,0,0:0:0:0:
470,152,30359,1,8,0:0:0:0:
468,144,30437,1,0,0:0:0:0:
403,201,30516,1,0,0:0:0:0:
330,152,30595,1,8,0:0:0:0:
443,149,30752,1,0,0:0:0:0:
368,228,30909,1,0,0:0:0:0:
225,93,30961,1,0,0:0:0:0:
225,93,31013,1,0,0:0:0:0:
332,129,31066,1,8,0:0:0:0:
374,169,31223,1,8,0:0:0:0:
374,169,31301,1,8,0:0:0:0:
374,169,31380,1,0,0:0:0:0:
383,233,31537,1,8,0:0:0:0:
377,91,31694,1,8,0:0:0:0:
306,104,31746,1,8,0:0:0:0:
306,104,31799,1,8,0:0:0:0:
221,122,31851,1,0,0:0:0:0:
202,200,31930,1,0,0:0:0:0:
427,123,32008,1,8,0:0:0:0:
395,166,32165,1,0,0:0:0:0:
395,166,32244,1,0,0:0:0:0:
454,164,32322,1,8,0:0:0:0:
454,164,32479,1,8,0:0:0:0:
454,164,32558,1,8,0:0:0:0:
454,129,32636,1,0,0:0:0:0:
454,129,32715,1,0,0:0:0:0:
386,128,32793,1,8,0:0:0:0:
388,133,32951,1,8,0:0:0:0:
380,148,33029,1,8,0:0:0:0:
380,148,33108,1,8,0:0:0:0:
380,148,33186,1,8,0:0:0:0:
397,122,33265,1,0,0:0:0:0:
399,158,33343,1,8,0:0:0:0:
442,151,33422,1,0,0:0:0:0:
154,175,33474,1,0,0:0:0:0:
339,157,33526,1,0,0:0:0:0:
301,136,33579,1,8,0:0:0:0:
332,288,33736,1,0,0:0:0:0:
332,288,33788,1,0,0:0:0:0:
139,146,33841,1,0,0:0:0:0:
375,159,33893,1,8,0:0:0:0:
390,124,34050,1,8,0:0:0:0:
390,124,34102,1,8,0:0:0:0:
219,139,34155,1,8,0:0:0:0:
169,169,34207,1,0,0:0:0:0:
430,129,34364,1,8,0:0:0:0:
413,108,34443,1,8,0:0:0:0:
361,125,34521,1,0,0:0:0:0:
412,115,34678,1,0,0:0:0:0:
378,116,34835,1,8,0:0:0:0:
377,158,34992,1,8,0:0:0:0:
280,129,35071,1,8,0:0:0:0:
353,168,35150,1,0,0:0:0:0:
344,132,35228,1,0,0:0:0:0:
390,178,35307,1,8,0:0:0:0:
421,141,35464,1,0,0:0:0:0:
504,156,35542,1,0,0:0:0:0:
445,151,35621,1,8,0:0:0:0:
445,151,35699,1,0,0:0:0:0:
375,380,35778,1,8,0:0:0:0:
75,166,35935,1,0,0:0:0:0:
265,188,36092,1,8,0:0:0:0:
343,157,36249,1,0,0:0:0:0:
480,166,36328,1,8,0:0:0:0:
479,156,36406,1,0,0:0:0:0:
185,152,36485,1,0,0:0:0:0:
372,102,36563,1,8,0:0:0:0:
259,116,36720,1,0,0:0:0:0:
280,151,36877,1,12,0:0:0:0:
326,156,37034,1,0,0:0:0:0:
406,141,37348,1,8,0:0:0:0:
361,146,37506,1,8,0:0:0:0:
354,191,37663,1,8,0:0:0:0:
354,191,37741,1,8,0:0:0:0:
371,166,37820,1,0,0:0:0:0:
477,126,37898,1,8,0:0:0:0:
435,146,37977,1,0,0:0:0:0:
283,81,38055,1,8,0:0:0:0:
406,141,38134,1,0,0:0:0:0:
406,141,38212,1,0,0:0:0:0:
366,126,38291,1,8,0:0:0:0:
465,160,38448,1,0,0:0:0:0:
372,112,38605,1,8,0:0:0:0:
390,164,38762,1,0,0:0:0:0:
472,117,38919,1,8,0:0:0:0:
445,134,38998,1,0,0:0:0:0:
432,131,39076,1,8,0:0:0:0:
425,136,39155,1,0,0:0:0:0:
425,136,39233,1,0,0:0:0:0:
418,166,39390,1,0,0:0:0:0:
418,166,39469,1,0,0:0:0:0:
424,147,39547,1,8,0:0:0:0:
457,150,39704,1,0,0:0:0:0:
367,182,39862,1,8,0:0:0:0:
323,127,40019,1,8,0:0:0:0:
323,127,40071,1,8,0:0:0:0:
323,127,40123,1,8,0:0:0:0:
422,104,40176,1,0,0:0:0:0:
368,148,40333,1,8,0:0:0:0:
295,153,40411,1,8,0:0:0:0:
483,162,40490,1,0,0:0:0:0:
220,141,40568,1,0,0:0:0:0:
214,103,40647,1,8,0:0:0:0:
364,189,40725,1,0,0:0:0:0:
363,157,40804,1,8,0:0:0:0:
402,140,41118,1,8,0:0:0:0:
319,137,41275,1,0,0:0:0:0:
380,140,41354,1,0,0:0:0:0:
395,105,41432,1,8,0:0:0:0:
280,166,41485,1,8,0:0:0:0:
280,166,41537,1,8,0:0:0:0:
280,166,41589,1,8,0:0:0:0:
280,166,41642,1,8,0:0:0:0:
280,166,41694,5,8,0:0:0:0:
310,264,41746,1,0,0:0:0:0:
375,382,41903,1,12,0:0:0:0:
409,133,42061,1,0,0:0:0:0:
116,177,42218,1,0,0:0:0:0:
367,141,42296,1,0,0:0:0:0:
324,127,42375,1,8,0:0:0:0:
329,248,42532,1,0,0:0:0:0:
296,146,42689,1,0,0:0:0:0:
296,146,42767,1,8,0:0:0:0:
296,146,42846,1,0,0:0:0:0:
296,146,42924,1,0,0:0:0:0:
296,146,43003,1,8,0:0:0:0:
339,176,43081,1,0,0:0:0:0:
426,120,43160,1,8,0:0:0:0:
466,138,43239,1,8,0:0:0:0:
455,133,43317,1,0,0:0:0:0:
383,120,43474,1,0,0:0:0:0:
383,120,43631,1,4,0:0:0:0:
351,135,43788,1,12,0:0:0:0:
351,135,43945,1,12,0:0:0:0:
365,122,44102,1,0,0:0:0:0:
365,122,44155,1,0,0:0:0:0:
365,122,44207,1,0,0:0:0:0:
476,152,44259,1,8,0:0:0:0:
252,149,44417,5,8,0:0:0:0:
173,138,44574,1,0,0:0:0:0:
384,147,44731,1,0,0:0:0:0:
320,176,44888,1,8,0:0:0:0:
379,197,45045,1,8,0:0:0:0:
337,147,45123,1,8,0:0:0:0:
384,147,45202,1,0,0:0:0:0:
115,169,45280,1,0,0:0:0:0:
408,133,45359,1,8,0:0:0:0:
439,156,45516,1,0,0:0:0:0:
377,160,45595,1,8,0:0:0:0:
408,133,45673,1,0,0:0:0:0:
408,133,45752,1,8,0:0:0:0:
395,146,45830,1,8,0:0:0:0:
303,258,45987,1,0,0:0:0:0:
464,161,46144,1,8,0:0:0:0:
392,167,46301,1,0,0:0:0:0:
397,122,46380,1,0,0:0:0:0:
397,122,46458,1,8,0:0:0:0:
214,71,46511,1,8,0:0:0:0:
214,71,46563,1,8,0:0:0:0:
358,162,46615,1,8,0:0:0:0:
415,162,46668,1,8,0:0:0:0:
415,162,46720,1,8,0:0:0:0:
274,230,46773,1,0,0:0:0:0:
245,137,46930,1,12,0:0:0:0:
293,157,47087,1,0,0:0:0:0:
442,114,47401,1,8,0:0:0:0:
306,160,47558,1,0,0:0:0:0:
306,160,47610,1,0,0:0:0:0:
306,160,47663,1,0,0:0:0:0:
393,132,47715,1,8,0:0:0:0:
323,242,47872,1,8,0:0:0:0:
323,242,47951,1,8,0:0:0:0:
433,164,48029,1,0,0:0:0:0:
394,210,48108,1,0,0:0:0:0:
451,161,48186,1,8,0:0:0:0:
450,161,48265,1,8,0:0:0:0:
337,146,48343,1,0,0:0:0:0:
419,182,48500,1,0,0:0:0:0:
231,163,48657,1,8,0:0:0:0:
445,152,48814,1,0,0:0:0:0:
445,152,48893,1,0,0:0:0:0:
437,134,48972,1,8,0:0:0:0:
481,122,49050,1,0,0:0:0:0:
483,135,49129,1,8,0:0:0:0:
472,135,49207,1,8,0:0:0:0:
472,135,49286,1,0,0:0:0:0:
292,131,49443,1,0,0:0:0:0:
281,153,49521,1,0,0:0:0:0:
269,175,49600,1,8,0:0:0:0:
269,175,49652,1,8,0:0:0:0:
269,175,49704,1,8,0:0:0:0:
394,169,49757,1,0,0:0:0:0:
345,157,49914,1,0,0:0:0:0:
388,182,50071,1,8,0:0:0:0:
183,107,50123,1,8,0:0:0:0:
183,107,50176,1,8,0:0:0:0:
375,141,50228,1,0,0:0:0:0:
290,245,50385,1,0,0:0:0:0:
282,148,50437,1,0,0:0:0:0:
282,148,50490,1,0,0:0:0:0:
282,148,50542,1,8,0:0:0:0:
177,191,50621,1,0,0:0:0:0:
439,157,50699,1,0,0:0:0:0:
316,216,50778,1,0,0:0:0:0:
316,216,50856,1,8,0:0:0:0:
415,148,51013,1,0,0:0:0:0:
327,213,51170,1,8,0:0:0:0:
374,174,51328,1,0,0:0:0:0:
316,204,51406,1,0,0:0:0:0:
402,156,51484,1,8,0:0:0:0:
312,150,51537,1,8,0:0:0:0:
312,150,51589,1,8,0:0:0:0:
399,169,51642,1,8,0:0:0:0:
399,169,51694,1,8,0:0:0:0:
399,169,51746,1,8,0:0:0:0:
319,270,51799,1,0,0:0:0:0:
466,89,51956,1,12,0:0:0:0:
328,192,52113,1,0,0:0:0:0:
167,118,52191,1,8,0:0:0:0:
366,170,52270,1,0,0:0:0:0:
290,100,52427,1,8,0:0:0:0:
371,165,52584,1,0,0:0:0:0:
371,166,52741,1,8,0:0:0:0:
395,141,52820,1,8,0:0:0:0:
361,148,52898,1,0,0:0:0:0:
342,168,53055,1,0,0:0:0:0:
228,60,53134,1,0,0:0:0:0:
439,125,53212,1,8,0:0:0:0:
424,167,53369,1,0,0:0:0:0:
478,137,53684,1,8,0:0:0:0:
401,172,53841,1,0,0:0:0:0:
421,149,53998,1,8,0:0:0:0:
280,195,54050,1,8,0:0:0:0:
280,195,54102,1,8,0:0:0:0:
280,195,54155,1,8,0:0:0:0:
280,195,54207,1,8,0:0:0:0:
280,195,54259,1,8,0:0:0:0:
393,111,54312,1,0,0:0:0:0:
397,108,54469,1,8,0:0:0:0:
397,108,54547,1,8,0:0:0:0:
394,122,54626,1,0,0:0:0:0:
314,138,54783,1,0,0:0:0:0:
403,126,54940,1,8,0:0:0:0:
403,126,55019,1,0,0:0:0:0:
447,146,55097,1,8,0:0:0:0:
447,146,55176,1,8,0:0:0:0:
338,182,55254,1,0,0:0:0:0:
174,162,55411,1,0,0:0:0:0:
337,172,55490,1,0,0:0:0:0:
266,134,55568,1,8,0:0:0:0:
185,102,55647,1,0,0:0:0:0:
185,102,55725,1,0,0:0:0:0:
323,88,55804,1,0,0:0:0:0:
381,125,55883,1,8,0:0:0:0:
432,122,56040,1,0,0:0:0:0:
166,127,56197,1,8,0:0:0:0:
359,129,56354,1,0,0:0:0:0:
309,206,56432,1,0,0:0:0:0:
377,163,56511,1,8,0:0:0:0:
323,146,56563,1,8,0:0:0:0:
323,146,56615,1,8,0:0:0:0:
323,146,56668,1,8,0:0:0:0:
323,146,56720,1,8,0:0:0:0:
323,146,56773,1,8,0:0:0:0:
381,125,56825,1,0,0:0:0:0:
483,124,56982,1,12,0:0:0:0:
337,168,57139,1,0,0:0:0:0:
318,235,57296,1,0,0:0:0:0:
357,164,57453,1,8,0:0:0:0:
350,218,57610,1,0,0:0:0:0:
345,217,57767,1,8,0:0:0:0:
310,208,57924,1,8,0:0:0:0:
243,146,58003,1,8,0:0:0:0:
200,104,58081,1,0,0:0:0:0:
380,135,58160,1,0,0:0:0:0:
380,135,58239,1,8,0:0:0:0:
380,135,58317,1,0,0:0:0:0:
389,122,58396,1,8,0:0:0:0:
433,153,58553,1,0,0:0:0:0:
409,171,58710,1,8,0:0:0:0:
466,146,58788,1,0,0:0:0:0:
466,146,58867,1,0,0:0:0:0:
466,146,58945,1,0,0:0:0:0:
498,149,59024,1,8,0:0:0:0:
239,179,59102,1,0,0:0:0:0:
274,147,59181,1,8,0:0:0:0:
274,147,59259,1,8,0:0:0:0:
421,149,59338,1,4,0:0:0:0:
386,151,59495,1,8,0:0:0:0:
386,151,59574,1,8,0:0:0:0:
408,162,59652,1,0,0:0:0:0:
421,135,59809,1,8,0:0:0:0:
465,153,59966,1,0,0:0:0:0:
431,149,60123,1,8,0:0:0:0:
377,164,60176,1,8,0:0:0:0:
377,164,60228,1,8,0:0:0:0:
412,148,60280,1,0,0:0:0:0:
382,109,60437,1,0,0:0:0:0:
403,146,60516,1,8,0:0:0:0:
403,146,60595,1,0,0:0:0:0:
273,172,60673,1,0,0:0:0:0:
315,146,60752,1,8,0:0:0:0:
315,146,60830,1,0,0:0:0:0:
315,146,60909,1,8,0:0:0:0:
423,152,61066,1,0,0:0:0:0:
348,133,61223,1,8,0:0:0:0:
348,133,61380,1,8,0:0:0:0:
435,121,61458,1,0,0:0:0:0:
363,118,61537,1,8,0:0:0:0:
230,180,61589,1,8,0:0:0:0:
230,180,61642,1,8,0:0:0:0:
247,142,61694,1,8,0:0:0:0:
247,142,61746,1,8,0:0:0:0:
247,142,61799,1,8,0:0:0:0:
202,87,61851,1,0,0:0:0:0:
424,57,62008,1,12,0:0:0:0:
352,200,62165,1,0,0:0:0:0:
277,178,62322,1,0,0:0:0:0:
297,133,62479,1,8,0:0:0:0:
294,140,62636,1,0,0:0:0:0:
241,95,62715,1,0,0:0:0:0:
310,105,62793,1,8,0:0:0:0:
332,71,62872,1,8,0:0:0:0:
332,71,62951,1,8,0:0:0:0:
332,71,63029,1,8,0:0:0:0:
372,131,63108,1,0,0:0:0:0:
300,113,63186,1,0,0:0:0:0:
408,131,63265,1,8,0:0:0:0:
408,131,63343,1,8,0:0:0:0:
401,144,63422,1,0,0:0:0:0:
319,240,63579,1,0,0:0:0:0:
368,224,63736,1,0,0:0:0:0:
366,157,63893,1,8,0:0:0:0:
366,157,64050,1,8,0:0:0:0:
422,155,64207,1,8,0:0:0:0:
422,155,64259,1,8,0:0:0:0:
422,155,64312,1,8,0:0:0:0:
330,100,64364,1,4,0:0:0:0:
347,125,64521,1,8,0:0:0:0:
347,125,64600,1,8,0:0:0:0:
360,151,64678,1,0,0:0:0:0:
225,132,64835,1,8,0:0:0:0:
386,145,64992,1,8,0:0:0:0:
386,145,65150,1,8,0:0:0:0:
386,145,65228,1,8,0:0:0:0:
391,138,65307,1,0,0:0:0:0:
365,149,65464,1,0,0:0:0:0:
203,209,65542,1,0,0:0:0:0:
435,140,65621,1,8,0:0:0:0:
343,163,65699,1,0,0:0:0:0:
378,124,65778,1,0,0:0:0:0:
377,124,65856,1,0,0:0:0:0:
377,124,65935,1,8,0:0:0:0:
302,150,66092,1,0,0:0:0:0:
430,119,66249,1,8,0:0:0:0:
283,143,66406,1,0,0:0:0:0:
350,189,66485,1,0,0:0:0:0:
374,113,66563,1,8,0:0:0:0:
408,162,66615,1,8,0:0:0:0:
408,162,66668,1,8,0:0:0:0:
227,73,66720,1,8,0:0:0:0:
227,73,66773,1,8,0:0:0:0:
227,73,66825,1,8,0:0:0:0:
354,122,66877,1,0,0:0:0:0:
461,106,67034,1,12,0:0:0:0:
277,162,67191,1,0,0:0:0:0:
451,149,67348,1,0,0:0:0:0:
188,129,67506,1,8,0:0:0:0:
370,144,67663,1,0,0:0:0:0:
370,144,67715,1,0,0:0:0:0:
370,144,67767,1,0,0:0:0:0:
433,144,67820,1,8,0:0:0:0:
364,91,67898,1,8,0:0:0:0:
361,164,67977,1,0,0:0:0:0:
285,157,68055,1,8,0:0:0:0:
332,261,68134,1,0,0:0:0:0:
285,128,68212,1,8,0:0:0:0:
329,219,68291,1,0,0:0:0:0:
329,219,68369,1,0,0:0:0:0:
354,153,68448,1,8,0:0:0:0:
390,162,68605,1,0,0:0:0:0:
441,133,68762,1,8,0:0:0:0:
453,151,68919,1,0,0:0:0:0:
474,131,69076,1,8,0:0:0:0:
443,149,69155,1,0,0:0:0:0:
424,150,69233,1,8,0:0:0:0:
423,150,69312,1,8,0:0:0:0:
445,158,69390,1,0,0:0:0:0:
435,122,69547,1,8,0:0:0:0:
435,122,69626,1,8,0:0:0:0:
445,137,69704,1,0,0:0:0:0:
353,182,69862,1,0,0:0:0:0:
305,138,70019,1,8,0:0:0:0:
386,122,70176,1,8,0:0:0:0:
383,131,70228,1,8,0:0:0:0:
382,131,70280,1,8,0:0:0:0:
372,124,70333,1,0,0:0:0:0:
339,171,70490,1,8,0:0:0:0:
206,78,70568,1,8,0:0:0:0:
301,177,70647,1,0,0:0:0:0:
360,144,70725,1,8,0:0:0:0:
237,220,70804,1,0,0:0:0:0:
323,133,70883,1,0,0:0:0:0:
403,160,70961,1,8,0:0:0:0:
508,152,71118,1,0,0:0:0:0:
402,173,71275,1,8,0:0:0:0:
428,229,71432,1,8,0:0:0:0:
446,141,71511,1,0,0:0:0:0:
356,149,71589,1,8,0:0:0:0:
346,100,71642,1,8,0:0:0:0:
346,100,71694,1,8,0:0:0:0:
265,148,71746,1,8,0:0:0:0:
255,138,71799,1,8,0:0:0:0:
255,138,71851,1,8,0:0:0:0:
286,151,71903,1,0,0:0:0:0:
297,104,72061,1,12,0:0:0:0:
333,131,72218,1,0,0:0:0:0:
194,86,72270,1,0,0:0:0:0:
194,86,72322,1,0,0:0:0:0:
390,122,72375,1,8,0:0:0:0:
403,128,72532,1,0,0:0:0:0:
405,128,72610,1,0,0:0:0:0:
419,128,72689,1,8,0:0:0:0:
412,133,72767,1,0,0:0:0:0:
435,130,72846,1,8,0:0:0:0:
435,130,72924,1,8,0:0:0:0:
437,134,73003,1,0,0:0:0:0:
203,170,73160,1,0,0:0:0:0:
357,155,73239,1,0,0:0:0:0:
403,128,73317,1,8,0:0:0:0:
405,128,73396,1,8,0:0:0:0:
356,146,73474,1,0,0:0:0:0:
504,142,73788,1,8,0:0:0:0:
356,179,73945,1,0,0:0:0:0:
291,188,74102,1,0,0:0:0:0:
185,202,74155,1,0,0:0:0:0:
185,202,74207,1,0,0:0:0:0:
185,202,74259,1,0,0:0:0:0:
346,161,74312,1,8,0:0:0:0:
346,161,74364,1,8,0:0:0:0:
417,117,74417,1,4,0:0:0:0:
412,167,74731,1,8,0:0:0:0:
318,180,74888,1,0,0:0:0:0:
344,169,75045,1,0,0:0:0:0:
306,191,75359,1,0,0:0:0:0:
305,171,75516,1,8,0:0:0:0:
291,232,75673,1,0,0:0:0:0:
352,176,75752,1,0,0:0:0:0:
441,148,75830,1,8,0:0:0:0:
441,148,75909,1,8,0:0:0:0:
437,155,75987,1,0,0:0:0:0:
276,227,76144,1,0,0:0:0:0:
332,253,76223,1,8,0:0:0:0:
365,147,76301,1,8,0:0:0:0:
216,227,76458,1,8,0:0:0:0:
366,175,76615,1,0,0:0:0:0:
301,279,76930,1,0,0:0:0:0:
452,146,77244,1,8,0:0:0:0:
377,166,77401,1,0,0:0:0:0:
306,144,77715,1,8,0:0:0:0:
306,144,77872,1,8,0:0:0:0:
306,144,77951,1,8,0:0:0:0:
306,144,78029,1,8,0:0:0:0:
306,144,78108,1,8,0:0:0:0:
408,139,78186,1,0,0:0:0:0:
354,120,78265,1,8,0:0:0:0:
354,120,78343,1,0,0:0:0:0:
354,120,78422,1,0,0:0:0:0:
354,120,78500,1,8,0:0:0:0:
276,162,78579,1,0,0:0:0:0:
276,162,78657,1,8,0:0:0:0:
262,215,78972,1,8,0:0:0:0:
284,148,79129,1,4,0:0:0:0:
375,150,79286,1,8,0:0:0:0:
375,150,79364,1,8,0:0:0:0:
383,127,79443,1,0,0:0:0:0:
449,144,79757,1,8,0:0:0:0:
327,166,79914,1,0,0:0:0:0:
290,260,80071,1,8,0:0:0:0:
263,197,80228,1,0,0:0:0:0:
450,153,80542,1,8,0:0:0:0:
332,217,80856,1,0,0:0:0:0:
446,160,80935,1,8,0:0:0:0:
405,145,81013,1,0,0:0:0:0:
336,231,81092,1,0,0:0:0:0:
440,162,81170,1,8,0:0:0:0:
443,155,81328,1,0,0:0:0:0:
422,142,81485,1,8,0:0:0:0:
399,138,81642,1,0,0:0:0:0:
391,263,81720,1,0,0:0:0:0:
391,263,81799,1,0,0:0:0:0:
252,184,81956,1,8,0:0:0:0:
445,155,82270,1,0,0:0:0:0:
390,160,82427,1,8,0:0:0:0:
286,260,82741,1,8,0:0:0:0:
311,217,82898,1,8,0:0:0:0:
311,217,82977,1,8,0:0:0:0:
311,217,83055,1,0,0:0:0:0:
311,217,83134,1,0,0:0:0:0:
311,217,83212,1,0,0:0:0:0:
268,211,83369,1,0,0:0:0:0:
370,155,83526,1,0,0:0:0:0:
370,155,83605,1,0,0:0:0:0:
363,146,83684,1,8,0:0:0:0:
314,122,83762,1,8,0:0:0:0:
370,117,83841,1,0,0:0:0:0:
370,117,83919,1,0,0:0:0:0:
404,126,83998,1,8,0:0:0:0:
404,126,84076,1,8,0:0:0:0:
393,139,84155,1,0,0:0:0:0:
332,113,84312,1,8,0:0:0:0:
332,113,84390,1,8,0:0:0:0:
386,145,84469,1,0,0:0:0:0:
455,158,84783,1,0,0:0:0:0:
450,167,84940,1,8,0:0:0:0:
304,95,85254,1,8,0:0:0:0:
249,156,85568,1,8,0:0:0:0:
362,275,85725,1,0,0:0:0:0:
266,234,85883,1,8,0:0:0:0:
428,120,85961,1,8,0:0:0:0:
362,218,86040,1,0,0:0:0:0:
250,224,86197,1,8,0:0:0:0:
252,229,86511,1,8,0:0:0:0:
283,184,86668,1,0,0:0:0:0:
354,212,86825,1,8,0:0:0:0:
299,170,86982,1,0,0:0:0:0:
328,194,87061,1,0,0:0:0:0:
328,194,87139,1,0,0:0:0:0:
314,188,87296,1,0,0:0:0:0:
353,171,87453,1,8,0:0:0:0:
369,126,87767,1,0,0:0:0:0:
369,126,87846,1,0,0:0:0:0:
397,142,87924,1,8,0:0:0:0:
397,142,88003,1,8,0:0:0:0:
397,142,88081,1,8,0:0:0:0:
298,306,88160,1,8,0:0:0:0:
266,300,88239,1,8,0:0:0:0:
337,375,88396,5,8,0:0:0:0:
311,317,88474,1,8,0:0:0:0:
319,172,88553,1,0,0:0:0:0:
382,156,88631,1,0,0:0:0:0:
381,156,88710,1,8,0:0:0:0:
381,156,88788,1,8,0:0:0:0:
445,161,88867,1,0,0:0:0:0:
445,161,88945,1,0,0:0:0:0:
429,158,89024,1,8,0:0:0:0:
429,158,89102,1,8,0:0:0:0:
175,191,89181,1,0,0:0:0:0:
329,250,89338,1,0,0:0:0:0:
329,250,89417,1,0,0:0:0:0:
305,153,89495,1,8,0:0:0:0:
450,149,89809,1,0,0:0:0:0:
406,182,89966,1,8,0:0:0:0:
322,139,90280,1,0,0:0:0:0:
322,139,90595,1,0,0:0:0:0:
310,195,90909,1,0,0:0:0:0:
310,195,90987,1,0,0:0:0:0:
389,135,91066,1,8,0:0:0:0:
389,135,91223,1,8,0:0:0:0:
213,156,91537,1,8,0:0:0:0:
392,160,91694,1,0,0:0:0:0:
288,78,91851,1,0,0:0:0:0:
288,78,91930,1,0,0:0:0:0:
353,124,92008,1,8,0:0:0:0:
426,162,92061,1,8,0:0:0:0:
426,162,92113,1,8,0:0:0:0:
426,162,92165,1,8,0:0:0:0:
426,162,92218,1,8,0:0:0:0:
426,162,92270,1,8,0:0:0:0:
469,149,92322,1,0,0:0:0:0:
423,132,92479,1,8,0:0:0:0:
386,140,92793,1,0,0:0:0:0:
402,157,92951,1,8,0:0:0:0:
408,135,93029,1,8,0:0:0:0:
408,135,93108,1,8,0:0:0:0:
408,135,93186,1,8,0:0:0:0:
307,160,93265,1,0,0:0:0:0:
181,194,93422,1,0,0:0:0:0:
181,194,93579,1,0,0:0:0:0:
350,172,93736,1,8,0:0:0:0:
350,172,94050,1,8,0:0:0:0:
350,172,94207,1,8,0:0:0:0:
350,172,94286,1,8,0:0:0:0:
350,172,94364,1,8,0:0:0:0:
350,172,94443,1,8,0:0:0:0:
438,123,94521,1,4,0:0:0:0:
257,197,94678,1,0,0:0:0:0:
257,197,94757,1,0,0:0:0:0:
286,150,94835,1,8,0:0:0:0:
505,155,94992,1,0,0:0:0:0:
431,159,95307,1,8,0:0:0:0:
421,158,95464,1,0,0:0:0:0:
419,160,95621,1,8,0:0:0:0:
286,202,95673,1,8,0:0:0:0:
259,162,95725,1,8,0:0:0:0:
259,162,95778,1,8,0:0:0:0:
259,162,95830,1,8,0:0:0:0:
259,162,95883,5,8,0:0:0:0:
343,120,95935,1,0,0:0:0:0:
451,208,96092,1,8,0:0:0:0:
451,208,96170,1,8,0:0:0:0:
386,160,96249,1,0,0:0:0:0:
386,160,96328,1,0,0:0:0:0:
386,160,96406,1,0,0:0:0:0:
399,180,96563,1,0,0:0:0:0:
399,180,96642,1,0,0:0:0:0:
501,352,96720,1,8,0:0:0:0:
426,115,96877,1,8,0:0:0:0:
420,142,96956,1,0,0:0:0:0:
420,142,97034,1,0,0:0:0:0:
466,120,97191,1,0,0:0:0:0:
458,172,97348,1,8,0:0:0:0:
465,139,97506,1,0,0:0:0:0:
430,142,97663,1,8,0:0:0:0:
350,148,97820,1,0,0:0:0:0:
350,148,97977,1,0,0:0:0:0:
403,137,98134,1,8,0:0:0:0:
294,121,98186,1,8,0:0:0:0:
294,121,98239,1,8,0:0:0:0:
294,121,98291,1,8,0:0:0:0:
294,121,98343,1,8,0:0:0:0:
294,121,98396,1,8,0:0:0:0:
294,121,98448,1,8,0:0:0:0:
436,152,98605,1,8,0:0:0:0:
449,109,98762,1,0,0:0:0:0:
465,136,98841,1,8,0:0:0:0:
488,147,98919,1,0,0:0:0:0:
461,168,99076,1,0,0:0:0:0:
461,168,99155,1,0,0:0:0:0:
296,152,99233,1,8,0:0:0:0:
296,152,99312,1,0,0:0:0:0:
296,152,99390,1,8,0:0:0:0:
466,144,99547,1,0,0:0:0:0:
466,144,99704,1,0,0:0:0:0:
405,141,99862,1,8,0:0:0:0:
446,144,100019,1,0,0:0:0:0:
446,144,100176,1,0,0:0:0:0:
435,95,100333,1,8,0:0:0:0:
441,141,100490,1,0,0:0:0:0:
141,297,100647,1,8,0:0:0:0:
141,297,100699,1,8,0:0:0:0:
141,297,100752,1,8,0:0:0:0:
141,297,100804,1,8,0:0:0:0:
141,297,100856,1,8,0:0:0:0:
141,297,100909,1,8,0:0:0:0:
495,158,100961,1,0,0:0:0:0:
337,208,101118,1,8,0:0:0:0:
337,208,101197,1,8,0:0:0:0:
394,149,101275,1,0,0:0:0:0:
488,158,101354,1,8,0:0:0:0:
388,133,101432,1,0,0:0:0:0:
377,317,101589,1,0,0:0:0:0:
359,170,101668,1,0,0:0:0:0:
261,175,101746,1,8,0:0:0:0:
450,145,101903,1,8,0:0:0:0:
428,144,101982,1,0,0:0:0:0:
428,144,102061,1,0,0:0:0:0:
390,217,102218,1,0,0:0:0:0:
390,217,102296,1,0,0:0:0:0:
424,149,102375,1,8,0:0:0:0:
424,149,102453,1,8,0:0:0:0:
368,137,102532,1,0,0:0:0:0:
383,237,102689,1,0,0:0:0:0:
209,158,102846,1,8,0:0:0:0:
209,158,103003,1,8,0:0:0:0:
386,128,103160,1,8,0:0:0:0:
332,78,103212,1,8,0:0:0:0:
332,78,103265,1,8,0:0:0:0:
407,135,103317,1,0,0:0:0:0:
451,169,103474,1,8,0:0:0:0:
451,169,103526,1,8,0:0:0:0:
451,169,103579,1,8,0:0:0:0:
445,140,103631,1,0,0:0:0:0:
409,128,103788,1,8,0:0:0:0:
409,128,103841,1,8,0:0:0:0:
499,158,103893,1,8,0:0:0:0:
434,140,103945,1,0,0:0:0:0:
408,157,104102,1,0,0:0:0:0:
445,140,104259,1,8,0:0:0:0:
405,132,104417,1,8,0:0:0:0:
405,132,104495,1,8,0:0:0:0:
375,160,104574,1,0,0:0:0:0:
422,178,104731,1,12,0:0:0:0:
413,147,104888,1,0,0:0:0:0:
145,106,104966,1,0,0:0:0:0:
349,143,105045,1,8,0:0:0:0:
349,143,105123,1,8,0:0:0:0:
464,137,105202,1,0,0:0:0:0:
461,146,105280,1,0,0:0:0:0:
461,146,105359,1,8,0:0:0:0:
461,146,105437,1,8,0:0:0:0:
492,152,105516,1,0,0:0:0:0:
412,116,105673,1,8,0:0:0:0:
350,162,105830,1,0,0:0:0:0:
350,162,105883,1,0,0:0:0:0:
350,162,105935,1,0,0:0:0:0:
336,177,105987,1,8,0:0:0:0:
466,146,106144,1,8,0:0:0:0:
313,114,106301,1,0,0:0:0:0:
203,153,106380,1,0,0:0:0:0:
170,35,106458,1,8,0:0:0:0:
373,143,106511,1,8,0:0:0:0:
373,143,106563,1,8,0:0:0:0:
444,153,106615,1,0,0:0:0:0:
383,140,106773,1,0,0:0:0:0:
389,151,106930,1,8,0:0:0:0:
402,148,107087,1,0,0:0:0:0:
402,148,107165,1,0,0:0:0:0:
187,117,107244,1,8,0:0:0:0:
405,168,107401,5,8,0:0:0:0:
374,133,107558,1,0,0:0:0:0:
374,133,107610,1,0,0:0:0:0:
375,133,107663,1,0,0:0:0:0:
378,150,107715,1,8,0:0:0:0:
456,160,107872,1,8,0:0:0:0:
456,160,107951,1,8,0:0:0:0:
436,141,108029,1,0,0:0:0:0:
436,141,108108,1,0,0:0:0:0:
453,142,108186,1,8,0:0:0:0:
388,142,108265,1,0,0:0:0:0:
372,47,108343,1,0,0:0:0:0:
377,69,108396,1,0,0:0:0:0:
377,69,108448,1,0,0:0:0:0:
414,147,108500,1,8,0:0:0:0:
423,122,108657,1,0,0:0:0:0:
474,135,108814,1,8,0:0:0:0:
500,157,108893,1,0,0:0:0:0:
462,147,108972,1,8,0:0:0:0:
442,153,109129,1,0,0:0:0:0:
419,170,109286,1,8,0:0:0:0:
402,160,109364,1,0,0:0:0:0:
426,157,109443,1,8,0:0:0:0:
426,157,109521,1,8,0:0:0:0:
360,121,109600,5,0,0:0:0:0:
205,143,109757,1,8,0:0:0:0:
434,124,109914,1,0,0:0:0:0:
434,124,109992,1,0,0:0:0:0:
434,124,110071,1,8,0:0:0:0:
370,105,110150,1,8,0:0:0:0:
434,124,110228,1,0,0:0:0:0:
434,124,110307,1,0,0:0:0:0:
434,124,110385,1,8,0:0:0:0:
485,139,110464,1,8,0:0:0:0:
454,139,110542,1,0,0:0:0:0:
292,80,110699,1,0,0:0:0:0:
292,80,110856,1,8,0:0:0:0:
292,80,110909,1,8,0:0:0:0:
266,81,110961,1,8,0:0:0:0:
375,146,111013,1,0,0:0:0:0:
466,136,111170,1,8,0:0:0:0:
182,51,111328,1,0,0:0:0:0:
237,100,111406,1,0,0:0:0:0:
267,155,111485,1,8,0:0:0:0:
267,155,111537,1,8,0:0:0:0:
267,155,111589,1,8,0:0:0:0:
310,156,111642,1,0,0:0:0:0:
385,131,111799,1,0,0:0:0:0:
449,151,111956,1,8,0:0:0:0:
414,166,112113,1,0,0:0:0:0:
348,140,112191,1,0,0:0:0:0:
303,156,112270,1,8,0:0:0:0:
369,180,112427,1,8,0:0:0:0:
368,119,112584,1,0,0:0:0:0:
368,119,112636,1,0,0:0:0:0:
368,119,112689,1,0,0:0:0:0:
437,129,112741,1,8,0:0:0:0:
446,125,112898,1,0,0:0:0:0:
294,78,112977,1,8,0:0:0:0:
294,78,113055,1,8,0:0:0:0:
377,91,113212,1,8,0:0:0:0:
343,128,113369,1,0,0:0:0:0:
290,92,113422,1,0,0:0:0:0:
290,92,113474,1,0,0:0:0:0:
330,111,113526,1,8,0:0:0:0:
410,189,113684,1,0,0:0:0:0:
352,237,113919,1,0,0:0:0:0:
475,148,113998,1,8,0:0:0:0:
423,156,114076,1,0,0:0:0:0:
423,156,114155,1,0,0:0:0:0:
394,117,114312,1,8,0:0:0:0:
367,156,114469,1,8,0:0:0:0:
367,156,114547,1,0,0:0:0:0:
256,192,114626,12,0,115411,0:0:0:0:
183,195,115568,5,0,0:0:0:0:
198,163,115621,1,0,0:0:0:0:
198,163,115673,1,0,0:0:0:0:
198,163,115725,1,0,0:0:0:0:
325,144,115778,1,8,0:0:0:0:
325,144,115830,1,8,0:0:0:0:
263,158,115883,1,4,0:0:0:0:
218,168,116040,1,0,0:0:0:0:
450,141,116197,1,8,0:0:0:0:
319,220,116354,1,0,0:0:0:0:
410,156,116668,1,8,0:0:0:0:
296,116,116825,1,0,0:0:0:0:
400,115,116982,1,8,0:0:0:0:
377,122,117139,1,8,0:0:0:0:
295,148,117296,1,0,0:0:0:0:
295,148,117375,1,0,0:0:0:0:
423,129,117453,1,8,0:0:0:0:
423,129,117532,1,8,0:0:0:0:
268,135,117610,1,0,0:0:0:0:
268,135,117663,1,0,0:0:0:0:
268,135,117715,1,0,0:0:0:0:
377,146,117767,1,8,0:0:0:0:
461,188,117924,1,8,0:0:0:0:
456,161,118003,1,0,0:0:0:0:
462,156,118081,1,8,0:0:0:0:
414,158,118239,1,0,0:0:0:0:
414,158,118317,1,0,0:0:0:0:
414,158,118396,1,8,0:0:0:0:
360,168,118553,1,0,0:0:0:0:
407,139,118710,1,8,0:0:0:0:
478,146,118867,1,8,0:0:0:0:
478,146,118945,1,0,0:0:0:0:
478,146,119024,1,0,0:0:0:0:
466,144,119181,1,0,0:0:0:0:
445,152,119338,1,8,0:0:0:0:
434,153,119495,1,0,0:0:0:0:
441,144,119574,1,8,0:0:0:0:
450,148,119652,1,0,0:0:0:0:
496,158,119809,1,8,0:0:0:0:
496,158,119888,1,0,0:0:0:0:
475,153,119966,1,8,0:0:0:0:
475,153,120045,1,8,0:0:0:0:
318,109,120123,1,0,0:0:0:0:
318,109,120176,1,0,0:0:0:0:
318,109,120228,1,0,0:0:0:0:
475,149,120280,1,8,0:0:0:0:
366,161,120437,1,8,0:0:0:0:
317,134,120516,1,8,0:0:0:0:
450,145,120595,1,0,0:0:0:0:
449,166,120752,1,0,0:0:0:0:
199,85,120830,5,0,0:0:0:0:
276,115,120909,1,8,0:0:0:0:
290,158,121066,1,0,0:0:0:0:
405,153,121223,1,8,0:0:0:0:
385,151,121380,1,0,0:0:0:0:
441,162,121694,1,8,0:0:0:0:
286,186,121851,1,0,0:0:0:0:
345,238,122008,1,8,0:0:0:0:
463,150,122165,1,0,0:0:0:0:
441,162,122322,1,0,0:0:0:0:
441,162,122401,1,0,0:0:0:0:
470,157,122479,1,8,0:0:0:0:
451,153,122558,1,0,0:0:0:0:
307,133,122636,1,8,0:0:0:0:
307,133,122689,1,8,0:0:0:0:
307,133,122741,1,8,0:0:0:0:
406,135,122793,1,0,0:0:0:0:
408,86,122951,1,8,0:0:0:0:
480,134,123029,1,0,0:0:0:0:
455,164,123108,1,8,0:0:0:0:
445,140,123265,1,0,0:0:0:0:
445,140,123343,1,0,0:0:0:0:
479,158,123422,1,8,0:0:0:0:
347,148,123736,1,8,0:0:0:0:
415,168,123893,1,0,0:0:0:0:
415,168,124050,1,0,0:0:0:0:
381,153,124207,1,8,0:0:0:0:
415,154,124364,1,0,0:0:0:0:
412,154,124521,1,0,0:0:0:0:
493,157,124600,1,8,0:0:0:0:
432,150,124678,1,0,0:0:0:0:
383,175,124835,1,0,0:0:0:0:
493,157,124992,1,8,0:0:0:0:
465,163,125150,1,0,0:0:0:0:
312,117,125202,5,0,0:0:0:0:
312,117,125254,1,0,0:0:0:0:
432,137,125307,1,8,0:0:0:0:
401,152,125464,1,8,0:0:0:0:
435,96,125621,1,0,0:0:0:0:
361,133,125778,1,8,0:0:0:0:
361,133,125856,1,8,0:0:0:0:
385,152,125935,1,4,0:0:0:0:
266,40,126249,1,8,0:0:0:0:
347,109,126406,1,0,0:0:0:0:
419,142,126720,1,0,0:0:0:0:
422,102,127034,1,12,0:0:0:0:
342,135,127663,1,12,0:0:0:0:
434,130,127977,1,8,0:0:0:0:
421,131,128055,1,8,0:0:0:0:
470,127,128134,1,0,0:0:0:0:
470,127,128212,1,0,0:0:0:0:
478,138,128291,1,8,0:0:0:0:
478,138,128369,1,8,0:0:0:0:
461,132,128448,1,4,0:0:0:0:
435,146,128605,1,0,0:0:0:0:
435,146,128684,1,0,0:0:0:0:
434,130,128762,1,8,0:0:0:0:
446,155,128919,1,0,0:0:0:0:
395,145,128998,1,8,0:0:0:0:
417,146,129076,1,8,0:0:0:0:
468,140,129233,1,0,0:0:0:0:
381,133,129390,1,8,0:0:0:0:
380,173,129547,1,8,0:0:0:0:
380,173,129626,1,8,0:0:0:0:
343,102,129704,1,0,0:0:0:0:
416,177,129862,1,0,0:0:0:0:
384,138,129940,1,8,0:0:0:0:
384,138,130019,1,8,0:0:0:0:
470,109,130176,1,8,0:0:0:0:
305,70,130228,1,8,0:0:0:0:
305,70,130280,1,8,0:0:0:0:
440,111,130333,1,0,0:0:0:0:
362,196,130490,1,0,0:0:0:0:
506,143,130647,1,8,0:0:0:0:
221,167,130804,1,0,0:0:0:0:
268,78,130883,1,0,0:0:0:0:
390,145,130961,1,8,0:0:0:0:
481,149,131118,1,0,0:0:0:0:
368,162,131275,1,8,0:0:0:0:
389,165,131432,1,0,0:0:0:0:
264,188,131746,1,0,0:0:0:0:
411,146,131903,1,0,0:0:0:0:
439,138,132061,1,8,0:0:0:0:
388,206,132218,1,0,0:0:0:0:
122,154,132375,1,0,0:0:0:0:
337,196,132453,1,0,0:0:0:0:
401,159,132532,1,8,0:0:0:0:
261,132,132689,5,8,0:0:0:0:
261,132,132741,1,8,0:0:0:0:
261,132,132793,1,8,0:0:0:0:
348,137,132846,1,0,0:0:0:0:
485,133,133003,1,0,0:0:0:0:
489,149,133160,1,8,0:0:0:0:
370,382,133317,1,4,0:0:0:0:
256,192,134102,12,0,134731,0:0:0:0:
317,278,135359,5,0,0:0:0:0:
317,278,135437,1,0,0:0:0:0:
317,278,135516,1,0,0:0:0:0:
317,278,135595,1,0,0:0:0:0:
317,278,135673,1,0,0:0:0:0:
317,278,135752,1,0,0:0:0:0:
299,146,135830,1,0,0:0:0:0:
372,157,135909,1,0,0:0:0:0:
455,93,135987,1,12,0:0:0:0:
423,154,136144,1,8,0:0:0:0:
423,154,136223,1,8,0:0:0:0:
477,159,136301,1,0,0:0:0:0:
268,151,136380,1,8,0:0:0:0:
268,151,136458,1,8,0:0:0:0:
462,149,136615,1,0,0:0:0:0:
441,157,136773,1,8,0:0:0:0:
441,157,136851,1,8,0:0:0:0:
472,162,136930,1,0,0:0:0:0:
336,197,137087,1,0,0:0:0:0:
496,152,137165,1,8,0:0:0:0:
474,157,137244,1,0,0:0:0:0:
474,157,137322,1,0,0:0:0:0:
474,162,137401,1,8,0:0:0:0:
472,162,137479,1,8,0:0:0:0:
421,163,137558,1,0,0:0:0:0:
306,156,137715,1,0,0:0:0:0:
382,166,137872,1,8,0:0:0:0:
434,111,138029,1,0,0:0:0:0:
427,154,138108,1,8,0:0:0:0:
427,154,138186,1,8,0:0:0:0:
361,140,138265,1,0,0:0:0:0:
361,140,138343,1,0,0:0:0:0:
307,241,138500,1,0,0:0:0:0:
457,118,138657,1,12,0:0:0:0:
415,149,138814,1,0,0:0:0:0:
354,203,138972,1,0,0:0:0:0:
354,203,139050,1,0,0:0:0:0:
372,155,139129,1,8,0:0:0:0:
339,204,139286,1,8,0:0:0:0:
457,153,139364,1,0,0:0:0:0:
408,135,139443,1,8,0:0:0:0:
417,134,139521,1,0,0:0:0:0:
417,134,139600,1,0,0:0:0:0:
435,200,139678,1,0,0:0:0:0:
349,141,139757,1,8,0:0:0:0:
384,148,139835,1,8,0:0:0:0:
419,142,139914,1,0,0:0:0:0:
419,142,139992,1,0,0:0:0:0:
383,143,140071,1,8,0:0:0:0:
448,131,140228,1,0,0:0:0:0:
362,180,140385,1,8,0:0:0:0:
457,129,140542,1,0,0:0:0:0:
475,137,140621,1,8,0:0:0:0:
412,129,140699,1,0,0:0:0:0:
341,156,140752,1,0,0:0:0:0:
341,156,140804,1,0,0:0:0:0:
400,153,140856,1,8,0:0:0:0:
413,109,141013,1,4,0:0:0:0:
445,135,141170,1,8,0:0:0:0:
470,151,141249,1,0,0:0:0:0:
432,150,141328,1,8,0:0:0:0:
412,129,141406,1,0,0:0:0:0:
412,129,141485,1,0,0:0:0:0:
234,157,141642,1,8,0:0:0:0:
323,117,141799,1,0,0:0:0:0:
323,117,141851,1,0,0:0:0:0:
323,117,141903,1,0,0:0:0:0:
227,142,141956,1,8,0:0:0:0:
353,110,142034,1,0,0:0:0:0:
353,110,142113,1,0,0:0:0:0:
442,146,142191,1,8,0:0:0:0:
475,158,142270,1,0,0:0:0:0:
368,111,142348,1,0,0:0:0:0:
392,126,142427,1,0,0:0:0:0:
392,126,142506,1,8,0:0:0:0:
336,142,142584,1,8,0:0:0:0:
408,140,142663,1,8,0:0:0:0:
306,172,142741,1,0,0:0:0:0:
359,377,142898,1,8,0:0:0:0:
278,197,143055,1,0,0:0:0:0:
278,197,143134,1,0,0:0:0:0:
397,152,143212,1,8,0:0:0:0:
426,164,143265,1,8,0:0:0:0:
426,164,143317,1,8,0:0:0:0:
433,151,143369,1,0,0:0:0:0:
391,156,143526,1,0,0:0:0:0:
357,97,143605,1,0,0:0:0:0:
455,141,143684,1,8,0:0:0:0:
399,168,143841,1,0,0:0:0:0:
408,220,143919,1,0,0:0:0:0:
450,171,143998,1,8,0:0:0:0:
497,160,144076,1,0,0:0:0:0:
495,151,144155,1,8,0:0:0:0:
463,138,144312,1,0,0:0:0:0:
321,117,144364,1,0,0:0:0:0:
321,117,144417,1,0,0:0:0:0:
417,154,144469,1,8,0:0:0:0:
417,154,144547,1,8,0:0:0:0:
446,146,144626,1,0,0:0:0:0:
387,101,144783,1,8,0:0:0:0:
366,157,144862,1,0,0:0:0:0:
366,157,144940,1,0,0:0:0:0:
450,144,145019,1,8,0:0:0:0:
450,144,145097,1,8,0:0:0:0:
371,146,145254,1,0,0:0:0:0:
465,104,145411,1,8,0:0:0:0:
465,104,145568,1,8,0:0:0:0:
399,149,145725,1,0,0:0:0:0:
293,166,145883,1,8,0:0:0:0:
415,114,146040,1,4,0:0:0:0:
370,189,146197,1,0,0:0:0:0:
375,189,146275,1,0,0:0:0:0:
453,134,146354,1,8,0:0:0:0:
499,146,146432,1,0,0:0:0:0:
436,140,146511,1,8,0:0:0:0:
372,106,146668,1,0,0:0:0:0:
383,108,146746,1,0,0:0:0:0:
419,126,146825,1,8,0:0:0:0:
417,175,146982,1,8,0:0:0:0:
462,154,147061,1,0,0:0:0:0:
462,154,147139,1,0,0:0:0:0:
468,152,147218,1,8,0:0:0:0:
462,154,147296,1,8,0:0:0:0:
397,169,147453,1,8,0:0:0:0:
433,171,147532,1,8,0:0:0:0:
383,162,147610,1,0,0:0:0:0:
368,202,147767,1,0,0:0:0:0:
415,175,147924,1,8,0:0:0:0:
398,120,148081,1,0,0:0:0:0:
404,121,148160,1,0,0:0:0:0:
388,136,148239,1,8,0:0:0:0:
321,79,148291,1,8,0:0:0:0:
321,79,148343,1,8,0:0:0:0:
322,130,148396,1,0,0:0:0:0:
264,118,148553,1,8,0:0:0:0:
413,100,148710,1,12,0:0:0:0:
395,149,148867,1,0,0:0:0:0:
332,121,148945,1,0,0:0:0:0:
386,278,149024,1,0,0:0:0:0:
251,165,149181,1,0,0:0:0:0:
448,158,149338,1,8,0:0:0:0:
361,162,149495,1,8,0:0:0:0:
463,140,149574,1,0,0:0:0:0:
466,146,149652,1,8,0:0:0:0:
466,146,149731,1,8,0:0:0:0:
437,142,149809,1,0,0:0:0:0:
137,156,149888,1,0,0:0:0:0:
137,156,149966,1,8,0:0:0:0:
356,129,150045,1,0,0:0:0:0:
356,129,150123,1,8,0:0:0:0:
248,171,150280,1,0,0:0:0:0:
341,180,150437,1,8,0:0:0:0:
423,114,150516,1,0,0:0:0:0:
423,114,150595,1,0,0:0:0:0:
457,129,150673,1,8,0:0:0:0:
435,153,150752,1,0,0:0:0:0:
257,94,150804,1,0,0:0:0:0:
257,94,150856,1,0,0:0:0:0:
257,94,150909,1,0,0:0:0:0:
353,248,150961,1,0,0:0:0:0:
353,248,151013,1,0,0:0:0:0:
402,151,151066,1,8,0:0:0:0:
361,228,151223,1,8,0:0:0:0:
321,168,151301,1,8,0:0:0:0:
227,152,151380,1,0,0:0:0:0:
390,190,151458,1,0,0:0:0:0:
409,141,151537,1,8,0:0:0:0:
450,121,151694,1,0,0:0:0:0:
450,121,151773,1,0,0:0:0:0:
390,127,151851,1,8,0:0:0:0:
396,129,152008,1,8,0:0:0:0:
446,127,152087,1,0,0:0:0:0:
425,140,152165,1,8,0:0:0:0:
259,138,152244,1,0,0:0:0:0:
259,138,152322,1,0,0:0:0:0:
310,161,152401,1,8,0:0:0:0:
333,273,152479,1,0,0:0:0:0:
359,152,152558,1,8,0:0:0:0:
359,152,152636,1,8,0:0:0:0:
487,214,152793,1,0,0:0:0:0:
441,144,152951,1,8,0:0:0:0:
441,144,153029,1,0,0:0:0:0:
441,144,153108,1,0,0:0:0:0:
477,141,153186,1,8,0:0:0:0:
330,149,153265,1,0,0:0:0:0:
330,149,153317,1,0,0:0:0:0:
330,149,153369,1,0,0:0:0:0:
330,149,153422,1,8,0:0:0:0:
452,136,153474,1,8,0:0:0:0:
452,136,153526,1,8,0:0:0:0:
272,161,153579,1,0,0:0:0:0:
339,140,153736,1,12,0:0:0:0:
428,131,153893,1,8,0:0:0:0:
422,158,153972,1,0,0:0:0:0:
422,158,154050,1,0,0:0:0:0:
376,138,154207,1,0,0:0:0:0:
376,138,154364,1,8,0:0:0:0:
376,138,154521,1,8,0:0:0:0:
475,148,154600,1,0,0:0:0:0:
466,153,154678,1,8,0:0:0:0:
453,170,154757,1,0,0:0:0:0:
376,225,154992,5,0,0:0:0:0:
341,175,155150,1,8,0:0:0:0:
374,163,155464,1,8,0:0:0:0:
374,163,155542,1,8,0:0:0:0:
494,145,155699,1,8,0:0:0:0:
481,151,155778,1,0,0:0:0:0:
481,150,155856,1,0,0:0:0:0:
419,131,155935,1,8,0:0:0:0:
459,105,156092,1,4,0:0:0:0:
212,193,156406,1,0,0:0:0:0:
439,169,156563,1,8,0:0:0:0:
439,169,156720,1,8,0:0:0:0:
415,169,156877,1,0,0:0:0:0:
107,202,157034,1,0,0:0:0:0:
107,202,157113,1,0,0:0:0:0:
408,120,157191,1,8,0:0:0:0:
453,154,157348,1,0,0:0:0:0:
454,140,157506,1,8,0:0:0:0:
454,140,157584,1,8,0:0:0:0:
408,149,157663,1,0,0:0:0:0:
210,208,157820,1,0,0:0:0:0:
446,120,157977,1,8,0:0:0:0:
196,202,158134,1,0,0:0:0:0:
448,117,158212,1,0,0:0:0:0:
477,146,158291,1,8,0:0:0:0:
459,136,158369,1,0,0:0:0:0:
165,151,158448,1,8,0:0:0:0:
169,146,158500,1,8,0:0:0:0:
169,146,158553,1,8,0:0:0:0:
169,146,158605,1,0,0:0:0:0:
466,148,158762,1,8,0:0:0:0:
430,145,158841,1,0,0:0:0:0:
385,142,158919,1,8,0:0:0:0:
467,127,159076,1,0,0:0:0:0:
476,160,159155,1,8,0:0:0:0:
458,167,159233,1,0,0:0:0:0:
458,167,159312,1,0,0:0:0:0:
485,160,159390,1,8,0:0:0:0:
485,160,159469,1,8,0:0:0:0:
453,168,159547,1,0,0:0:0:0:
399,97,159704,1,8,0:0:0:0:
399,97,159757,1,8,0:0:0:0:
399,97,159809,1,8,0:0:0:0:
468,148,159862,1,0,0:0:0:0:
463,131,159940,1,8,0:0:0:0:
266,169,160019,1,0,0:0:0:0:
366,141,160176,1,12,0:0:0:0:
437,120,160333,1,12,0:0:0:0:
401,145,160490,1,4,0:0:0:0:
420,155,160647,1,12,0:0:0:0:
381,158,160804,1,12,0:0:0:0:
381,158,160961,1,12,0:0:0:0:
412,164,161118,1,4,0:0:0:0:
329,227,161275,1,0,0:0:0:0:
238,118,161354,1,0,0:0:0:0:
386,152,161432,1,8,0:0:0:0:
428,130,161589,1,0,0:0:0:0:
461,140,161668,1,0,0:0:0:0:
439,124,161746,1,8,0:0:0:0:
409,134,161825,1,0,0:0:0:0:
409,134,161903,1,0,0:0:0:0:
404,155,162061,1,0,0:0:0:0:
406,158,162218,1,8,0:0:0:0:
406,158,162296,1,8,0:0:0:0:
423,157,162375,1,0,0:0:0:0:
437,88,162453,1,0,0:0:0:0:
437,88,162532,1,0,0:0:0:0:
417,152,162610,1,8,0:0:0:0:
417,152,162689,1,8,0:0:0:0:
473,149,162846,1,0,0:0:0:0:
473,166,163003,1,8,0:0:0:0:
457,169,163160,1,0,0:0:0:0:
457,169,163239,1,0,0:0:0:0:
337,158,163317,1,8,0:0:0:0:
351,59,163369,1,8,0:0:0:0:
351,59,163422,1,8,0:0:0:0:
351,59,163474,1,8,0:0:0:0:
351,59,163526,1,8,0:0:0:0:
351,59,163579,1,8,0:0:0:0:
351,59,163631,1,0,0:0:0:0:
362,198,163788,1,0,0:0:0:0:
370,161,163945,1,8,0:0:0:0:
487,144,164102,1,0,0:0:0:0:
499,148,164181,1,8,0:0:0:0:
474,145,164259,1,0,0:0:0:0:
368,181,164338,1,0,0:0:0:0:
363,117,164417,1,8,0:0:0:0:
301,78,164469,1,8,0:0:0:0:
301,78,164521,1,8,0:0:0:0:
450,135,164574,1,0,0:0:0:0:
272,128,164652,1,8,0:0:0:0:
326,202,164731,1,0,0:0:0:0:
442,157,164783,1,8,0:0:0:0:
442,157,164835,1,8,0:0:0:0:
434,154,164888,1,0,0:0:0:0:
256,156,164966,1,0,0:0:0:0:
266,169,165045,1,8,0:0:0:0:
452,102,165202,1,12,0:0:0:0:
445,122,165359,1,12,0:0:0:0:
406,116,165516,1,4,0:0:0:0:
414,149,165673,1,12,0:0:0:0:
487,153,165830,1,4,0:0:0:0:
476,167,165987,1,12,0:0:0:0:
419,171,166144,1,12,0:0:0:0:
315,151,166301,1,0,0:0:0:0:
315,151,166380,1,0,0:0:0:0:
397,124,166458,1,8,0:0:0:0:
466,137,166615,1,0,0:0:0:0:
455,139,166694,1,8,0:0:0:0:
432,131,166773,1,0,0:0:0:0:
435,132,166851,1,0,0:0:0:0:
448,133,166930,1,8,0:0:0:0:
491,152,167008,1,0,0:0:0:0:
430,146,167087,1,8,0:0:0:0:
485,163,167165,1,0,0:0:0:0:
412,139,167244,1,8,0:0:0:0:
418,140,167322,1,8,0:0:0:0:
401,129,167401,1,0,0:0:0:0:
440,168,167479,1,0,0:0:0:0:
449,155,167558,1,8,0:0:0:0:
466,155,167636,1,0,0:0:0:0:
470,158,167715,1,8,0:0:0:0:
448,141,167872,1,0,0:0:0:0:
448,141,167951,1,0,0:0:0:0:
377,133,168029,1,8,0:0:0:0:
381,135,168186,1,8,0:0:0:0:
485,151,168265,1,0,0:0:0:0:
449,155,168343,1,8,0:0:0:0:
336,149,168396,1,8,0:0:0:0:
336,149,168448,1,8,0:0:0:0:
336,149,168500,1,8,0:0:0:0:
336,149,168553,1,8,0:0:0:0:
336,149,168605,1,8,0:0:0:0:
336,149,168657,1,0,0:0:0:0:
317,194,168814,1,0,0:0:0:0:
382,20,168893,1,0,0:0:0:0:
461,157,168972,1,8,0:0:0:0:
320,106,169129,1,0,0:0:0:0:
334,107,169207,1,0,0:0:0:0:
456,144,169286,1,8,0:0:0:0:
439,143,169364,1,0,0:0:0:0:
443,142,169443,1,8,0:0:0:0:
443,151,169521,1,8,0:0:0:0:
412,142,169600,1,0,0:0:0:0:
461,157,169757,1,8,0:0:0:0:
460,156,169835,1,8,0:0:0:0:
451,151,169914,1,0,0:0:0:0:
450,151,170071,1,0,0:0:0:0:
394,156,170228,1,12,0:0:0:0:
294,177,170385,1,12,0:0:0:0:
446,145,170542,1,4,0:0:0:0:
394,169,170699,1,12,0:0:0:0:
397,106,170856,1,4,0:0:0:0:
356,148,171013,1,12,0:0:0:0:
266,204,171170,1,8,0:0:0:0:
436,144,171328,1,0,0:0:0:0:
436,144,171485,1,8,0:0:0:0:
475,151,171563,1,0,0:0:0:0:
452,159,171642,1,8,0:0:0:0:
450,157,171799,1,0,0:0:0:0:
393,108,171877,1,0,0:0:0:0:
419,150,171956,1,8,0:0:0:0:
419,150,172034,1,8,0:0:0:0:
336,168,172113,1,0,0:0:0:0:
336,168,172165,1,0,0:0:0:0:
336,168,172218,1,0,0:0:0:0:
410,157,172270,1,8,0:0:0:0:
328,165,172427,1,0,0:0:0:0:
421,160,172584,1,8,0:0:0:0:
217,62,172663,1,0,0:0:0:0:
347,111,172741,1,8,0:0:0:0:
485,165,172820,1,0,0:0:0:0:
485,165,172898,1,0,0:0:0:0:
424,168,173055,1,8,0:0:0:0:
458,147,173212,1,0,0:0:0:0:
458,147,173291,1,0,0:0:0:0:
346,182,173369,1,8,0:0:0:0:
300,151,173422,1,8,0:0:0:0:
300,151,173474,1,8,0:0:0:0:
300,151,173526,1,8,0:0:0:0:
300,151,173579,1,8,0:0:0:0:
300,151,173631,1,8,0:0:0:0:
395,133,173684,1,0,0:0:0:0:
272,238,173841,1,0,0:0:0:0:
272,238,173919,1,0,0:0:0:0:
398,137,173998,1,8,0:0:0:0:
498,135,174155,1,0,0:0:0:0:
472,149,174233,1,8,0:0:0:0:
466,162,174312,1,0,0:0:0:0:
468,162,174390,1,0,0:0:0:0:
486,160,174469,1,8,0:0:0:0:
455,158,174547,1,0,0:0:0:0:
453,130,174626,1,8,0:0:0:0:
457,157,174704,1,0,0:0:0:0:
421,151,174783,1,8,0:0:0:0:
421,151,174862,1,8,0:0:0:0:
403,142,174940,1,0,0:0:0:0:
374,163,175568,1,8,0:0:0:0:
374,163,175647,1,8,0:0:0:0:
494,145,175804,1,8,0:0:0:0:
481,151,175883,1,0,0:0:0:0:
481,150,175961,1,0,0:0:0:0:
419,131,176040,1,8,0:0:0:0:
459,105,176197,1,4,0:0:0:0:
231,51,176354,1,0,0:0:0:0:
288,156,176511,1,8,0:0:0:0:
409,126,176668,1,8,0:0:0:0:
409,126,176746,1,8,0:0:0:0:
426,142,176825,1,0,0:0:0:0:
426,142,176903,1,0,0:0:0:0:
463,153,176982,1,8,0:0:0:0:
463,153,177061,1,8,0:0:0:0:
446,148,177139,1,0,0:0:0:0:
446,148,177218,1,0,0:0:0:0:
404,147,177296,1,8,0:0:0:0:
249,185,177348,1,8,0:0:0:0:
249,185,177401,1,8,0:0:0:0:
340,126,177453,1,0,0:0:0:0:
432,106,177610,1,8,0:0:0:0:
373,168,177767,1,0,0:0:0:0:
412,189,177924,1,0,0:0:0:0:
387,127,178003,1,0,0:0:0:0:
448,135,178081,1,8,0:0:0:0:
448,135,178134,1,8,0:0:0:0:
448,135,178186,1,8,0:0:0:0:
426,125,178239,1,0,0:0:0:0:
426,125,178291,1,0,0:0:0:0:
426,125,178343,1,0,0:0:0:0:
385,136,178396,1,8,0:0:0:0:
363,123,178553,1,8,0:0:0:0:
399,160,178710,1,0,0:0:0:0:
472,159,178867,1,0,0:0:0:0:
472,159,178945,1,0,0:0:0:0:
421,127,179024,1,8,0:0:0:0:
391,139,179181,1,8,0:0:0:0:
390,139,179233,1,8,0:0:0:0:
390,139,179286,1,8,0:0:0:0:
430,140,179338,1,0,0:0:0:0:
451,179,179495,1,0,0:0:0:0:
428,158,179574,1,8,0:0:0:0:
428,158,179652,1,8,0:0:0:0:
424,111,179809,1,0,0:0:0:0:
401,153,179966,1,8,0:0:0:0:
348,65,180019,5,8,0:0:0:0:
348,65,180071,1,8,0:0:0:0:
379,142,180123,1,0,0:0:0:0:
351,177,180280,1,0,0:0:0:0:
364,168,180437,1,8,0:0:0:0:
425,163,180555,1,0,0:0:0:0:
425,163,180595,1,0,0:0:0:0:
383,90,180752,1,0,0:0:0:0:
407,115,180909,5,8,0:0:0:0:
398,166,181066,1,8,0:0:0:0:
398,166,181118,1,8,0:0:0:0:
437,166,181170,1,8,0:0:0:0:
459,160,181223,1,0,0:0:0:0:
332,111,181380,1,0,0:0:0:0:
354,155,181537,1,0,0:0:0:0:
354,155,181615,1,0,0:0:0:0:
411,135,181694,1,8,0:0:0:0:
411,135,181773,1,8,0:0:0:0:
435,114,181851,1,0,0:0:0:0:
435,114,181930,1,0,0:0:0:0:
411,135,182008,1,8,0:0:0:0:
411,135,182087,1,8,0:0:0:0:
446,162,182165,1,0,0:0:0:0:
446,162,182244,1,0,0:0:0:0:
347,135,182322,1,0,0:0:0:0:
415,158,182479,1,8,0:0:0:0:
329,158,182532,1,8,0:0:0:0:
329,158,182584,1,8,0:0:0:0:
267,145,182636,1,0,0:0:0:0:
317,157,182793,1,0,0:0:0:0:
317,157,182833,1,0,0:0:0:0:
301,80,182951,1,0,0:0:0:0:
395,75,183108,1,8,0:0:0:0:
395,75,183160,1,8,0:0:0:0:
395,75,183212,1,0,0:0:0:0:
370,138,183265,1,0,0:0:0:0:
370,138,183317,1,0,0:0:0:0:
370,138,183369,1,0,0:0:0:0:
430,155,183422,1,8,0:0:0:0:
430,155,183474,1,8,0:0:0:0:
430,155,183526,1,8,0:0:0:0:
430,155,183579,1,0,0:0:0:0:
440,137,183736,1,0,0:0:0:0:
329,127,183893,1,8,0:0:0:0:
283,97,183972,1,8,0:0:0:0:
408,151,184050,1,0,0:0:0:0:
373,101,184207,1,0,0:0:0:0:
373,101,184259,1,0,0:0:0:0:
373,101,184312,1,0,0:0:0:0:
396,126,184364,1,8,0:0:0:0:
423,144,184521,1,0,0:0:0:0:
350,184,184678,1,8,0:0:0:0:
376,144,184835,1,0,0:0:0:0:
376,144,184888,1,0,0:0:0:0:
376,144,184940,1,0,0:0:0:0:
355,166,184992,1,8,0:0:0:0:
356,106,185150,1,0,0:0:0:0:
356,106,185202,1,0,0:0:0:0:
356,106,185254,1,0,0:0:0:0:
429,144,185307,1,8,0:0:0:0:
399,155,185464,1,0,0:0:0:0:
399,155,185516,1,0,0:0:0:0:
399,155,185568,1,0,0:0:0:0:
454,138,185621,1,8,0:0:0:0:
310,80,185699,1,0,0:0:0:0:
310,80,185778,1,0,0:0:0:0:
310,80,185856,1,0,0:0:0:0:
342,104,185935,1,8,0:0:0:0:
445,103,186092,1,8,0:0:0:0:
445,103,186170,1,8,0:0:0:0:
468,97,186249,1,4,0:0:0:0:
347,197,186406,1,0,0:0:0:0:
347,197,186563,1,0,0:0:0:0:
347,197,186642,1,0,0:0:0:0:
421,146,186720,1,8,0:0:0:0:
421,146,186799,1,8,0:0:0:0:
463,162,186877,1,0,0:0:0:0:
463,162,186956,1,0,0:0:0:0:
477,155,187034,1,8,0:0:0:0:
472,154,187113,1,8,0:0:0:0:
379,155,187191,1,0,0:0:0:0:
386,170,187270,1,0,0:0:0:0:
376,126,187348,1,8,0:0:0:0:
315,158,187506,1,0,0:0:0:0:
386,40,187558,1,0,0:0:0:0:
386,40,187610,1,0,0:0:0:0:
474,141,187663,1,8,0:0:0:0:
378,220,187820,1,8,0:0:0:0:
378,220,187859,1,8,0:0:0:0:
357,109,187977,1,0,0:0:0:0:
313,211,188134,1,8,0:0:0:0:
313,211,188186,1,8,0:0:0:0:
313,211,188239,1,8,0:0:0:0:
456,146,188291,1,0,0:0:0:0:
430,181,188448,1,0,0:0:0:0:
455,162,188605,1,8,0:0:0:0:
474,155,188762,1,0,0:0:0:0:
361,91,188841,1,0,0:0:0:0:
405,127,188919,1,8,0:0:0:0:
471,125,189076,1,8,0:0:0:0:
434,162,189233,1,0,0:0:0:0:
368,70,189286,1,0,0:0:0:0:
368,71,189338,1,0,0:0:0:0:
400,151,189390,1,8,0:0:0:0:
467,135,189547,1,0,0:0:0:0:
455,164,189704,1,8,0:0:0:0:
360,186,189862,1,0,0:0:0:0:
461,157,190019,1,8,0:0:0:0:
461,157,190071,1,8,0:0:0:0:
461,157,190123,1,8,0:0:0:0:
450,151,190176,1,0,0:0:0:0:
400,80,190333,1,8,0:0:0:0:
402,136,190411,1,0,0:0:0:0:
453,148,190490,1,8,0:0:0:0:
254,168,190568,1,0,0:0:0:0:
254,168,190647,1,0,0:0:0:0:
379,197,190804,1,0,0:0:0:0:
482,168,190961,1,8,0:0:0:0:
394,168,191118,1,0,0:0:0:0:
413,143,191275,1,8,0:0:0:0:
413,143,191354,1,8,0:0:0:0:
404,159,191432,1,0,0:0:0:0:
442,195,191589,1,0,0:0:0:0:
442,195,191668,1,0,0:0:0:0:
467,162,191746,1,8,0:0:0:0:
467,162,191825,1,8,0:0:0:0:
455,160,191903,1,0,0:0:0:0:
455,160,191982,1,0,0:0:0:0:
450,153,192061,1,8,0:0:0:0:
450,153,192139,1,8,0:0:0:0:
370,136,192218,1,0,0:0:0:0:
370,136,192296,1,0,0:0:0:0:
397,133,192375,1,8,0:0:0:0:
397,133,192453,1,8,0:0:0:0:
370,136,192532,1,0,0:0:0:0:
370,136,192584,1,0,0:0:0:0:
370,136,192636,1,0,0:0:0:0:
318,141,192689,1,8,0:0:0:0:
374,201,192846,1,8,0:0:0:0:
276,71,192924,1,8,0:0:0:0:
362,154,193003,1,0,0:0:0:0:
400,152,193160,1,8,0:0:0:0:
399,152,193212,1,8,0:0:0:0:
400,152,193265,1,8,0:0:0:0:
386,160,193317,1,0,0:0:0:0:
386,159,193369,1,0,0:0:0:0:
388,158,193422,1,0,0:0:0:0:
375,164,193474,1,8,0:0:0:0:
454,148,193631,1,8,0:0:0:0:
377,74,193788,1,0,0:0:0:0:
392,117,193867,1,8,0:0:0:0:
392,117,193945,1,8,0:0:0:0:
316,228,194102,1,8,0:0:0:0:
381,147,194259,1,0,0:0:0:0:
381,147,194312,1,0,0:0:0:0:
381,147,194364,1,0,0:0:0:0:
405,155,194417,1,8,0:0:0:0:
477,159,194574,1,8,0:0:0:0:
355,198,194652,1,8,0:0:0:0:
332,138,194731,1,0,0:0:0:0:
354,117,194888,1,8,0:0:0:0:
354,117,194966,1,8,0:0:0:0:
449,148,195045,1,8,0:0:0:0:
449,148,195097,1,8,0:0:0:0:
449,148,195150,1,8,0:0:0:0:
411,150,195202,1,0,0:0:0:0:
384,254,195359,1,0,0:0:0:0:
384,254,195437,1,0,0:0:0:0:
481,131,195516,1,8,0:0:0:0:
479,149,195595,1,0,0:0:0:0:
476,148,195673,1,0,0:0:0:0:
487,158,195830,1,8,0:0:0:0:
460,145,195909,1,0,0:0:0:0:
446,141,195987,1,8,0:0:0:0:
446,141,196066,1,8,0:0:0:0:
446,141,196144,1,8,0:0:0:0:
256,192,196301,12,0,197401,0:0:0:0:
430,113,197558,5,4,0:0:0:0:
463,158,197872,1,8,0:0:0:0:
438,159,198029,1,0,0:0:0:0:
399,179,198343,1,0,0:0:0:0:
306,104,198657,1,8,0:0:0:0:
268,252,199286,1,8,0:0:0:0:
371,140,199914,1,0,0:0:0:0:
349,140,200071,1,8,0:0:0:0:
271,249,200542,1,8,0:0:0:0:
271,249,200856,1,8,0:0:0:0:
205,158,201170,1,0,0:0:0:0:
254,96,201485,1,8,0:0:0:0:
352,115,201799,1,0,0:0:0:0:
161,60,201956,1,0,0:0:0:0:
452,128,202113,1,8,0:0:0:0:
455,163,202270,1,0,0:0:0:0:
394,168,202427,1,8,0:0:0:0:
378,152,202584,1,0,0:0:0:0:
480,127,202898,1,8,0:0:0:0:
416,162,203055,1,0,0:0:0:0:
283,149,203369,1,8,0:0:0:0:
261,115,203684,1,8,0:0:0:0:
365,125,203841,1,0,0:0:0:0:
198,124,204312,1,8,0:0:0:0:
330,188,204783,1,0,0:0:0:0:
353,117,204940,1,0,0:0:0:0:
276,157,205097,1,8,0:0:0:0:
341,223,205411,1,0,0:0:0:0:
304,119,205569,1,8,0:0:0:0:
304,119,205883,1,8,0:0:0:0:
217,159,206197,1,0,0:0:0:0:
269,156,206511,1,8,0:0:0:0:
446,126,206825,1,0,0:0:0:0:
446,126,206982,1,0,0:0:0:0:
415,153,207139,1,8,0:0:0:0:
346,166,207296,1,0,0:0:0:0:
457,120,207453,1,8,0:0:0:0:
345,124,207610,1,4,0:0:0:0:
277,189,207924,1,0,0:0:0:0:
444,163,208081,1,8,0:0:0:0:
415,158,208239,1,0,0:0:0:0:
373,185,208396,1,0,0:0:0:0:
326,171,208553,1,8,0:0:0:0:
329,195,208710,1,8,0:0:0:0:
329,195,208788,1,8,0:0:0:0:
346,138,208867,1,0,0:0:0:0:
392,163,209024,1,0,0:0:0:0:
365,128,209181,1,8,0:0:0:0:
377,128,209338,1,0,0:0:0:0:
283,153,209390,1,0,0:0:0:0:
283,153,209443,1,0,0:0:0:0:
306,146,209495,1,8,0:0:0:0:
487,160,209652,1,0,0:0:0:0:
244,172,209731,1,0,0:0:0:0:
458,157,209809,1,8,0:0:0:0:
336,166,209966,5,8,0:0:0:0:
336,166,210045,1,8,0:0:0:0:
325,149,210123,1,0,0:0:0:0:
430,131,210280,1,0,0:0:0:0:
432,153,210437,1,8,0:0:0:0:
429,151,210595,1,8,0:0:0:0:
429,151,210673,1,8,0:0:0:0:
406,146,210752,1,0,0:0:0:0:
410,146,210909,1,0,0:0:0:0:
406,146,211066,1,8,0:0:0:0:
481,148,211223,1,8,0:0:0:0:
481,148,211301,1,0,0:0:0:0:
481,148,211380,1,0,0:0:0:0:
420,174,211537,1,0,0:0:0:0:
469,163,211694,1,8,0:0:0:0:
442,154,211851,1,0,0:0:0:0:
144,188,211903,1,0,0:0:0:0:
144,188,211956,1,0,0:0:0:0:
406,149,212008,1,8,0:0:0:0:
272,129,212087,1,0,0:0:0:0:
406,149,212165,1,8,0:0:0:0:
415,166,212244,1,8,0:0:0:0:
312,157,212322,1,0,0:0:0:0:
360,117,212479,1,8,0:0:0:0:
365,117,212558,1,8,0:0:0:0:
372,120,212636,1,0,0:0:0:0:
313,173,212793,1,0,0:0:0:0:
332,157,212951,1,8,0:0:0:0:
408,164,213108,1,8,0:0:0:0:
428,162,213265,1,0,0:0:0:0:
448,160,213422,1,8,0:0:0:0:
457,160,213579,1,0,0:0:0:0:
230,35,213736,5,0,0:0:0:0:
230,35,213814,1,0,0:0:0:0:
431,138,213893,1,8,0:0:0:0:
293,122,214050,1,0,0:0:0:0:
308,126,214207,1,0,0:0:0:0:
456,142,214364,1,8,0:0:0:0:
465,146,214443,1,0,0:0:0:0:
460,147,214521,1,8,0:0:0:0:
352,168,214678,1,0,0:0:0:0:
352,168,214757,1,0,0:0:0:0:
385,128,214835,1,8,0:0:0:0:
393,115,214992,1,4,0:0:0:0:
256,192,215150,12,12,217034,0:0:0:0:
276,152,217191,5,0,0:0:0:0:
266,152,217506,1,0,0:0:0:0:
465,127,217663,1,12,0:0:0:0:
469,149,217977,1,8,0:0:0:0:
374,162,218134,1,0,0:0:0:0:
285,155,218448,1,0,0:0:0:0:
438,138,218605,1,8,0:0:0:0:
372,217,218919,1,0,0:0:0:0:
207,159,219076,1,8,0:0:0:0:
165,168,219704,1,0,0:0:0:0:
259,235,220333,1,0,0:0:0:0:
272,272,220804,1,0,0:0:0:0:
220,148,221275,1,0,0:0:0:0:
315,153,221432,1,8,0:0:0:0:
328,222,221589,1,0,0:0:0:0:
357,185,222061,1,8,0:0:0:0:
380,135,222689,1,8,0:0:0:0:
297,166,223160,1,0,0:0:0:0:
361,148,223631,1,8,0:0:0:0:
169,95,224102,5,8,0:0:0:0:
177,140,224259,1,0,0:0:0:0:
219,48,224417,1,8,0:0:0:0:
328,246,224731,1,8,0:0:0:0:
229,146,224888,1,0,0:0:0:0:
229,146,225045,1,0,0:0:0:0:
341,192,225359,5,0,0:0:0:0:
374,133,225516,1,8,0:0:0:0:
245,143,225830,1,0,0:0:0:0:
272,175,225987,1,8,0:0:0:0:
472,159,226301,1,0,0:0:0:0:
317,120,226458,1,8,0:0:0:0:
478,151,226773,1,0,0:0:0:0:
347,211,226930,1,8,0:0:0:0:
372,125,227087,1,8,0:0:0:0:
352,192,227244,1,0,0:0:0:0:
510,360,227401,1,0,0:0:0:0:
288,128,227558,1,8,0:0:0:0:
288,128,227715,1,8,0:0:0:0:
448,128,228029,1,0,0:0:0:0:
384,192,228186,1,8,0:0:0:0:
384,192,228343,1,0,0:0:0:0:
255,129,228422,1,0,0:0:0:0:
255,129,228500,1,0,0:0:0:0:
255,129,228579,1,0,0:0:0:0:
384,192,228657,1,8,0:0:0:0:
448,160,228814,1,8,0:0:0:0:
337,126,228893,1,8,0:0:0:0:
416,160,228972,1,0,0:0:0:0:
416,160,229129,1,0,0:0:0:0:
416,160,229207,1,0,0:0:0:0:
448,160,229286,1,8,0:0:0:0:
412,158,229364,1,0,0:0:0:0:
448,160,229443,1,8,0:0:0:0:
192,29,229600,1,0,0:0:0:0:
372,169,229757,1,8,0:0:0:0:
384,160,229914,1,0,0:0:0:0:
410,120,229992,1,8,0:0:0:0:
410,120,230071,1,8,0:0:0:0:
410,120,230150,1,8,0:0:0:0:
384,160,230228,1,0,0:0:0:0:
304,211,230385,1,0,0:0:0:0:
448,128,230542,1,8,0:0:0:0:
448,160,230699,1,0,0:0:0:0:
416,160,230856,1,8,0:0:0:0:
337,130,231013,1,8,0:0:0:0:
337,130,231092,1,8,0:0:0:0:
384,128,231170,1,0,0:0:0:0:
384,128,231328,1,0,0:0:0:0:
320,160,231485,1,8,0:0:0:0:
223,148,231563,1,8,0:0:0:0:
352,160,231642,1,0,0:0:0:0:
400,121,231720,1,8,0:0:0:0:
352,160,231799,1,0,0:0:0:0:
352,160,231956,1,0,0:0:0:0:
384,160,232113,1,8,0:0:0:0:
285,129,232270,1,0,0:0:0:0:
352,192,232427,1,0,0:0:0:0:
209,128,232506,1,8,0:0:0:0:
352,192,232584,1,0,0:0:0:0:
365,167,232663,1,0,0:0:0:0:
384,160,232741,1,8,0:0:0:0:
326,224,232898,1,8,0:0:0:0:
448,128,233055,1,0,0:0:0:0:
448,160,233212,1,8,0:0:0:0:
252,132,233369,1,0,0:0:0:0:
436,135,233448,1,0,0:0:0:0:
448,160,233526,1,0,0:0:0:0:
384,160,233684,1,8,0:0:0:0:
399,169,233762,1,0,0:0:0:0:
391,121,233841,1,8,0:0:0:0:
384,192,233998,1,0,0:0:0:0:
288,160,234155,5,0,0:0:0:0:
448,160,234312,1,8,0:0:0:0:
448,160,234469,1,0,0:0:0:0:
448,160,234547,1,0,0:0:0:0:
352,160,234626,1,8,0:0:0:0:
384,96,234783,1,0,0:0:0:0:
217,162,234862,1,0,0:0:0:0:
375,145,234940,1,0,0:0:0:0:
328,164,235019,1,0,0:0:0:0:
416,160,235097,1,8,0:0:0:0:
320,160,235254,1,0,0:0:0:0:
397,167,235411,1,0,0:0:0:0:
480,128,235568,1,8,0:0:0:0:
480,160,235725,1,0,0:0:0:0:
113,44,235804,1,8,0:0:0:0:
448,160,235883,1,0,0:0:0:0:
350,125,236040,1,8,0:0:0:0:
350,125,236118,1,8,0:0:0:0:
399,117,236197,1,0,0:0:0:0:
384,160,236354,1,0,0:0:0:0:
313,228,236432,1,0,0:0:0:0:
288,160,236511,1,8,0:0:0:0:
345,155,236668,1,0,0:0:0:0:
472,145,236746,1,8,0:0:0:0:
480,128,236825,1,0,0:0:0:0:
359,165,236903,1,0,0:0:0:0:
448,160,236982,1,8,0:0:0:0:
448,160,237139,1,0,0:0:0:0:
384,160,237296,1,8,0:0:0:0:
281,111,237453,1,8,0:0:0:0:
180,0,237532,1,0,0:0:0:0:
180,0,237610,1,0,0:0:0:0:
180,0,237689,1,0,0:0:0:0:
384,160,237767,1,8,0:0:0:0:
205,191,237924,1,0,0:0:0:0:
205,191,238003,1,0,0:0:0:0:
305,117,238081,1,8,0:0:0:0:
416,160,238239,1,0,0:0:0:0:
485,143,238317,1,8,0:0:0:0:
361,133,238396,1,0,0:0:0:0:
361,133,238474,1,0,0:0:0:0:
439,170,238553,1,8,0:0:0:0:
437,170,238631,1,8,0:0:0:0:
448,128,238710,1,0,0:0:0:0:
480,160,238867,1,8,0:0:0:0:
449,141,238945,1,8,0:0:0:0:
448,160,239024,1,0,0:0:0:0:
423,155,239102,1,0,0:0:0:0:
448,160,239181,1,8,0:0:0:0:
338,128,239259,1,0,0:0:0:0:
416,160,239338,1,8,0:0:0:0:
416,160,239495,1,0,0:0:0:0:
416,160,239574,1,0,0:0:0:0:
384,128,239652,1,8,0:0:0:0:
480,160,239809,1,0,0:0:0:0:
448,160,239966,1,8,0:0:0:0:
278,117,240045,1,8,0:0:0:0:
322,151,240123,1,8,0:0:0:0:
322,151,240202,1,8,0:0:0:0:
448,160,240280,1,0,0:0:0:0:
140,186,240437,1,0,0:0:0:0:
197,188,240516,1,0,0:0:0:0:
480,160,240595,1,8,0:0:0:0:
480,160,240752,1,0,0:0:0:0:
448,160,240909,1,8,0:0:0:0:
448,160,241066,1,0,0:0:0:0:
448,160,241144,1,8,0:0:0:0:
448,160,241223,1,0,0:0:0:0:
205,258,241301,1,0,0:0:0:0:
448,160,241380,1,8,0:0:0:0:
323,150,241458,1,8,0:0:0:0:
448,160,241537,1,0,0:0:0:0:
395,128,241615,1,8,0:0:0:0:
166,159,241694,1,8,0:0:0:0:
166,159,241773,1,0,0:0:0:0:
166,159,241851,1,8,0:0:0:0:
505,365,242008,1,0,0:0:0:0:
480,160,242165,1,8,0:0:0:0:
284,175,242322,1,0,0:0:0:0:
284,175,242479,1,0,0:0:0:0:
321,177,242558,1,0,0:0:0:0:
403,153,242636,1,8,0:0:0:0:
403,153,242715,1,8,0:0:0:0:
480,128,242793,1,0,0:0:0:0:
373,202,242951,1,0,0:0:0:0:
337,159,243029,1,0,0:0:0:0:
380,178,243108,1,8,0:0:0:0:
224,192,243265,1,8,0:0:0:0:
338,148,243343,1,8,0:0:0:0:
404,156,243422,1,0,0:0:0:0:
422,194,243579,1,0,0:0:0:0:
320,160,243736,1,8,0:0:0:0:
424,153,243893,1,8,0:0:0:0:
424,153,243972,1,8,0:0:0:0:
339,155,244050,1,0,0:0:0:0:
232,179,244129,1,0,0:0:0:0:
352,128,244207,1,8,0:0:0:0:
253,119,244286,1,8,0:0:0:0:
352,128,244364,1,0,0:0:0:0:
365,179,244521,1,0,0:0:0:0:
350,151,244600,1,8,0:0:0:0:
448,128,244678,1,0,0:0:0:0:
416,160,244835,1,8,0:0:0:0:
451,144,244992,1,8,0:0:0:0:
452,144,245071,1,8,0:0:0:0:
429,138,245150,1,0,0:0:0:0:
384,160,245307,1,0,0:0:0:0:
384,160,245464,1,0,0:0:0:0:
448,128,245621,1,8,0:0:0:0:
435,171,245778,1,0,0:0:0:0:
403,151,245856,1,8,0:0:0:0:
416,128,245935,1,0,0:0:0:0:
288,128,246092,1,8,0:0:0:0:
368,162,246249,1,0,0:0:0:0:
448,128,246406,1,0,0:0:0:0:
237,128,246485,1,0,0:0:0:0:
384,160,246563,1,8,0:0:0:0:
327,211,246720,1,0,0:0:0:0:
327,211,246799,1,8,0:0:0:0:
200,159,246877,1,0,0:0:0:0:
200,159,246956,1,0,0:0:0:0:
384,160,247034,1,8,0:0:0:0:
240,166,247191,1,0,0:0:0:0:
416,160,247348,1,8,0:0:0:0:
466,140,247506,1,8,0:0:0:0:
382,131,247584,1,0,0:0:0:0:
394,166,247663,1,8,0:0:0:0:
394,166,247741,1,8,0:0:0:0:
381,140,247820,1,0,0:0:0:0:
195,131,247977,1,0,0:0:0:0:
302,135,248055,1,0,0:0:0:0:
386,145,248134,1,8,0:0:0:0:
402,149,248291,1,8,0:0:0:0:
351,138,248369,1,8,0:0:0:0:
408,148,248448,1,0,0:0:0:0:
137,4,248526,1,0,0:0:0:0:
313,165,248605,1,8,0:0:0:0:
402,115,248762,1,8,0:0:0:0:
382,186,248919,1,0,0:0:0:0:
357,191,249076,1,0,0:0:0:0:
348,171,249233,1,8,0:0:0:0:
425,153,249312,1,8,0:0:0:0:
468,149,249390,1,0,0:0:0:0:
380,158,249547,1,0,0:0:0:0:
382,186,249704,1,8,0:0:0:0:
192,169,249862,1,0,0:0:0:0:
206,169,249940,1,0,0:0:0:0:
308,119,250019,1,8,0:0:0:0:
275,178,250097,1,0,0:0:0:0:
400,154,250176,1,8,0:0:0:0:
400,154,250333,1,0,0:0:0:0:
498,153,250647,1,8,0:0:0:0:
417,164,250804,1,0,0:0:0:0:
419,166,250961,1,0,0:0:0:0:
284,238,251040,1,0,0:0:0:0:
361,162,251118,1,8,0:0:0:0:
282,251,251275,1,0,0:0:0:0:
448,151,251432,1,0,0:0:0:0:
422,156,251511,1,8,0:0:0:0:
448,151,251589,1,0,0:0:0:0:
439,152,251746,1,0,0:0:0:0:
439,152,251825,1,0,0:0:0:0:
456,128,251903,1,8,0:0:0:0:
432,147,252061,1,0,0:0:0:0:
401,156,252218,1,8,0:0:0:0:
184,167,252375,1,0,0:0:0:0:
233,95,252453,1,8,0:0:0:0:
506,154,252532,1,0,0:0:0:0:
408,113,252610,1,0,0:0:0:0:
472,153,252689,1,8,0:0:0:0:
345,160,252767,1,8,0:0:0:0:
412,149,252846,1,0,0:0:0:0:
256,192,252924,12,0,255516,0:0:0:0:
316,96,255673,5,8,0:0:0:0:
256,192,256301,12,0,257715,0:0:0:0:
394,112,257872,5,4,0:0:0:0:
362,158,258500,1,0,0:0:0:0:
362,158,258579,1,0,0:0:0:0:
362,158,258657,1,0,0:0:0:0:
362,158,258736,1,0,0:0:0:0:
362,158,258814,1,0,0:0:0:0:
362,158,258893,1,0,0:0:0:0:
362,158,258972,1,0,0:0:0:0:
362,158,259050,1,0,0:0:0:0:
362,158,259129,1,0,0:0:0:0:
362,158,259207,1,0,0:0:0:0:
362,158,259286,1,0,0:0:0:0:
362,158,259364,1,0,0:0:0:0:
362,158,259443,1,0,0:0:0:0:
359,255,259521,1,0,0:0:0:0:
359,255,259600,1,0,0:0:0:0:
359,255,259678,1,0,0:0:0:0:
359,255,259757,1,0,0:0:0:0:
359,255,259835,1,0,0:0:0:0:
359,255,259914,1,8,0:0:0:0:
359,255,259992,1,0,0:0:0:0:
359,255,260071,1,0,0:0:0:0:
359,255,260150,1,0,0:0:0:0:
449,140,260228,5,12,0:0:0:0:
338,163,260385,1,0,0:0:0:0:
338,163,260463,1,0,0:0:0:0:
338,163,260542,1,0,0:0:0:0:
415,159,260699,1,8,0:0:0:0:
415,159,260777,1,8,0:0:0:0:
432,151,260856,1,0,0:0:0:0:
440,152,260934,1,0,0:0:0:0:
409,156,261013,1,8,0:0:0:0:
403,188,261170,1,8,0:0:0:0:
403,188,261248,1,8,0:0:0:0:
479,168,261327,1,0,0:0:0:0:
479,168,261406,1,0,0:0:0:0:
479,168,261484,1,0,0:0:0:0:
338,200,261641,1,0,0:0:0:0:
338,200,261798,1,0,0:0:0:0:
338,200,261877,1,0,0:0:0:0:
386,158,261955,1,8,0:0:0:0:
433,155,262112,1,8,0:0:0:0:
433,155,262191,1,8,0:0:0:0:
448,148,262269,1,0,0:0:0:0:
448,148,262348,1,0,0:0:0:0:
426,149,262426,1,8,0:0:0:0:
426,149,262505,1,8,0:0:0:0:
433,155,262584,1,8,0:0:0:0:
341,253,262662,1,8,0:0:0:0:
479,163,262741,1,0,0:0:0:0:
451,164,262819,1,8,0:0:0:0:
285,151,262898,1,0,0:0:0:0:
425,144,263055,1,8,0:0:0:0:
430,165,263212,1,0,0:0:0:0:
382,202,263369,1,8,0:0:0:0:
382,202,263447,1,0,0:0:0:0:
403,166,263526,1,0,0:0:0:0:
403,166,263604,1,8,0:0:0:0:
445,169,263683,1,0,0:0:0:0:
385,173,263840,1,8,0:0:0:0:
340,133,263919,1,8,0:0:0:0:
235,154,263997,5,0,0:0:0:0:
355,241,264154,1,0,0:0:0:0:
452,163,264311,1,0,0:0:0:0:
407,187,264468,1,8,0:0:0:0:
407,187,264547,1,8,0:0:0:0:
468,151,264625,1,0,0:0:0:0:
468,154,264704,1,8,0:0:0:0:
409,160,264782,1,0,0:0:0:0:
435,160,264940,1,8,0:0:0:0:
435,160,265018,1,8,0:0:0:0:
430,160,265097,1,0,0:0:0:0:
430,160,265175,1,0,0:0:0:0:
430,160,265254,1,0,0:0:0:0:
370,202,265411,1,0,0:0:0:0:
367,168,265568,1,8,0:0:0:0:
425,117,265725,1,4,0:0:0:0:
348,200,265882,1,0,0:0:0:0:
348,200,265960,1,0,0:0:0:0:
401,148,266039,1,8,0:0:0:0:
401,148,266196,1,8,0:0:0:0:
399,158,266353,1,0,0:0:0:0:
359,182,266510,1,0,0:0:0:0:
359,182,266589,1,0,0:0:0:0:
359,182,266667,1,0,0:0:0:0:
359,182,266746,1,0,0:0:0:0:
359,182,266824,1,0,0:0:0:0:
434,131,266981,1,8,0:0:0:0:
434,131,267060,1,8,0:0:0:0:
421,146,267138,1,0,0:0:0:0:
394,146,267217,1,8,0:0:0:0:
380,144,267296,1,0,0:0:0:0:
385,144,267374,1,0,0:0:0:0:
416,141,267453,1,8,0:0:0:0:
182,158,267531,1,8,0:0:0:0:
289,123,267610,1,0,0:0:0:0:
379,175,267767,1,8,0:0:0:0:
425,158,267924,1,0,0:0:0:0:
425,158,268002,1,0,0:0:0:0:
463,158,268081,1,8,0:0:0:0:
463,158,268159,1,8,0:0:0:0:
412,159,268238,1,4,0:0:0:0:
350,198,268395,1,0,0:0:0:0:
350,198,268474,1,0,0:0:0:0:
279,158,268552,1,8,0:0:0:0:
297,159,268709,1,8,0:0:0:0:
297,159,268788,1,8,0:0:0:0:
411,141,268866,1,0,0:0:0:0:
305,236,268945,1,0,0:0:0:0:
304,168,269023,1,12,0:0:0:0:
340,161,269180,1,0,0:0:0:0:
455,141,269337,1,12,0:0:0:0:
406,159,269495,1,0,0:0:0:0:
481,168,269652,1,12,0:0:0:0:
424,168,269809,1,0,0:0:0:0:
491,148,269966,1,12,0:0:0:0:
436,172,270123,1,8,0:0:0:0:
457,125,270280,1,4,0:0:0:0:
455,357,270437,1,0,0:0:0:0:
299,197,270594,1,0,0:0:0:0:
299,197,270673,1,0,0:0:0:0:
370,153,270751,1,8,0:0:0:0:
370,153,270830,1,8,0:0:0:0:
362,173,270908,1,0,0:0:0:0:
362,173,270987,1,0,0:0:0:0:
365,163,271065,1,8,0:0:0:0:
365,163,271144,1,8,0:0:0:0:
455,163,271222,1,0,0:0:0:0:
473,168,271379,1,0,0:0:0:0:
352,157,271458,1,8,0:0:0:0:
352,157,271536,1,8,0:0:0:0:
458,132,271589,1,8,0:0:0:0:
458,132,271641,1,8,0:0:0:0:
450,142,271693,1,0,0:0:0:0:
455,163,271851,1,8,0:0:0:0:
376,170,272008,1,0,0:0:0:0:
285,181,272060,1,0,0:0:0:0:
285,181,272112,1,0,0:0:0:0:
430,144,272165,1,8,0:0:0:0:
161,33,272322,1,0,0:0:0:0:
381,162,272400,1,8,0:0:0:0:
381,162,272479,1,8,0:0:0:0:
428,115,272636,1,4,0:0:0:0:
406,120,272793,1,8,0:0:0:0:
406,120,272871,1,8,0:0:0:0:
406,146,272950,1,0,0:0:0:0:
405,208,273107,1,0,0:0:0:0:
405,208,273186,1,0,0:0:0:0:
459,171,273264,1,8,0:0:0:0:
459,171,273343,1,8,0:0:0:0:
435,156,273421,1,0,0:0:0:0:
425,115,273578,1,8,0:0:0:0:
425,115,273657,1,8,0:0:0:0:
412,137,273735,1,0,0:0:0:0:
412,137,273814,1,0,0:0:0:0:
401,138,273892,1,8,0:0:0:0:
394,153,274049,1,8,0:0:0:0:
304,94,274102,1,8,0:0:0:0:
304,94,274154,1,8,0:0:0:0:
304,94,274207,1,0,0:0:0:0:
383,170,274364,1,0,0:0:0:0:
459,129,274521,1,12,0:0:0:0:
266,148,274678,1,0,0:0:0:0:
416,172,274835,1,8,0:0:0:0:
416,172,274913,1,8,0:0:0:0:
322,173,274992,1,0,0:0:0:0:
365,251,275070,1,0,0:0:0:0:
365,251,275149,1,0,0:0:0:0:
365,251,275228,1,0,0:0:0:0:
363,150,275306,1,8,0:0:0:0:
461,136,275385,1,0,0:0:0:0:
424,138,275463,1,8,0:0:0:0:
435,160,275620,1,0,0:0:0:0:
347,211,275699,1,0,0:0:0:0:
395,173,275777,1,8,0:0:0:0:
395,173,275856,1,8,0:0:0:0:
473,167,275934,1,0,0:0:0:0:
473,167,276013,1,0,0:0:0:0:
473,167,276091,1,8,0:0:0:0:
473,167,276170,1,8,0:0:0:0:
464,165,276248,1,0,0:0:0:0:
446,135,276406,1,8,0:0:0:0:
446,135,276484,1,0,0:0:0:0:
337,115,276563,1,8,0:0:0:0:
337,115,276615,1,8,0:0:0:0:
337,115,276667,1,8,0:0:0:0:
288,273,276720,1,0,0:0:0:0:
363,200,276877,1,8,0:0:0:0:
392,147,277034,1,0,0:0:0:0:
392,147,277086,1,0,0:0:0:0:
392,147,277138,1,0,0:0:0:0:
399,148,277191,1,8,0:0:0:0:
378,135,277348,1,0,0:0:0:0:
378,135,277426,1,0,0:0:0:0:
420,157,277505,1,8,0:0:0:0:
351,169,277584,1,8,0:0:0:0:
421,146,277662,1,0,0:0:0:0:
413,167,277819,1,8,0:0:0:0:
308,211,277898,1,8,0:0:0:0:
394,150,277976,1,0,0:0:0:0:
448,136,278133,1,8,0:0:0:0:
425,132,278290,1,8,0:0:0:0:
425,132,278343,1,8,0:0:0:0:
425,132,278395,1,8,0:0:0:0:
415,156,278447,1,0,0:0:0:0:
415,156,278526,1,0,0:0:0:0:
359,158,278604,1,8,0:0:0:0:
359,158,278683,1,8,0:0:0:0:
405,146,278762,1,0,0:0:0:0:
423,197,278919,1,0,0:0:0:0:
403,184,278997,1,0,0:0:0:0:
441,156,279076,1,12,0:0:0:0:
476,110,279390,1,4,0:0:0:0:
333,166,279547,1,8,0:0:0:0:
419,134,279704,1,4,0:0:0:0:
225,152,279861,1,8,0:0:0:0:
303,262,280018,1,4,0:0:0:0:
299,268,280175,1,0,0:0:0:0:
303,262,280254,1,0,0:0:0:0:
394,144,280332,1,8,0:0:0:0:
316,208,280411,1,8,0:0:0:0:
256,192,280489,12,0,281275,0:0:0:0:
399,147,281432,5,0,0:0:0:0:
359,51,281484,1,0,0:0:0:0:
359,51,281536,1,0,0:0:0:0:
359,51,281589,1,0,0:0:0:0:
395,136,281641,1,8,0:0:0:0:
395,136,281693,1,8,0:0:0:0:
415,122,281746,1,4,0:0:0:0:
218,168,281903,1,0,0:0:0:0:
450,141,282060,1,8,0:0:0:0:
319,220,282217,1,0,0:0:0:0:
410,156,282531,1,8,0:0:0:0:
296,116,282688,1,0,0:0:0:0:
400,115,282845,1,8,0:0:0:0:
377,122,283002,1,8,0:0:0:0:
295,148,283159,1,0,0:0:0:0:
295,148,283238,1,0,0:0:0:0:
423,129,283316,1,8,0:0:0:0:
423,129,283395,1,8,0:0:0:0:
268,135,283473,1,0,0:0:0:0:
268,135,283526,1,0,0:0:0:0:
268,135,283578,1,0,0:0:0:0:
377,146,283630,1,8,0:0:0:0:
461,188,283787,1,8,0:0:0:0:
456,161,283866,1,0,0:0:0:0:
462,156,283944,1,8,0:0:0:0:
414,158,284102,1,0,0:0:0:0:
414,158,284180,1,0,0:0:0:0:
414,158,284259,1,8,0:0:0:0:
360,168,284416,1,0,0:0:0:0:
407,139,284573,1,8,0:0:0:0:
478,146,284730,1,8,0:0:0:0:
478,146,284808,1,0,0:0:0:0:
478,146,284887,1,0,0:0:0:0:
466,144,285044,1,0,0:0:0:0:
445,152,285201,1,8,0:0:0:0:
434,153,285358,1,0,0:0:0:0:
441,144,285437,1,8,0:0:0:0:
450,148,285515,1,0,0:0:0:0:
496,158,285672,1,8,0:0:0:0:
496,158,285751,1,0,0:0:0:0:
475,153,285829,1,8,0:0:0:0:
475,153,285908,1,8,0:0:0:0:
318,109,285986,1,0,0:0:0:0:
318,109,286039,1,0,0:0:0:0:
318,109,286091,1,0,0:0:0:0:
475,149,286143,1,8,0:0:0:0:
366,161,286300,1,8,0:0:0:0:
317,134,286379,1,8,0:0:0:0:
450,145,286458,1,0,0:0:0:0:
449,166,286615,1,0,0:0:0:0:
199,85,286693,5,0,0:0:0:0:
276,115,286772,1,8,0:0:0:0:
290,158,286929,1,0,0:0:0:0:
405,153,287086,1,8,0:0:0:0:
385,151,287243,1,0,0:0:0:0:
441,162,287557,1,8,0:0:0:0:
286,186,287714,1,0,0:0:0:0:
345,238,287871,1,8,0:0:0:0:
463,150,288028,1,0,0:0:0:0:
441,162,288185,1,0,0:0:0:0:
441,162,288264,1,0,0:0:0:0:
470,157,288342,1,8,0:0:0:0:
451,153,288421,1,0,0:0:0:0:
307,133,288499,1,8,0:0:0:0:
307,133,288552,1,8,0:0:0:0:
307,133,288604,1,8,0:0:0:0:
406,135,288656,1,0,0:0:0:0:
408,86,288814,1,8,0:0:0:0:
480,134,288892,1,0,0:0:0:0:
455,164,288971,1,8,0:0:0:0:
445,140,289128,1,0,0:0:0:0:
445,140,289206,1,0,0:0:0:0:
479,158,289285,1,8,0:0:0:0:
347,148,289599,1,8,0:0:0:0:
415,168,289756,1,0,0:0:0:0:
415,168,289913,1,0,0:0:0:0:
381,153,290070,1,8,0:0:0:0:
415,154,290227,1,0,0:0:0:0:
412,154,290384,1,0,0:0:0:0:
493,157,290463,1,8,0:0:0:0:
432,150,290541,1,0,0:0:0:0:
383,175,290698,1,0,0:0:0:0:
493,157,290855,1,8,0:0:0:0:
465,163,291013,1,0,0:0:0:0:
312,117,291065,5,0,0:0:0:0:
312,117,291117,1,0,0:0:0:0:
432,137,291170,1,8,0:0:0:0:
401,152,291327,1,8,0:0:0:0:
435,96,291484,1,0,0:0:0:0:
361,133,291641,1,8,0:0:0:0:
361,133,291719,1,8,0:0:0:0:
385,152,291798,1,4,0:0:0:0:
266,40,292112,1,8,0:0:0:0:
347,109,292269,1,0,0:0:0:0:
419,142,292583,1,0,0:0:0:0:
422,102,292897,1,12,0:0:0:0:
342,135,293526,1,12,0:0:0:0:
434,130,293840,1,8,0:0:0:0:
421,131,293918,1,8,0:0:0:0:
470,127,293997,1,0,0:0:0:0:
470,127,294075,1,0,0:0:0:0:
478,138,294154,1,8,0:0:0:0:
478,138,294232,1,8,0:0:0:0:
461,132,294311,1,4,0:0:0:0:
435,146,294468,1,0,0:0:0:0:
435,146,294547,1,0,0:0:0:0:
434,130,294625,1,8,0:0:0:0:
446,155,294782,1,0,0:0:0:0:
395,145,294861,1,8,0:0:0:0:
417,146,294939,1,8,0:0:0:0:
468,140,295096,1,0,0:0:0:0:
381,133,295253,1,8,0:0:0:0:
380,173,295410,1,8,0:0:0:0:
380,173,295489,1,8,0:0:0:0:
343,102,295567,1,0,0:0:0:0:
416,177,295725,1,0,0:0:0:0:
384,138,295803,1,8,0:0:0:0:
384,138,295882,1,8,0:0:0:0:
470,109,296039,1,8,0:0:0:0:
305,70,296091,1,8,0:0:0:0:
305,70,296143,1,8,0:0:0:0:
440,111,296196,1,0,0:0:0:0:
362,196,296353,1,0,0:0:0:0:
506,143,296510,1,8,0:0:0:0:
221,167,296667,1,0,0:0:0:0:
268,78,296746,1,0,0:0:0:0:
390,145,296824,1,12,0:0:0:0:
459,144,297295,1,8,0:0:0:0:
264,122,297452,1,0,0:0:0:0:
413,146,297609,1,8,0:0:0:0:
376,176,297766,1,0,0:0:0:0:
441,105,297924,1,4,0:0:0:0:
310,155,298081,1,0,0:0:0:0:
222,129,298159,1,0,0:0:0:0:
222,129,298238,1,0,0:0:0:0:
401,159,298395,1,0,0:0:0:0:
261,132,298552,5,8,0:0:0:0:
261,132,298604,1,8,0:0:0:0:
261,132,298656,1,8,0:0:0:0:
348,137,298709,1,0,0:0:0:0:
370,382,299180,1,12,0:0:0:0:
256,192,299337,12,0,301850,0:0:0:0:
326,191,302321,5,0,0:0:0:0:
319,206,302374,1,0,0:0:0:0:
319,206,302426,1,0,0:0:0:0:
318,206,302478,1,0,0:0:0:0:
394,147,302531,1,8,0:0:0:0:
394,147,302583,1,8,0:0:0:0:
362,160,302636,1,4,0:0:0:0:
218,168,302793,1,0,0:0:0:0:
450,141,302950,1,8,0:0:0:0:
319,220,303107,1,0,0:0:0:0:
410,156,303421,1,8,0:0:0:0:
296,116,303578,1,0,0:0:0:0:
400,115,303735,1,8,0:0:0:0:
377,122,303892,1,8,0:0:0:0:
295,148,304049,1,0,0:0:0:0:
295,148,304128,1,0,0:0:0:0:
423,129,304206,1,8,0:0:0:0:
423,129,304285,1,8,0:0:0:0:
268,135,304363,1,0,0:0:0:0:
268,135,304442,1,0,0:0:0:0:
377,146,304520,1,8,0:0:0:0:
461,188,304677,1,8,0:0:0:0:
456,161,304756,1,0,0:0:0:0:
462,156,304834,1,8,0:0:0:0:
414,158,304992,1,0,0:0:0:0:
305,90,305044,1,0,0:0:0:0:
305,90,305096,1,0,0:0:0:0:
414,158,305149,1,8,0:0:0:0:
360,168,305306,1,0,0:0:0:0:
407,139,305463,1,8,0:0:0:0:
478,146,305620,1,8,0:0:0:0:
328,124,305672,1,8,0:0:0:0:
328,124,305725,1,8,0:0:0:0:
478,146,305777,1,0,0:0:0:0:
466,144,305934,1,0,0:0:0:0:
431,200,305986,1,0,0:0:0:0:
431,200,306039,1,0,0:0:0:0:
445,152,306091,1,8,0:0:0:0:
434,153,306248,1,0,0:0:0:0:
441,144,306327,1,8,0:0:0:0:
450,148,306405,1,0,0:0:0:0:
496,158,306562,1,8,0:0:0:0:
496,158,306641,1,0,0:0:0:0:
475,153,306719,1,8,0:0:0:0:
475,153,306798,1,8,0:0:0:0:
318,109,306876,1,0,0:0:0:0:
205,90,306955,1,0,0:0:0:0:
475,149,307033,1,8,0:0:0:0:
366,161,307190,1,8,0:0:0:0:
317,134,307269,1,0,0:0:0:0:
432,128,307348,1,8,0:0:0:0:
432,128,307400,1,8,0:0:0:0:
432,128,307452,1,8,0:0:0:0:
432,128,307505,1,8,0:0:0:0:
432,128,307557,1,8,0:0:0:0:
432,128,307609,1,8,0:0:0:0:
287,149,307662,1,0,0:0:0:0:
405,153,307976,1,8,0:0:0:0:
385,151,308133,1,0,0:0:0:0:
441,162,308447,1,8,0:0:0:0:
286,186,308604,1,0,0:0:0:0:
345,238,308761,1,8,0:0:0:0:
463,150,308918,1,0,0:0:0:0:
343,182,308997,1,8,0:0:0:0:
441,162,309075,1,0,0:0:0:0:
441,162,309154,1,0,0:0:0:0:
470,157,309232,1,8,0:0:0:0:
451,153,309311,1,8,0:0:0:0:
307,133,309389,1,0,0:0:0:0:
406,135,309546,1,0,0:0:0:0:
408,86,309704,1,8,0:0:0:0:
480,134,309782,1,0,0:0:0:0:
455,164,309861,1,8,0:0:0:0:
322,130,309913,1,8,0:0:0:0:
322,130,309965,1,8,0:0:0:0:
322,130,310018,1,8,0:0:0:0:
322,130,310070,1,8,0:0:0:0:
322,130,310122,1,8,0:0:0:0:
479,158,310175,1,0,0:0:0:0:
347,148,310489,1,8,0:0:0:0:
415,168,310646,1,0,0:0:0:0:
415,168,310803,1,0,0:0:0:0:
381,153,310960,1,8,0:0:0:0:
415,154,311117,1,0,0:0:0:0:
412,154,311274,1,0,0:0:0:0:
493,157,311353,1,8,0:0:0:0:
432,150,311431,1,0,0:0:0:0:
434,168,311510,1,8,0:0:0:0:
360,158,311588,1,0,0:0:0:0:
361,158,311667,1,0,0:0:0:0:
493,157,311745,1,8,0:0:0:0:
465,163,311903,1,0,0:0:0:0:
312,117,311981,5,0,0:0:0:0:
432,137,312060,1,8,0:0:0:0:
401,152,312217,1,8,0:0:0:0:
372,215,312374,1,0,0:0:0:0:
372,215,312426,1,0,0:0:0:0:
372,215,312478,1,0,0:0:0:0:
352,126,312531,1,8,0:0:0:0:
352,126,312583,1,8,0:0:0:0:
352,126,312636,1,8,0:0:0:0:
385,152,312688,1,4,0:0:0:0:
458,150,313002,5,8,0:0:0:0:
414,168,313159,1,0,0:0:0:0:
421,131,313473,1,8,0:0:0:0:
341,139,313787,1,4,0:0:0:0:
445,129,314416,1,12,0:0:0:0:
429,139,315044,1,0,0:0:0:0:
464,133,315201,1,12,0:0:0:0:
372,184,315515,1,0,0:0:0:0:
370,101,315672,1,12,0:0:0:0:
419,137,315986,1,0,0:0:0:0:
419,137,316143,1,0,0:0:0:0:
399,157,316300,1,8,0:0:0:0:
399,157,316379,1,8,0:0:0:0:
383,135,316457,1,0,0:0:0:0:
298,186,316536,1,0,0:0:0:0:
454,157,316615,1,8,0:0:0:0:
454,157,316693,1,8,0:0:0:0:
454,157,316772,1,0,0:0:0:0:
365,120,316929,1,0,0:0:0:0:
365,120,316981,1,0,0:0:0:0:
366,120,317033,1,0,0:0:0:0:
385,147,317086,1,8,0:0:0:0:
469,147,317243,1,8,0:0:0:0:
389,169,317400,1,8,0:0:0:0:
353,105,317452,1,8,0:0:0:0:
353,105,317505,1,8,0:0:0:0:
353,105,317557,1,8,0:0:0:0:
353,105,317609,1,8,0:0:0:0:
353,105,317662,1,8,0:0:0:0:
357,105,317714,1,0,0:0:0:0:
498,152,318028,1,12,0:0:0:0:
386,182,318185,1,4,0:0:0:0:
219,148,318342,1,0,0:0:0:0:
421,80,318499,1,12,0:0:0:0:
321,180,318656,1,0,0:0:0:0:
483,122,318814,1,12,0:0:0:0:
383,166,318971,1,0,0:0:0:0:
389,101,319049,1,0,0:0:0:0:
389,101,319128,1,0,0:0:0:0:
389,101,319206,1,0,0:0:0:0:
463,129,319285,1,8,0:0:0:0:
315,151,319442,1,0,0:0:0:0:
408,143,319599,1,8,0:0:0:0:
445,133,319756,1,0,0:0:0:0:
437,153,319913,1,8,0:0:0:0:
441,152,319992,1,8,0:0:0:0:
445,155,320070,1,4,0:0:0:0:
256,192,320227,12,0,322740,0:0:0:0:
