osu file format v14

[General]
AudioFilename: 4-09 Dstorv.mp3
AudioLeadIn: 0
PreviewTime: 115625
Countdown: 1
SampleSet: Soft
StackLeniency: 0.7
Mode: 0
LetterboxInBreaks: 1
WidescreenStoryboard: 1

[Editor]
DistanceSpacing: 1
BeatDivisor: 4
GridSize: 8
TimelineZoom: 3.999998

[Metadata]
Title:Dstorv
TitleUnicode:Dstorv
Artist:Feryquitous
ArtistUnicode:Feryquitous
Creator:BluOxy
Version:Truth
Source:BMS
Tags:Fake out GroundbreakinG G2R 2014
BeatmapID:905711
BeatmapSetID:418395

[Difficulty]
HPDrainRate:7
CircleSize:4.4
OverallDifficulty:7.5
ApproachRate:9
SliderMultiplier:1.6
SliderTickRate:1

[Events]
//Background and Video events
0,0,"45870645_p0.jpg",0,0
//Break Periods
2,242265,269738
//Storyboard Layer 0 (Background)
//Storyboard Layer 1 (Fail)
//Storyboard Layer 2 (Pass)
//Storyboard Layer 3 (Foreground)
//Storyboard Sound Samples

[TimingPoints]
338,314.13612565445,4,2,1,20,1,0
495,-200,4,2,2,5,0,0
2851,-100,4,2,1,20,0,0
21700,-100,4,2,1,35,0,0
22642,-100,4,2,1,20,0,0
22956,-100,4,2,1,50,0,0
33009,-100,4,2,1,20,0,0
33480,-100,4,2,1,35,0,0
34265,-100,4,2,1,50,0,0
43689,-100,4,2,1,50,0,0
44317,-100,4,2,1,50,0,0
53742,-100,4,2,1,50,0,0
54370,-100,4,2,1,50,0,0
63794,-100,4,2,1,50,0,0
64422,-100,4,2,1,50,0,0
73846,-100,4,2,1,50,0,0
74475,-100,4,2,1,50,0,0
93322,-200,4,2,1,50,0,0
94264,-100,4,2,1,50,0,0
94578,-100,4,2,1,50,0,0
109500,-50,4,2,1,50,0,0
109657,-100,4,2,1,50,0,0
114526,-200,4,2,1,50,0,0
115625,-100,4,2,1,50,0,0
115940,-100,4,2,1,50,0,1
125992,-100,4,2,1,50,0,0
128505,-100,4,2,1,50,0,1
133374,-200,4,2,2,50,0,0
135887,-100,4,2,2,50,0,0
136045,-100,4,2,1,50,0,0
145469,-100,4,2,1,50,0,0
146098,-100,4,2,1,50,0,0
155522,-100,4,2,1,50,0,0
156150,-100,4,2,1,50,0,0
174998,-100,4,2,1,50,0,0
176255,-100,4,2,1,50,0,0
191175,-50,4,2,1,50,0,0
191332,-100,4,2,1,50,0,0
196201,-200,4,2,1,50,0,0
197301,-100,4,2,1,50,0,0
197616,-200,4,2,1,50,0,0
207667,-100,4,2,1,50,0,0
215050,-200,4,2,1,50,0,0
217721,-200,4,2,1,50,0,0
227144,-100,4,2,1,50,0,0
252904,-100,4,2,1,50,0,0
257930,-100,4,2,1,50,0,0
260286,314.13612565445,4,2,1,50,1,0
275207,-50,4,2,1,50,0,0
275364,-100,4,2,1,50,0,0
279134,-200,4,2,1,50,0,0
280076,-100,4,2,1,50,0,0
280547,314.13612565445,4,2,1,50,1,0
280547,-166.666666666667,4,2,1,50,0,0
281489,-100,4,2,1,50,0,0
281803,-100,4,2,1,50,0,1
291855,-100,4,2,1,50,0,0
294368,-100,4,2,1,50,0,1
296882,-100,4,2,1,50,0,0
297981,-200,4,2,1,50,0,0
298609,-100,4,2,1,50,0,0
298766,-200,4,2,0,50,0,0
299238,-200,4,2,1,50,0,0
302379,-100,4,2,1,50,0,0
302693,314.13612565445,4,2,1,50,1,1
312745,-100,4,2,1,50,0,0
315258,-100,4,2,1,50,0,1
320127,-200,4,2,1,50,0,0

[Colours]
Combo1 : 255,230,151
Combo2 : 179,255,179
Combo3 : 166,206,255
Combo4 : 250,171,183

[HitObjects]
490,165,495,6,0,B|445:203|386:176|367:117|394:69|445:56|473:84|473:84|455:113|408:130|364:125|329:96|329:96|295:119|295:119|272:71|215:56|175:87,1,580
175,88,2851,5,0,0:0:0:0:
222,153,3008,1,2,0:0:0:0:
142,163,3165,2,0,L|46:172,1,80,2|0,0:0|0:0,0:0:0:0:
239,38,3479,5,2,0:0:0:0:
190,228,3636,1,2,0:0:0:0:
101,57,3793,1,2,0:0:0:0:
300,143,3950,1,2,0:0:0:0:
157,304,4107,5,0,0:0:0:0:
222,153,4264,1,2,0:0:0:0:
348,207,4421,2,0,L|268:216,1,80,2|0,0:0|0:0,0:0:0:0:
190,228,4735,1,2,0:0:0:0:
474,267,4892,2,0,L|309:285,1,160,2|2,0:0|0:0,0:0:0:0:
78,313,5364,5,0,0:0:0:0:
157,304,5521,1,2,0:0:0:0:
108,240,5678,2,0,L|47:160,1,80,2|0,0:0|0:0,0:0:0:0:
12,359,5992,5,2,0:0:0:0:
220,250,6149,1,2,0:0:0:0:
3,283,6306,1,2,0:0:0:0:
231,334,6463,6,0,L|138:311,1,80,2|0,0:0|0:0,0:0:0:0:
306,354,6777,5,2,0:0:0:0:
289,275,6934,2,0,L|262:182,1,80,2|0,0:0|0:0,0:0:0:0:
306,354,7248,5,2,0:0:0:0:
366,300,7406,2,0,L|490:173,1,160,2|2,0:0|0:0,0:0:0:0:
463,106,7877,5,0,0:0:0:0:
402,158,8034,1,2,0:0:0:0:
386,79,8191,2,0,L|371:-1,1,80,2|0,0:0|0:0,0:0:0:0:
512,173,8505,5,2,0:0:0:0:
325,135,8662,1,2,0:0:0:0:
481,27,8819,1,2,0:0:0:0:
417,236,8976,1,2,0:0:0:0:
248,111,9133,5,0,0:0:0:0:
402,158,9290,1,2,0:0:0:0:
354,293,9447,2,0,L|340:215,1,80,2|0,0:0|0:0,0:0:0:0:
325,135,9762,1,2,0:0:0:0:
287,349,9919,2,0,L|262:183,1,160,2|2,0:0|0:0,0:0:0:0:
233,33,10390,5,0,0:0:0:0:
248,111,10547,1,2,0:0:0:0:
171,88,10704,2,0,L|94:64,1,80,2|0,0:0|0:0,0:0:0:0:
326,93,11018,5,2,0:0:0:0:
150,164,11175,1,2,0:0:0:0:
267,29,11332,1,2,0:0:0:0:
211,228,11489,6,0,L|234:132,1,80,2|0,0:0|0:0,0:0:0:0:
196,307,11803,5,2,0:0:0:0:
136,255,11961,2,0,L|64:187,1,80,2|0,0:0|0:0,0:0:0:0:
196,307,12275,5,2,0:0:0:0:
120,336,12432,2,0,B|89:359|50:374|50:374|89:362|128:355,1,160,2|2,0:0|0:0,0:0:0:0:
275,280,12903,5,0,0:0:0:0:
338,327,13060,1,2,0:0:0:0:
350,248,13217,2,0,L|364:157,1,80,2|0,0:0|0:0,0:0:0:0:
230,347,13531,5,2,0:0:0:0:
418,300,13688,1,2,0:0:0:0:
245,206,13845,1,2,0:0:0:0:
338,327,14002,1,2,0:0:0:0:
497,274,14159,5,0,0:0:0:0:
362,168,14317,1,2,0:0:0:0:
418,300,14474,2,0,L|432:209,1,80,2|0,0:0|0:0,0:0:0:0:
294,116,14788,1,2,0:0:0:0:
338,327,14945,2,0,L|362:168,1,160,2|2,0:0|0:0,0:0:0:0:
258,354,15416,5,0,0:0:0:0:
268,275,15573,1,2,0:0:0:0:
194,307,15730,2,0,L|114:336,1,80,2|0,0:0|0:0,0:0:0:0:
341,359,16044,5,2,0:0:0:0:
173,227,16201,1,2,0:0:0:0:
375,143,16358,1,2,0:0:0:0:
140,64,16516,6,0,L|237:98,1,80,2|0,0:0|0:0,0:0:0:0:
294,116,16830,5,2,0:0:0:0:
173,227,16987,2,0,L|250:159,1,80,2|0,0:0|0:0,0:0:0:0:
294,116,17301,5,2,0:0:0:0:
341,359,17458,2,0,L|313:202,1,160,2|2,0:0|0:0,0:0:0:0:
279,33,17929,5,0,0:0:0:0:
294,116,18086,1,2,0:0:0:0:
355,64,18243,2,0,L|428:11,1,80,2|0,0:0|0:0,0:0:0:0:
375,143,18557,5,2,0:0:0:0:
197,58,18714,1,2,0:0:0:0:
251,252,18872,1,2,0:0:0:0:
294,116,19029,1,2,0:0:0:0:
115,24,19186,5,0,0:0:0:0:
152,190,19343,1,2,0:0:0:0:
197,58,19500,2,0,L|133:110,1,80,2|0,0:0|0:0,0:0:0:0:
168,273,19814,1,2,0:0:0:0:
277,90,19971,2,0,L|152:190,1,160,2|2,0:0|0:0,0:0:0:0:
358,126,20442,5,0,0:0:0:0:
346,46,20599,1,2,0:0:0:0:
419,76,20756,2,0,L|501:107,1,80,2|0,0:0|0:0,0:0:0:0:
277,137,21070,5,2,0:0:0:0:
408,0,21228,1,2,0:0:0:0:
402,190,21385,1,2,0:0:0:0:
272,17,21542,1,2,0:0:0:0:
61,78,21699,6,0,L|16:60,2,40,0|0|2,0:0|0:0|0:0,0:0:0:0:
100,73,21934,1,0,0:0:0:0:
128,101,22013,1,10,0:0:0:0:
165,114,22091,1,8,0:0:0:0:
204,109,22170,1,8,0:0:0:0:
175,34,22327,5,10,0:0:0:0:
66,253,22484,1,10,0:0:0:0:
22,175,22641,6,0,L|69:168,1,40
173,196,22798,2,0,L|134:202,1,40
241,238,22955,6,0,B|249:186|249:186|230:135|230:135|241:77,1,160,4|2,0:0|0:0,0:0:0:0:
252,4,23427,1,2,0:0:0:0:
313,54,23584,1,2,0:0:0:0:
351,42,23662,1,0,0:0:0:0:
389,30,23741,1,2,0:0:0:0:
450,80,23898,1,2,0:0:0:0:
375,108,24055,1,2,0:0:0:0:
438,157,24212,6,0,L|428:213,2,40,2|0|2,0:0|0:0|0:0,0:0:0:0:
461,1,24447,1,0,0:0:0:0:
461,1,24526,1,0,0:0:0:0:
327,172,24683,1,2,0:0:0:0:
507,249,24840,2,0,B|455:241|455:241|404:260|404:260|346:249,1,160,0|2,0:0|0:0,0:0:0:0:
273,235,25311,1,0,0:0:0:0:
298,310,25468,5,0,0:0:0:0:
258,303,25547,1,0,0:0:0:0:
218,295,25625,1,2,0:0:0:0:
245,370,25783,1,2,0:0:0:0:
141,279,25940,1,2,0:0:0:0:
350,208,26097,5,2,0:0:0:0:
245,370,26254,1,2,0:0:0:0:
211,185,26411,1,2,0:0:0:0:
381,327,26568,1,2,0:0:0:0:
166,356,26725,6,0,L|121:350,2,40,2|0|2,0:0|0:0|0:0,0:0:0:0:
326,384,26961,1,0,0:0:0:0:
326,384,27039,1,0,0:0:0:0:
289,158,27196,1,2,0:0:0:0:
245,370,27353,5,0,0:0:0:0:
170,90,27510,1,0,0:0:0:0:
170,90,27589,1,0,0:0:0:0:
170,90,27667,6,0,L|162:124,1,20,2|0,0:0|0:0,0:0:0:0:
150,97,27746,2,0,L|142:131,1,20
131,103,27824,2,0,L|123:137,1,20
111,110,27903,2,0,L|103:144,1,20
92,117,27981,5,2,0:0:0:0:
98,77,28060,1,0,0:0:0:0:
104,37,28139,1,2,0:0:0:0:
17,144,28296,1,2,0:0:0:0:
28,65,28453,1,2,0:0:0:0:
80,192,28610,5,2,0:0:0:0:
226,138,28767,1,2,0:0:0:0:
140,242,28924,1,2,0:0:0:0:
170,90,29081,1,2,0:0:0:0:
218,212,29238,6,0,L|212:257,2,40,2|0|2,0:0|0:0|0:0,0:0:0:0:
236,64,29474,1,0,0:0:0:0:
236,64,29552,1,0,0:0:0:0:
297,218,29709,1,2,0:0:0:0:
21,292,29866,2,0,B|74:287|74:287|114:321|114:321|178:314,1,160,0|2,0:0|0:0,0:0:0:0:
247,304,30337,1,0,0:0:0:0:
312,349,30495,5,0,0:0:0:0:
318,309,30573,1,0,0:0:0:0:
323,269,30652,1,2,0:0:0:0:
392,320,30809,1,2,0:0:0:0:
400,243,30966,1,2,0:0:0:0:
468,329,31123,5,2,0:0:0:0:
335,188,31280,1,2,0:0:0:0:
333,381,31437,1,2,0:0:0:0:
478,206,31594,1,2,0:0:0:0:
268,141,31751,6,0,L|216:135,2,40,2|0|2,0:0|0:0|0:0,0:0:0:0:
415,159,31987,1,0,0:0:0:0:
415,159,32065,1,0,0:0:0:0:
256,222,32222,1,2,0:0:0:0:
347,107,32379,1,0,0:0:0:0:
183,251,32536,1,0,0:0:0:0:
183,251,32615,1,0,0:0:0:0:
183,251,32694,6,0,L|176:288,1,20,2|0,0:0|0:0,0:0:0:0:
166,239,32772,2,0,L|159:276,1,20
149,227,32851,2,0,L|142:264,1,20,2|0,0:0|0:0,0:0:0:0:
132,215,32929,2,0,L|125:252,1,20
115,203,33008,5,0,0:0:0:0:
133,195,33086,1,0,0:0:0:0:
151,187,33165,1,0,0:0:0:0:
169,179,33243,1,0,0:0:0:0:
187,171,33322,1,0,0:0:0:0:
205,164,33400,1,0,0:0:0:0:
223,157,33479,2,0,L|154:114,1,80
346,106,33793,2,0,L|279:64,1,80
436,38,34107,2,0,L|428:86,1,40
413,158,34264,5,4,0:0:0:0:
477,211,34421,1,2,0:0:0:0:
440,223,34500,1,0,0:0:0:0:
401,234,34578,2,0,L|297:267,1,80,2|0,0:0|0:0,0:0:0:0:
383,312,34892,1,2,0:0:0:0:
306,335,35050,1,2,0:0:0:0:
267,347,35128,1,0,0:0:0:0:
228,359,35207,2,0,L|241:270,1,80,2|2,0:0|0:0,0:0:0:0:
164,302,35521,5,0,0:0:0:0:
169,262,35599,1,0,0:0:0:0:
174,222,35678,1,2,0:0:0:0:
180,182,35756,1,0,0:0:0:0:
185,142,35835,2,0,L|106:167,1,80,2|0,0:0|0:0,0:0:0:0:
33,192,36149,1,2,0:0:0:0:
52,32,36306,1,2,0:0:0:0:
47,72,36385,1,0,0:0:0:0:
42,112,36463,2,0,L|131:82,1,80,0|2,0:0|0:0,0:0:0:0:
278,34,36777,5,0,0:0:0:0:
245,194,36934,5,6,0:0:0:0:
253,154,37013,1,0,0:0:0:0:
261,117,37091,2,0,L|175:145,1,80,2|0,0:0|0:0,0:0:0:0:
406,129,37406,5,2,0:0:0:0:
159,63,37563,1,2,0:0:0:0:
307,247,37720,1,2,0:0:0:0:
360,56,37877,1,2,0:0:0:0:
174,222,38034,5,0,0:0:0:0:
185,260,38112,1,0,0:0:0:0:
196,298,38191,1,2,0:0:0:0:
205,336,38269,1,0,0:0:0:0:
218,373,38348,2,0,L|120:355,1,80,2|0,0:0|0:0,0:0:0:0:
61,342,38662,1,2,0:0:0:0:
112,281,38819,1,2,0:0:0:0:
47,234,38976,6,0,L|39:184,1,40
116,162,39133,2,0,L|149:168,1,20
129,147,39212,2,0,L|162:153,1,20
143,132,39290,5,4,0:0:0:0:
51,107,39447,1,2,0:0:0:0:
45,67,39526,1,0,0:0:0:0:
39,27,39605,2,0,L|124:42,1,80,2|0,0:0|0:0,0:0:0:0:
196,56,39919,1,2,0:0:0:0:
227,149,40076,1,2,0:0:0:0:
265,157,40154,1,0,0:0:0:0:
304,165,40233,2,0,L|243:232,1,80,2|2,0:0|0:0,0:0:0:0:
391,181,40547,5,0,0:0:0:0:
365,211,40625,1,0,0:0:0:0:
338,241,40704,1,2,0:0:0:0:
311,270,40783,1,0,0:0:0:0:
284,300,40861,2,0,L|368:312,1,80,2|0,0:0|0:0,0:0:0:0:
442,324,41175,1,2,0:0:0:0:
203,287,41332,1,2,0:0:0:0:
176,316,41411,1,0,0:0:0:0:
149,346,41489,2,0,L|235:359,1,80,0|2,0:0|0:0,0:0:0:0:
306,372,41803,5,0,0:0:0:0:
137,233,41961,5,6,0:0:0:0:
67,287,42118,1,2,0:0:0:0:
61,247,42196,1,0,0:0:0:0:
55,207,42275,1,0,0:0:0:0:
80,366,42432,5,2,0:0:0:0:
216,260,42589,1,2,0:0:0:0:
46,126,42746,1,2,0:0:0:0:
182,20,42903,1,2,0:0:0:0:
136,154,43060,5,0,0:0:0:0:
173,166,43139,1,0,0:0:0:0:
211,178,43217,1,2,0:0:0:0:
249,191,43296,1,0,0:0:0:0:
286,203,43374,2,0,L|276:124,1,80,2|0,0:0|0:0,0:0:0:0:
369,192,43688,5,2,0:0:0:0:
216,260,43845,1,2,0:0:0:0:
386,300,44002,1,2,0:0:0:0:
233,362,44159,1,2,0:0:0:0:
258,369,44212,1,2,0:0:0:0:
283,377,44264,1,2,0:0:0:0:
308,384,44317,6,0,L|296:304,1,80,4|2,0:0|0:0,0:0:0:0:
458,256,44631,2,0,L|468:335,1,80,2|0,0:0|0:0,0:0:0:0:
369,192,44945,1,2,0:0:0:0:
507,98,45102,1,2,0:0:0:0:
471,115,45180,1,0,0:0:0:0:
435,133,45259,2,0,L|420:44,1,80,2|2,0:0|0:0,0:0:0:0:
259,47,45573,5,0,0:0:0:0:
265,86,45652,1,0,0:0:0:0:
272,125,45730,1,2,0:0:0:0:
279,164,45809,1,0,0:0:0:0:
286,203,45887,2,0,L|196:178,1,80,2|0,0:0|0:0,0:0:0:0:
131,161,46201,1,2,0:0:0:0:
101,2,46358,1,2,0:0:0:0:
108,41,46437,1,0,0:0:0:0:
115,80,46516,2,0,L|25:55,1,80,0|2,0:0|0:0,0:0:0:0:
187,63,46830,5,0,0:0:0:0:
54,181,46987,5,6,0:0:0:0:
92,171,47065,1,0,0:0:0:0:
131,161,47144,2,0,L|108:244,1,80,2|0,0:0|0:0,0:0:0:0:
82,313,47458,5,2,0:0:0:0:
33,103,47615,1,2,0:0:0:0:
199,221,47772,1,2,0:0:0:0:
15,181,47929,1,2,0:0:0:0:
318,44,48086,5,0,0:0:0:0:
307,82,48165,1,0,0:0:0:0:
296,120,48243,1,2,0:0:0:0:
285,158,48322,1,0,0:0:0:0:
275,196,48400,2,0,L|369:177,1,80,2|0,0:0|0:0,0:0:0:0:
432,167,48714,1,2,0:0:0:0:
392,348,48872,1,2,0:0:0:0:
495,279,49029,6,0,L|454:287,1,40
371,261,49186,2,0,L|364:287,1,20
351,266,49264,2,0,L|344:292,1,20
331,271,49343,5,4,0:0:0:0:
262,326,49500,1,2,0:0:0:0:
224,313,49578,1,0,0:0:0:0:
186,298,49657,2,0,L|204:382,1,80,2|0,0:0|0:0,0:0:0:0:
108,272,49971,1,2,0:0:0:0:
89,112,50128,1,2,0:0:0:0:
94,152,50207,1,0,0:0:0:0:
99,192,50285,2,0,L|11:163,1,80,2|2,0:0|0:0,0:0:0:0:
301,26,50599,5,0,0:0:0:0:
305,66,50678,1,0,0:0:0:0:
309,107,50756,1,2,0:0:0:0:
314,147,50835,1,0,0:0:0:0:
319,187,50913,2,0,L|243:161,1,80,2|0,0:0|0:0,0:0:0:0:
166,137,51228,1,2,0:0:0:0:
186,298,51385,1,2,0:0:0:0:
181,258,51463,1,0,0:0:0:0:
176,218,51542,2,0,L|264:247,1,80,0|2,0:0|0:0,0:0:0:0:
409,296,51856,5,0,0:0:0:0:
470,152,52013,5,6,0:0:0:0:
432,162,52091,1,0,0:0:0:0:
393,172,52170,2,0,L|416:89,1,80,2|0,0:0|0:0,0:0:0:0:
330,232,52484,5,2,0:0:0:0:
487,75,52641,1,2,0:0:0:0:
314,147,52798,1,2,0:0:0:0:
492,235,52955,1,2,0:0:0:0:
212,363,53112,5,0,0:0:0:0:
222,324,53191,1,0,0:0:0:0:
231,285,53269,1,0,0:0:0:0:
241,246,53348,1,0,0:0:0:0:
251,207,53427,2,0,L|156:230,1,80
95,245,53741,5,0,0:0:0:0:
277,119,53898,2,0,L|121:158,1,160
44,179,54369,6,0,L|68:91,1,80,4|2,0:0|0:0,0:0:0:0:
218,62,54683,2,0,L|196:139,1,80,2|0,0:0|0:0,0:0:0:0:
73,322,54997,2,0,L|97:234,1,80,2|2,0:0|0:0,0:0:0:0:
251,207,55311,1,2,0:0:0:0:
219,367,55468,1,2,0:0:0:0:
162,307,55625,5,0,0:0:0:0:
201,297,55704,1,0,0:0:0:0:
240,287,55783,1,2,0:0:0:0:
278,277,55861,1,0,0:0:0:0:
317,268,55940,2,0,L|303:354,1,80,2|0,0:0|0:0,0:0:0:0:
251,207,56254,1,2,0:0:0:0:
487,137,56411,1,2,0:0:0:0:
449,148,56489,1,0,0:0:0:0:
412,160,56568,2,0,L|428:70,1,80,0|2,0:0|0:0,0:0:0:0:
440,2,56882,5,0,0:0:0:0:
225,130,57039,5,6,0:0:0:0:
238,167,57118,1,0,0:0:0:0:
251,207,57196,2,0,L|157:191,1,80,2|0,0:0|0:0,0:0:0:0:
93,181,57510,5,2,0:0:0:0:
302,104,57667,1,2,0:0:0:0:
161,274,57824,1,2,0:0:0:0:
160,77,57981,1,2,0:0:0:0:
455,295,58139,5,0,0:0:0:0:
417,307,58217,1,0,0:0:0:0:
379,319,58296,1,2,0:0:0:0:
341,330,58374,1,0,0:0:0:0:
304,342,58453,2,0,L|318:263,1,80,2|0,0:0|0:0,0:0:0:0:
332,185,58767,1,2,0:0:0:0:
174,228,58924,1,2,0:0:0:0:
189,16,59081,6,0,L|199:55,1,40
225,130,59238,2,0,L|253:134,1,20,2|0,0:0|0:0,0:0:0:0:
231,148,59317,2,0,L|259:152,1,20
237,167,59395,5,4,0:0:0:0:
139,150,59552,1,2,0:0:0:0:
99,143,59631,1,0,0:0:0:0:
59,136,59709,2,0,L|82:223,1,80,2|0,0:0|0:0,0:0:0:0:
103,289,60023,1,2,0:0:0:0:
194,304,60180,1,2,0:0:0:0:
165,331,60259,1,0,0:0:0:0:
134,357,60337,2,0,L|225:373,1,80,2|2,0:0|0:0,0:0:0:0:
292,381,60652,5,0,0:0:0:0:
322,354,60730,1,0,0:0:0:0:
351,327,60809,1,2,0:0:0:0:
380,300,60887,1,0,0:0:0:0:
409,273,60966,2,0,L|433:361,1,80,2|0,0:0|0:0,0:0:0:0:
390,192,61280,1,2,0:0:0:0:
230,167,61437,1,2,0:0:0:0:
270,173,61516,1,0,0:0:0:0:
310,180,61594,2,0,L|283:88,1,80,0|2,0:0|0:0,0:0:0:0:
266,26,61908,5,0,0:0:0:0:
153,195,62065,5,6,0:0:0:0:
165,233,62144,1,0,0:0:0:0:
178,270,62222,2,0,L|89:254,1,80,2|0,0:0|0:0,0:0:0:0:
207,347,62536,5,2,0:0:0:0:
73,176,62694,1,2,0:0:0:0:
256,245,62851,1,2,0:0:0:0:
25,284,63008,1,2,0:0:0:0:
230,167,63165,5,0,0:0:0:0:
217,130,63243,1,0,0:0:0:0:
205,93,63322,1,0,0:0:0:0:
193,55,63400,1,0,0:0:0:0:
179,17,63479,2,0,L|257:31,1,80
424,88,63793,5,0,0:0:0:0:
291,137,63950,1,0,0:0:0:0:
336,44,64107,1,0,0:0:0:0:
374,179,64264,1,0,0:0:0:0:
400,172,64317,1,0,0:0:0:0:
425,166,64369,1,0,0:0:0:0:
449,159,64421,6,0,L|425:247,1,80,4|2,0:0|0:0,0:0:0:0:
250,291,64735,2,0,L|271:213,1,80,2|0,0:0|0:0,0:0:0:0:
291,137,65050,1,2,0:0:0:0:
181,22,65207,1,2,0:0:0:0:
208,52,65285,1,0,0:0:0:0:
237,81,65364,2,0,L|159:104,1,80,2|2,0:0|0:0,0:0:0:0:
215,161,65678,5,0,0:0:0:0:
177,173,65756,1,0,0:0:0:0:
138,185,65835,1,2,0:0:0:0:
99,196,65913,1,0,0:0:0:0:
60,208,65992,2,0,L|123:268,1,80,2|0,0:0|0:0,0:0:0:0:
178,315,66306,1,2,0:0:0:0:
331,271,66463,1,2,0:0:0:0:
293,282,66542,1,0,0:0:0:0:
254,293,66620,2,0,L|275:215,1,80,2|2,0:0|0:0,0:0:0:0:
310,67,66934,5,0,0:0:0:0:
464,192,67091,5,6,0:0:0:0:
424,181,67170,1,0,0:0:0:0:
385,171,67248,2,0,L|411:257,1,80,2|0,0:0|0:0,0:0:0:0:
512,126,67563,5,2,0:0:0:0:
307,198,67720,1,2,0:0:0:0:
481,276,67877,1,2,0:0:0:0:
390,34,68034,1,2,0:0:0:0:
202,109,68191,5,0,0:0:0:0:
213,147,68269,1,0,0:0:0:0:
224,185,68348,1,2,0:0:0:0:
236,224,68427,1,0,0:0:0:0:
247,262,68505,2,0,L|150:236,1,80,2|0,0:0|0:0,0:0:0:0:
2,204,68819,1,2,0:0:0:0:
25,280,68976,1,2,0:0:0:0:
80,222,69133,6,0,L|123:180,1,40
51,139,69290,2,0,L|30:133,1,20,2|0,0:0|0:0,0:0:0:0:
46,119,69369,2,0,L|25:113,1,20
43,99,69447,5,4,0:0:0:0:
177,53,69605,1,2,0:0:0:0:
150,83,69683,1,0,0:0:0:0:
124,113,69762,2,0,L|209:130,1,80,2|0,0:0|0:0,0:0:0:0:
281,142,70076,1,2,0:0:0:0:
227,205,70233,1,2,0:0:0:0:
266,213,70311,1,0,0:0:0:0:
304,221,70390,2,0,L|237:299,1,80,2|2,0:0|0:0,0:0:0:0:
276,360,70704,5,0,0:0:0:0:
302,329,70783,1,0,0:0:0:0:
328,299,70861,1,2,0:0:0:0:
354,268,70940,1,0,0:0:0:0:
380,238,71018,2,0,L|415:321,1,80,2|0,0:0|0:0,0:0:0:0:
356,156,71332,1,2,0:0:0:0:
512,185,71489,1,2,0:0:0:0:
472,178,71568,1,0,0:0:0:0:
432,170,71646,2,0,L|491:104,1,80,0|2,0:0|0:0,0:0:0:0:
498,261,71961,5,0,0:0:0:0:
375,11,72118,5,6,0:0:0:0:
389,49,72196,1,0,0:0:0:0:
403,87,72275,2,0,L|315:70,1,80,2|0,0:0|0:0,0:0:0:0:
227,53,72589,5,2,0:0:0:0:
356,156,72746,1,2,0:0:0:0:
84,198,72903,1,2,0:0:0:0:
215,288,73060,1,2,0:0:0:0:
133,59,73217,5,0,0:0:0:0:
146,97,73296,1,0,0:0:0:0:
160,136,73374,1,2,0:0:0:0:
174,174,73453,1,0,0:0:0:0:
188,212,73531,2,0,L|238:145,1,80,2|0,0:0|0:0,0:0:0:0:
322,31,73845,5,2,0:0:0:0:
386,271,74002,1,2,0:0:0:0:
444,129,74159,6,2,L|439:99,1,20
424,126,74238,6,2,L|419:96,1,20
403,123,74317,6,2,L|398:93,1,20
383,120,74395,6,2,L|378:90,1,20
362,117,74474,5,6,0:0:0:0:
468,223,74631,2,0,P|474:265|482:301,1,80
361,198,74945,1,2,0:0:0:0:
287,326,75102,2,0,P|280:283|272:247,1,80
252,169,75416,1,0,0:0:0:0:
441,49,75573,6,0,L|493:57,2,40,2|0|0,0:0|0:0|0:0,0:0:0:0:
404,31,75809,1,0,0:0:0:0:
364,32,75887,1,0,0:0:0:0:
328,50,75966,1,0,0:0:0:0:
305,82,76044,1,0,0:0:0:0:
237,35,76201,1,2,0:0:0:0:
172,151,76358,2,0,L|163:71,1,80
96,187,76673,2,0,L|87:107,1,80
20,221,76987,6,0,L|2:61,1,160,2|0,0:0|0:0,0:0:0:0:
249,121,77458,2,0,L|257:200,1,80,2|0,0:0|0:0,0:0:0:0:
265,280,77772,1,0,0:0:0:0:
108,216,77929,2,0,L|154:221,1,40
265,280,78086,2,0,L|225:275,1,40,2|0,0:0|0:0,0:0:0:0:
70,300,78243,5,0,0:0:0:0:
108,288,78322,1,0,0:0:0:0:
147,294,78400,1,0,0:0:0:0:
180,315,78479,1,0,0:0:0:0:
202,348,78557,1,0,0:0:0:0:
115,371,78714,1,0,0:0:0:0:
342,236,78872,2,0,P|336:194|341:154,1,80
461,306,79186,6,0,L|432:311,6,20
23,177,79500,6,0,P|103:183|176:146,1,160,2|0,0:0|0:0,0:0:0:0:
288,28,79971,2,0,P|264:59|252:97,1,80,2|0,0:0|0:0,0:0:0:0:
429,217,80285,2,0,P|453:185|465:147,1,80
207,196,80599,6,0,L|157:191,2,40,2|0|0,0:0|0:0|0:0,0:0:0:0:
245,182,80835,1,0,0:0:0:0:
282,185,80913,1,0,0:0:0:0:
318,205,80992,1,0,0:0:0:0:
342,236,81070,1,0,0:0:0:0:
259,351,81228,2,0,B|248:311|248:311|256:272,1,80,2|0,0:0|0:0,0:0:0:0:
292,94,81542,1,0,0:0:0:0:
397,304,81699,2,0,L|350:308,1,40
129,235,81856,2,0,L|172:232,1,40
475,143,82013,6,0,P|403:150|316:119,1,160,2|0,0:0|0:0,0:0:0:0:
186,43,82484,2,0,B|197:83|197:83|189:122,1,80,2|0,0:0|0:0,0:0:0:0:
149,190,82798,1,0,0:0:0:0:
54,101,82955,2,0,L|106:93,1,40
287,164,83112,2,0,L|247:170,1,40,2|0,0:0|0:0,0:0:0:0:
8,231,83269,5,0,0:0:0:0:
46,218,83348,1,0,0:0:0:0:
86,221,83427,1,0,0:0:0:0:
120,241,83505,1,0,0:0:0:0:
141,274,83584,6,0,L|131:326,1,40
246,255,83741,2,0,L|236:307,1,40
184,103,83898,6,0,L|174:51,1,40
287,164,84055,2,0,L|277:112,1,40
353,52,84212,6,0,L|386:57,6,20
266,35,84526,5,2,0:0:0:0:
443,133,84683,2,0,P|404:133|353:142,1,80
197,183,84997,1,2,0:0:0:0:
92,67,85154,2,0,P|131:67|182:58,1,80
349,8,85468,1,0,0:0:0:0:
291,203,85625,6,0,L|287:164,2,40,2|0|0,0:0|0:0|0:0,0:0:0:0:
313,236,85861,1,0,0:0:0:0:
297,273,85940,1,0,0:0:0:0:
300,312,86018,1,0,0:0:0:0:
323,344,86097,1,0,0:0:0:0:
378,286,86254,1,2,0:0:0:0:
146,282,86411,2,0,L|224:267,1,80
97,206,86725,2,0,L|176:192,1,80
50,132,87039,6,0,L|134:117,1,80,2|0,0:0|0:0,0:0:0:0:
148,114,87275,2,0,L|137:73,1,40
191,354,87510,2,0,L|112:368,1,80,2|0,0:0|0:0,0:0:0:0:
33,383,87824,1,0,0:0:0:0:
175,192,87981,6,0,L|181:233,1,40
265,300,88139,2,0,L|271:258,1,40,2|0,0:0|0:0,0:0:0:0:
320,170,88296,5,0,0:0:0:0:
356,186,88374,1,0,0:0:0:0:
396,186,88453,1,0,0:0:0:0:
432,171,88531,1,0,0:0:0:0:
460,142,88610,6,0,L|468:92,1,40
387,103,88767,2,0,L|395:53,1,40
340,258,88924,6,0,L|348:308,1,40
265,300,89081,2,0,L|273:350,1,40
492,316,89238,6,0,L|511:317,6,20
421,357,89552,6,0,B|415:304|415:304|436:257|436:257|429:198,1,160,2|0,0:0|0:0,0:0:0:0:
234,50,90023,2,0,P|240:88|243:131,1,80,2|0,0:0|0:0,0:0:0:0:
320,170,90337,1,0,0:0:0:0:
114,100,90495,1,0,0:0:0:0:
194,215,90652,6,0,P|196:254|202:294,1,80,2|0,0:0|0:0,0:0:0:0:
167,279,90887,1,0,0:0:0:0:
127,279,90966,1,0,0:0:0:0:
91,296,91044,1,0,0:0:0:0:
67,328,91123,1,0,0:0:0:0:
279,252,91280,2,0,P|315:268|362:268,1,80,2|0,0:0|0:0,0:0:0:0:
198,202,91594,1,0,0:0:0:0:
370,45,91751,6,0,L|377:14,6,20
402,122,92065,6,0,P|362:112|310:118,1,80,2|0,0:0|0:0,0:0:0:0:
305,122,92301,2,0,L|293:82,1,40
38,56,92536,2,0,B|119:20|117:71|194:39,1,160,2|0,0:0|0:0,0:0:0:0:
268,8,93008,1,0,0:0:0:0:
268,8,93086,1,0,0:0:0:0:
268,8,93165,1,0,0:0:0:0:
463,177,93322,6,0,P|422:176|374:193,1,80
315,227,93793,1,0,0:0:0:0:
202,120,94107,1,0,0:0:0:0:
225,291,94264,6,0,L|217:241,1,40
298,144,94421,2,0,L|306:94,1,40
161,31,94578,6,0,P|122:50|76:54,1,80
8,36,94892,1,8,0:0:0:0:
304,104,95050,2,0,P|379:81|459:96,1,160
99,217,95678,5,8,0:0:0:0:
273,10,95992,1,0,0:0:0:0:
202,120,96149,1,8,0:0:0:0:
306,203,96306,2,0,L|299:242,1,40,8|0,0:0|0:0,0:0:0:0:
282,321,96463,1,8,0:0:0:0:
202,120,96620,1,0,0:0:0:0:
473,101,96777,2,0,P|429:102|389:90,1,80
179,28,97091,5,0,0:0:0:0:
110,138,97248,1,0,0:0:0:0:
219,221,97406,1,8,0:0:0:0:
150,331,97563,1,0,0:0:0:0:
26,154,97720,5,0,0:0:0:0:
306,203,97877,1,0,0:0:0:0:
202,120,98034,1,0,0:0:0:0:
482,169,98191,2,0,B|472:115|472:115|488:68|488:68|474:9,1,160,8|8,0:0|0:0,0:0:0:0:
475,14,98584,1,8,0:0:0:0:
475,14,98662,1,8,0:0:0:0:
293,102,98819,1,0,0:0:0:0:
495,264,98976,5,8,0:0:0:0:
388,60,99133,1,0,0:0:0:0:
373,269,99290,1,0,0:0:0:0:
507,92,99447,1,0,0:0:0:0:
224,162,99605,6,0,P|239:197|242:248,1,80
221,315,99919,1,8,0:0:0:0:
22,179,100076,5,0,0:0:0:0:
507,92,100390,5,0,0:0:0:0:
165,61,100704,6,0,L|337:76,1,160,8|8,0:0|0:0,0:0:0:0:
435,194,101175,2,0,L|396:191,1,40,8|8,0:0|0:0,0:0:0:0:
324,229,101332,1,0,0:0:0:0:
324,229,101411,1,8,0:0:0:0:
324,229,101489,2,0,B|314:187|314:187|327:149,1,80,8|0,0:0|0:0,0:0:0:0:
499,164,101803,2,0,B|507:203|507:203|490:243,1,80
392,306,102118,5,0,0:0:0:0:
237,150,102275,1,0,0:0:0:0:
238,252,102432,1,8,0:0:0:0:
83,96,102589,1,0,0:0:0:0:
285,40,102746,5,0,0:0:0:0:
153,175,102903,1,0,0:0:0:0:
324,229,103060,1,0,0:0:0:0:
193,369,103217,5,8,0:0:0:0:
438,192,103531,5,8,0:0:0:0:
0,117,103845,5,8,0:0:0:0:
174,72,104002,5,0,0:0:0:0:
64,196,104159,1,0,0:0:0:0:
107,4,104317,1,0,0:0:0:0:
153,175,104474,1,0,0:0:0:0:
34,364,104631,5,2,0:0:0:0:
72,356,104709,1,0,0:0:0:0:
111,348,104788,1,2,0:0:0:0:
92,270,104945,1,2,0:0:0:0:
131,262,105023,1,0,0:0:0:0:
170,254,105102,1,0,0:0:0:0:
153,175,105259,1,2,0:0:0:0:
191,166,105337,1,0,0:0:0:0:
230,157,105416,2,0,L|241:108,1,40,2|0,0:0|0:0,0:0:0:0:
254,39,105573,5,2,0:0:0:0:
303,222,105730,1,2,0:0:0:0:
387,123,105887,6,0,L|396:95,4,20,0|0|0|0|2,0:0|0:0|0:0|0:0|0:0,0:0:0:0:
503,227,106201,5,2,0:0:0:0:
463,218,106280,1,0,0:0:0:0:
423,224,106358,1,0,0:0:0:0:
391,248,106437,1,0,0:0:0:0:
375,285,106516,6,0,L|366:313,4,20,2|0|0|0|2,0:0|0:0|0:0|0:0|0:0,0:0:0:0:
231,158,106830,6,0,L|314:140,1,80,0|2,0:0|0:0,0:0:0:0:
469,105,107144,5,0,0:0:0:0:
441,76,107222,1,0,0:0:0:0:
413,45,107301,1,2,0:0:0:0:
387,123,107458,1,2,0:0:0:0:
172,96,107615,6,0,L|138:103,4,20,0|0|0|0|2,0:0|0:0|0:0|0:0|0:0,0:0:0:0:
325,27,107929,5,2,0:0:0:0:
163,216,108086,1,2,0:0:0:0:
91,43,108243,1,2,0:0:0:0:
309,141,108400,6,0,L|328:136,4,20,0|0|0|0|2,0:0|0:0|0:0|0:0|0:0,0:0:0:0:
32,143,108714,6,0,P|76:146|113:161,1,80,2|0,0:0|0:0,0:0:0:0:
163,216,108950,1,0,0:0:0:0:
163,216,109029,6,0,P|173:199|182:175,1,40,2|0,0:0|0:0,0:0:0:0:
101,268,109186,2,0,P|81:267|55:272,1,40,2|0,0:0|0:0,0:0:0:0:
171,294,109343,2,0,P|180:311|197:330,1,40
232,114,109500,6,0,P|276:114|312:101,1,80
374,54,109657,5,2,0:0:0:0:
384,133,109814,1,2,0:0:0:0:
450,89,109971,1,2,0:0:0:0:
457,128,110050,1,0,0:0:0:0:
464,167,110128,1,0,0:0:0:0:
322,175,110285,1,2,0:0:0:0:
329,214,110364,1,0,0:0:0:0:
336,253,110442,1,2,0:0:0:0:
194,261,110599,1,2,0:0:0:0:
201,300,110678,1,0,0:0:0:0:
208,339,110756,2,0,L|154:320,1,40,2|0,0:0|0:0,0:0:0:0:
93,303,110913,6,0,L|87:273,4,20,2|0|0|0|2,0:0|0:0|0:0|0:0|0:0,0:0:0:0:
4,226,111228,5,2,0:0:0:0:
44,235,111306,1,0,0:0:0:0:
84,229,111385,1,0,0:0:0:0:
116,205,111463,1,0,0:0:0:0:
132,168,111542,6,0,L|141:140,4,20,2|0|0|0|2,0:0|0:0|0:0|0:0|0:0,0:0:0:0:
194,261,111856,1,0,0:0:0:0:
50,148,112013,1,0,0:0:0:0:
283,84,112170,5,0,0:0:0:0:
271,122,112248,1,0,0:0:0:0:
262,161,112327,1,2,0:0:0:0:
204,105,112484,1,2,0:0:0:0:
464,105,112641,6,0,L|491:97,4,20,2|0|0|0|2,0:0|0:0|0:0|0:0|0:0,0:0:0:0:
308,4,112955,5,2,0:0:0:0:
375,192,113112,1,2,0:0:0:0:
446,29,113269,1,2,0:0:0:0:
262,161,113427,6,0,L|235:153,4,20,0|0|0|0|2,0:0|0:0|0:0|0:0|0:0,0:0:0:0:
427,243,113741,6,0,P|386:245|344:262,1,80,2|0,0:0|0:0,0:0:0:0:
287,307,113976,1,0,0:0:0:0:
287,307,114055,6,0,P|277:281|274:260,1,40,2|0,0:0|0:0,0:0:0:0:
178,213,114212,2,0,P|205:217|225:225,1,40,2|0,0:0|0:0,0:0:0:0:
315,167,114369,2,0,P|297:188|280:201,1,40,2|0,0:0|0:0,0:0:0:0:
119,332,114526,6,0,B|246:290|232:404|382:357,1,260
447,312,115625,6,0,L|470:318,1,20,2|2,0:0|0:0,0:0:0:0:
451,293,115704,6,0,L|477:306,1,20,2|2,0:0|0:0,0:0:0:0:
462,276,115783,6,0,L|479:291,1,20,2|2,0:0|0:0,0:0:0:0:
478,264,115861,6,0,L|489:281,1,20,2|2,0:0|0:0,0:0:0:0:
498,257,115940,6,0,P|459:272|420:270,1,80,4|0,0:0|0:0,0:0:0:0:
351,228,116254,1,0,0:0:0:0:
201,282,116411,2,0,P|240:267|279:269,1,80
347,310,116725,1,0,0:0:0:0:
461,178,116882,1,0,0:0:0:0:
293,99,117039,1,0,0:0:0:0:
293,99,117118,1,0,0:0:0:0:
293,99,117196,6,0,P|287:77|286:43,1,40
302,181,117353,2,0,P|323:190|348:205,1,40
226,149,117510,2,0,P|207:162|182:176,1,40
206,20,117667,2,0,L|212:54,1,20
187,28,117746,2,0,L|193:62,1,20
168,35,117824,5,0,0:0:0:0:
373,97,117981,1,0,0:0:0:0:
138,208,118139,1,0,0:0:0:0:
451,302,118296,2,0,L|440:263,1,40
369,228,118453,6,0,P|329:235|297:257,1,80
260,329,118688,1,0,0:0:0:0:
260,329,118767,1,0,0:0:0:0:
66,245,118924,1,0,0:0:0:0:
66,245,119002,1,0,0:0:0:0:
66,245,119081,5,0,0:0:0:0:
174,367,119238,1,0,0:0:0:0:
174,367,119317,1,0,0:0:0:0:
174,367,119395,1,0,0:0:0:0:
246,166,119552,2,0,L|204:163,1,40
119,50,119709,6,0,P|125:90|130:131,1,80
138,208,119945,1,0,0:0:0:0:
138,208,120023,1,0,0:0:0:0:
6,107,120180,2,0,L|1:83,1,20
24,98,120259,2,0,L|19:74,1,20
42,90,120337,5,0,0:0:0:0:
218,243,120495,1,0,0:0:0:0:
54,164,120652,1,0,0:0:0:0:
326,50,120809,1,0,0:0:0:0:
323,76,120861,1,0,0:0:0:0:
319,102,120913,1,0,0:0:0:0:
315,127,120966,6,0,P|351:107|392:100,1,80
467,113,121280,1,0,0:0:0:0:
251,170,121437,2,0,P|215:148|189:116,1,80
163,45,121751,1,0,0:0:0:0:
318,203,121908,1,0,0:0:0:0:
64,285,122065,1,0,0:0:0:0:
64,285,122144,1,0,0:0:0:0:
64,285,122222,6,0,P|91:284|112:288,1,40
188,215,122379,2,0,P|175:238|161:255,1,40
186,358,122536,2,0,P|171:335|164:314,1,40
44,169,122694,2,0,L|49:192,1,20
62,174,122772,2,0,L|67:197,1,20
82,178,122851,5,0,0:0:0:0:
249,90,123008,1,0,0:0:0:0:
249,90,123086,1,0,0:0:0:0:
249,90,123165,1,0,0:0:0:0:
142,125,123322,2,0,L|183:133,1,40
328,151,123479,6,0,P|284:154|247:174,1,80
188,215,123714,1,0,0:0:0:0:
188,215,123793,1,0,0:0:0:0:
90,44,123950,1,0,0:0:0:0:
90,44,124029,1,0,0:0:0:0:
90,44,124107,5,0,0:0:0:0:
401,193,124264,1,0,0:0:0:0:
401,193,124343,1,0,0:0:0:0:
401,193,124421,1,0,0:0:0:0:
82,314,124578,2,0,L|131:320,1,40
188,369,124735,6,0,B|205:334|205:334|201:294,1,80
188,215,124971,1,0,0:0:0:0:
188,215,125050,1,0,0:0:0:0:
383,293,125207,2,0,L|378:270,1,20
365,288,125285,2,0,L|360:265,1,20
345,284,125364,5,0,0:0:0:0:
452,93,125521,1,0,0:0:0:0:
493,244,125678,1,0,0:0:0:0:
302,137,125835,1,0,0:0:0:0:
507,3,125992,6,0,P|437:45|352:46,1,160
285,19,126463,1,0,0:0:0:0:
275,6,126777,1,0,0:0:0:0:
16,121,127091,5,0,0:0:0:0:
493,244,127720,5,0,0:0:0:0:
75,329,128034,6,0,L|68:280,1,40
109,189,128191,1,0,0:0:0:0:
144,206,128269,1,0,0:0:0:0:
184,206,128348,1,0,0:0:0:0:
220,188,128427,1,0,0:0:0:0:
242,155,128505,6,0,B|252:115|252:115|239:70,1,80
196,13,128741,1,0,0:0:0:0:
196,13,128819,1,0,0:0:0:0:
393,127,128976,1,0,0:0:0:0:
393,127,129055,1,0,0:0:0:0:
393,127,129133,5,0,0:0:0:0:
115,204,129290,1,0,0:0:0:0:
115,204,129369,1,0,0:0:0:0:
115,204,129447,1,0,0:0:0:0:
438,339,129605,2,0,L|384:345,1,40
328,383,129762,6,0,B|314:344|314:344|321:302,1,80
348,231,129997,1,0,0:0:0:0:
348,231,130076,1,0,0:0:0:0:
198,328,130233,2,0,L|193:351,1,20
218,324,130311,2,0,L|213:347,1,20
238,321,130390,5,0,0:0:0:0:
60,209,130547,1,0,0:0:0:0:
289,158,130783,1,0,0:0:0:0:
111,46,130861,1,0,0:0:0:0:
136,40,130913,1,0,0:0:0:0:
162,34,130966,1,0,0:0:0:0:
188,29,131018,6,0,P|170:66|170:107,1,80
190,181,131332,1,0,0:0:0:0:
441,206,131489,2,0,P|459:169|459:128,1,80
439,54,131803,1,0,0:0:0:0:
289,158,131961,1,0,0:0:0:0:
495,284,132118,1,0,0:0:0:0:
495,284,132196,1,0,0:0:0:0:
495,284,132275,6,0,L|440:293,1,40
373,373,132432,2,0,L|392:320,1,40
353,226,132589,2,0,L|388:269,1,40
470,380,132746,6,0,L|455:356,1,20
489,378,132824,2,0,L|476:352,1,20
508,375,132903,1,0,0:0:0:0:
465,177,133060,1,0,0:0:0:0:
288,310,133217,1,0,0:0:0:0:
410,288,133374,6,0,B|277:309|307:237|181:259|181:259|154:274|161:303|189:305|202:279|182:252|142:233|142:233|220:176|176:88,1,520
92,51,135495,1,0,0:0:0:0:
92,51,135573,1,0,0:0:0:0:
92,51,135652,1,0,0:0:0:0:
92,51,135730,1,0,0:0:0:0:
92,51,135809,1,0,0:0:0:0:
92,51,135887,6,0,L|83:25,2,26.6666666666667,2|2|2,0:0|0:0|0:0,0:0:0:0:
96,146,136044,5,6,0:0:0:0:
36,199,136201,1,2,0:0:0:0:
111,224,136358,2,0,L|215:257,1,80,2|0,0:0|0:0,0:0:0:0:
130,314,136672,1,2,0:0:0:0:
206,338,136830,1,2,0:0:0:0:
269,279,136987,1,2,0:0:0:0:
269,279,137065,1,2,0:0:0:0:
269,279,137144,1,2,0:0:0:0:
348,302,137301,5,0,0:0:0:0:
343,262,137379,1,0,0:0:0:0:
338,222,137458,1,2,0:0:0:0:
332,182,137536,1,0,0:0:0:0:
327,142,137615,2,0,L|406:167,1,80,2|0,0:0|0:0,0:0:0:0:
470,112,137929,1,2,0:0:0:0:
470,112,138008,1,2,0:0:0:0:
470,112,138086,2,0,L|381:82,1,80,2|2,0:0|0:0,0:0:0:0:
483,189,138400,1,2,0:0:0:0:
234,34,138557,5,0,0:0:0:0:
267,194,138714,5,6,0:0:0:0:
260,154,138793,1,0,0:0:0:0:
251,117,138871,2,0,L|337:145,1,80,2|0,0:0|0:0,0:0:0:0:
106,129,139186,5,2,0:0:0:0:
353,63,139343,1,2,0:0:0:0:
214,253,139500,1,2,0:0:0:0:
214,253,139578,1,2,0:0:0:0:
214,253,139657,1,2,0:0:0:0:
338,222,139814,5,0,0:0:0:0:
327,260,139892,1,0,0:0:0:0:
316,298,139971,1,2,0:0:0:0:
307,336,140049,1,0,0:0:0:0:
294,373,140128,2,0,L|392:355,1,80,2|0,0:0|0:0,0:0:0:0:
451,342,140442,1,2,0:0:0:0:
451,342,140521,1,2,0:0:0:0:
451,342,140599,1,2,0:0:0:0:
425,194,140756,6,0,L|392:200,1,20
412,179,140835,2,0,L|379:185,1,20
396,162,140913,2,0,L|363:168,1,20
383,147,140992,2,0,L|350:153,1,20
369,132,141070,5,4,0:0:0:0:
408,126,141149,1,0,0:0:0:0:
447,119,141227,1,2,0:0:0:0:
469,41,141385,2,0,L|384:56,1,80,2|0,0:0|0:0,0:0:0:0:
312,71,141699,1,2,0:0:0:0:
289,147,141856,1,2,0:0:0:0:
208,165,142013,1,2,0:0:0:0:
208,165,142091,1,2,0:0:0:0:
208,165,142170,1,2,0:0:0:0:
121,181,142327,5,0,0:0:0:0:
147,211,142405,1,0,0:0:0:0:
174,241,142484,1,2,0:0:0:0:
201,270,142563,1,0,0:0:0:0:
228,300,142641,2,0,L|144:312,1,80,2|0,0:0|0:0,0:0:0:0:
363,346,142955,1,2,0:0:0:0:
363,346,143034,1,0,0:0:0:0:
363,346,143112,2,0,L|277:359,1,80,2|2,0:0|0:0,0:0:0:0:
70,324,143427,1,2,0:0:0:0:
206,372,143583,5,0,0:0:0:0:
375,233,143741,5,6,0:0:0:0:
445,287,143898,1,2,0:0:0:0:
457,207,144055,1,0,0:0:0:0:
432,366,144212,5,2,0:0:0:0:
296,260,144369,1,2,0:0:0:0:
466,126,144526,1,2,0:0:0:0:
466,126,144605,1,2,0:0:0:0:
466,126,144683,1,2,0:0:0:0:
376,154,144840,5,0,0:0:0:0:
339,166,144919,1,0,0:0:0:0:
301,178,144997,1,2,0:0:0:0:
263,191,145076,1,0,0:0:0:0:
226,203,145154,2,0,L|236:124,1,80,2|0,0:0|0:0,0:0:0:0:
143,192,145468,5,2,0:0:0:0:
296,260,145625,1,2,0:0:0:0:
126,300,145782,1,2,0:0:0:0:
279,362,145940,1,2,0:0:0:0:
52,272,146097,6,0,L|60:233,1,40,4|0,0:0|0:0,0:0:0:0:
197,330,146254,2,0,L|191:370,1,40,2|2,0:0|0:0,0:0:0:0:
71,287,146411,6,0,L|65:248,1,40,2|2,0:0|0:0,0:0:0:0:
176,315,146568,2,0,L|183:355,1,40,0|2,0:0|0:0,0:0:0:0:
143,192,146725,5,2,0:0:0:0:
5,98,146882,1,2,0:0:0:0:
165,27,147039,1,2,0:0:0:0:
172,35,147118,1,2,0:0:0:0:
172,35,147196,1,2,0:0:0:0:
253,47,147353,5,0,0:0:0:0:
247,86,147432,1,0,0:0:0:0:
240,125,147510,1,2,0:0:0:0:
233,164,147589,1,0,0:0:0:0:
226,203,147667,2,0,L|316:178,1,80,2|0,0:0|0:0,0:0:0:0:
381,161,147981,1,2,0:0:0:0:
381,161,148060,1,0,0:0:0:0:
381,161,148139,1,2,0:0:0:0:
325,63,148296,1,2,0:0:0:0:
478,105,148453,1,2,0:0:0:0:
402,84,148610,5,0,0:0:0:0:
458,181,148767,5,6,0:0:0:0:
420,171,148845,1,0,0:0:0:0:
381,161,148924,2,0,L|404:244,1,80,2|0,0:0|0:0,0:0:0:0:
430,313,149238,5,2,0:0:0:0:
479,103,149395,1,2,0:0:0:0:
316,223,149552,1,2,0:0:0:0:
316,223,149631,1,2,0:0:0:0:
316,223,149709,1,2,0:0:0:0:
194,44,149866,5,0,0:0:0:0:
205,82,149945,1,0,0:0:0:0:
216,120,150023,1,2,0:0:0:0:
227,158,150102,1,0,0:0:0:0:
237,196,150180,2,0,L|143:177,1,80,2|0,0:0|0:0,0:0:0:0:
300,138,150494,1,2,0:0:0:0:
300,138,150573,1,2,0:0:0:0:
300,138,150652,1,2,0:0:0:0:
81,237,150809,6,0,L|88:263,1,20,2|0,0:0|0:0,0:0:0:0:
101,242,150887,2,0,L|108:268,1,20
123,247,150966,2,0,L|130:273,1,20,2|0,0:0|0:0,0:0:0:0:
143,252,151044,2,0,L|150:278,1,20
162,258,151123,6,0,L|208:268,1,40,2|0,0:0|0:0,0:0:0:0:
355,181,151280,2,0,L|329:211,1,40,2|0,0:0|0:0,0:0:0:0:
244,376,151437,2,0,L|258:333,1,40,2|0,0:0|0:0,0:0:0:0:
375,322,151594,2,0,L|336:298,1,40
274,266,151751,5,2,0:0:0:0:
430,111,151908,1,2,0:0:0:0:
417,239,152065,1,2,0:0:0:0:
417,239,152144,1,2,0:0:0:0:
417,239,152222,1,2,0:0:0:0:
211,26,152379,5,0,0:0:0:0:
207,66,152458,1,0,0:0:0:0:
203,107,152536,1,2,0:0:0:0:
198,147,152615,1,0,0:0:0:0:
193,187,152693,2,0,L|269:161,1,80,2|0,0:0|0:0,0:0:0:0:
346,137,153008,1,2,0:0:0:0:
346,137,153086,1,2,0:0:0:0:
346,137,153165,1,2,0:0:0:0:
336,218,153322,2,0,L|248:247,1,80,0|2,0:0|0:0,0:0:0:0:
103,296,153636,5,0,0:0:0:0:
42,152,153793,5,6,0:0:0:0:
80,162,153871,1,0,0:0:0:0:
119,172,153950,2,0,L|96:89,1,80,2|0,0:0|0:0,0:0:0:0:
173,247,154264,5,2,0:0:0:0:
25,75,154421,1,2,0:0:0:0:
235,119,154578,1,2,0:0:0:0:
235,119,154657,1,2,0:0:0:0:
235,119,154735,1,2,0:0:0:0:
48,228,154892,5,0,0:0:0:0:
194,181,155050,1,0,0:0:0:0:
144,334,155207,2,0,L|128:253,1,80
315,138,155521,5,0,0:0:0:0:
315,138,155599,1,0,0:0:0:0:
151,95,155756,1,0,0:0:0:0:
151,95,155834,1,0,0:0:0:0:
363,2,155992,2,0,L|377:55,1,40
468,179,156149,6,0,L|444:91,1,80,4|2,0:0|0:0,0:0:0:0:
294,62,156463,2,0,L|316:139,1,80,2|0,0:0|0:0,0:0:0:0:
439,322,156777,2,0,L|415:234,1,80,2|2,0:0|0:0,0:0:0:0:
261,207,157091,1,2,0:0:0:0:
293,367,157248,1,2,0:0:0:0:
350,307,157405,5,0,0:0:0:0:
311,297,157484,1,0,0:0:0:0:
272,287,157563,1,2,0:0:0:0:
234,277,157641,1,0,0:0:0:0:
195,268,157720,2,0,L|212:353,1,80,2|0,0:0|0:0,0:0:0:0:
261,207,158034,1,2,0:0:0:0:
25,137,158191,1,2,0:0:0:0:
63,148,158269,1,0,0:0:0:0:
100,160,158348,6,0,L|134:171,1,20
96,140,158427,2,0,L|130:151,1,20
92,120,158505,2,0,L|126:131,1,20
88,100,158584,2,0,L|122:111,1,20
84,80,158662,5,0,0:0:0:0:
287,130,158819,1,2,0:0:0:0:
274,167,158898,1,0,0:0:0:0:
261,207,158976,2,0,L|355:191,1,80,2|0,0:0|0:0,0:0:0:0:
419,181,159290,5,2,0:0:0:0:
210,104,159447,1,2,0:0:0:0:
351,274,159604,1,2,0:0:0:0:
352,77,159761,1,2,0:0:0:0:
57,295,159919,5,0,0:0:0:0:
95,307,159997,1,0,0:0:0:0:
133,319,160076,1,2,0:0:0:0:
171,330,160154,1,0,0:0:0:0:
208,342,160233,2,0,L|194:263,1,80,2|0,0:0|0:0,0:0:0:0:
180,185,160547,1,2,0:0:0:0:
338,228,160704,1,2,0:0:0:0:
296,90,160861,6,0,L|268:94,1,20,2|0,0:0|0:0,0:0:0:0:
291,109,160940,2,0,L|263:113,1,20
287,130,161018,2,0,L|259:134,1,20,2|0,0:0|0:0,0:0:0:0:
281,148,161097,2,0,L|253:152,1,20
275,167,161175,5,4,0:0:0:0:
373,150,161332,1,2,0:0:0:0:
413,143,161411,1,0,0:0:0:0:
453,136,161489,2,0,L|430:223,1,80,2|0,0:0|0:0,0:0:0:0:
409,289,161803,1,2,0:0:0:0:
318,304,161960,1,2,0:0:0:0:
347,331,162039,1,0,0:0:0:0:
378,357,162117,2,0,L|287:373,1,80,2|2,0:0|0:0,0:0:0:0:
220,381,162432,5,0,0:0:0:0:
190,354,162510,1,0,0:0:0:0:
161,327,162589,1,2,0:0:0:0:
132,300,162667,1,0,0:0:0:0:
103,273,162746,2,0,L|79:361,1,80,2|0,0:0|0:0,0:0:0:0:
122,192,163060,1,2,0:0:0:0:
293,166,163217,1,2,0:0:0:0:
253,172,163296,1,0,0:0:0:0:
212,177,163374,6,0,L|192:179,1,20,2|0,0:0|0:0,0:0:0:0:
219,159,163453,2,0,L|199:161,1,20
223,138,163531,2,0,L|203:140,1,20,2|0,0:0|0:0,0:0:0:0:
228,119,163610,2,0,L|208:121,1,20
233,101,163688,5,4,0:0:0:0:
359,195,163845,1,2,0:0:0:0:
347,233,163924,1,0,0:0:0:0:
334,270,164002,2,0,L|423:254,1,80,2|0,0:0|0:0,0:0:0:0:
305,347,164316,5,2,0:0:0:0:
439,176,164474,1,2,0:0:0:0:
256,245,164631,1,2,0:0:0:0:
485,281,164788,1,2,0:0:0:0:
282,167,164945,5,0,0:0:0:0:
295,130,165023,1,0,0:0:0:0:
307,93,165102,1,0,0:0:0:0:
319,55,165180,1,0,0:0:0:0:
333,17,165259,2,0,L|255:31,1,80
88,88,165573,5,0,0:0:0:0:
221,137,165730,1,0,0:0:0:0:
78,275,165887,6,0,L|58:272,1,20,2|0,0:0|0:0,0:0:0:0:
73,256,165966,2,0,L|53:253,1,20
69,235,166044,2,0,L|49:232,1,20,2|0,0:0|0:0,0:0:0:0:
63,217,166123,2,0,L|43:214,1,20
59,198,166201,5,4,0:0:0:0:
157,295,166358,1,0,0:0:0:0:
241,213,166515,2,0,L|262:291,1,80,2|0,0:0|0:0,0:0:0:0:
221,137,166830,1,2,0:0:0:0:
331,22,166987,1,2,0:0:0:0:
304,52,167065,1,0,0:0:0:0:
275,81,167144,2,0,L|353:104,1,80,2|2,0:0|0:0,0:0:0:0:
297,161,167458,5,0,0:0:0:0:
335,173,167536,1,0,0:0:0:0:
374,185,167615,1,2,0:0:0:0:
413,196,167693,1,0,0:0:0:0:
452,208,167772,2,0,L|389:268,1,80,2|0,0:0|0:0,0:0:0:0:
334,315,168086,1,2,0:0:0:0:
173,270,168243,1,2,0:0:0:0:
211,281,168322,1,0,0:0:0:0:
249,292,168400,6,0,L|270:299,1,20,2|0,0:0|0:0,0:0:0:0:
242,274,168479,2,0,L|263:280,1,20
239,253,168557,2,0,L|259:258,1,20,2|0,0:0|0:0,0:0:0:0:
235,233,168636,2,0,L|254:238,1,20
230,215,168714,5,4,0:0:0:0:
48,192,168872,1,2,0:0:0:0:
88,181,168950,1,0,0:0:0:0:
127,171,169028,2,0,L|101:257,1,80,2|0,0:0|0:0,0:0:0:0:
0,126,169343,5,2,0:0:0:0:
205,198,169500,1,2,0:0:0:0:
31,276,169657,1,2,0:0:0:0:
172,50,169814,1,2,0:0:0:0:
310,109,169971,5,0,0:0:0:0:
299,147,170049,1,0,0:0:0:0:
288,185,170128,1,2,0:0:0:0:
276,224,170207,1,0,0:0:0:0:
265,262,170285,2,0,L|362:236,1,80,2|0,0:0|0:0,0:0:0:0:
419,221,170599,1,2,0:0:0:0:
396,297,170756,1,2,0:0:0:0:
480,174,170913,6,0,L|501:168,1,20,2|0,0:0|0:0,0:0:0:0:
485,154,170992,2,0,L|506:148,1,20
487,135,171070,2,0,L|508:129,1,20,2|0,0:0|0:0,0:0:0:0:
492,115,171149,2,0,L|513:109,1,20
495,95,171227,5,4,0:0:0:0:
356,51,171385,1,2,0:0:0:0:
383,81,171463,1,0,0:0:0:0:
409,111,171542,2,0,L|324:128,1,80,2|0,0:0|0:0,0:0:0:0:
251,140,171856,1,2,0:0:0:0:
299,203,172013,1,2,0:0:0:0:
260,211,172091,1,0,0:0:0:0:
222,219,172170,2,0,L|289:297,1,80,2|2,0:0|0:0,0:0:0:0:
248,358,172484,5,0,0:0:0:0:
222,327,172563,1,0,0:0:0:0:
196,297,172641,1,2,0:0:0:0:
170,266,172720,1,0,0:0:0:0:
144,236,172798,2,0,L|109:319,1,80,2|0,0:0|0:0,0:0:0:0:
169,155,173112,1,2,0:0:0:0:
0,185,173269,1,2,0:0:0:0:
40,178,173348,1,0,0:0:0:0:
80,170,173426,6,0,L|99:167,1,20,2|0,0:0|0:0,0:0:0:0:
67,154,173505,2,0,L|86:151,1,20
57,140,173583,2,0,L|76:137,1,20,2|0,0:0|0:0,0:0:0:0:
46,126,173662,2,0,L|65:123,1,20
34,110,173740,5,4,0:0:0:0:
156,8,173898,1,2,0:0:0:0:
142,46,173976,1,0,0:0:0:0:
128,84,174055,2,0,L|216:67,1,80,2|0,0:0|0:0,0:0:0:0:
285,53,174369,5,2,0:0:0:0:
221,218,174526,1,2,0:0:0:0:
396,192,174683,1,2,0:0:0:0:
332,357,174840,1,2,0:0:0:0:
169,155,175625,5,0,0:0:0:0:
169,155,175704,1,0,0:0:0:0:
311,204,175861,1,0,0:0:0:0:
311,204,175940,1,0,0:0:0:0:
351,31,176097,1,0,0:0:0:0:
351,31,176175,1,0,0:0:0:0:
351,31,176254,6,0,P|390:50|436:54,1,80
504,36,176568,1,8,0:0:0:0:
214,97,176725,6,0,L|203:68,4,20,2|0|0|0|2,0:0|0:0|0:0|0:0|0:0,0:0:0:0:
276,288,177039,5,2,0:0:0:0:
369,79,177196,1,0,0:0:0:0:
413,217,177354,1,8,0:0:0:0:
131,129,177510,6,0,L|103:121,4,20
310,120,177824,5,10,0:0:0:0:
206,203,177982,2,0,L|213:242,1,40,8|0,0:0|0:0,0:0:0:0:
270,320,178139,6,0,L|268:339,4,20,10|0|0|0|2,0:0|0:0|0:0|0:0|0:0,0:0:0:0:
39,101,178453,6,0,P|83:102|123:90,1,80,2|2,0:0|0:0,0:0:0:0:
333,28,178767,5,0,0:0:0:0:
402,138,178924,1,2,0:0:0:0:
293,221,179082,1,8,0:0:0:0:
360,338,179238,6,0,L|357:370,4,20,2|0|0|0|2,0:0|0:0|0:0|0:0|0:0,0:0:0:0:
206,203,179553,5,2,0:0:0:0:
310,120,179710,1,2,0:0:0:0:
163,2,179866,1,2,0:0:0:0:
118,170,180023,6,0,L|124:205,4,20,2|0|0|0|2,0:0|0:0|0:0|0:0|0:0,0:0:0:0:
37,14,180260,5,8,0:0:0:0:
37,14,180338,1,10,0:0:0:0:
219,102,180495,1,2,0:0:0:0:
17,264,180652,5,8,0:0:0:0:
124,60,180809,1,2,0:0:0:0:
139,269,180966,1,2,0:0:0:0:
0,85,181123,1,2,0:0:0:0:
0,85,181175,1,0,0:0:0:0:
0,85,181228,1,0,0:0:0:0:
0,85,181280,6,0,P|35:88|74:111,1,80
115,177,181594,2,0,L|157:151,1,40,8|0,0:0|0:0,0:0:0:0:
281,151,181751,6,0,L|302:156,4,20,2|0|0|0|2,0:0|0:0|0:0|0:0|0:0,0:0:0:0:
6,92,182065,6,0,L|98:84,1,80,2|0,0:0|0:0,0:0:0:0:
347,61,182379,5,8,0:0:0:0:
198,24,182536,6,0,L|203:3,4,20
77,194,182851,6,0,L|116:191,1,40,10|8,0:0|0:0,0:0:0:0:
188,229,183008,1,0,0:0:0:0:
188,229,183087,1,8,0:0:0:0:
188,229,183165,6,0,B|221:229,4,20,10|0|0|0|2,0:0|0:0|0:0|0:0|0:0,0:0:0:0:
13,164,183479,6,0,B|5:203|5:203|22:243,1,80,2|2,0:0|0:0,0:0:0:0:
120,306,183794,5,0,0:0:0:0:
275,150,183951,1,2,0:0:0:0:
274,252,184108,1,8,0:0:0:0:
429,96,184264,6,0,L|466:91,4,20,2|0|0|0|2,0:0|0:0|0:0|0:0|0:0,0:0:0:0:
188,229,184578,5,2,0:0:0:0:
359,175,184735,1,2,0:0:0:0:
323,356,184892,5,10,0:0:0:0:
189,28,185207,5,10,0:0:0:0:
275,150,185364,1,2,0:0:0:0:
505,107,185521,1,10,0:0:0:0:
359,175,185678,5,0,0:0:0:0:
405,4,185835,1,2,0:0:0:0:
448,196,185993,1,2,0:0:0:0:
338,72,186150,1,2,0:0:0:0:
478,364,186307,5,2,0:0:0:0:
440,356,186385,1,0,0:0:0:0:
401,348,186464,1,2,0:0:0:0:
420,270,186621,1,2,0:0:0:0:
381,262,186699,1,0,0:0:0:0:
342,254,186778,1,0,0:0:0:0:
359,175,186935,1,2,0:0:0:0:
321,166,187013,1,0,0:0:0:0:
282,157,187092,2,0,L|271:108,1,40,2|0,0:0|0:0,0:0:0:0:
258,39,187249,5,2,0:0:0:0:
209,222,187406,1,2,0:0:0:0:
125,123,187563,6,0,L|116:95,4,20,0|0|0|0|2,0:0|0:0|0:0|0:0|0:0,0:0:0:0:
9,227,187877,5,2,0:0:0:0:
49,218,187956,1,0,0:0:0:0:
89,224,188034,1,0,0:0:0:0:
121,248,188113,1,0,0:0:0:0:
137,285,188192,6,0,L|146:313,4,20,2|0|0|0|2,0:0|0:0|0:0|0:0|0:0,0:0:0:0:
281,158,188506,6,0,L|198:140,1,80,0|2,0:0|0:0,0:0:0:0:
43,105,188820,5,0,0:0:0:0:
71,76,188898,1,0,0:0:0:0:
99,45,188977,1,2,0:0:0:0:
125,123,189134,1,2,0:0:0:0:
340,96,189291,6,0,L|374:103,4,20,0|0|0|0|2,0:0|0:0|0:0|0:0|0:0,0:0:0:0:
187,27,189605,5,2,0:0:0:0:
349,216,189762,1,2,0:0:0:0:
421,43,189919,1,2,0:0:0:0:
203,141,190076,6,0,L|184:136,4,20,0|0|0|0|2,0:0|0:0|0:0|0:0|0:0,0:0:0:0:
480,143,190390,6,0,P|436:146|399:161,1,80,2|0,0:0|0:0,0:0:0:0:
349,216,190626,1,0,0:0:0:0:
349,216,190705,6,0,P|339:199|330:175,1,40,2|0,0:0|0:0,0:0:0:0:
411,268,190862,2,0,P|431:267|457:272,1,40,2|0,0:0|0:0,0:0:0:0:
341,294,191018,2,0,P|332:311|315:330,1,40
280,114,191176,6,0,P|236:114|200:101,1,80,2|0,0:0|0:0,0:0:0:0:
138,54,191333,5,2,0:0:0:0:
128,133,191490,1,2,0:0:0:0:
62,89,191647,1,2,0:0:0:0:
55,128,191726,1,0,0:0:0:0:
48,167,191804,1,0,0:0:0:0:
190,175,191961,1,2,0:0:0:0:
183,214,192040,1,0,0:0:0:0:
176,253,192118,1,2,0:0:0:0:
318,261,192275,1,2,0:0:0:0:
311,300,192354,1,0,0:0:0:0:
304,339,192432,2,0,L|358:320,1,40,2|0,0:0|0:0,0:0:0:0:
419,303,192589,6,0,L|425:273,4,20,2|0|0|0|2,0:0|0:0|0:0|0:0|0:0,0:0:0:0:
508,226,192904,5,2,0:0:0:0:
468,235,192982,1,0,0:0:0:0:
428,229,193061,1,0,0:0:0:0:
396,205,193139,1,0,0:0:0:0:
380,168,193218,6,0,L|371:140,4,20,2|0|0|0|2,0:0|0:0|0:0|0:0|0:0,0:0:0:0:
318,261,193532,1,0,0:0:0:0:
462,148,193689,1,0,0:0:0:0:
229,84,193846,5,0,0:0:0:0:
241,122,193924,1,0,0:0:0:0:
250,161,194003,1,2,0:0:0:0:
308,105,194160,1,2,0:0:0:0:
48,105,194317,6,0,L|21:97,4,20,2|0|0|0|2,0:0|0:0|0:0|0:0|0:0,0:0:0:0:
204,4,194631,5,2,0:0:0:0:
137,192,194788,1,2,0:0:0:0:
66,29,194945,1,2,0:0:0:0:
250,161,195103,6,0,L|277:153,4,20,0|0|0|0|2,0:0|0:0|0:0|0:0|0:0,0:0:0:0:
85,243,195417,6,0,P|126:245|168:262,1,80,2|0,0:0|0:0,0:0:0:0:
225,307,195652,1,0,0:0:0:0:
225,307,195731,6,0,P|235:281|238:260,1,40,2|0,0:0|0:0,0:0:0:0:
334,213,195888,2,0,P|307:217|287:225,1,40,2|0,0:0|0:0,0:0:0:0:
197,167,196045,2,0,P|215:188|232:201,1,40,2|0,0:0|0:0,0:0:0:0:
393,332,196202,6,0,B|266:290|280:404|130:357,1,260
65,312,197301,6,0,L|42:318,1,20,2|2,0:0|0:0,0:0:0:0:
61,293,197380,6,0,L|35:306,1,20,2|2,0:0|0:0,0:0:0:0:
50,276,197459,6,0,L|33:291,1,20,2|2,0:0|0:0,0:0:0:0:
34,264,197537,6,0,L|23:281,1,20,2|2,0:0|0:0,0:0:0:0:
14,257,197615,5,4,0:0:0:0:
134,151,197929,1,0,0:0:0:0:
56,170,198086,2,0,L|66:90,1,80
207,216,198714,6,0,L|192:344,1,120
290,192,199343,2,0,L|305:64,1,120
373,261,199971,1,0,0:0:0:0:
459,244,200128,6,0,L|449:324,1,80
497,147,200599,5,0,0:0:0:0:
410,161,200913,5,0,0:0:0:0:
324,138,201228,5,0,0:0:0:0:
252,86,201542,5,0,0:0:0:0:
166,64,201856,5,0,0:0:0:0:
139,150,202013,1,0,0:0:0:0:
80,83,202170,6,0,P|72:42|68:-1,1,80
52,164,202641,6,0,P|60:205|64:248,1,80
164,352,203112,2,0,P|156:311|152:268,1,80
331,62,203741,6,0,P|339:103|348:193,1,120
458,322,204369,2,0,P|450:281|441:191,1,120
497,138,204997,1,0,0:0:0:0:
451,62,205154,6,0,L|367:67,1,80
292,53,205625,5,0,0:0:0:0:
235,121,205940,5,0,0:0:0:0:
256,208,206254,5,0,0:0:0:0:
276,293,206568,5,0,0:0:0:0:
214,356,206882,5,0,0:0:0:0:
361,316,207039,5,0,0:0:0:0:
192,273,207196,1,0,0:0:0:0:
338,230,207353,1,0,0:0:0:0:
300,379,207510,1,0,0:0:0:0:
41,54,207667,6,0,P|111:96|196:97,1,160
269,55,208139,1,0,0:0:0:0:
269,55,208217,1,0,0:0:0:0:
269,55,208296,2,0,B|274:110|274:110|250:155|250:155|257:210,1,160
361,316,208767,1,0,0:0:0:0:
361,316,208845,1,0,0:0:0:0:
361,316,208924,6,0,B|354:262|354:262|378:217|378:217|373:162,1,160
481,291,209395,2,0,L|480:257,1,20
461,286,209474,2,0,L|460:252,1,20
441,281,209552,5,0,0:0:0:0:
308,384,209709,1,0,0:0:0:0:
293,196,209866,1,0,0:0:0:0:
467,364,210023,2,0,P|441:359|423:359,1,40
129,251,210180,6,0,B|208:287|205:236|288:270,1,160
361,316,210651,1,0,0:0:0:0:
361,316,210730,1,0,0:0:0:0:
361,316,210809,6,0,B|369:275|369:275|361:238,1,80
74,141,211123,2,0,B|60:180|60:180|67:222,1,80
187,384,211358,1,0,0:0:0:0:
187,384,211437,6,0,B|200:301,1,80
217,227,211672,1,0,0:0:0:0:
217,227,211751,1,0,0:0:0:0:
331,327,211908,2,0,L|336:350,1,20
311,323,211986,2,0,L|316:346,1,20
291,320,212065,5,0,0:0:0:0:
452,209,212222,1,0,0:0:0:0:
231,149,212379,1,0,0:0:0:0:
401,46,212536,1,0,0:0:0:0:
376,40,212588,1,0,0:0:0:0:
350,34,212641,1,0,0:0:0:0:
324,29,212693,6,0,P|342:66|342:107,1,80
322,181,213007,1,0,0:0:0:0:
71,206,213164,2,0,P|53:169|53:128,1,80
73,54,213478,1,0,0:0:0:0:
223,158,213636,1,0,0:0:0:0:
17,284,213793,1,0,0:0:0:0:
17,284,213871,1,0,0:0:0:0:
17,284,213950,5,0,0:0:0:0:
135,373,214107,1,0,0:0:0:0:
159,226,214264,1,0,0:0:0:0:
42,380,214421,6,0,L|57:356,1,20
23,378,214499,2,0,L|36:352,1,20
4,375,214578,1,0,0:0:0:0:
47,177,214735,1,0,0:0:0:0:
224,310,214892,1,0,0:0:0:0:
102,288,215050,6,0,B|235:309|205:237|331:259|331:259|358:274|351:303|323:305|310:279|330:252|370:233|370:233|292:176|336:88,1,520
411,83,217248,6,0,P|373:95|333:93,1,80
463,15,217720,5,0,0:0:0:0:
269,144,218191,1,0,0:0:0:0:
409,152,218662,1,0,0:0:0:0:
210,273,219133,2,0,B|121:216|22:193|-8:276|14:358|99:376|179:335|146:239|127:207|127:207|109:176|93:126|133:80,1,560
129,83,221489,6,0,P|165:92|208:87,1,80
240,159,222118,2,0,P|278:151|315:126,1,80
388,152,222589,1,0,0:0:0:0:
423,73,222746,5,0,0:0:0:0:
433,239,223217,1,0,0:0:0:0:
240,160,223688,2,0,L|247:246,1,80
255,317,224081,1,0,0:0:0:0:
255,317,224159,6,0,L|283:312,5,20
96,287,224631,2,0,L|66:279,5,20
172,337,225102,1,0,0:0:0:0:
23,125,225259,6,0,L|13:104,5,20
105,93,225730,2,0,L|103:67,5,20
188,121,226201,2,0,L|205:102,5,20
240,196,226673,1,0,0:0:0:0:
310,229,226830,1,0,0:0:0:0:
311,149,226987,1,0,0:0:0:0:
245,277,227144,5,0,0:0:0:0:
403,295,227301,2,0,P|363:294|325:306,1,80
260,354,227615,1,0,0:0:0:0:
0,181,227772,6,0,P|76:195|152:167,1,160
334,70,228243,1,0,0:0:0:0:
334,70,228322,1,0,0:0:0:0:
334,70,228400,2,0,B|326:125|326:125|350:172|350:172|342:231,1,160
334,303,228872,1,0,0:0:0:0:
446,107,229029,6,0,L|406:111,1,40
231,196,229186,2,0,L|270:191,1,40
449,286,229343,2,0,P|389:281|333:302,1,120
260,354,229657,5,0,0:0:0:0:
469,200,229814,2,0,P|442:196|414:188,1,40
254,109,229971,2,0,L|251:85,6,20
321,153,230285,6,0,B|335:117|335:117|327:69,1,80
182,39,230599,2,0,B|168:75|168:75|176:123,1,80
231,196,230835,1,0,0:0:0:0:
231,196,230913,6,0,L|263:200,6,20
62,153,231228,2,0,L|106:147,1,40
268,269,231385,2,0,L|228:274,1,40
37,278,231542,5,0,0:0:0:0:
75,266,231620,1,0,0:0:0:0:
114,272,231699,1,0,0:0:0:0:
147,292,231777,1,0,0:0:0:0:
169,324,231856,2,0,B|151:286|151:286|159:245,1,80
323,150,232170,2,0,B|341:188|341:188|333:229,1,80
108,72,232484,2,0,L|105:48,6,20
172,119,232798,6,0,P|93:107|17:149,1,160
229,207,233269,2,0,L|236:163,1,40
214,283,233427,2,0,L|211:307,6,20
291,257,233741,1,0,0:0:0:0:
150,237,233898,1,0,0:0:0:0:
300,370,234055,5,0,0:0:0:0:
321,336,234133,1,0,0:0:0:0:
356,316,234212,1,0,0:0:0:0:
395,314,234290,1,0,0:0:0:0:
431,331,234369,2,0,L|441:250,1,80
324,60,234683,2,0,L|314:139,1,80
300,218,234919,1,0,0:0:0:0:
300,218,234997,2,0,L|324:210,6,20
223,242,235311,6,0,P|221:193|240:161,1,80
280,295,235625,1,0,0:0:0:0:
150,199,235783,1,0,0:0:0:0:
150,199,235861,1,0,0:0:0:0:
150,199,235939,2,0,L|126:191,6,20
392,154,236254,2,0,L|302:137,1,80
43,94,236568,5,0,0:0:0:0:
80,107,236647,1,0,0:0:0:0:
119,102,236725,1,0,0:0:0:0:
153,82,236804,1,0,0:0:0:0:
176,49,236882,2,0,P|159:85|164:124,1,80
219,181,237196,1,0,0:0:0:0:
293,6,237353,1,0,0:0:0:0:
342,215,237510,2,0,L|345:241,6,20
371,140,237824,5,0,0:0:0:0:
200,278,237981,1,0,0:0:0:0:
200,278,238060,1,0,0:0:0:0:
200,278,238139,1,0,0:0:0:0:
275,305,238296,2,0,P|264:265|269:227,1,80
297,152,238610,1,0,0:0:0:0:
426,199,238767,2,0,P|437:239|432:277,1,80
360,348,239081,5,0,0:0:0:0:
325,327,239160,1,0,0:0:0:0:
286,326,239238,1,0,0:0:0:0:
249,343,239317,1,0,0:0:0:0:
226,375,239395,2,0,B|233:337|233:337|215:299,1,80
53,167,239709,2,0,B|45:204|45:204|63:242,1,80
140,279,239945,1,0,0:0:0:0:
140,279,240023,2,0,L|137:259,6,20
111,354,240337,5,0,0:0:0:0:
301,212,240495,1,0,0:0:0:0:
301,212,240573,1,0,0:0:0:0:
301,212,240652,2,0,P|256:210|219:204,1,80
76,92,240966,2,0,P|87:91|96:90,6,20
0,111,241280,5,0,0:0:0:0:
149,164,241437,1,0,0:0:0:0:
56,261,241594,1,0,0:0:0:0:
91,240,241673,1,0,0:0:0:0:
130,239,241751,1,0,0:0:0:0:
167,256,241830,1,0,0:0:0:0:
190,288,241908,2,0,B|183:250|183:250|201:212,1,80
478,363,270338,5,2,0:0:0:0:
440,355,270416,1,0,0:0:0:0:
401,347,270495,1,2,0:0:0:0:
420,269,270652,1,2,0:0:0:0:
381,261,270730,1,0,0:0:0:0:
342,253,270809,1,0,0:0:0:0:
359,174,270966,1,2,0:0:0:0:
321,165,271044,1,0,0:0:0:0:
282,156,271123,2,0,L|271:107,1,40,2|0,0:0|0:0,0:0:0:0:
258,38,271280,5,2,0:0:0:0:
209,221,271437,1,2,0:0:0:0:
125,122,271594,6,0,L|116:94,4,20,0|0|0|0|2,0:0|0:0|0:0|0:0|0:0,0:0:0:0:
47,182,271908,5,2,0:0:0:0:
59,53,272065,1,0,0:0:0:0:
137,284,272223,6,0,L|146:312,4,20,2|0|0|0|2,0:0|0:0|0:0|0:0|0:0,0:0:0:0:
9,226,272537,5,0,0:0:0:0:
44,207,272616,1,0,0:0:0:0:
63,172,272694,1,0,0:0:0:0:
66,131,272773,1,0,0:0:0:0:
43,104,272851,5,0,0:0:0:0:
99,44,273008,1,2,0:0:0:0:
125,122,273165,1,2,0:0:0:0:
340,95,273322,6,0,L|374:102,4,20,0|0|0|0|2,0:0|0:0|0:0|0:0|0:0,0:0:0:0:
187,26,273636,5,2,0:0:0:0:
349,215,273793,1,2,0:0:0:0:
421,42,273950,1,2,0:0:0:0:
203,140,274107,6,0,L|184:135,4,20,0|0|0|0|2,0:0|0:0|0:0|0:0|0:0,0:0:0:0:
480,142,274421,6,0,P|436:145|399:160,1,80,2|0,0:0|0:0,0:0:0:0:
349,215,274657,1,0,0:0:0:0:
349,215,274736,6,0,P|339:198|330:174,1,40,2|0,0:0|0:0,0:0:0:0:
411,267,274893,2,0,P|431:266|457:271,1,40,2|0,0:0|0:0,0:0:0:0:
341,293,275050,2,0,P|332:310|315:329,1,40
280,113,275207,6,0,P|236:113|200:100,1,80
138,52,275364,5,2,0:0:0:0:
128,132,275521,1,2,0:0:0:0:
62,88,275678,1,2,0:0:0:0:
55,127,275757,1,0,0:0:0:0:
48,166,275835,1,0,0:0:0:0:
190,174,275992,1,2,0:0:0:0:
183,213,276071,1,0,0:0:0:0:
176,252,276149,1,2,0:0:0:0:
318,260,276306,1,2,0:0:0:0:
311,299,276385,1,0,0:0:0:0:
304,338,276463,2,0,L|358:319,1,40,2|0,0:0|0:0,0:0:0:0:
419,302,276620,6,0,L|425:272,4,20,2|0|0|0|2,0:0|0:0|0:0|0:0|0:0,0:0:0:0:
508,225,276935,5,2,0:0:0:0:
380,167,277092,1,0,0:0:0:0:
380,167,277249,6,0,L|371:139,4,20,2|0|0|0|2,0:0|0:0|0:0|0:0|0:0,0:0:0:0:
318,260,277563,1,0,0:0:0:0:
462,147,277720,1,0,0:0:0:0:
229,83,277877,5,0,0:0:0:0:
241,121,277955,1,0,0:0:0:0:
250,160,278034,1,2,0:0:0:0:
308,104,278191,1,2,0:0:0:0:
48,104,278348,6,0,L|21:96,4,20,2|0|0|0|2,0:0|0:0|0:0|0:0|0:0,0:0:0:0:
204,3,278662,5,2,0:0:0:0:
137,191,278819,1,2,0:0:0:0:
66,28,278976,1,2,0:0:0:0:
409,204,279134,6,0,L|401:247,1,40
74,249,279448,6,0,L|82:292,1,40
393,331,279762,6,0,L|385:374,1,40
221,348,280076,6,0,P|231:322|234:301,1,40,2|0,0:0|0:0,0:0:0:0:
330,255,280233,2,0,P|303:259|283:267,1,40,2|0,0:0|0:0,0:0:0:0:
193,209,280390,2,0,P|211:230|228:243,1,40,2|0,0:0|0:0,0:0:0:0:
256,192,280547,12,0,281175,0:0:0:0:
65,311,281489,6,0,L|42:317,1,20,2|2,0:0|0:0,0:0:0:0:
61,292,281568,6,0,L|35:305,1,20,2|2,0:0|0:0,0:0:0:0:
50,275,281647,6,0,L|33:290,1,20,2|2,0:0|0:0,0:0:0:0:
34,263,281725,6,0,L|23:280,1,20,2|2,0:0|0:0,0:0:0:0:
14,256,281804,6,0,P|53:271|92:269,1,80,4|0,0:0|0:0,0:0:0:0:
161,227,282118,1,0,0:0:0:0:
311,281,282275,2,0,P|272:266|233:268,1,80
165,309,282589,1,0,0:0:0:0:
51,177,282746,1,0,0:0:0:0:
219,98,282903,1,0,0:0:0:0:
219,98,282982,1,0,0:0:0:0:
219,98,283060,6,0,P|225:76|226:42,1,40
210,180,283217,2,0,P|189:189|164:204,1,40
286,148,283374,2,0,P|305:161|330:175,1,40
306,19,283531,2,0,L|300:53,1,20
325,27,283610,2,0,L|319:61,1,20
344,34,283688,5,0,0:0:0:0:
139,96,283845,1,0,0:0:0:0:
374,207,284003,1,0,0:0:0:0:
57,299,284160,2,0,L|71:262,1,40
143,227,284317,6,0,P|183:234|215:256,1,80
252,328,284552,1,0,0:0:0:0:
252,328,284631,1,0,0:0:0:0:
446,244,284788,1,0,0:0:0:0:
446,244,284866,1,0,0:0:0:0:
446,244,284945,5,0,0:0:0:0:
338,366,285102,1,0,0:0:0:0:
338,366,285181,1,0,0:0:0:0:
338,366,285259,1,0,0:0:0:0:
266,165,285416,2,0,L|308:162,1,40
393,49,285573,6,0,P|387:89|382:130,1,80
374,207,285809,1,0,0:0:0:0:
374,207,285887,1,0,0:0:0:0:
506,106,286044,2,0,L|511:82,1,20
488,97,286123,2,0,L|493:73,1,20
470,89,286201,5,0,0:0:0:0:
294,242,286359,1,0,0:0:0:0:
458,163,286516,1,0,0:0:0:0:
186,49,286673,1,0,0:0:0:0:
189,75,286725,1,0,0:0:0:0:
193,101,286777,1,0,0:0:0:0:
197,126,286830,6,0,P|161:106|120:99,1,80
45,112,287144,1,0,0:0:0:0:
261,169,287301,2,0,P|297:147|323:115,1,80
349,44,287615,1,0,0:0:0:0:
194,202,287772,1,0,0:0:0:0:
448,284,287929,1,0,0:0:0:0:
448,284,288008,1,0,0:0:0:0:
448,284,288086,6,0,P|421:283|400:287,1,40
324,214,288243,2,0,P|337:237|351:254,1,40
326,357,288400,2,0,P|341:334|348:313,1,40
468,168,288558,2,0,L|463:191,1,20
450,173,288636,2,0,L|445:196,1,20
430,177,288715,5,0,0:0:0:0:
263,89,288872,1,0,0:0:0:0:
263,89,288950,1,0,0:0:0:0:
263,89,289029,1,0,0:0:0:0:
370,124,289186,2,0,L|329:132,1,40
184,150,289343,6,0,P|228:153|265:173,1,80
324,214,289578,1,0,0:0:0:0:
324,214,289657,1,0,0:0:0:0:
422,43,289814,1,0,0:0:0:0:
422,43,289893,1,0,0:0:0:0:
422,43,289971,5,0,0:0:0:0:
111,192,290128,1,0,0:0:0:0:
111,192,290207,1,0,0:0:0:0:
111,192,290285,1,0,0:0:0:0:
430,313,290442,2,0,L|381:319,1,40
324,368,290599,6,0,B|307:333|307:333|311:293,1,80
324,214,290835,1,0,0:0:0:0:
324,214,290914,1,0,0:0:0:0:
129,292,291071,2,0,L|134:269,1,20
147,287,291149,2,0,L|152:264,1,20
167,283,291228,5,0,0:0:0:0:
60,92,291385,1,0,0:0:0:0:
19,243,291542,1,0,0:0:0:0:
210,136,291699,1,0,0:0:0:0:
5,2,291856,6,0,P|75:44|160:45,1,160
227,18,292327,1,0,0:0:0:0:
237,5,292641,1,0,0:0:0:0:
496,120,292955,5,0,0:0:0:0:
19,243,293584,5,0,0:0:0:0:
437,328,293898,6,0,L|444:279,1,40
403,188,294055,1,0,0:0:0:0:
368,205,294133,1,0,0:0:0:0:
328,205,294212,1,0,0:0:0:0:
292,187,294291,1,0,0:0:0:0:
270,154,294369,6,0,B|260:114|260:114|273:69,1,80
316,12,294605,1,0,0:0:0:0:
316,12,294683,1,0,0:0:0:0:
119,126,294840,1,0,0:0:0:0:
119,126,294919,1,0,0:0:0:0:
119,126,294997,5,0,0:0:0:0:
397,203,295154,1,0,0:0:0:0:
397,203,295233,1,0,0:0:0:0:
397,203,295311,1,0,0:0:0:0:
74,338,295469,2,0,L|128:344,1,40
184,382,295626,6,0,B|198:343|198:343|191:301,1,80
164,230,295861,1,0,0:0:0:0:
164,230,295940,1,0,0:0:0:0:
314,327,296097,2,0,L|319:350,1,20
294,323,296175,2,0,L|299:346,1,20
274,320,296254,5,0,0:0:0:0:
452,208,296411,1,0,0:0:0:0:
223,157,296647,1,0,0:0:0:0:
401,45,296725,1,0,0:0:0:0:
401,45,296777,1,0,0:0:0:0:
401,45,296829,1,0,0:0:0:0:
401,45,296882,6,0,B|379:98|379:98|389:144|389:144|368:207,1,160
354,274,297353,1,0,0:0:0:0:
441,297,297510,2,0,P|366:293|286:334,1,160
34,144,297981,6,0,L|22:263,1,120
177,362,298609,6,0,L|179:342,1,20
223,188,298766,2,0,L|232:233,2,40
256,48,299238,5,0,0:0:0:0:
256,192,299316,12,0,301908,0:0:0:0:
447,204,302379,6,0,L|470:210,1,20,2|2,0:0|0:0,0:0:0:0:
451,185,302458,6,0,L|477:198,1,20,2|2,0:0|0:0,0:0:0:0:
462,168,302537,6,0,L|479:183,1,20,2|2,0:0|0:0,0:0:0:0:
478,156,302615,6,0,L|489:173,1,20,2|2,0:0|0:0,0:0:0:0:
490,145,302693,6,0,P|451:147|413:135,1,80,4|0,0:0|0:0,0:0:0:0:
340,95,303007,1,0,0:0:0:0:
192,126,303164,2,0,P|232:123|270:136,1,80
344,177,303478,1,0,0:0:0:0:
260,56,303635,1,0,0:0:0:0:
293,286,303792,1,0,0:0:0:0:
293,286,303871,1,0,0:0:0:0:
293,286,303949,6,0,P|287:308|286:342,1,40
302,204,304106,2,0,P|323:195|348:180,1,40
226,236,304263,2,0,P|207:223|182:209,1,40
206,365,304420,2,0,L|212:331,1,20
187,357,304499,2,0,L|193:323,1,20
168,350,304577,5,0,0:0:0:0:
373,288,304734,1,0,0:0:0:0:
138,177,304892,1,0,0:0:0:0:
445,82,305049,2,0,L|439:139,1,40
369,157,305206,6,0,P|329:150|297:128,1,80
260,56,305441,1,0,0:0:0:0:
260,56,305520,1,0,0:0:0:0:
66,140,305677,1,0,0:0:0:0:
66,140,305755,1,0,0:0:0:0:
66,140,305834,5,0,0:0:0:0:
174,18,305991,1,0,0:0:0:0:
174,18,306070,1,0,0:0:0:0:
174,18,306148,1,0,0:0:0:0:
246,219,306305,2,0,L|204:222,1,40
119,335,306462,6,0,P|125:295|130:254,1,80
138,177,306698,1,0,0:0:0:0:
138,177,306776,1,0,0:0:0:0:
6,278,306933,2,0,L|1:302,1,20
24,287,307012,2,0,L|19:311,1,20
42,295,307090,5,0,0:0:0:0:
218,142,307248,1,0,0:0:0:0:
54,221,307405,1,0,0:0:0:0:
326,335,307562,1,0,0:0:0:0:
323,309,307614,1,0,0:0:0:0:
319,283,307666,1,0,0:0:0:0:
315,258,307719,6,0,P|351:278|392:285,1,80
467,272,308033,1,0,0:0:0:0:
251,215,308190,2,0,P|215:237|189:269,1,80
163,340,308504,1,0,0:0:0:0:
318,182,308661,1,0,0:0:0:0:
64,100,308818,1,0,0:0:0:0:
64,100,308897,1,0,0:0:0:0:
64,100,308975,6,0,P|91:101|112:97,1,40
188,170,309132,2,0,P|175:147|161:130,1,40
186,27,309289,2,0,P|171:50|164:71,1,40
44,216,309447,2,0,L|49:193,1,20
62,211,309525,2,0,L|67:188,1,20
82,207,309604,5,0,0:0:0:0:
249,295,309761,1,0,0:0:0:0:
249,295,309839,1,0,0:0:0:0:
249,295,309918,1,0,0:0:0:0:
142,260,310075,2,0,L|183:252,1,40
328,234,310232,6,0,P|284:231|247:211,1,80
188,170,310467,1,0,0:0:0:0:
188,170,310546,1,0,0:0:0:0:
90,341,310703,1,0,0:0:0:0:
90,341,310782,1,0,0:0:0:0:
90,341,310860,5,0,0:0:0:0:
401,192,311017,1,0,0:0:0:0:
401,192,311096,1,0,0:0:0:0:
401,192,311174,1,0,0:0:0:0:
82,71,311331,2,0,L|131:65,1,40
188,16,311488,6,0,B|205:51|205:51|201:91,1,80
188,170,311724,1,0,0:0:0:0:
188,170,311803,1,0,0:0:0:0:
383,92,311960,2,0,L|378:115,1,20
365,97,312038,2,0,L|360:120,1,20
345,101,312117,5,0,0:0:0:0:
452,292,312274,1,0,0:0:0:0:
493,141,312431,1,0,0:0:0:0:
302,248,312588,1,0,0:0:0:0:
507,382,312745,6,0,P|437:340|352:339,1,160
285,366,313216,1,0,0:0:0:0:
275,379,313530,1,0,0:0:0:0:
16,264,313844,5,0,0:0:0:0:
493,141,314473,5,0,0:0:0:0:
227,27,314944,5,0,0:0:0:0:
113,153,315101,1,0,0:0:0:0:
242,230,315258,6,0,B|252:270|252:270|239:315,1,80
196,372,315494,1,0,0:0:0:0:
196,372,315572,1,0,0:0:0:0:
393,258,315729,1,0,0:0:0:0:
393,258,315808,1,0,0:0:0:0:
393,258,315886,5,0,0:0:0:0:
113,153,316043,1,0,0:0:0:0:
113,153,316122,1,0,0:0:0:0:
113,153,316200,1,0,0:0:0:0:
438,46,316358,2,0,L|384:40,1,40
328,2,316515,6,0,B|314:41|314:41|321:83,1,80
348,154,316750,1,0,0:0:0:0:
348,154,316829,1,0,0:0:0:0:
198,57,316986,2,0,L|193:34,1,20
218,61,317064,2,0,L|213:38,1,20
238,64,317143,5,0,0:0:0:0:
60,176,317300,1,0,0:0:0:0:
289,227,317536,1,0,0:0:0:0:
111,338,317614,1,0,0:0:0:0:
136,344,317666,1,0,0:0:0:0:
162,350,317719,1,0,0:0:0:0:
188,355,317771,6,0,P|170:318|170:277,1,80
190,203,318085,1,0,0:0:0:0:
441,178,318242,2,0,P|459:215|459:256,1,80
439,330,318556,1,0,0:0:0:0:
289,226,318714,1,0,0:0:0:0:
495,100,318871,1,0,0:0:0:0:
495,100,318949,1,0,0:0:0:0:
495,100,319028,6,0,L|440:91,1,40
373,11,319185,2,0,L|392:64,1,40
353,158,319342,2,0,L|388:115,1,40
470,4,319499,6,0,L|455:28,1,20
489,6,319577,2,0,L|476:32,1,20
508,9,319656,1,0,0:0:0:0:
465,207,319813,1,0,0:0:0:0:
288,74,319970,1,0,0:0:0:0:
410,97,320127,6,0,B|277:76|307:148|181:126|181:126|154:111|161:82|189:80|202:106|182:133|142:152|142:152|239:228|183:343|39:318|56:209,1,680
