osu file format v14

[General]
AudioFilename: dille.mp3
AudioLeadIn: 0
PreviewTime: 20460
Countdown: 0
SampleSet: None
StackLeniency: 0.7
Mode: 0
LetterboxInBreaks: 1
WidescreenStoryboard: 1

[Editor]
DistanceSpacing: 0.7
BeatDivisor: 4
GridSize: 4
TimelineZoom: 1.7

[Metadata]
Title:Dille
TitleUnicode:Dille
Artist:Feryquitous
ArtistUnicode:Feryquitous
Creator:Zexous
Version:Gaia's Insane
Source:
Tags:artcore diversesystem laura akitoshi
BeatmapID:1632854
BeatmapSetID:754130

[Difficulty]
HPDrainRate:5
CircleSize:4
OverallDifficulty:7
ApproachRate:9
SliderMultiplier:1.6
SliderTickRate:1

[Events]
//Background and Video events
0,0,"nanomortis forest girl.png",0,0
//Break Periods
2,81916,91169
2,133435,141430
//Storyboard Layer 0 (Background)
//Storyboard Layer 1 (Fail)
//Storyboard Layer 2 (Pass)
//Storyboard Layer 3 (Foreground)
//Storyboard Sound Samples

[TimingPoints]
670,314.13612565445,4,2,2,100,1,0
1298,314.13612565445,4,2,2,100,1,0
20774,-200,4,2,2,100,0,0
21245,-100,4,3,2,100,0,0
29570,-100,4,2,2,100,0,0
30512,-100,4,3,2,100,0,0
30827,-100,4,2,0,40,0,0
31298,-100,4,3,2,100,0,0
34596,-100,4,2,2,100,0,0
35382,-100,4,3,2,100,0,0
39622,-100,4,2,2,100,0,0
40879,-100,4,2,0,100,0,0
40957,-100,4,2,0,90,0,0
41036,-100,4,2,0,80,0,0
41115,-100,4,2,0,70,0,0
41193,-100,4,2,0,60,0,0
41272,-100,4,2,0,50,0,0
41350,-100,4,2,0,40,0,0
41429,-100,4,2,0,30,0,0
41507,-111.111111111111,4,1,2,100,0,0
41821,-142.857142857143,4,1,2,50,0,0
46219,-76.9230769230769,4,1,2,50,0,0
46533,-111.111111111111,4,1,2,100,0,0
46847,-142.857142857143,4,1,2,100,0,0
46848,-142.857142857143,4,1,2,50,0,0
49046,-100,4,1,2,50,0,0
49674,-125,4,1,2,50,0,0
50303,-142.857142857143,4,1,2,50,0,0
51245,-76.9230769230769,4,1,2,50,0,0
51559,-111.111111111111,4,1,2,50,0,0
51560,-111.111111111111,4,1,2,100,0,0
51873,-142.857142857143,4,1,2,100,0,0
51874,-142.857142857143,4,1,2,50,0,0
54072,-100,4,1,2,50,0,0
55015,-83.3333333333333,4,1,2,50,0,0
55329,-142.857142857143,4,1,2,50,0,0
56271,-76.923076923077,4,1,2,50,0,0
56743,-142.857142857143,4,1,2,50,0,0
59099,-100,4,1,2,50,0,0
60355,-142.857142857143,4,1,2,50,0,0
61297,-76.923076923077,4,1,2,50,0,0
61612,-166.666666666667,4,2,2,100,0,0
61926,-166.666666666667,4,3,2,70,0,0
64125,-83.3333333333334,4,3,2,70,0,0
65067,-166.666666666667,4,3,2,70,0,0
68523,-111.111111111111,4,3,2,70,0,0
69151,-166.666666666667,4,3,2,70,0,0
75119,-90.909090909091,4,3,2,70,0,0
75591,-166.666666666667,4,3,2,70,0,0
79203,-83.3333333333333,4,3,2,70,0,0
80460,-83.3333333333333,4,2,2,100,0,0
91769,-125,4,3,2,60,0,0
96167,-100,4,3,2,60,0,0
98051,-125,4,3,2,60,0,0
100565,-125,4,2,2,100,0,0
101507,-76.9230769230769,4,2,2,100,0,0
101821,-76.9230769230769,4,1,2,100,0,0
101978,-100,4,1,2,100,0,0
102135,-100,4,3,2,100,0,0
102449,-100,4,1,2,100,0,0
103706,-83.3333333333333,4,1,2,100,0,0
104962,-83.3333333333333,4,3,2,100,0,0
105277,-111.111111111111,4,3,2,100,0,0
105905,-111.111111111111,4,1,2,100,0,0
106219,-111.111111111111,4,2,2,50,0,0
107004,-111.111111111111,4,2,2,100,0,0
107161,-111.111111111111,4,3,2,100,0,0
107318,-111.111111111111,4,1,2,100,0,0
108732,-83.3333333333333,4,1,2,100,0,0
109989,-83.3333333333333,4,3,2,100,0,0
110460,-125,4,3,2,100,0,0
111245,-125,4,2,2,50,0,0
113130,-100,4,3,2,100,0,0
116271,-100,4,1,2,100,0,0
116900,-100,4,3,2,100,0,0
118784,-100,4,1,2,100,0,0
119413,-100,4,3,2,100,0,0
121297,-100,4,1,2,100,0,0
122397,-125,4,1,2,100,0,0
123182,-100,4,3,2,100,0,0
126638,-100,4,1,2,100,0,0
127737,-100,4,3,2,100,0,0
131350,-100,4,1,2,100,0,0
132449,-76.9230769230769,4,1,2,100,0,0
132606,-76.9230769230769,4,3,2,100,0,0
133235,-76.9230769230769,4,1,2,100,0,0
142030,-100,4,1,2,100,0,0
142502,-125,4,1,2,100,0,0
143287,-125,4,3,2,100,0,0
143601,-100,4,3,2,100,0,0
146743,-100,4,1,2,100,0,0
148313,-100,4,3,2,100,0,0
151455,-100,4,1,2,100,0,0
152711,-76.9230769230769,4,3,2,100,0,0
153339,-76.9230769230769,4,2,2,50,0,0

[Colours]
Combo1 : 128,255,255
Combo2 : 255,113,184
Combo3 : 248,39,185

[HitObjects]
115,166,20774,6,0,P|117:138|124:112,2,40,0|0|0,0:2|0:2|0:2,0:0:0:0:
36,218,21245,6,0,P|123:202|217:192,1,160,4|0,0:1|0:0,0:0:0:0:
304,160,21716,2,0,P|297:204|295:245,1,80,8|0,0:0|0:0,0:0:0:0:
399,211,22030,1,0,0:0:0:0:
194,194,22188,1,8,0:0:0:0:
399,211,22345,1,0,0:0:0:0:
296,240,22502,6,0,P|284:167|276:72,1,160,0|0,0:0|0:0,0:0:0:0:
144,8,22973,2,0,P|142:41|132:100,1,80,8|0,0:0|0:0,0:0:0:0:
56,252,23287,1,0,0:0:0:0:
0,160,23444,1,8,0:0:0:0:
120,112,23601,1,0,0:0:0:0:
214,268,23758,6,0,P|149:256|38:252,1,160,0|0,0:0|0:0,0:0:0:0:
216,168,24229,2,0,P|257:163|312:144,1,80,8|0,0:0|0:0,0:0:0:0:
292,136,24465,1,0,0:0:0:0:
288,116,24544,1,0,0:0:0:0:
392,68,24701,2,0,L|408:168,1,80,8|0,0:0|0:0,0:0:0:0:
400,272,25015,6,0,L|452:260,1,40,0|0,0:0|0:0,0:0:0:0:
438,263,25329,6,0,L|399:254,1,40,0|0,0:0|0:0,0:0:0:0:
296,228,25486,1,8,0:0:0:0:
352,344,25643,1,0,0:0:0:0:
420,156,25800,1,0,0:0:0:0:
192,200,25957,2,0,P|199:239|204:292,1,80,8|0,0:0|0:0,0:0:0:0:
116,256,26271,6,0,P|167:246|304:228,1,160,2|0,0:0|0:0,0:0:0:0:
420,156,26743,2,0,P|340:145|262:131,1,160,8|0,0:0|0:0,0:0:0:0:
88,98,27214,1,8,0:0:0:0:
164,6,27371,1,0,0:0:0:0:
88,98,27528,6,0,P|98:174|120:270,1,160,0|0,0:0|0:0,0:0:0:0:
260,348,27999,2,0,P|268:308|272:252,1,80,8|0,0:0|0:0,0:0:0:0:
232,132,28313,1,0,0:0:0:0:
144,272,28470,1,8,0:0:0:0:
296,228,28627,1,0,0:0:0:0:
144,272,28784,6,0,P|105:275|36:296,1,80,2|0,0:0|0:0,0:0:0:0:
271,268,29099,1,0,0:0:0:0:
176,156,29256,2,0,P|93:143|-8:140,1,160,8|0,0:0|0:0,0:0:0:0:
224,52,29727,2,0,L|216:12,2,40,8|0|0,0:3|0:0|0:0,0:0:0:0:
304,120,30041,6,0,P|383:115|462:103,1,160,2|0,0:3|0:0,0:0:0:0:
462,102,30512,1,8,0:0:0:0:
432,292,30669,5,0,0:0:0:0:
324,276,30983,5,2,0:0:0:0:
216,260,31297,6,0,P|201:190|196:96,1,160,4|0,0:1|0:0,0:0:0:0:
64,32,31769,2,0,P|65:66|52:136,1,80,8|0,0:0|0:0,0:0:0:0:
64,304,32083,1,0,0:0:0:0:
4,216,32240,2,0,L|108:200,1,80,8|0,0:0|0:0,0:0:0:0:
308,272,32554,6,0,L|212:260,1,80,0|0,0:0|0:0,0:0:0:0:
216,260,32790,1,0,0:0:0:0:
216,260,32868,1,0,0:0:0:0:
296,172,33025,1,8,0:0:0:0:
324,276,33182,5,0,0:0:0:0:
192,228,33339,1,0,0:0:0:0:
304,152,33496,1,8,0:0:0:0:
308,272,33654,1,0,0:0:0:0:
304,152,33811,6,0,P|296:74|284:-8,1,160,0|0,0:0|0:0,0:0:0:0:
80,96,34282,2,0,P|71:142|68:196,1,80,8|0,0:0|0:0,0:0:0:0:
84,180,34517,1,0,0:0:0:0:
96,184,34596,1,0,0:0:0:0:
296,172,34753,2,0,P|264:152|216:144,1,80,8|0,0:3|0:0,0:0:0:0:
56,280,35067,6,0,P|141:276|216:256,1,160,0|0,0:0|0:0,0:0:0:0:
408,216,35538,1,8,0:0:0:0:
424,320,35695,2,0,P|386:310|332:304,1,80,0|0,0:0|0:0,0:0:0:0:
222,143,36010,2,0,P|226:191|257:232,1,80,8|0,0:0|0:0,0:0:0:0:
456,112,36324,6,0,P|384:120|296:168,1,160,2|0,0:0|0:0,0:0:0:0:
68,175,36795,2,0,P|109:183|160:187,1,80,8|0,0:0|0:0,0:0:0:0:
324,316,37109,1,0,0:0:0:0:
388,232,37266,1,8,0:0:0:0:
306,159,37423,1,0,0:0:0:0:
236,248,37580,6,0,P|229:290|228:340,1,80,0|0,0:0|0:0,0:0:0:0:
147,186,37894,1,0,0:0:0:0:
306,159,38051,2,0,P|302:111|288:64,1,80,8|0,0:0|0:0,0:0:0:0:
132,184,38366,1,0,0:0:0:0:
344,240,38523,1,8,0:0:0:0:
400,148,38680,1,0,0:0:0:0:
212,136,38837,6,0,P|137:151|28:160,1,160,0|0,0:0|0:0,0:0:0:0:
112,276,39308,2,0,P|120:318|124:364,1,80,8|0,0:0|0:0,0:0:0:0:
284,352,39622,1,0,0:0:0:0:
268,248,39779,1,8,0:3:0:0:
448,280,39936,1,0,0:0:0:0:
360,284,40093,6,0,L|340:108,1,160,0|0,0:0|0:0,0:0:0:0:
200,28,40565,2,0,L|209:107,1,80,0|0,0:0|0:0,0:0:0:0:
256,224,40879,2,0,L|212:216,3,40,2|2|2|2,0:0|0:0|0:0|0:0,0:0:0:0:
112,276,41193,2,0,L|60:288,3,40,2|2|2|2,0:0|0:0|0:0|0:0,0:0:0:0:
68,304,41507,6,0,P|28:260|40:204,1,107.999996704102,0|0,0:0|0:0,0:0:0:0:
56,204,41821,2,0,L|-12:188,1,55.9999982910157,0|0,0:3|0:0,0:0:0:0:
60,120,42135,2,0,L|9:72,1,55.9999982910157,0|0,0:0|0:0,0:0:0:0:
128,56,42449,2,0,L|107:-10,1,55.9999982910157,0|0,0:0|0:0,0:0:0:0:
232,64,42763,6,0,L|247:-4,1,55.9999982910157,0|0,0:0|0:0,0:0:0:0:
144,124,43078,2,0,L|123:57,1,55.9999982910157,0|0,0:0|0:0,0:0:0:0:
248,140,43392,2,0,L|264:72,1,55.9999982910157,0|0,0:0|0:0,0:0:0:0:
160,192,43706,2,0,L|139:125,1,55.9999982910157,0|0,0:0|0:0,0:0:0:0:
264,248,44020,5,0,0:0:0:0:
264,248,44177,1,0,0:0:0:0:
184,324,44334,1,0,0:0:0:0:
264,248,44491,2,0,P|321:234|392:224,1,111.999996582031,0|0,0:0|0:0,0:0:0:0:
160,192,44962,2,0,P|132:187|96:176,1,55.9999982910157,0|0,0:0|0:0,0:0:0:0:
176,72,45277,6,0,L|184:24,3,27.9999991455078,0|0|0|0,0:0|0:0|0:0|0:0,0:0:0:0:
160,84,45591,1,0,0:0:0:0:
179,64,45669,1,0,0:0:0:0:
202,48,45748,1,0,0:0:0:0:
228,37,45826,1,0,0:0:0:0:
256,32,45905,1,0,0:0:0:0:
284,32,45983,1,0,0:0:0:0:
311,38,46062,1,0,0:0:0:0:
337,49,46140,1,0,0:0:0:0:
360,64,46219,6,0,L|352:132,1,51.999997619629,0|0,0:0|0:0,0:0:0:0:
296,240,46376,2,0,L|308:292,1,51.999997619629,0|0,0:0|0:0,0:0:0:0:
372,196,46533,6,0,P|332:160|268:156,1,107.999996704102,0|0,0:0|0:0,0:0:0:0:
264,164,46847,2,0,L|196:176,1,55.9999982910157,0|0,0:0|0:0,0:0:0:0:
208,272,47161,2,0,L|143:248,1,55.9999982910157,0|0,0:0|0:0,0:0:0:0:
104,336,47476,2,0,L|59:283,1,55.9999982910157,0|0,0:0|0:0,0:0:0:0:
24,128,47790,6,0,P|8:159|8:196,1,55.9999982910157,0|0,0:0|0:0,0:0:0:0:
155,252,48104,2,0,P|150:224|137:200,1,55.9999982910157,0|0,0:0|0:0,0:0:0:0:
20,104,48418,2,0,P|4:135|4:172,1,55.9999982910157,0|0,0:0|0:0,0:3:0:0:
168,240,48732,2,0,P|163:212|150:188,1,55.9999982910157,0|0,0:0|0:0,0:0:0:0:
120,88,49046,6,0,P|144:120|284:120,1,160,0|0,0:0|0:0,0:0:0:0:
376,24,49517,1,0,0:0:0:0:
280,56,49674,2,0,P|266:98|270:139,1,64,0|0,0:0|0:0,0:0:0:0:
448,224,49989,2,0,P|447:192|438:161,1,64,0|0,0:0|0:0,0:0:0:0:
340,208,50303,6,0,L|300:220,3,27.9999991455078,0|0|0|0,0:0|0:0|0:0|0:0,0:0:0:0:
308,236,50617,1,0,0:0:0:0:
278,226,50695,1,0,0:0:0:0:
246,224,50774,1,0,0:0:0:0:
217,234,50852,1,0,0:0:0:0:
190,251,50931,1,0,0:0:0:0:
164,269,51009,1,0,0:0:0:0:
135,281,51088,1,0,0:0:0:0:
104,281,51166,1,0,0:0:0:0:
74,271,51245,6,0,P|64:248|64:212,1,51.999997619629,0|0,0:0|0:0,0:0:0:0:
8,128,51402,2,0,P|16:100|40:72,1,51.999997619629,0|0,0:0|0:0,0:0:0:0:
144,8,51559,6,0,P|180:28|192:116,1,107.999996704102,0|0,0:0|0:0,0:0:0:0:
180,104,51873,2,0,L|108:84,1,55.9999982910157,0|0,0:0|0:0,0:0:0:0:
88,176,52188,2,0,L|15:194,1,55.9999982910157,0|0,0:0|0:0,0:0:0:0:
104,281,52502,2,0,L|50:333,1,55.9999982910157,0|0,0:0|0:0,0:0:0:0:
208,260,52816,6,0,L|221:314,1,55.9999982910157,0|0,0:0|0:0,0:0:0:0:
360,252,53130,2,0,L|296:268,1,55.9999982910157,0|0,0:0|0:0,0:0:0:0:
180,208,53444,2,0,L|193:262,1,55.9999982910157,0|0,0:0|0:0,0:0:0:0:
376,228,53758,2,0,L|312:244,1,55.9999982910157,0|0,0:0|0:0,0:0:0:0:
136,116,54072,6,0,P|195:166|279:155,1,160,0|0,0:0|0:0,0:0:0:0:
336,84,54544,2,0,P|301:74|224:64,1,80,0|0,0:0|0:0,0:0:0:0:
388,204,54858,1,0,0:0:0:0:
273,158,55015,2,0,P|194:167|113:182,1,143.999995605469,0|0,0:0|0:0,0:0:0:0:
32,224,55329,6,0,L|20:180,3,27.9999991455078,0|0|0|0,0:0|0:0|0:0|0:0,0:0:0:0:
24,248,55643,1,0,0:0:0:0:
46,230,55721,1,0,0:0:0:0:
71,221,55800,1,0,0:0:0:0:
100,218,55878,1,0,0:0:0:0:
127,222,55957,1,0,0:0:0:0:
153,233,56035,1,0,0:0:0:0:
174,251,56114,1,0,0:0:0:0:
190,273,56192,1,0,0:0:0:0:
200,300,56271,6,0,P|176:313|144:320,1,51.999997619629,0|0,0:0|0:0,0:0:0:0:
304,244,56428,2,0,P|329:250|351:263,1,51.999997619629,0|0,0:0|0:0,0:0:0:0:
412,360,56585,5,0,0:0:0:0:
372,256,56743,2,0,P|361:213|348:120,1,111.999996582031,0|0,0:0|0:0,0:0:0:0:
416,0,57214,1,0,0:0:0:0:
364,68,57371,2,0,P|335:74|304:80,1,55.9999982910157,0|0,0:0|0:0,0:0:0:0:
120,124,57685,1,0,0:0:0:0:
164,44,57842,6,0,P|210:41|296:68,2,111.999996582031,0|0|0,0:0|0:0|0:0,0:0:0:0:
8,200,58784,2,0,P|34:194|76:180,1,55.9999982910157,0|0,0:0|0:0,0:0:0:0:
120,124,59099,6,0,P|101:222|100:288,1,160,0|0,0:0|0:0,0:0:0:0:
220,288,59570,1,0,0:0:0:0:
128,376,59727,2,0,P|92:364|36:360,1,80,0|0,0:0|0:0,0:0:0:0:
232,300,60041,2,0,P|271:295|309:283,1,80,0|0,0:0|0:0,0:0:0:0:
444,260,60355,6,0,L|460:212,3,27.9999991455078,0|0|0|0,0:0|0:0|0:0|0:0,0:0:0:0:
432,280,60669,1,0,0:0:0:0:
410,252,60747,1,0,0:0:0:0:
398,219,60826,1,0,0:0:0:0:
402,185,60904,1,0,0:0:0:0:
414,152,60983,1,0,0:0:0:0:
426,119,61061,1,0,0:0:0:0:
429,84,61140,1,0,0:0:0:0:
418,51,61218,1,0,0:0:0:0:
398,22,61297,6,0,P|367:26|340:40,1,51.999997619629,0|0,0:0|0:0,0:0:0:0:
252,92,61455,2,0,P|226:89|202:80,1,51.999997619629,0|0,0:0|0:0,0:0:0:0:
100,40,61612,6,0,L|112:156,1,95.9999970703126,2|0,0:3|0:0,0:0:0:0:
96,304,62083,1,2,0:0:0:0:
144,224,62240,2,0,L|32:208,2,95.9999970703126,8|2|0,0:0|0:0|0:0,0:0:0:0:
320,316,63025,5,2,0:0:0:0:
228,356,63182,2,0,L|220:300,1,47.9999985351563,2|0,0:0|0:0,0:0:0:0:
332,196,63496,2,0,L|320:304,1,95.9999970703126,8|0,0:0|0:0,0:0:0:0:
320,316,64125,6,0,L|296:112,1,191.999994140625,2|0,0:0|0:0,0:0:0:0:
104,68,64596,1,2,0:0:0:0:
204,32,64753,2,0,L|192:140,1,95.9999970703126,8|0,0:0|0:0,0:0:0:0:
40,168,65067,6,0,L|100:152,1,47.9999985351563,2|0,0:0|0:0,0:0:0:0:
208,148,65381,1,0,0:0:0:0:
188,268,65538,2,0,L|76:252,1,95.9999970703126,2|2,0:0|0:0,0:0:0:0:
280,224,66010,2,0,L|288:292,1,47.9999985351563,10|0,0:0|0:0,0:0:0:0:
432,256,66324,1,0,0:0:0:0:
387,336,66481,1,0,0:0:0:0:
411,243,66638,6,0,L|383:347,1,95.9999970703126,2|0,0:0|0:0,0:0:0:0:
304,224,67109,1,2,0:0:0:0:
372,152,67266,2,0,L|488:132,1,95.9999970703126,8|2,0:0|0:0,0:0:0:0:
199,100,67894,5,0,0:0:0:0:
127,52,68051,1,2,0:0:0:0:
199,100,68208,2,0,L|211:168,1,47.9999985351563,2|0,0:0|0:0,0:0:0:0:
256,224,68523,2,0,P|200:184|108:200,1,143.999995605469,8|0,0:0|0:0,0:0:0:0:
127,188,68994,1,0,0:0:0:0:
127,188,69151,6,0,L|144:296,1,95.9999970703126,2|0,0:0|0:0,0:0:0:0:
240,352,69622,1,2,0:0:0:0:
268,248,69779,2,0,L|253:342,1,95.9999970703126,8|2,0:0|0:0,0:0:0:0:
384,120,70407,5,0,0:0:0:0:
300,167,70565,2,0,P|254:161|196:143,1,95.9999970703126,2|2,0:0|0:0,0:0:0:0:
120,40,71036,2,0,P|131:64|136:100,1,47.9999985351563,8|0,0:0|0:0,0:0:0:0:
32,176,71350,1,0,0:0:0:0:
48,96,71507,1,0,0:0:0:0:
16,156,71664,6,0,P|21:132|31:110,1,47.9999985351563,2|0,0:0|0:0,0:0:0:0:
48,96,72135,1,2,0:0:0:0:
96,244,72292,2,0,L|-20:264,2,95.9999970703126,8|2|0,0:0|0:0|0:0,0:0:0:0:
276,216,73078,5,2,0:0:0:0:
184,228,73235,2,0,L|120:212,1,47.9999985351563,2|0,0:0|0:0,0:0:0:0:
204,44,73549,2,0,L|184:152,1,95.9999970703126,8|0,0:0|0:0,0:0:0:0:
292,344,74177,6,0,L|280:228,1,95.9999970703126,2|0,0:0|0:0,0:0:0:0:
396,228,74648,1,2,0:0:0:0:
204,320,74805,2,0,L|196:252,1,47.9999985351563,8|0,0:0|0:0,0:0:0:0:
277,154,75119,2,0,P|222:218|137:216,1,176.000005371094,2|0,0:0|0:0,0:0:0:0:
36,188,75591,2,0,L|47:283,1,95.9999970703126,2|2,0:0|0:0,0:0:0:0:
80,100,76062,2,0,L|12:84,1,47.9999985351563,8|0,0:0|0:0,0:0:0:0:
168,52,76376,1,0,0:0:0:0:
244,112,76533,1,0,0:0:0:0:
168,52,76690,6,0,L|73:66,1,95.9999970703126,2|0,0:0|0:0,0:0:0:0:
308,28,77161,1,2,0:0:0:0:
244,112,77318,2,0,L|236:180,1,47.9999985351563,8|0,0:0|0:0,0:0:0:0:
396,280,77633,2,0,L|390:232,1,47.9999985351563,2|0,0:0|0:0,0:0:0:0:
248,172,77947,5,0,0:0:0:0:
312,264,78104,1,2,0:0:0:0:
392,152,78261,2,0,L|336:144,1,47.9999985351563,2|0,0:0|0:0,0:0:0:0:
196,284,78575,2,0,L|308:268,1,95.9999970703126,8|0,0:0|0:0,0:0:0:0:
312,264,79203,6,0,L|108:248,1,191.999994140625,2|0,0:0|0:0,0:0:0:0:
0,236,79674,1,2,0:0:0:0:
88,168,79832,2,0,L|104:276,1,95.9999970703126,8|0,0:0|0:0,0:0:0:0:
248,172,80146,2,0,L|262:77,1,95.9999970703126,2|0,0:0|0:0,0:0:0:0:
376,16,80460,5,0,0:0:0:0:
440,136,80617,1,0,0:0:0:0:
424,132,80695,1,0,0:0:0:0:
408,128,80774,1,0,0:0:0:0:
312,264,80931,1,0,0:0:0:0:
328,260,81009,1,0,0:0:0:0:
344,256,81088,5,0,0:0:0:0:
318,215,81166,1,0,0:0:0:0:
277,190,81245,1,0,0:0:0:0:
230,185,81323,1,0,0:0:0:0:
185,201,81402,2,0,P|176:234|176:272,1,47.9999985351563,0|0,0:0|0:0,0:0:0:0:
80,280,81559,2,0,P|83:314|95:349,1,47.9999985351563,0|0,0:0|0:0,0:0:0:0:
172,376,81716,5,4,0:2:0:0:
180,164,91769,6,0,L|320:148,1,128,2|0,0:0|0:0,0:0:0:0:
440,80,92240,1,0,0:0:0:0:
328,144,92397,2,0,P|314:183|312:232,1,64,8|0,0:0|0:0,0:0:0:0:
484,272,92711,2,0,P|478:240|467:210,1,64,0|0,0:0|0:0,0:0:0:0:
320,232,93025,5,0,0:0:0:0:
448,208,93182,1,2,0:0:0:0:
320,232,93339,2,0,L|252:220,1,64,0|0,0:0|0:0,0:0:0:0:
60,324,93654,2,0,P|129:317|200:296,1,128,8|0,0:0|0:0,0:0:0:0:
240,204,94125,1,0,0:0:0:0:
152,116,94282,5,2,0:0:0:0:
124,212,94439,1,0,0:0:0:0:
220,184,94596,1,0,0:0:0:0:
72,144,94753,1,0,0:0:0:0:
220,184,94910,2,0,P|247:181|296:172,1,64,8|0,0:0|0:0,0:0:0:0:
388,64,95224,2,0,P|372:93|368:132,1,64,0|0,0:0|0:0,0:0:0:0:
388,332,95538,1,0,0:0:0:0:
396,248,95695,6,0,L|344:220,1,32,2|0,0:0|0:0,0:0:0:0:
368,216,96010,6,0,L|396:231,1,32,0|0,0:0|0:0,0:0:0:0:
356,328,96167,2,0,P|270:338|180:360,1,160,8|0,0:0|0:0,0:0:0:0:
40,312,96638,5,0,0:0:0:0:
52,320,96716,1,0,0:0:0:0:
68,316,96795,2,0,P|76:283|64:216,1,80,0|0,0:0|0:0,0:0:0:0:
44,92,97109,2,0,P|67:115|132:138,1,80,0|0,0:0|0:0,0:0:0:0:
176,220,97423,2,0,P|240:192|344:184,1,160,8|0,0:0|0:0,0:0:0:0:
444,96,97894,1,0,0:0:0:0:
336,96,98051,6,0,P|323:133|324:176,1,64,0|0,0:0|0:0,0:0:0:0:
384,316,98366,1,0,0:0:0:0:
384,316,98523,1,0,0:0:0:0:
448,238,98680,1,8,0:0:0:0:
328,182,98837,1,0,0:0:0:0:
428,236,98994,1,0,0:0:0:0:
368,324,99151,1,0,0:0:0:0:
272,272,99308,6,0,L|192:260,1,64,0|0,0:0|0:0,0:0:0:0:
36,352,99622,2,0,L|99:342,1,64,0|0,0:0|0:0,0:0:0:0:
200,280,99936,1,8,0:0:0:0:
88,148,100093,1,0,0:0:0:0:
76,232,100250,1,0,0:0:0:0:
160,196,100407,1,0,0:0:0:0:
68,148,100565,5,0,0:0:0:0:
168,64,100722,1,0,0:0:0:0:
183,68,100800,1,0,0:0:0:0:
196,71,100879,1,0,0:0:0:0:
248,160,101036,1,0,0:0:0:0:
261,157,101115,1,0,0:0:0:0:
276,152,101193,2,0,L|320:140,3,32,0|0|0|0,0:0|0:0|0:0|0:0,0:0:0:0:
396,120,101507,6,0,P|395:95|380:60,1,51.999997619629,0|0,0:0|0:0,0:0:0:0:
472,184,101664,2,0,P|463:208|462:234,1,51.999997619629,0|0,0:0|0:0,0:0:0:0:
404,356,101821,5,2,0:3:0:0:
496,304,101978,2,0,P|448:264|332:276,1,160,0|0,0:0|0:0,0:0:0:0:
256,280,102449,2,0,L|268:332,2,40,0|0|2,0:0|0:0|0:2,0:0:0:0:
160,236,102763,1,0,0:2:0:0:
148,328,102921,1,2,0:2:0:0:
24,264,103078,1,2,0:2:0:0:
128,340,103235,5,0,0:0:0:0:
120,244,103392,2,0,L|96:100,1,120,0|0,0:0|0:0,0:0:0:0:
96,104,103706,2,0,L|160:88,1,47.9999985351563,0|0,0:1|0:0,0:0:0:0:
200,24,103863,2,0,L|260:44,1,47.9999985351563,0|0,0:1|0:0,0:0:0:0:
344,36,104020,1,0,0:0:0:0:
348,52,104099,1,0,0:0:0:0:
352,64,104177,1,2,0:3:0:0:
284,312,104491,5,2,0:3:0:0:
384,360,104648,2,0,L|436:352,1,47.9999985351563,0|0,0:0|0:0,0:0:0:0:
400,264,104805,2,0,L|452:256,1,47.9999985351563,0|0,0:0|0:0,0:0:0:0:
328,196,104962,5,0,0:0:0:0:
316,192,105041,1,0,0:0:0:0:
304,188,105119,1,0,0:0:0:0:
296,184,105198,1,0,0:0:0:0:
284,180,105277,1,0,0:0:0:0:
272,176,105355,1,0,0:0:0:0:
260,172,105434,6,0,L|252:228,3,35.9999989013672,0|0|0|0,0:0|0:0|0:0|0:0,0:0:0:0:
160,216,105748,2,0,L|176:280,3,35.9999989013672,8|0|0|0,0:0|0:0|0:0|0:0,0:0:0:0:
68,256,106062,1,0,0:0:0:0:
16,128,106219,5,2,0:0:0:0:
68,236,106376,1,2,0:3:0:0:
184,132,106533,2,0,L|112:120,1,71.9999978027344,2|2,0:0|0:3,0:0:0:0:
240,56,106847,5,0,0:0:0:0:
288,184,107004,2,0,P|359:175|440:156,1,143.999995605469,2|0,0:3|0:0,0:0:0:0:
456,60,107476,2,0,P|421:63|356:80,1,71.9999978027344,0|2,0:0|0:2,0:0:0:0:
256,204,107790,1,2,0:3:0:0:
336,268,107947,1,2,0:2:0:0:
440,176,108104,5,2,0:2:0:0:
352,264,108261,1,2,0:3:0:0:
460,352,108418,2,0,P|468:320|444:272,1,71.9999978027344,0|0,0:0|0:0,0:0:0:0:
256,204,108732,2,0,P|244:228|240:284,1,47.9999985351563,8|0,0:0|0:0,0:0:0:0:
144,284,108889,2,0,P|152:320|168:344,1,47.9999985351563,0|0,0:0|0:0,0:0:0:0:
236,384,109046,1,0,0:0:0:0:
248,380,109125,1,0,0:0:0:0:
260,376,109203,1,2,0:3:0:0:
160,128,109517,5,2,0:3:0:0:
84,196,109674,2,0,L|20:208,1,47.9999985351563,0|0,0:0|0:0,0:0:0:0:
48,112,109831,2,0,L|-8:96,1,47.9999985351563,0|0,0:0|0:0,0:0:0:0:
120,48,109989,5,0,0:0:0:0:
135,45,110067,1,0,0:0:0:0:
151,43,110146,1,0,0:0:0:0:
167,41,110224,1,0,0:0:0:0:
183,39,110303,1,0,0:0:0:0:
199,37,110381,1,0,0:0:0:0:
216,36,110460,6,0,L|212:4,3,32,0|0|0|0,0:0|0:0|0:0|0:0,0:0:0:0:
300,64,110774,2,0,L|312:24,3,32,0|0|0|0,0:0|0:0|0:0|0:0,0:0:0:0:
240,136,111088,5,8,0:0:0:0:
392,84,111245,1,2,0:0:0:0:
308,172,111402,2,0,P|278:159|232:152,1,64,2|2,0:3|0:0,0:0:0:0:
368,288,111716,1,2,0:3:0:0:
352,300,113130,5,2,0:0:0:0:
388,200,113287,1,2,0:0:0:0:
352,300,113444,2,0,P|273:315|184:320,1,160,8|0,0:0|0:0,0:0:0:0:
88,236,113915,1,2,0:0:0:0:
192,216,114072,2,0,P|208:252|204:304,1,80,8|0,0:0|0:0,0:0:0:0:
0,252,114387,6,0,P|0:212|15:175,1,80,0|0,0:0|0:0,0:0:0:0:
124,92,114701,2,0,L|284:112,1,160,8|0,0:0|0:0,0:0:0:0:
368,52,115172,2,0,L|376:8,2,40,2|2|8,0:0|0:0|0:0,0:0:0:0:
460,56,115486,1,0,0:0:0:0:
296,136,115643,5,2,0:0:0:0:
368,232,115800,1,2,0:0:0:0:
416,144,115957,1,8,0:0:0:0:
368,232,116114,2,0,L|388:328,1,80,0|0,0:0|0:0,0:0:0:0:
200,352,116428,1,2,0:3:0:0:
296,368,116585,2,0,L|279:289,1,80,8|0,0:3|0:0,0:0:0:0:
282,111,116900,5,0,0:0:0:0:
232,216,117057,1,2,0:0:0:0:
152,72,117214,1,8,0:0:0:0:
282,111,117371,2,0,P|321:106|372:88,1,80,0|0,0:0|0:0,0:0:0:0:
152,92,117685,1,0,0:0:0:0:
232,216,117842,2,0,P|300:256|400:236,1,160,8|2,0:0|0:0,0:0:0:0:
372,112,118313,5,8,0:1:0:0:
392,236,118470,2,0,L|412:340,1,80,8|0,0:0|0:0,0:0:0:0:
208,312,118784,2,0,P|250:304|308:300,1,80,0|2,0:0|0:3,0:0:0:0:
496,260,119099,1,8,0:3:0:0:
396,196,119256,5,0,0:0:0:0:
396,196,119334,1,0,0:0:0:0:
396,196,119413,2,0,P|348:188|296:172,1,80,0|0,0:0|0:0,0:0:0:0:
96,136,119727,1,8,0:0:0:0:
176,40,119884,2,0,B|200:16|200:16|224:140,1,160,0|2,0:0|0:0,0:0:0:0:
236,136,120277,1,2,0:0:0:0:
248,132,120355,1,8,0:0:0:0:
280,264,120512,1,0,0:0:0:0:
156,232,120669,5,2,0:0:0:0:
156,232,120826,1,2,0:0:0:0:
280,264,120983,2,0,P|355:248|456:236,1,160,8|0,0:0|0:0,0:0:0:0:
492,152,121455,1,2,0:3:0:0:
448,268,121612,1,8,0:3:0:0:
392,104,121769,1,0,0:0:0:0:
504,140,121926,6,0,L|516:88,5,40,0|0|0|0|0|0,0:0|0:0|0:0|0:0|0:0|0:0,0:0:0:0:
492,152,122397,6,0,L|440:144,1,32,8|0,0:0|0:0,0:0:0:0:
392,104,122711,6,0,L|360:108,1,32,8|0,0:0|0:0,0:0:0:0:
292,152,123182,5,2,0:0:0:0:
200,76,123339,1,0,0:0:0:0:
292,152,123496,2,0,P|316:200|316:288,1,120,8|0,0:0|0:0,0:0:0:0:
312,288,123811,2,0,L|400:304,1,80,0|2,0:0|0:0,0:0:0:0:
220,344,124125,2,0,L|72:360,1,120,8|0,0:0|0:0,0:0:0:0:
84,368,124439,6,0,P|60:328|68:284,1,80,0|0,0:1|0:0,0:0:0:0:
176,172,124753,1,8,0:0:0:0:
156,260,124910,2,0,B|52:244|52:244|44:208|28:176,1,160,0|2,0:0|0:0,0:0:0:0:
20,196,125303,1,2,0:0:0:0:
4,200,125381,1,8,0:0:0:0:
24,52,125538,1,0,0:0:0:0:
104,128,125695,5,2,0:0:0:0:
104,128,125852,1,0,0:0:0:0:
204,40,126010,2,0,P|164:38|112:28,1,80,8|0,0:0|0:0,0:0:0:0:
260,128,126324,2,0,P|299:121|339:119,1,80,0|2,0:0|0:0,0:0:0:0:
504,140,126638,1,8,0:3:0:0:
404,68,126795,6,0,P|376:128|368:240,1,160,0|2,0:0|0:3,0:0:0:0:
480,360,127266,2,0,P|474:320|460:280,1,80,8|0,0:3|0:0,0:0:0:0:
264,268,127580,1,0,0:0:0:0:
336,344,127737,2,0,P|363:338|388:336,2,40,2|2|8,0:0|0:0|0:0,0:0:0:0:
200,376,128051,1,0,0:0:0:0:
264,268,128208,6,0,P|304:263|356:252,1,80,2|0,0:0|0:0,0:0:0:0:
284,144,128523,1,8,0:0:0:0:
184,192,128680,2,0,P|113:181|16:176,1,160,0|2,0:0|0:0,0:0:0:0:
80,280,129151,2,0,P|74:326|72:380,1,80,8|0,0:0|0:0,0:0:0:0:
216,284,129465,5,0,0:0:0:0:
200,376,129622,1,2,0:0:0:0:
300,344,129779,2,0,P|376:316|472:324,1,160,8|0,0:0|0:0,0:0:0:0:
500,168,130250,1,2,0:0:0:0:
496,184,130329,1,2,0:0:0:0:
492,200,130407,2,0,P|456:200|408:168,1,80,8|0,0:0|0:0,0:0:0:0:
316,104,130722,5,2,0:0:0:0:
392,28,130879,1,2,0:0:0:0:
316,104,131036,2,0,P|236:114|157:127,1,160,8|0,0:0|0:0,0:0:0:0:
84,284,131507,1,2,0:3:0:0:
168,232,131664,2,0,P|180:196|168:136,1,80,8|0,0:3|0:0,0:0:0:0:
60,64,131978,5,0,0:0:0:0:
0,140,132135,2,0,L|12:204,2,40,2|0|8,0:3|0:0|0:3,0:0:0:0:
216,8,132449,2,0,L|204:80,1,51.999997619629,0|0,0:0|0:0,0:0:0:0:
157,127,132606,1,0,0:0:0:0:
195,92,132684,1,0,0:0:0:0:
244,75,132763,1,2,0:0:0:0:
295,77,132841,1,2,0:0:0:0:
342,100,132921,6,0,P|347:127|352:168,1,51.999997619629,8|0,0:0|0:0,0:0:0:0:
444,200,133078,2,0,P|438:228|428:264,1,51.999997619629,0|0,0:0|0:0,0:0:0:0:
372,336,133235,1,4,0:0:0:0:
48,192,142030,6,0,L|40:140,5,40,0|0|0|0|0|0,0:0|0:0|0:0|0:0|0:0|0:0,0:0:0:0:
40,208,142502,6,0,L|92:221,1,32,8|0,0:0|0:0,0:0:0:0:
148,176,142816,2,0,L|198:163,1,32,8|0,0:0|0:0,0:0:0:0:
252,208,143287,5,2,0:0:0:0:
352,184,143444,1,0,0:0:0:0:
252,208,143601,2,0,P|224:168|228:88,1,120,8|0,0:0|0:0,0:0:0:0:
216,84,143915,2,0,L|308:68,1,80,0|2,0:0|0:0,0:0:0:0:
488,180,144229,2,0,L|364:168,1,120,8|0,0:0|0:0,0:0:0:0:
352,184,144544,6,0,P|368:224|364:280,1,80,2|2,0:0|0:0,0:0:0:0:
224,384,144858,1,8,0:0:0:0:
304,320,145015,2,0,P|344:300|464:308,1,160,0|0,0:0|0:0,0:0:0:0:
452,316,145407,1,0,0:0:0:0:
448,328,145486,1,8,0:0:0:0:
352,184,145643,1,0,0:0:0:0:
256,264,145800,5,2,0:0:0:0:
256,264,145957,1,2,0:0:0:0:
152,108,146114,1,8,0:0:0:0:
236,136,146271,2,0,L|244:96,2,40,0|0|0,0:0|0:0|0:0,0:0:0:0:
120,224,146585,1,2,0:3:0:0:
256,264,146743,2,0,P|293:253|340:248,1,80,8|0,0:3|0:0,0:0:0:0:
120,224,147057,5,0,0:0:0:0:
228,296,147214,1,2,0:3:0:0:
144,368,147371,1,8,0:3:0:0:
228,296,147528,2,0,P|239:212|236:132,1,160,0|2,0:0|0:3,0:0:0:0:
248,132,147921,1,2,0:3:0:0:
260,128,147999,1,8,0:3:0:0:
344,28,148156,1,0,0:0:0:0:
192,48,148313,6,0,P|153:45|84:32,1,80,2|2,0:0|0:0,0:0:0:0:
320,16,148627,1,8,0:0:0:0:
236,136,148784,2,0,P|160:168|60:164,1,160,0|2,0:0|0:0,0:0:0:0:
160,268,149256,2,0,P|167:302|176:356,1,80,8|0,0:0|0:0,0:0:0:0:
356,276,149570,5,0,0:0:0:0:
264,292,149727,1,2,0:0:0:0:
76,324,149884,1,8,0:0:0:0:
264,292,150041,5,0,0:0:0:0:
76,324,150198,2,0,P|68:290|60:236,1,80,0|2,0:0|0:0,0:0:0:0:
72,240,150434,1,2,0:0:0:0:
80,236,150512,1,8,0:0:0:0:
36,88,150669,1,0,0:0:0:0:
160,48,150826,6,0,P|157:88|144:140,1,80,0|2,0:0|0:0,0:0:0:0:
61,245,151140,1,8,0:0:0:0:
236,188,151297,1,0,0:0:0:0:
128,136,151455,1,0,0:0:0:0:
236,188,151612,2,0,P|276:193|328:196,1,80,2|8,0:3|0:3,0:0:0:0:
424,120,151926,1,0,0:0:0:0:
292,68,152083,5,0,0:0:0:0:
284,84,152161,1,0,0:0:0:0:
284,100,152240,1,0,0:0:0:0:
464,200,152397,2,0,P|464:156|440:116,1,80,0|0,0:0|0:0,0:0:0:0:
424,120,152633,5,0,0:0:0:0:
424,120,152711,2,0,L|360:108,1,51.999997619629,2|0,0:0|0:0,0:0:0:0:
292,68,152868,2,0,L|212:80,1,51.999997619629,2|2,0:0|0:0,0:0:0:0:
128,40,153025,1,8,0:0:0:0:
92,55,153103,1,0,0:0:0:0:
67,85,153182,1,0,0:0:0:0:
57,122,153260,1,0,0:0:0:0:
65,160,153339,1,2,0:0:0:0:
