osu file format v14

[General]
AudioFilename: audio.mp3
AudioLeadIn: 0
PreviewTime: 69899
Countdown: 0
SampleSet: Normal
StackLeniency: 0.7
Mode: 3
LetterboxInBreaks: 0
SpecialStyle: 0
WidescreenStoryboard: 1

[Editor]
Bookmarks: 15149,42577,70006,124863,152292,179720,207149,234577
DistanceSpacing: 1.4
BeatDivisor: 4
GridSize: 8
TimelineZoom: 1.4

[Metadata]
Title:CydraL
TitleUnicode:機械の国 / 犠牲の塔
Artist:Feryquitous
ArtistUnicode:Feryquitous
Creator:Tailsdk
Version:Ash's Insane
Source:
Tags:Deemo Electronic Instrumental Asherz007 Kikai no kuni / gisei no tou Irui diverse system dvsp-0191 3rd solo album Doujin Indie Country of Machines Tower of Sacrifice jacks marathon コミケ93 C93 Comiket Comic Market 93 コミックマーケット93 機械の国 / 犠牲の塔 chordjack jackspeed stamina
BeatmapID:3097398
BeatmapSetID:1088609

[Difficulty]
HPDrainRate:8
CircleSize:4
OverallDifficulty:8
ApproachRate:5
SliderMultiplier:1.4
SliderTickRate:1

[Events]
//Background and Video events
0,0,"7573dd437d483f3dac82ff2662aa1a0e.jpg",0,0
//Break Periods
//Storyboard Layer 0 (Background)
//Storyboard Layer 1 (Fail)
//Storyboard Layer 2 (Pass)
//Storyboard Layer 3 (Foreground)
//Storyboard Layer 4 (Overlay)
//Storyboard Sound Samples

[TimingPoints]
1454,428.571428571429,4,1,1,80,1,0
97454,-100,4,1,1,80,0,1
124882,-100,4,1,1,80,0,0
207168,-100,4,1,1,80,0,1
234596,-100,4,1,1,80,0,0

[HitObjects]
64,192,1454,5,0,0:0:0:0:
448,192,1668,1,0,0:0:0:0:
320,192,1882,1,0,0:0:0:0:
192,192,2096,1,0,0:0:0:0:
320,192,2311,1,0,0:0:0:0:
448,192,2311,1,0,0:0:0:0:
192,192,3168,1,0,0:0:0:0:
320,192,3382,1,0,0:0:0:0:
64,192,3596,1,0,0:0:0:0:
448,192,3596,1,0,0:0:0:0:
320,192,3811,1,0,0:0:0:0:
64,192,4239,1,0,0:0:0:0:
448,192,4454,1,0,0:0:0:0:
320,192,4668,1,0,0:0:0:0:
64,192,4882,1,0,0:0:0:0:
192,192,4882,1,0,0:0:0:0:
64,192,5311,1,0,0:0:0:0:
320,192,5525,1,0,0:0:0:0:
448,192,5954,1,0,0:0:0:0:
320,192,6596,1,0,0:0:0:0:
64,192,6811,1,0,0:0:0:0:
192,192,7025,1,0,0:0:0:0:
448,192,7239,1,0,0:0:0:0:
192,192,7454,1,0,0:0:0:0:
320,192,7454,1,0,0:0:0:0:
64,192,7668,1,0,0:0:0:0:
320,192,7882,1,0,0:0:0:0:
64,192,8311,1,0,0:0:0:0:
448,192,8311,1,0,0:0:0:0:
192,192,8525,1,0,0:0:0:0:
320,192,8954,1,0,0:0:0:0:
448,192,8954,1,0,0:0:0:0:
448,192,9596,1,0,0:0:0:0:
192,192,10025,1,0,0:0:0:0:
320,192,10025,1,0,0:0:0:0:
64,192,10454,1,0,0:0:0:0:
192,192,10668,1,0,0:0:0:0:
320,192,11096,1,0,0:0:0:0:
448,192,11311,1,0,0:0:0:0:
192,192,11525,1,0,0:0:0:0:
64,192,11739,1,0,0:0:0:0:
192,192,11954,1,0,0:0:0:0:
448,192,12168,1,0,0:0:0:0:
320,192,12382,1,0,0:0:0:0:
192,192,12596,1,0,0:0:0:0:
64,192,12704,1,0,0:0:0:0:
192,192,12811,1,0,0:0:0:0:
320,192,12918,1,0,0:0:0:0:
448,192,13025,1,0,0:0:0:0:
320,192,13132,1,0,0:0:0:0:
192,192,13239,1,0,0:0:0:0:
64,192,13346,1,0,0:0:0:0:
192,192,13454,1,8,0:0:0:0:
448,192,13454,1,0,0:0:0:0:
320,192,14096,1,8,0:0:0:0:
448,192,14096,1,0,0:0:0:0:
64,192,14204,1,8,0:0:0:0:
192,192,14257,1,8,0:0:0:0:
320,192,14311,1,8,0:0:0:0:
448,192,14311,1,0,0:0:0:0:
192,192,14525,1,8,0:0:0:0:
320,192,14525,1,0,0:0:0:0:
64,192,14632,1,8,0:0:0:0:
448,192,14632,1,0,0:0:0:0:
64,192,14846,1,8,0:0:0:0:
192,192,14846,1,0,0:0:0:0:
320,192,14954,1,8,0:0:0:0:
448,192,14954,1,0,0:0:0:0:
64,192,15061,1,8,0:0:0:0:
192,192,15061,1,0,0:0:0:0:
64,192,15168,1,8,0:0:0:0:
320,192,15168,1,4,0:0:0:0:
448,192,15168,1,0,0:0:0:0:
192,192,15275,1,0,0:0:0:0:
192,192,15382,1,0,0:0:0:0:
320,192,15489,1,0,0:0:0:0:
64,192,15596,1,8,0:0:0:0:
448,192,15596,1,0,0:0:0:0:
320,192,15704,1,0,0:0:0:0:
192,192,15811,1,0,0:0:0:0:
64,192,15918,1,0,0:0:0:0:
320,192,16025,1,8,0:0:0:0:
448,192,16025,1,0,0:0:0:0:
192,192,16132,1,0,0:0:0:0:
448,192,16239,1,0,0:0:0:0:
64,192,16346,1,0,0:0:0:0:
192,192,16454,1,8,0:0:0:0:
320,192,16454,1,0,0:0:0:0:
448,192,16561,1,0,0:0:0:0:
64,192,16668,1,0,0:0:0:0:
320,192,16775,1,0,0:0:0:0:
64,192,16882,1,8,0:0:0:0:
448,192,16882,1,0,0:0:0:0:
192,192,16989,1,0,0:0:0:0:
192,192,17096,1,0,0:0:0:0:
448,192,17204,1,0,0:0:0:0:
64,192,17311,1,8,0:0:0:0:
320,192,17311,1,0,0:0:0:0:
192,192,17418,1,0,0:0:0:0:
448,192,17525,1,0,0:0:0:0:
64,192,17632,1,0,0:0:0:0:
320,192,17739,1,8,0:0:0:0:
448,192,17739,1,0,0:0:0:0:
192,192,17846,1,0,0:0:0:0:
320,192,17954,1,0,0:0:0:0:
64,192,18061,1,0,0:0:0:0:
192,192,18168,1,8,0:0:0:0:
320,192,18168,1,0,0:0:0:0:
448,192,18275,1,0,0:0:0:0:
320,192,18382,1,0,0:0:0:0:
192,192,18489,1,0,0:0:0:0:
64,192,18596,1,8,0:0:0:0:
448,192,18596,1,0,0:0:0:0:
320,192,18704,1,0,0:0:0:0:
320,192,18811,1,0,0:0:0:0:
192,192,18918,1,0,0:0:0:0:
64,192,19025,1,8,0:0:0:0:
448,192,19025,1,0,0:0:0:0:
192,192,19132,1,0,0:0:0:0:
320,192,19239,1,0,0:0:0:0:
448,192,19346,1,0,0:0:0:0:
64,192,19454,1,8,0:0:0:0:
192,192,19454,1,0,0:0:0:0:
320,192,19561,1,0,0:0:0:0:
64,192,19668,1,0,0:0:0:0:
448,192,19775,1,0,0:0:0:0:
192,192,19882,1,8,0:0:0:0:
320,192,19882,1,0,0:0:0:0:
64,192,19989,1,0,0:0:0:0:
448,192,20096,1,0,0:0:0:0:
192,192,20204,1,0,0:0:0:0:
64,192,20311,1,8,0:0:0:0:
448,192,20311,1,0,0:0:0:0:
320,192,20418,1,0,0:0:0:0:
320,192,20525,1,0,0:0:0:0:
64,192,20632,1,0,0:0:0:0:
192,192,20739,1,8,0:0:0:0:
448,192,20739,1,0,0:0:0:0:
320,192,20846,1,0,0:0:0:0:
64,192,20954,1,0,0:0:0:0:
448,192,21061,1,0,0:0:0:0:
64,192,21168,1,8,0:0:0:0:
192,192,21168,1,0,0:0:0:0:
320,192,21275,1,0,0:0:0:0:
192,192,21382,1,0,0:0:0:0:
448,192,21489,1,0,0:0:0:0:
192,192,21596,1,8,0:0:0:0:
320,192,21596,1,0,0:0:0:0:
64,192,21704,1,0,0:0:0:0:
192,192,21811,1,0,0:0:0:0:
320,192,21918,1,0,0:0:0:0:
192,192,22025,1,8,0:0:0:0:
448,192,22025,1,0,0:0:0:0:
64,192,22132,1,0,0:0:0:0:
64,192,22239,1,0,0:0:0:0:
320,192,22346,1,0,0:0:0:0:
448,192,22346,1,0,0:0:0:0:
64,192,22454,1,8,0:0:0:0:
192,192,22454,1,0,0:0:0:0:
320,192,22561,1,0,0:0:0:0:
448,192,22561,1,0,0:0:0:0:
64,192,22668,1,0,0:0:0:0:
192,192,22775,1,0,0:0:0:0:
64,192,22882,1,8,0:0:0:0:
448,192,22882,1,0,0:0:0:0:
320,192,22989,1,0,0:0:0:0:
192,192,23096,1,0,0:0:0:0:
448,192,23204,1,0,0:0:0:0:
64,192,23311,1,8,0:0:0:0:
192,192,23311,1,0,0:0:0:0:
320,192,23418,1,0,0:0:0:0:
448,192,23418,1,0,0:0:0:0:
192,192,23525,1,0,0:0:0:0:
64,192,23632,1,0,0:0:0:0:
448,192,23632,1,0,0:0:0:0:
192,192,23739,1,8,0:0:0:0:
320,192,23739,1,0,0:0:0:0:
448,192,23846,1,0,0:0:0:0:
448,192,23954,1,0,0:0:0:0:
64,192,24061,1,0,0:0:0:0:
320,192,24168,1,8,0:0:0:0:
448,192,24168,1,0,0:0:0:0:
64,192,24275,1,0,0:0:0:0:
192,192,24275,1,0,0:0:0:0:
320,192,24382,1,0,0:0:0:0:
192,192,24489,1,0,0:0:0:0:
64,192,24596,1,8,0:0:0:0:
448,192,24596,1,0,0:0:0:0:
320,192,24704,1,0,0:0:0:0:
64,192,24811,1,0,0:0:0:0:
192,192,24811,1,0,0:0:0:0:
448,192,24918,1,0,0:0:0:0:
64,192,25025,1,8,0:0:0:0:
320,192,25025,1,0,0:0:0:0:
192,192,25132,1,0,0:0:0:0:
448,192,25239,1,0,0:0:0:0:
64,192,25346,1,0,0:0:0:0:
192,192,25454,1,8,0:0:0:0:
320,192,25454,1,0,0:0:0:0:
448,192,25561,1,0,0:0:0:0:
448,192,25668,1,0,0:0:0:0:
64,192,25775,1,0,0:0:0:0:
192,192,25775,1,0,0:0:0:0:
320,192,25882,1,8,0:0:0:0:
448,192,25882,1,0,0:0:0:0:
64,192,25989,1,0,0:0:0:0:
192,192,25989,1,0,0:0:0:0:
448,192,26096,1,0,0:0:0:0:
320,192,26204,1,0,0:0:0:0:
64,192,26311,1,8,0:0:0:0:
448,192,26311,1,0,0:0:0:0:
192,192,26418,1,0,0:0:0:0:
320,192,26525,1,0,0:0:0:0:
64,192,26632,1,0,0:0:0:0:
192,192,26739,1,8,0:0:0:0:
448,192,26739,1,0,0:0:0:0:
64,192,26846,1,0,0:0:0:0:
320,192,26846,1,0,0:0:0:0:
448,192,26954,1,0,0:0:0:0:
64,192,27061,1,0,0:0:0:0:
192,192,27061,1,0,0:0:0:0:
320,192,27168,1,8,0:0:0:0:
448,192,27168,1,0,0:0:0:0:
64,192,27275,1,0,0:0:0:0:
320,192,27382,1,0,0:0:0:0:
64,192,27489,1,0,0:0:0:0:
448,192,27489,1,0,0:0:0:0:
192,192,27596,1,8,0:0:0:0:
320,192,27596,1,0,0:0:0:0:
64,192,27704,1,0,0:0:0:0:
448,192,27704,1,0,0:0:0:0:
192,192,27811,1,0,0:0:0:0:
320,192,27918,1,0,0:0:0:0:
64,192,28025,1,8,0:0:0:0:
448,192,28025,1,0,0:0:0:0:
192,192,28132,1,0,0:0:0:0:
320,192,28239,1,0,0:0:0:0:
448,192,28346,1,0,0:0:0:0:
64,192,28454,1,8,0:0:0:0:
192,192,28454,1,0,0:0:0:0:
320,192,28561,1,0,0:0:0:0:
448,192,28561,1,0,0:0:0:0:
64,192,28668,1,0,0:0:0:0:
192,192,28668,1,0,0:0:0:0:
192,192,28775,1,0,0:0:0:0:
320,192,28775,1,0,0:0:0:0:
64,192,28882,1,8,0:0:0:0:
320,192,28882,1,4,0:0:0:0:
448,192,28882,1,0,0:0:0:0:
192,192,28989,1,0,0:0:0:0:
192,192,29096,1,0,0:0:0:0:
320,192,29204,1,0,0:0:0:0:
448,192,29204,1,0,0:0:0:0:
64,192,29311,1,8,0:0:0:0:
192,192,29311,1,0,0:0:0:0:
320,192,29418,1,0,0:0:0:0:
448,192,29418,1,0,0:0:0:0:
64,192,29525,1,0,0:0:0:0:
192,192,29632,1,0,0:0:0:0:
64,192,29739,1,8,0:0:0:0:
448,192,29739,1,0,0:0:0:0:
320,192,29846,1,0,0:0:0:0:
192,192,29954,1,0,0:0:0:0:
448,192,30061,1,0,0:0:0:0:
64,192,30168,1,8,0:0:0:0:
192,192,30168,1,0,0:0:0:0:
320,192,30275,1,0,0:0:0:0:
448,192,30275,1,0,0:0:0:0:
192,192,30382,1,0,0:0:0:0:
64,192,30489,1,0,0:0:0:0:
320,192,30489,1,0,0:0:0:0:
192,192,30596,1,8,0:0:0:0:
448,192,30596,1,0,0:0:0:0:
320,192,30704,1,0,0:0:0:0:
320,192,30811,1,0,0:0:0:0:
64,192,30918,1,0,0:0:0:0:
320,192,31025,1,8,0:0:0:0:
448,192,31025,1,0,0:0:0:0:
64,192,31132,1,0,0:0:0:0:
192,192,31132,1,0,0:0:0:0:
320,192,31239,1,0,0:0:0:0:
192,192,31346,1,0,0:0:0:0:
64,192,31454,1,8,0:0:0:0:
448,192,31454,1,0,0:0:0:0:
320,192,31561,1,0,0:0:0:0:
64,192,31668,1,0,0:0:0:0:
192,192,31668,1,0,0:0:0:0:
448,192,31775,1,0,0:0:0:0:
64,192,31882,1,8,0:0:0:0:
320,192,31882,1,0,0:0:0:0:
192,192,31989,1,0,0:0:0:0:
320,192,32096,1,0,0:0:0:0:
64,192,32204,1,0,0:0:0:0:
192,192,32311,1,8,0:0:0:0:
448,192,32311,1,0,0:0:0:0:
320,192,32418,1,0,0:0:0:0:
320,192,32525,1,0,0:0:0:0:
64,192,32632,1,0,0:0:0:0:
192,192,32632,1,0,0:0:0:0:
320,192,32739,1,8,0:0:0:0:
448,192,32739,1,0,0:0:0:0:
64,192,32846,1,0,0:0:0:0:
192,192,32846,1,0,0:0:0:0:
448,192,32954,1,0,0:0:0:0:
320,192,33061,1,0,0:0:0:0:
64,192,33168,1,8,0:0:0:0:
448,192,33168,1,0,0:0:0:0:
192,192,33275,1,0,0:0:0:0:
320,192,33382,1,0,0:0:0:0:
64,192,33489,1,0,0:0:0:0:
320,192,33596,1,8,0:0:0:0:
448,192,33596,1,0,0:0:0:0:
64,192,33704,1,0,0:0:0:0:
192,192,33704,1,0,0:0:0:0:
320,192,33811,1,0,0:0:0:0:
192,192,33918,1,0,0:0:0:0:
448,192,33918,1,0,0:0:0:0:
64,192,34025,1,8,0:0:0:0:
320,192,34025,1,0,0:0:0:0:
192,192,34132,1,0,0:0:0:0:
192,192,34239,1,0,0:0:0:0:
448,192,34346,1,0,0:0:0:0:
64,192,34454,1,8,0:0:0:0:
192,192,34454,1,0,0:0:0:0:
320,192,34561,1,0,0:0:0:0:
448,192,34561,1,0,0:0:0:0:
192,192,34668,1,0,0:0:0:0:
320,192,34775,1,0,0:0:0:0:
64,192,34882,1,8,0:0:0:0:
448,192,34882,1,0,0:0:0:0:
192,192,34989,1,0,0:0:0:0:
320,192,35096,1,0,0:0:0:0:
448,192,35096,1,0,0:0:0:0:
64,192,35204,1,0,0:0:0:0:
192,192,35311,1,8,0:0:0:0:
448,192,35311,1,0,0:0:0:0:
320,192,35418,1,0,0:0:0:0:
192,192,35525,1,0,0:0:0:0:
448,192,35632,1,0,0:0:0:0:
64,192,35739,1,8,0:0:0:0:
320,192,35739,1,0,0:0:0:0:
192,192,35846,1,0,0:0:0:0:
192,192,35954,1,0,0:0:0:0:
320,192,36061,1,0,0:0:0:0:
448,192,36061,1,0,0:0:0:0:
64,192,36168,1,8,0:0:0:0:
192,192,36168,1,0,0:0:0:0:
320,192,36275,1,0,0:0:0:0:
448,192,36275,1,0,0:0:0:0:
64,192,36382,1,0,0:0:0:0:
192,192,36489,1,0,0:0:0:0:
64,192,36596,1,8,0:0:0:0:
448,192,36596,1,0,0:0:0:0:
320,192,36704,1,0,0:0:0:0:
192,192,36811,1,0,0:0:0:0:
448,192,36918,1,0,0:0:0:0:
64,192,37025,1,8,0:0:0:0:
192,192,37025,1,0,0:0:0:0:
320,192,37132,1,0,0:0:0:0:
448,192,37132,1,0,0:0:0:0:
192,192,37239,1,0,0:0:0:0:
64,192,37346,1,0,0:0:0:0:
320,192,37346,1,0,0:0:0:0:
192,192,37454,1,8,0:0:0:0:
448,192,37454,1,0,0:0:0:0:
320,192,37561,1,0,0:0:0:0:
320,192,37668,1,0,0:0:0:0:
64,192,37775,1,0,0:0:0:0:
320,192,37882,1,8,0:0:0:0:
448,192,37882,1,0,0:0:0:0:
64,192,37989,1,0,0:0:0:0:
192,192,37989,1,0,0:0:0:0:
320,192,38096,1,0,0:0:0:0:
192,192,38204,1,0,0:0:0:0:
64,192,38311,1,8,0:0:0:0:
448,192,38311,1,0,0:0:0:0:
320,192,38418,1,0,0:0:0:0:
64,192,38525,1,0,0:0:0:0:
192,192,38525,1,0,0:0:0:0:
448,192,38632,1,0,0:0:0:0:
64,192,38739,1,8,0:0:0:0:
320,192,38739,1,0,0:0:0:0:
192,192,38846,1,0,0:0:0:0:
320,192,38954,1,0,0:0:0:0:
64,192,39061,1,0,0:0:0:0:
192,192,39168,1,8,0:0:0:0:
448,192,39168,1,0,0:0:0:0:
320,192,39275,1,0,0:0:0:0:
320,192,39382,1,0,0:0:0:0:
192,192,39489,1,0,0:0:0:0:
64,192,39596,1,8,0:0:0:0:
448,192,39596,1,0,0:0:0:0:
192,192,39704,1,0,0:0:0:0:
320,192,39811,1,0,0:0:0:0:
64,192,39918,1,0,0:0:0:0:
320,192,40025,1,8,0:0:0:0:
448,192,40025,1,0,0:0:0:0:
192,192,40132,1,0,0:0:0:0:
320,192,40239,1,0,0:0:0:0:
448,192,40346,1,0,0:0:0:0:
64,192,40454,1,8,0:0:0:0:
192,192,40454,1,0,0:0:0:0:
320,192,40561,1,0,0:0:0:0:
192,192,40668,1,0,0:0:0:0:
64,192,40775,1,0,0:0:0:0:
320,192,40882,1,8,0:0:0:0:
448,192,40882,1,0,0:0:0:0:
192,192,40989,1,0,0:0:0:0:
448,192,41096,1,0,0:0:0:0:
192,192,41204,1,0,0:0:0:0:
64,192,41311,1,0,0:0:0:0:
192,192,41418,1,0,0:0:0:0:
320,192,41525,1,0,0:0:0:0:
64,192,41632,1,8,0:0:0:0:
192,192,41686,1,8,0:0:0:0:
320,192,41739,1,8,0:0:0:0:
448,192,41739,1,0,0:0:0:0:
64,192,41846,1,0,0:0:0:0:
192,192,41954,1,8,0:0:0:0:
320,192,41954,1,0,0:0:0:0:
64,192,42061,1,8,0:0:0:0:
448,192,42061,1,0,0:0:0:0:
320,192,42168,1,0,0:0:0:0:
64,192,42275,1,8,0:0:0:0:
192,192,42275,1,0,0:0:0:0:
320,192,42382,1,8,0:0:0:0:
448,192,42382,1,0,0:0:0:0:
64,192,42489,1,8,0:0:0:0:
192,192,42489,1,0,0:0:0:0:
64,192,42596,1,8,0:0:0:0:
320,192,42596,1,4,0:0:0:0:
448,192,42596,1,0,0:0:0:0:
448,192,42918,1,0,0:0:0:0:
64,192,43132,1,0,0:0:0:0:
192,192,43239,1,8,0:0:0:0:
320,192,43239,1,0,0:0:0:0:
64,192,43882,1,0,0:0:0:0:
320,192,43882,1,0,0:0:0:0:
192,192,44096,1,0,0:0:0:0:
64,192,44311,1,0,0:0:0:0:
192,192,44525,1,8,0:0:0:0:
448,192,44525,1,0,0:0:0:0:
320,192,44739,1,0,0:0:0:0:
64,192,44846,1,8,0:0:0:0:
448,192,44846,1,0,0:0:0:0:
192,192,44954,1,0,0:0:0:0:
320,192,45596,1,0,0:0:0:0:
64,192,46025,1,8,0:0:0:0:
448,192,46025,1,0,0:0:0:0:
64,192,46454,1,0,0:0:0:0:
192,192,46668,1,8,0:0:0:0:
320,192,46668,1,0,0:0:0:0:
64,192,47311,1,0,0:0:0:0:
192,192,47346,1,0,0:0:0:0:
448,192,47454,1,0,0:0:0:0:
64,192,47739,1,8,0:0:0:0:
320,192,47739,1,0,0:0:0:0:
64,192,48061,1,8,0:0:0:0:
320,192,48061,1,0,0:0:0:0:
64,192,48382,1,8,0:0:0:0:
448,192,48382,1,0,0:0:0:0:
320,192,48811,1,0,0:0:0:0:
448,192,49025,1,0,0:0:0:0:
192,192,49239,1,0,0:0:0:0:
64,192,49454,1,8,0:0:0:0:
448,192,49454,1,0,0:0:0:0:
64,192,50096,1,8,0:0:0:0:
320,192,50096,1,0,0:0:0:0:
192,192,50739,1,0,0:0:0:0:
64,192,51168,1,0,0:0:0:0:
192,192,51168,1,0,0:0:0:0:
320,192,51382,1,8,0:0:0:0:
448,192,51382,1,0,0:0:0:0:
320,192,51704,1,8,0:0:0:0:
448,192,51704,1,0,0:0:0:0:
192,192,52025,1,0,0:0:0:0:
320,192,52025,1,0,0:0:0:0:
448,192,52454,1,0,0:0:0:0:
64,192,52882,1,8,0:0:0:0:
192,192,52882,1,0,0:0:0:0:
64,192,53311,1,0,0:0:0:0:
192,192,53418,1,0,0:0:0:0:
64,192,53525,1,8,0:0:0:0:
448,192,53525,1,0,0:0:0:0:
320,192,53596,1,0,0:0:0:0:
448,192,53739,1,0,0:0:0:0:
192,192,53882,1,0,0:0:0:0:
64,192,54025,1,0,0:0:0:0:
320,192,54168,1,0,0:0:0:0:
192,192,54311,1,0,0:0:0:0:
64,192,54596,1,8,0:0:0:0:
448,192,54596,1,0,0:0:0:0:
320,192,54918,1,8,0:0:0:0:
448,192,54918,1,0,0:0:0:0:
320,192,55239,1,8,0:0:0:0:
448,192,55239,1,0,0:0:0:0:
64,192,55454,1,0,0:0:0:0:
192,192,55668,1,0,0:0:0:0:
448,192,55882,1,0,0:0:0:0:
320,192,56096,1,0,0:0:0:0:
64,192,56311,1,8,0:0:0:0:
192,192,56311,1,0,0:0:0:0:
448,192,56632,1,0,0:0:0:0:
64,192,56846,1,0,0:0:0:0:
192,192,56954,1,8,0:0:0:0:
320,192,56954,1,0,0:0:0:0:
64,192,57596,1,0,0:0:0:0:
320,192,57596,1,0,0:0:0:0:
192,192,57811,1,0,0:0:0:0:
64,192,58025,1,0,0:0:0:0:
192,192,58239,1,8,0:0:0:0:
448,192,58239,1,0,0:0:0:0:
320,192,58454,1,0,0:0:0:0:
64,192,58561,1,8,0:0:0:0:
448,192,58561,1,0,0:0:0:0:
192,192,58668,1,0,0:0:0:0:
192,192,59311,1,0,0:0:0:0:
320,192,59739,1,8,0:0:0:0:
448,192,59739,1,0,0:0:0:0:
64,192,60168,1,0,0:0:0:0:
192,192,60382,1,8,0:0:0:0:
320,192,60382,1,0,0:0:0:0:
64,192,61025,1,0,0:0:0:0:
192,192,61079,1,0,0:0:0:0:
448,192,61186,1,0,0:0:0:0:
64,192,61454,1,8,0:0:0:0:
192,192,61454,1,0,0:0:0:0:
64,192,61775,1,8,0:0:0:0:
192,192,61775,1,0,0:0:0:0:
64,192,62096,1,8,0:0:0:0:
320,192,62096,1,0,0:0:0:0:
448,192,62311,1,0,0:0:0:0:
192,192,62525,1,0,0:0:0:0:
64,192,62739,1,0,0:0:0:0:
448,192,62954,1,0,0:0:0:0:
192,192,63168,1,8,0:0:0:0:
320,192,63168,1,0,0:0:0:0:
64,192,63811,1,8,0:0:0:0:
192,192,63811,1,0,0:0:0:0:
448,192,64454,1,0,0:0:0:0:
64,192,64882,1,0,0:0:0:0:
320,192,64882,1,0,0:0:0:0:
320,192,65096,1,8,0:0:0:0:
448,192,65096,1,0,0:0:0:0:
320,192,65418,1,8,0:0:0:0:
448,192,65418,1,0,0:0:0:0:
64,192,65739,1,0,0:0:0:0:
448,192,65739,1,0,0:0:0:0:
192,192,66168,1,0,0:0:0:0:
320,192,66596,1,8,0:0:0:0:
448,192,66596,1,0,0:0:0:0:
64,192,67025,1,0,0:0:0:0:
192,192,67132,1,0,0:0:0:0:
64,192,67239,1,8,0:0:0:0:
448,192,67239,1,0,0:0:0:0:
320,192,67311,1,0,0:0:0:0:
64,192,67454,1,0,0:0:0:0:
448,192,67454,1,0,0:0:0:0:
192,192,67596,1,0,0:0:0:0:
64,192,67739,1,0,0:0:0:0:
320,192,67882,1,0,0:0:0:0:
192,192,68025,1,0,0:0:0:0:
320,192,68311,1,8,0:0:0:0:
448,192,68311,1,0,0:0:0:0:
64,192,68632,1,8,0:0:0:0:
448,192,68632,1,0,0:0:0:0:
64,192,68954,1,8,0:0:0:0:
448,192,68954,1,0,0:0:0:0:
64,192,69168,1,8,0:0:0:0:
448,192,69168,1,0,0:0:0:0:
192,192,69382,1,8,0:0:0:0:
64,192,69489,1,8,0:0:0:0:
448,192,69489,1,0,0:0:0:0:
320,192,69596,1,0,0:0:0:0:
192,192,69704,1,8,0:0:0:0:
320,192,69811,1,8,0:0:0:0:
448,192,69811,1,0,0:0:0:0:
64,192,69918,1,8,0:0:0:0:
192,192,69918,1,0,0:0:0:0:
64,192,70025,1,8,0:0:0:0:
320,192,70025,1,4,0:0:0:0:
448,192,70025,1,0,0:0:0:0:
192,192,70132,1,0,0:0:0:0:
320,192,70239,1,0,0:0:0:0:
448,192,70239,1,0,0:0:0:0:
192,192,70346,1,0,0:0:0:0:
320,192,70346,1,0,0:0:0:0:
64,192,70454,1,8,0:0:0:0:
448,192,70454,1,0,0:0:0:0:
192,192,70561,1,0,0:0:0:0:
320,192,70561,1,0,0:0:0:0:
64,192,70668,1,0,0:0:0:0:
192,192,70668,1,0,0:0:0:0:
192,192,70882,1,8,0:0:0:0:
448,192,70882,1,0,0:0:0:0:
320,192,70989,1,0,0:0:0:0:
448,192,70989,1,0,0:0:0:0:
64,192,71096,1,0,0:0:0:0:
64,192,71311,1,8,0:0:0:0:
192,192,71311,1,0,0:0:0:0:
448,192,71418,1,0,0:0:0:0:
64,192,71525,1,0,0:0:0:0:
320,192,71525,1,0,0:0:0:0:
192,192,71632,1,0,0:0:0:0:
320,192,71632,1,0,0:0:0:0:
64,192,71739,1,8,0:0:0:0:
448,192,71739,1,0,0:0:0:0:
192,192,71846,1,0,0:0:0:0:
320,192,71954,1,0,0:0:0:0:
448,192,71954,1,0,0:0:0:0:
64,192,72061,1,0,0:0:0:0:
448,192,72061,1,0,0:0:0:0:
192,192,72168,1,8,0:0:0:0:
320,192,72168,1,0,0:0:0:0:
64,192,72275,1,0,0:0:0:0:
448,192,72275,1,0,0:0:0:0:
64,192,72382,1,0,0:0:0:0:
192,192,72382,1,0,0:0:0:0:
64,192,72596,1,8,0:0:0:0:
320,192,72596,1,0,0:0:0:0:
320,192,72704,1,0,0:0:0:0:
448,192,72704,1,0,0:0:0:0:
192,192,72811,1,0,0:0:0:0:
320,192,72918,1,0,0:0:0:0:
64,192,73025,1,8,0:0:0:0:
448,192,73025,1,0,0:0:0:0:
192,192,73132,1,0,0:0:0:0:
320,192,73239,1,0,0:0:0:0:
448,192,73239,1,0,0:0:0:0:
64,192,73346,1,0,0:0:0:0:
448,192,73346,1,0,0:0:0:0:
192,192,73454,1,8,0:0:0:0:
320,192,73454,1,0,0:0:0:0:
64,192,73561,1,0,0:0:0:0:
320,192,73668,1,0,0:0:0:0:
448,192,73668,1,0,0:0:0:0:
192,192,73775,1,0,0:0:0:0:
448,192,73775,1,0,0:0:0:0:
64,192,73882,1,8,0:0:0:0:
320,192,73882,1,0,0:0:0:0:
192,192,73989,1,0,0:0:0:0:
448,192,73989,1,0,0:0:0:0:
64,192,74096,1,0,0:0:0:0:
192,192,74096,1,0,0:0:0:0:
192,192,74311,1,8,0:0:0:0:
448,192,74311,1,0,0:0:0:0:
320,192,74418,1,0,0:0:0:0:
448,192,74418,1,0,0:0:0:0:
64,192,74525,1,0,0:0:0:0:
64,192,74739,1,8,0:0:0:0:
192,192,74739,1,0,0:0:0:0:
320,192,74846,1,0,0:0:0:0:
192,192,74954,1,0,0:0:0:0:
448,192,74954,1,0,0:0:0:0:
192,192,75061,1,0,0:0:0:0:
320,192,75061,1,0,0:0:0:0:
64,192,75168,1,8,0:0:0:0:
448,192,75168,1,0,0:0:0:0:
192,192,75275,1,0,0:0:0:0:
320,192,75382,1,0,0:0:0:0:
448,192,75382,1,0,0:0:0:0:
64,192,75489,1,0,0:0:0:0:
320,192,75489,1,0,0:0:0:0:
192,192,75596,1,8,0:0:0:0:
448,192,75596,1,0,0:0:0:0:
64,192,75704,1,0,0:0:0:0:
320,192,75704,1,0,0:0:0:0:
64,192,75811,1,0,0:0:0:0:
192,192,75811,1,0,0:0:0:0:
192,192,76025,1,8,0:0:0:0:
448,192,76025,1,0,0:0:0:0:
320,192,76132,1,0,0:0:0:0:
448,192,76132,1,0,0:0:0:0:
64,192,76239,1,0,0:0:0:0:
320,192,76346,1,0,0:0:0:0:
64,192,76454,1,8,0:0:0:0:
448,192,76454,1,0,0:0:0:0:
192,192,76561,1,0,0:0:0:0:
320,192,76668,1,0,0:0:0:0:
448,192,76668,1,0,0:0:0:0:
64,192,76775,1,0,0:0:0:0:
448,192,76775,1,0,0:0:0:0:
192,192,76882,1,8,0:0:0:0:
320,192,76882,1,0,0:0:0:0:
448,192,76989,1,0,0:0:0:0:
64,192,77096,1,0,0:0:0:0:
192,192,77096,1,0,0:0:0:0:
192,192,77204,1,0,0:0:0:0:
320,192,77204,1,0,0:0:0:0:
64,192,77311,1,8,0:0:0:0:
448,192,77311,1,0,0:0:0:0:
192,192,77418,1,0,0:0:0:0:
320,192,77418,1,0,0:0:0:0:
320,192,77525,1,0,0:0:0:0:
448,192,77525,1,0,0:0:0:0:
64,192,77739,1,8,0:0:0:0:
320,192,77739,1,0,0:0:0:0:
64,192,77846,1,0,0:0:0:0:
192,192,77846,1,0,0:0:0:0:
448,192,77954,1,0,0:0:0:0:
320,192,78168,1,8,0:0:0:0:
448,192,78168,1,0,0:0:0:0:
64,192,78275,1,0,0:0:0:0:
192,192,78382,1,0,0:0:0:0:
448,192,78382,1,0,0:0:0:0:
192,192,78489,1,0,0:0:0:0:
320,192,78489,1,0,0:0:0:0:
64,192,78596,1,8,0:0:0:0:
448,192,78596,1,0,0:0:0:0:
320,192,78704,1,0,0:0:0:0:
64,192,78811,1,0,0:0:0:0:
192,192,78811,1,0,0:0:0:0:
64,192,78918,1,0,0:0:0:0:
448,192,78918,1,0,0:0:0:0:
192,192,79025,1,8,0:0:0:0:
320,192,79025,1,0,0:0:0:0:
64,192,79132,1,0,0:0:0:0:
448,192,79132,1,0,0:0:0:0:
320,192,79239,1,0,0:0:0:0:
448,192,79239,1,0,0:0:0:0:
192,192,79454,1,8,0:0:0:0:
448,192,79454,1,0,0:0:0:0:
64,192,79561,1,0,0:0:0:0:
192,192,79561,1,0,0:0:0:0:
320,192,79668,1,0,0:0:0:0:
192,192,79775,1,0,0:0:0:0:
64,192,79882,1,8,0:0:0:0:
448,192,79882,1,0,0:0:0:0:
320,192,79989,1,0,0:0:0:0:
64,192,80096,1,0,0:0:0:0:
192,192,80096,1,0,0:0:0:0:
64,192,80204,1,0,0:0:0:0:
448,192,80204,1,0,0:0:0:0:
192,192,80311,1,8,0:0:0:0:
320,192,80311,1,0,0:0:0:0:
448,192,80418,1,0,0:0:0:0:
64,192,80525,1,0,0:0:0:0:
192,192,80525,1,0,0:0:0:0:
64,192,80632,1,0,0:0:0:0:
320,192,80632,1,0,0:0:0:0:
192,192,80739,1,8,0:0:0:0:
448,192,80739,1,0,0:0:0:0:
64,192,80846,1,0,0:0:0:0:
320,192,80846,1,0,0:0:0:0:
320,192,80954,1,0,0:0:0:0:
448,192,80954,1,0,0:0:0:0:
64,192,81168,1,8,0:0:0:0:
320,192,81168,1,0,0:0:0:0:
64,192,81275,1,0,0:0:0:0:
192,192,81275,1,0,0:0:0:0:
448,192,81382,1,0,0:0:0:0:
320,192,81596,1,8,0:0:0:0:
448,192,81596,1,0,0:0:0:0:
192,192,81704,1,0,0:0:0:0:
64,192,81811,1,0,0:0:0:0:
320,192,81811,1,0,0:0:0:0:
192,192,81918,1,0,0:0:0:0:
320,192,81918,1,0,0:0:0:0:
64,192,82025,1,8,0:0:0:0:
448,192,82025,1,0,0:0:0:0:
320,192,82132,1,0,0:0:0:0:
64,192,82239,1,0,0:0:0:0:
192,192,82239,1,0,0:0:0:0:
192,192,82346,1,0,0:0:0:0:
448,192,82346,1,0,0:0:0:0:
64,192,82454,1,8,0:0:0:0:
320,192,82454,1,0,0:0:0:0:
192,192,82561,1,0,0:0:0:0:
448,192,82561,1,0,0:0:0:0:
320,192,82668,1,0,0:0:0:0:
448,192,82668,1,0,0:0:0:0:
64,192,82882,1,8,0:0:0:0:
320,192,82882,1,0,0:0:0:0:
64,192,82989,1,0,0:0:0:0:
192,192,82989,1,0,0:0:0:0:
448,192,83096,1,0,0:0:0:0:
192,192,83204,1,0,0:0:0:0:
64,192,83311,1,8,0:0:0:0:
448,192,83311,1,0,0:0:0:0:
320,192,83418,1,0,0:0:0:0:
64,192,83525,1,0,0:0:0:0:
192,192,83525,1,0,0:0:0:0:
64,192,83632,1,0,0:0:0:0:
320,192,83632,1,0,0:0:0:0:
192,192,83739,1,8,0:0:0:0:
448,192,83739,1,0,0:0:0:0:
64,192,83846,1,0,0:0:0:0:
320,192,83954,1,0,0:0:0:0:
448,192,83954,1,0,0:0:0:0:
192,192,84061,1,0,0:0:0:0:
320,192,84061,1,0,0:0:0:0:
64,192,84168,1,8,0:0:0:0:
448,192,84168,1,0,0:0:0:0:
192,192,84275,1,0,0:0:0:0:
320,192,84275,1,0,0:0:0:0:
64,192,84382,1,0,0:0:0:0:
192,192,84382,1,0,0:0:0:0:
192,192,84596,1,8,0:0:0:0:
448,192,84596,1,0,0:0:0:0:
320,192,84704,1,0,0:0:0:0:
448,192,84704,1,0,0:0:0:0:
64,192,84811,1,0,0:0:0:0:
64,192,85025,1,8,0:0:0:0:
192,192,85025,1,0,0:0:0:0:
448,192,85132,1,0,0:0:0:0:
64,192,85239,1,0,0:0:0:0:
320,192,85239,1,0,0:0:0:0:
192,192,85346,1,0,0:0:0:0:
320,192,85346,1,0,0:0:0:0:
64,192,85454,1,8,0:0:0:0:
448,192,85454,1,0,0:0:0:0:
192,192,85561,1,0,0:0:0:0:
320,192,85668,1,0,0:0:0:0:
448,192,85668,1,0,0:0:0:0:
64,192,85775,1,0,0:0:0:0:
448,192,85775,1,0,0:0:0:0:
192,192,85882,1,8,0:0:0:0:
320,192,85882,1,0,0:0:0:0:
64,192,85989,1,0,0:0:0:0:
448,192,85989,1,0,0:0:0:0:
64,192,86096,1,0,0:0:0:0:
192,192,86096,1,0,0:0:0:0:
64,192,86311,1,8,0:0:0:0:
320,192,86311,1,0,0:0:0:0:
320,192,86418,1,0,0:0:0:0:
448,192,86418,1,0,0:0:0:0:
192,192,86525,1,0,0:0:0:0:
320,192,86632,1,0,0:0:0:0:
64,192,86739,1,8,0:0:0:0:
448,192,86739,1,0,0:0:0:0:
192,192,86846,1,0,0:0:0:0:
320,192,86954,1,0,0:0:0:0:
448,192,86954,1,0,0:0:0:0:
64,192,87061,1,0,0:0:0:0:
448,192,87061,1,0,0:0:0:0:
192,192,87168,1,8,0:0:0:0:
320,192,87168,1,0,0:0:0:0:
64,192,87275,1,0,0:0:0:0:
320,192,87382,1,0,0:0:0:0:
448,192,87382,1,0,0:0:0:0:
192,192,87489,1,0,0:0:0:0:
448,192,87489,1,0,0:0:0:0:
64,192,87596,1,8,0:0:0:0:
320,192,87596,1,0,0:0:0:0:
192,192,87704,1,0,0:0:0:0:
448,192,87704,1,0,0:0:0:0:
64,192,87811,1,0,0:0:0:0:
192,192,87811,1,0,0:0:0:0:
192,192,88025,1,8,0:0:0:0:
448,192,88025,1,0,0:0:0:0:
320,192,88132,1,0,0:0:0:0:
448,192,88132,1,0,0:0:0:0:
64,192,88239,1,0,0:0:0:0:
64,192,88454,1,8,0:0:0:0:
192,192,88454,1,0,0:0:0:0:
320,192,88561,1,0,0:0:0:0:
192,192,88668,1,0,0:0:0:0:
448,192,88668,1,0,0:0:0:0:
192,192,88775,1,0,0:0:0:0:
320,192,88775,1,0,0:0:0:0:
64,192,88882,1,8,0:0:0:0:
448,192,88882,1,0,0:0:0:0:
192,192,88989,1,0,0:0:0:0:
320,192,89096,1,0,0:0:0:0:
448,192,89096,1,0,0:0:0:0:
64,192,89204,1,0,0:0:0:0:
320,192,89204,1,0,0:0:0:0:
192,192,89311,1,8,0:0:0:0:
448,192,89311,1,0,0:0:0:0:
64,192,89418,1,0,0:0:0:0:
320,192,89418,1,0,0:0:0:0:
64,192,89525,1,0,0:0:0:0:
192,192,89525,1,0,0:0:0:0:
192,192,89739,1,8,0:0:0:0:
448,192,89739,1,0,0:0:0:0:
320,192,89846,1,0,0:0:0:0:
448,192,89846,1,0,0:0:0:0:
64,192,89954,1,0,0:0:0:0:
320,192,90061,1,0,0:0:0:0:
64,192,90168,1,8,0:0:0:0:
448,192,90168,1,0,0:0:0:0:
192,192,90275,1,0,0:0:0:0:
320,192,90382,1,0,0:0:0:0:
448,192,90382,1,0,0:0:0:0:
64,192,90489,1,0,0:0:0:0:
448,192,90489,1,0,0:0:0:0:
192,192,90596,1,8,0:0:0:0:
320,192,90596,1,0,0:0:0:0:
448,192,90704,1,0,0:0:0:0:
64,192,90811,1,0,0:0:0:0:
192,192,90811,1,0,0:0:0:0:
192,192,90918,1,0,0:0:0:0:
320,192,90918,1,0,0:0:0:0:
64,192,91025,1,8,0:0:0:0:
448,192,91025,1,0,0:0:0:0:
192,192,91132,1,0,0:0:0:0:
320,192,91132,1,0,0:0:0:0:
320,192,91239,1,0,0:0:0:0:
448,192,91239,1,0,0:0:0:0:
64,192,91454,1,8,0:0:0:0:
320,192,91454,1,0,0:0:0:0:
64,192,91561,1,0,0:0:0:0:
192,192,91561,1,0,0:0:0:0:
448,192,91668,1,0,0:0:0:0:
320,192,91882,1,8,0:0:0:0:
448,192,91882,1,0,0:0:0:0:
64,192,91989,1,0,0:0:0:0:
192,192,92096,1,0,0:0:0:0:
448,192,92096,1,0,0:0:0:0:
192,192,92204,1,0,0:0:0:0:
320,192,92204,1,0,0:0:0:0:
64,192,92311,1,8,0:0:0:0:
448,192,92311,1,0,0:0:0:0:
320,192,92418,1,0,0:0:0:0:
64,192,92525,1,0,0:0:0:0:
192,192,92525,1,0,0:0:0:0:
64,192,92632,1,0,0:0:0:0:
448,192,92632,1,0,0:0:0:0:
192,192,92739,1,8,0:0:0:0:
320,192,92739,1,0,0:0:0:0:
64,192,92846,1,0,0:0:0:0:
448,192,92846,1,0,0:0:0:0:
320,192,92954,1,0,0:0:0:0:
448,192,92954,1,0,0:0:0:0:
192,192,93168,1,8,0:0:0:0:
448,192,93168,1,0,0:0:0:0:
64,192,93275,1,0,0:0:0:0:
192,192,93275,1,0,0:0:0:0:
320,192,93382,1,0,0:0:0:0:
192,192,93489,1,0,0:0:0:0:
64,192,93596,1,8,0:0:0:0:
448,192,93596,1,0,0:0:0:0:
320,192,93704,1,0,0:0:0:0:
64,192,93811,1,0,0:0:0:0:
192,192,93811,1,0,0:0:0:0:
64,192,93918,1,0,0:0:0:0:
448,192,93918,1,0,0:0:0:0:
192,192,94025,1,8,0:0:0:0:
320,192,94025,1,0,0:0:0:0:
448,192,94132,1,0,0:0:0:0:
64,192,94239,1,0,0:0:0:0:
192,192,94239,1,0,0:0:0:0:
64,192,94346,1,0,0:0:0:0:
320,192,94346,1,0,0:0:0:0:
192,192,94454,1,8,0:0:0:0:
448,192,94454,1,0,0:0:0:0:
64,192,94561,1,0,0:0:0:0:
320,192,94561,1,0,0:0:0:0:
320,192,94668,1,0,0:0:0:0:
448,192,94668,1,0,0:0:0:0:
64,192,94882,1,8,0:0:0:0:
320,192,94882,1,0,0:0:0:0:
64,192,94989,1,0,0:0:0:0:
192,192,94989,1,0,0:0:0:0:
448,192,95096,1,0,0:0:0:0:
320,192,95311,1,8,0:0:0:0:
448,192,95311,1,0,0:0:0:0:
192,192,95418,1,0,0:0:0:0:
64,192,95525,1,0,0:0:0:0:
320,192,95525,1,0,0:0:0:0:
192,192,95632,1,0,0:0:0:0:
320,192,95632,1,0,0:0:0:0:
64,192,95739,1,8,0:0:0:0:
448,192,95739,1,0,0:0:0:0:
320,192,95846,1,0,0:0:0:0:
64,192,95954,1,0,0:0:0:0:
192,192,95954,1,0,0:0:0:0:
192,192,96061,1,0,0:0:0:0:
448,192,96061,1,0,0:0:0:0:
320,192,96168,1,0,0:0:0:0:
192,192,96275,1,0,0:0:0:0:
448,192,96275,1,0,0:0:0:0:
320,192,96382,1,0,0:0:0:0:
448,192,96382,1,0,0:0:0:0:
64,192,96596,1,0,0:0:0:0:
192,192,96596,1,0,0:0:0:0:
192,192,96704,1,0,0:0:0:0:
320,192,96704,1,0,0:0:0:0:
64,192,96811,1,0,0:0:0:0:
320,192,96918,1,0,0:0:0:0:
448,192,96918,1,0,0:0:0:0:
64,192,97025,1,0,0:0:0:0:
192,192,97025,1,0,0:0:0:0:
320,192,97132,1,0,0:0:0:0:
448,192,97132,1,0,0:0:0:0:
64,192,97239,1,0,0:0:0:0:
448,192,97239,1,0,0:0:0:0:
192,192,97346,1,0,0:0:0:0:
64,192,97454,1,8,0:0:0:0:
320,192,97454,1,4,0:0:0:0:
448,192,97454,1,0,0:0:0:0:
192,192,97561,1,0,0:0:0:0:
320,192,97668,1,0,0:0:0:0:
448,192,97668,1,0,0:0:0:0:
192,192,97775,1,0,0:0:0:0:
320,192,97775,1,0,0:0:0:0:
64,192,97882,1,8,0:0:0:0:
448,192,97882,1,0,0:0:0:0:
192,192,97989,1,0,0:0:0:0:
320,192,97989,1,0,0:0:0:0:
64,192,98096,1,0,0:0:0:0:
192,192,98096,1,0,0:0:0:0:
320,192,98204,1,0,0:0:0:0:
192,192,98311,1,8,0:0:0:0:
448,192,98311,1,0,0:0:0:0:
320,192,98418,1,0,0:0:0:0:
448,192,98418,1,0,0:0:0:0:
64,192,98525,1,0,0:0:0:0:
320,192,98632,1,0,0:0:0:0:
64,192,98739,1,8,0:0:0:0:
192,192,98739,1,0,0:0:0:0:
448,192,98846,1,0,0:0:0:0:
64,192,98954,1,0,0:0:0:0:
320,192,98954,1,0,0:0:0:0:
192,192,99061,1,0,0:0:0:0:
320,192,99061,1,0,0:0:0:0:
64,192,99168,1,8,0:0:0:0:
448,192,99168,1,0,0:0:0:0:
192,192,99275,1,0,0:0:0:0:
320,192,99382,1,0,0:0:0:0:
448,192,99382,1,0,0:0:0:0:
64,192,99489,1,0,0:0:0:0:
448,192,99489,1,0,0:0:0:0:
192,192,99596,1,8,0:0:0:0:
320,192,99596,1,0,0:0:0:0:
64,192,99704,1,0,0:0:0:0:
448,192,99704,1,0,0:0:0:0:
64,192,99811,1,0,0:0:0:0:
192,192,99811,1,0,0:0:0:0:
448,192,99918,1,0,0:0:0:0:
64,192,100025,1,8,0:0:0:0:
320,192,100025,1,0,0:0:0:0:
320,192,100132,1,0,0:0:0:0:
448,192,100132,1,0,0:0:0:0:
192,192,100239,1,0,0:0:0:0:
320,192,100346,1,0,0:0:0:0:
64,192,100454,1,8,0:0:0:0:
448,192,100454,1,0,0:0:0:0:
192,192,100561,1,0,0:0:0:0:
320,192,100668,1,0,0:0:0:0:
448,192,100668,1,0,0:0:0:0:
64,192,100775,1,0,0:0:0:0:
448,192,100775,1,0,0:0:0:0:
192,192,100882,1,8,0:0:0:0:
320,192,100882,1,0,0:0:0:0:
64,192,100989,1,0,0:0:0:0:
320,192,101096,1,0,0:0:0:0:
448,192,101096,1,0,0:0:0:0:
192,192,101204,1,0,0:0:0:0:
448,192,101204,1,0,0:0:0:0:
64,192,101311,1,8,0:0:0:0:
320,192,101311,1,0,0:0:0:0:
192,192,101418,1,0,0:0:0:0:
448,192,101418,1,0,0:0:0:0:
64,192,101525,1,0,0:0:0:0:
192,192,101525,1,0,0:0:0:0:
320,192,101632,1,0,0:0:0:0:
192,192,101739,1,8,0:0:0:0:
448,192,101739,1,0,0:0:0:0:
320,192,101846,1,0,0:0:0:0:
448,192,101846,1,0,0:0:0:0:
64,192,101954,1,0,0:0:0:0:
448,192,102061,1,0,0:0:0:0:
64,192,102168,1,8,0:0:0:0:
192,192,102168,1,0,0:0:0:0:
320,192,102275,1,0,0:0:0:0:
192,192,102382,1,0,0:0:0:0:
448,192,102382,1,0,0:0:0:0:
192,192,102489,1,0,0:0:0:0:
320,192,102489,1,0,0:0:0:0:
64,192,102596,1,8,0:0:0:0:
448,192,102596,1,0,0:0:0:0:
192,192,102704,1,0,0:0:0:0:
320,192,102811,1,0,0:0:0:0:
448,192,102811,1,0,0:0:0:0:
64,192,102918,1,0,0:0:0:0:
320,192,102918,1,0,0:0:0:0:
192,192,103025,1,8,0:0:0:0:
448,192,103025,1,0,0:0:0:0:
64,192,103132,1,0,0:0:0:0:
320,192,103132,1,0,0:0:0:0:
64,192,103239,1,0,0:0:0:0:
192,192,103239,1,0,0:0:0:0:
320,192,103346,1,0,0:0:0:0:
192,192,103454,1,8,0:0:0:0:
448,192,103454,1,0,0:0:0:0:
320,192,103561,1,0,0:0:0:0:
448,192,103561,1,0,0:0:0:0:
64,192,103668,1,0,0:0:0:0:
320,192,103775,1,0,0:0:0:0:
64,192,103882,1,8,0:0:0:0:
448,192,103882,1,0,0:0:0:0:
192,192,103989,1,0,0:0:0:0:
320,192,104096,1,0,0:0:0:0:
448,192,104096,1,0,0:0:0:0:
64,192,104204,1,0,0:0:0:0:
448,192,104204,1,0,0:0:0:0:
192,192,104311,1,8,0:0:0:0:
320,192,104311,1,0,0:0:0:0:
448,192,104418,1,0,0:0:0:0:
64,192,104525,1,0,0:0:0:0:
192,192,104525,1,0,0:0:0:0:
192,192,104632,1,0,0:0:0:0:
320,192,104632,1,0,0:0:0:0:
64,192,104739,1,8,0:0:0:0:
448,192,104739,1,0,0:0:0:0:
192,192,104846,1,0,0:0:0:0:
320,192,104846,1,0,0:0:0:0:
320,192,104954,1,0,0:0:0:0:
448,192,104954,1,0,0:0:0:0:
192,192,105061,1,0,0:0:0:0:
64,192,105168,1,8,0:0:0:0:
320,192,105168,1,0,0:0:0:0:
64,192,105275,1,0,0:0:0:0:
192,192,105275,1,0,0:0:0:0:
448,192,105382,1,0,0:0:0:0:
192,192,105489,1,0,0:0:0:0:
320,192,105596,1,8,0:0:0:0:
448,192,105596,1,0,0:0:0:0:
64,192,105704,1,0,0:0:0:0:
192,192,105811,1,0,0:0:0:0:
448,192,105811,1,0,0:0:0:0:
192,192,105918,1,0,0:0:0:0:
320,192,105918,1,0,0:0:0:0:
64,192,106025,1,8,0:0:0:0:
448,192,106025,1,0,0:0:0:0:
320,192,106132,1,0,0:0:0:0:
64,192,106239,1,0,0:0:0:0:
192,192,106239,1,0,0:0:0:0:
64,192,106346,1,0,0:0:0:0:
448,192,106346,1,0,0:0:0:0:
192,192,106454,1,8,0:0:0:0:
320,192,106454,1,0,0:0:0:0:
64,192,106561,1,0,0:0:0:0:
448,192,106561,1,0,0:0:0:0:
320,192,106668,1,0,0:0:0:0:
448,192,106668,1,0,0:0:0:0:
64,192,106775,1,0,0:0:0:0:
192,192,106882,1,8,0:0:0:0:
448,192,106882,1,0,0:0:0:0:
64,192,106989,1,0,0:0:0:0:
192,192,106989,1,0,0:0:0:0:
320,192,107096,1,0,0:0:0:0:
192,192,107204,1,0,0:0:0:0:
64,192,107311,1,8,0:0:0:0:
448,192,107311,1,0,0:0:0:0:
320,192,107418,1,0,0:0:0:0:
64,192,107525,1,0,0:0:0:0:
192,192,107525,1,0,0:0:0:0:
64,192,107632,1,0,0:0:0:0:
448,192,107632,1,0,0:0:0:0:
192,192,107739,1,8,0:0:0:0:
320,192,107739,1,0,0:0:0:0:
448,192,107846,1,0,0:0:0:0:
64,192,107954,1,0,0:0:0:0:
192,192,107954,1,0,0:0:0:0:
64,192,108061,1,0,0:0:0:0:
320,192,108061,1,0,0:0:0:0:
192,192,108168,1,8,0:0:0:0:
448,192,108168,1,0,0:0:0:0:
64,192,108275,1,0,0:0:0:0:
320,192,108275,1,0,0:0:0:0:
320,192,108382,1,0,0:0:0:0:
448,192,108382,1,0,0:0:0:0:
192,192,108489,1,0,0:0:0:0:
64,192,108596,1,8,0:0:0:0:
320,192,108596,1,0,0:0:0:0:
64,192,108704,1,0,0:0:0:0:
192,192,108704,1,0,0:0:0:0:
448,192,108811,1,0,0:0:0:0:
64,192,108918,1,0,0:0:0:0:
320,192,109025,1,8,0:0:0:0:
448,192,109025,1,0,0:0:0:0:
192,192,109132,1,0,0:0:0:0:
64,192,109239,1,0,0:0:0:0:
320,192,109239,1,0,0:0:0:0:
192,192,109346,1,0,0:0:0:0:
320,192,109346,1,0,0:0:0:0:
64,192,109454,1,8,0:0:0:0:
448,192,109454,1,0,0:0:0:0:
320,192,109561,1,0,0:0:0:0:
64,192,109668,1,0,0:0:0:0:
192,192,109668,1,0,0:0:0:0:
192,192,109775,1,0,0:0:0:0:
448,192,109775,1,0,0:0:0:0:
64,192,109882,1,8,0:0:0:0:
320,192,109882,1,0,0:0:0:0:
192,192,109989,1,0,0:0:0:0:
448,192,109989,1,0,0:0:0:0:
320,192,110096,1,0,0:0:0:0:
448,192,110096,1,0,0:0:0:0:
192,192,110204,1,0,0:0:0:0:
64,192,110311,1,8,0:0:0:0:
320,192,110311,1,0,0:0:0:0:
64,192,110418,1,0,0:0:0:0:
192,192,110418,1,0,0:0:0:0:
448,192,110525,1,0,0:0:0:0:
192,192,110632,1,0,0:0:0:0:
320,192,110632,1,0,0:0:0:0:
64,192,110739,1,8,0:0:0:0:
320,192,110739,1,0,0:0:0:0:
64,192,110882,1,0,0:0:0:0:
192,192,110882,1,0,0:0:0:0:
192,192,111025,1,0,0:0:0:0:
320,192,111025,1,0,0:0:0:0:
320,192,111168,1,8,0:0:0:0:
448,192,111168,1,0,0:0:0:0:
64,192,111275,1,0,0:0:0:0:
320,192,111382,1,0,0:0:0:0:
448,192,111382,1,0,0:0:0:0:
192,192,111489,1,0,0:0:0:0:
320,192,111489,1,0,0:0:0:0:
64,192,111596,1,8,0:0:0:0:
448,192,111596,1,0,0:0:0:0:
192,192,111704,1,0,0:0:0:0:
320,192,111704,1,0,0:0:0:0:
64,192,111811,1,0,0:0:0:0:
192,192,111811,1,0,0:0:0:0:
320,192,111918,1,0,0:0:0:0:
192,192,112025,1,8,0:0:0:0:
448,192,112025,1,0,0:0:0:0:
320,192,112132,1,0,0:0:0:0:
448,192,112132,1,0,0:0:0:0:
64,192,112239,1,0,0:0:0:0:
448,192,112346,1,0,0:0:0:0:
64,192,112454,1,8,0:0:0:0:
192,192,112454,1,0,0:0:0:0:
448,192,112561,1,0,0:0:0:0:
64,192,112668,1,0,0:0:0:0:
320,192,112668,1,0,0:0:0:0:
192,192,112775,1,0,0:0:0:0:
320,192,112775,1,0,0:0:0:0:
64,192,112882,1,8,0:0:0:0:
448,192,112882,1,0,0:0:0:0:
192,192,112989,1,0,0:0:0:0:
320,192,113096,1,0,0:0:0:0:
448,192,113096,1,0,0:0:0:0:
64,192,113204,1,0,0:0:0:0:
448,192,113204,1,0,0:0:0:0:
192,192,113311,1,8,0:0:0:0:
320,192,113311,1,0,0:0:0:0:
64,192,113418,1,0,0:0:0:0:
448,192,113418,1,0,0:0:0:0:
64,192,113525,1,0,0:0:0:0:
192,192,113525,1,0,0:0:0:0:
448,192,113632,1,0,0:0:0:0:
64,192,113739,1,8,0:0:0:0:
320,192,113739,1,0,0:0:0:0:
320,192,113846,1,0,0:0:0:0:
448,192,113846,1,0,0:0:0:0:
192,192,113954,1,0,0:0:0:0:
320,192,114061,1,0,0:0:0:0:
64,192,114168,1,8,0:0:0:0:
448,192,114168,1,0,0:0:0:0:
192,192,114275,1,0,0:0:0:0:
320,192,114382,1,0,0:0:0:0:
448,192,114382,1,0,0:0:0:0:
64,192,114489,1,0,0:0:0:0:
448,192,114489,1,0,0:0:0:0:
192,192,114596,1,8,0:0:0:0:
320,192,114596,1,0,0:0:0:0:
64,192,114704,1,0,0:0:0:0:
320,192,114811,1,0,0:0:0:0:
448,192,114811,1,0,0:0:0:0:
192,192,114918,1,0,0:0:0:0:
448,192,114918,1,0,0:0:0:0:
64,192,115025,1,8,0:0:0:0:
320,192,115025,1,0,0:0:0:0:
192,192,115132,1,0,0:0:0:0:
448,192,115132,1,0,0:0:0:0:
64,192,115239,1,0,0:0:0:0:
192,192,115239,1,0,0:0:0:0:
320,192,115346,1,0,0:0:0:0:
192,192,115454,1,8,0:0:0:0:
448,192,115454,1,0,0:0:0:0:
320,192,115561,1,0,0:0:0:0:
448,192,115561,1,0,0:0:0:0:
64,192,115668,1,0,0:0:0:0:
448,192,115775,1,0,0:0:0:0:
64,192,115882,1,8,0:0:0:0:
192,192,115882,1,0,0:0:0:0:
320,192,115989,1,0,0:0:0:0:
192,192,116096,1,0,0:0:0:0:
448,192,116096,1,0,0:0:0:0:
192,192,116204,1,0,0:0:0:0:
320,192,116204,1,0,0:0:0:0:
64,192,116311,1,8,0:0:0:0:
448,192,116311,1,0,0:0:0:0:
192,192,116418,1,0,0:0:0:0:
320,192,116525,1,0,0:0:0:0:
448,192,116525,1,0,0:0:0:0:
64,192,116632,1,0,0:0:0:0:
320,192,116632,1,0,0:0:0:0:
192,192,116739,1,8,0:0:0:0:
448,192,116739,1,0,0:0:0:0:
64,192,116846,1,0,0:0:0:0:
320,192,116846,1,0,0:0:0:0:
64,192,116954,1,0,0:0:0:0:
192,192,116954,1,0,0:0:0:0:
320,192,117061,1,0,0:0:0:0:
192,192,117168,1,8,0:0:0:0:
448,192,117168,1,0,0:0:0:0:
320,192,117275,1,0,0:0:0:0:
448,192,117275,1,0,0:0:0:0:
64,192,117382,1,0,0:0:0:0:
320,192,117489,1,0,0:0:0:0:
64,192,117596,1,8,0:0:0:0:
448,192,117596,1,0,0:0:0:0:
192,192,117704,1,0,0:0:0:0:
320,192,117811,1,0,0:0:0:0:
448,192,117811,1,0,0:0:0:0:
64,192,117918,1,0,0:0:0:0:
448,192,117918,1,0,0:0:0:0:
192,192,118025,1,8,0:0:0:0:
320,192,118025,1,0,0:0:0:0:
448,192,118132,1,0,0:0:0:0:
64,192,118239,1,0,0:0:0:0:
192,192,118239,1,0,0:0:0:0:
192,192,118346,1,0,0:0:0:0:
320,192,118346,1,0,0:0:0:0:
64,192,118454,1,8,0:0:0:0:
448,192,118454,1,0,0:0:0:0:
192,192,118561,1,0,0:0:0:0:
320,192,118561,1,0,0:0:0:0:
320,192,118668,1,0,0:0:0:0:
448,192,118668,1,0,0:0:0:0:
192,192,118775,1,0,0:0:0:0:
64,192,118882,1,8,0:0:0:0:
320,192,118882,1,0,0:0:0:0:
64,192,118989,1,0,0:0:0:0:
192,192,118989,1,0,0:0:0:0:
448,192,119096,1,0,0:0:0:0:
64,192,119204,1,0,0:0:0:0:
320,192,119311,1,8,0:0:0:0:
448,192,119311,1,0,0:0:0:0:
64,192,119418,1,0,0:0:0:0:
192,192,119525,1,0,0:0:0:0:
448,192,119525,1,0,0:0:0:0:
192,192,119632,1,0,0:0:0:0:
320,192,119632,1,0,0:0:0:0:
64,192,119739,1,8,0:0:0:0:
448,192,119739,1,0,0:0:0:0:
320,192,119846,1,0,0:0:0:0:
64,192,119954,1,0,0:0:0:0:
192,192,119954,1,0,0:0:0:0:
64,192,120061,1,0,0:0:0:0:
448,192,120061,1,0,0:0:0:0:
192,192,120168,1,8,0:0:0:0:
320,192,120168,1,0,0:0:0:0:
64,192,120275,1,0,0:0:0:0:
448,192,120275,1,0,0:0:0:0:
320,192,120382,1,0,0:0:0:0:
448,192,120382,1,0,0:0:0:0:
64,192,120489,1,0,0:0:0:0:
192,192,120596,1,8,0:0:0:0:
448,192,120596,1,0,0:0:0:0:
64,192,120704,1,0,0:0:0:0:
192,192,120704,1,0,0:0:0:0:
320,192,120811,1,0,0:0:0:0:
192,192,120918,1,0,0:0:0:0:
64,192,121025,1,8,0:0:0:0:
448,192,121025,1,0,0:0:0:0:
320,192,121132,1,0,0:0:0:0:
64,192,121239,1,0,0:0:0:0:
192,192,121239,1,0,0:0:0:0:
64,192,121346,1,0,0:0:0:0:
448,192,121346,1,0,0:0:0:0:
192,192,121454,1,8,0:0:0:0:
320,192,121454,1,0,0:0:0:0:
448,192,121561,1,0,0:0:0:0:
64,192,121668,1,0,0:0:0:0:
192,192,121668,1,0,0:0:0:0:
64,192,121775,1,0,0:0:0:0:
320,192,121775,1,0,0:0:0:0:
192,192,121882,1,0,0:0:0:0:
64,192,121989,1,0,0:0:0:0:
320,192,121989,1,0,0:0:0:0:
320,192,122096,1,0,0:0:0:0:
448,192,122096,1,0,0:0:0:0:
64,192,122311,1,0,0:0:0:0:
320,192,122311,1,0,0:0:0:0:
64,192,122418,1,0,0:0:0:0:
192,192,122418,1,0,0:0:0:0:
448,192,122525,1,0,0:0:0:0:
448,192,122739,1,0,0:0:0:0:
192,192,122846,1,0,0:0:0:0:
64,192,122954,1,0,0:0:0:0:
320,192,122954,1,0,0:0:0:0:
192,192,123061,1,0,0:0:0:0:
320,192,123061,1,0,0:0:0:0:
64,192,123168,1,0,0:0:0:0:
320,192,123275,1,0,0:0:0:0:
192,192,123382,1,0,0:0:0:0:
448,192,123382,1,0,0:0:0:0:
192,192,123489,1,0,0:0:0:0:
320,192,123489,1,0,0:0:0:0:
64,192,123596,1,0,0:0:0:0:
192,192,123704,1,0,0:0:0:0:
320,192,123704,1,0,0:0:0:0:
64,192,123811,1,0,0:0:0:0:
320,192,123811,1,0,0:0:0:0:
448,192,123918,1,0,0:0:0:0:
64,192,124025,1,0,0:0:0:0:
192,192,124025,1,0,0:0:0:0:
192,192,124132,1,0,0:0:0:0:
320,192,124132,1,0,0:0:0:0:
448,192,124239,1,0,0:0:0:0:
64,192,124346,1,0,0:0:0:0:
192,192,124346,1,0,0:0:0:0:
320,192,124454,1,0,0:0:0:0:
448,192,124454,1,0,0:0:0:0:
64,192,124561,1,0,0:0:0:0:
192,192,124561,1,0,0:0:0:0:
64,192,124668,1,0,0:0:0:0:
448,192,124668,1,0,0:0:0:0:
192,192,124775,1,0,0:0:0:0:
320,192,124775,1,0,0:0:0:0:
64,192,124882,1,8,0:0:0:0:
192,192,124882,1,4,0:0:0:0:
448,192,124882,1,0,0:0:0:0:
320,192,124989,1,0,0:0:0:0:
448,192,124989,1,0,0:0:0:0:
64,192,125204,1,0,0:0:0:0:
448,192,125204,1,0,0:0:0:0:
192,192,125311,1,8,0:0:0:0:
320,192,125311,1,0,0:0:0:0:
64,192,125525,1,0,0:0:0:0:
320,192,125525,1,0,0:0:0:0:
64,192,125632,1,0,0:0:0:0:
192,192,125632,1,0,0:0:0:0:
320,192,125739,1,8,0:0:0:0:
448,192,125739,1,0,0:0:0:0:
64,192,125846,1,0,0:0:0:0:
192,192,125846,1,0,0:0:0:0:
320,192,125954,1,0,0:0:0:0:
192,192,126061,1,0,0:0:0:0:
448,192,126061,1,0,0:0:0:0:
64,192,126168,1,8,0:0:0:0:
320,192,126168,1,0,0:0:0:0:
64,192,126596,1,8,0:0:0:0:
192,192,126596,1,0,0:0:0:0:
64,192,126704,1,0,0:0:0:0:
448,192,126704,1,0,0:0:0:0:
192,192,126918,1,0,0:0:0:0:
448,192,126918,1,0,0:0:0:0:
64,192,127025,1,8,0:0:0:0:
320,192,127025,1,0,0:0:0:0:
320,192,127239,1,0,0:0:0:0:
448,192,127239,1,0,0:0:0:0:
64,192,127346,1,0,0:0:0:0:
448,192,127346,1,0,0:0:0:0:
192,192,127454,1,8,0:0:0:0:
320,192,127454,1,0,0:0:0:0:
64,192,127561,1,0,0:0:0:0:
448,192,127561,1,0,0:0:0:0:
192,192,127668,1,0,0:0:0:0:
320,192,127775,1,0,0:0:0:0:
448,192,127775,1,0,0:0:0:0:
64,192,127882,1,8,0:0:0:0:
192,192,127882,1,0,0:0:0:0:
64,192,128311,1,8,0:0:0:0:
320,192,128311,1,0,0:0:0:0:
64,192,128418,1,0,0:0:0:0:
448,192,128418,1,0,0:0:0:0:
320,192,128632,1,0,0:0:0:0:
448,192,128632,1,0,0:0:0:0:
64,192,128739,1,8,0:0:0:0:
192,192,128739,1,0,0:0:0:0:
192,192,128954,1,0,0:0:0:0:
448,192,128954,1,0,0:0:0:0:
64,192,129061,1,0,0:0:0:0:
448,192,129061,1,0,0:0:0:0:
192,192,129168,1,8,0:0:0:0:
320,192,129168,1,0,0:0:0:0:
64,192,129275,1,0,0:0:0:0:
448,192,129275,1,0,0:0:0:0:
192,192,129382,1,0,0:0:0:0:
320,192,129489,1,0,0:0:0:0:
448,192,129489,1,0,0:0:0:0:
64,192,129596,1,8,0:0:0:0:
192,192,129596,1,0,0:0:0:0:
64,192,130025,1,8,0:0:0:0:
320,192,130025,1,0,0:0:0:0:
192,192,130132,1,0,0:0:0:0:
320,192,130132,1,0,0:0:0:0:
320,192,130346,1,0,0:0:0:0:
448,192,130346,1,0,0:0:0:0:
64,192,130454,1,8,0:0:0:0:
192,192,130454,1,0,0:0:0:0:
192,192,130668,1,0,0:0:0:0:
448,192,130668,1,0,0:0:0:0:
192,192,130775,1,0,0:0:0:0:
320,192,130775,1,0,0:0:0:0:
64,192,130882,1,8,0:0:0:0:
448,192,130882,1,0,0:0:0:0:
192,192,130989,1,0,0:0:0:0:
320,192,130989,1,0,0:0:0:0:
64,192,131096,1,0,0:0:0:0:
320,192,131204,1,0,0:0:0:0:
448,192,131204,1,0,0:0:0:0:
64,192,131311,1,8,0:0:0:0:
192,192,131311,1,0,0:0:0:0:
192,192,131739,1,8,0:0:0:0:
448,192,131739,1,0,0:0:0:0:
320,192,131846,1,0,0:0:0:0:
448,192,131846,1,0,0:0:0:0:
192,192,131954,1,0,0:0:0:0:
64,192,132061,1,0,0:0:0:0:
448,192,132061,1,0,0:0:0:0:
192,192,132168,1,8,0:0:0:0:
320,192,132168,1,0,0:0:0:0:
448,192,132275,1,0,0:0:0:0:
64,192,132382,1,0,0:0:0:0:
320,192,132382,1,0,0:0:0:0:
64,192,132489,1,0,0:0:0:0:
192,192,132489,1,0,0:0:0:0:
320,192,132596,1,8,0:0:0:0:
448,192,132596,1,0,0:0:0:0:
64,192,132704,1,0,0:0:0:0:
192,192,132704,1,0,0:0:0:0:
320,192,132811,1,0,0:0:0:0:
192,192,132918,1,0,0:0:0:0:
448,192,132918,1,0,0:0:0:0:
64,192,133025,1,8,0:0:0:0:
320,192,133025,1,0,0:0:0:0:
192,192,133132,1,0,0:0:0:0:
320,192,133239,1,0,0:0:0:0:
448,192,133346,1,0,0:0:0:0:
64,192,133454,1,8,0:0:0:0:
192,192,133454,1,0,0:0:0:0:
64,192,133561,1,0,0:0:0:0:
448,192,133561,1,0,0:0:0:0:
192,192,133775,1,0,0:0:0:0:
448,192,133775,1,0,0:0:0:0:
64,192,133882,1,8,0:0:0:0:
320,192,133882,1,0,0:0:0:0:
320,192,134096,1,0,0:0:0:0:
448,192,134096,1,0,0:0:0:0:
64,192,134204,1,0,0:0:0:0:
448,192,134204,1,0,0:0:0:0:
192,192,134311,1,8,0:0:0:0:
320,192,134311,1,0,0:0:0:0:
64,192,134418,1,0,0:0:0:0:
448,192,134418,1,0,0:0:0:0:
192,192,134525,1,0,0:0:0:0:
320,192,134632,1,0,0:0:0:0:
448,192,134632,1,0,0:0:0:0:
64,192,134739,1,8,0:0:0:0:
192,192,134739,1,0,0:0:0:0:
64,192,135168,1,8,0:0:0:0:
320,192,135168,1,0,0:0:0:0:
64,192,135275,1,0,0:0:0:0:
448,192,135275,1,0,0:0:0:0:
192,192,135382,1,0,0:0:0:0:
320,192,135489,1,0,0:0:0:0:
448,192,135489,1,0,0:0:0:0:
64,192,135596,1,8,0:0:0:0:
192,192,135596,1,0,0:0:0:0:
320,192,135704,1,0,0:0:0:0:
192,192,135811,1,0,0:0:0:0:
448,192,135811,1,0,0:0:0:0:
64,192,135918,1,0,0:0:0:0:
448,192,135918,1,0,0:0:0:0:
192,192,136025,1,8,0:0:0:0:
320,192,136025,1,0,0:0:0:0:
64,192,136132,1,0,0:0:0:0:
448,192,136132,1,0,0:0:0:0:
192,192,136239,1,0,0:0:0:0:
320,192,136346,1,0,0:0:0:0:
448,192,136346,1,0,0:0:0:0:
64,192,136454,1,8,0:0:0:0:
192,192,136454,1,0,0:0:0:0:
320,192,136561,1,0,0:0:0:0:
448,192,136668,1,0,0:0:0:0:
192,192,136775,1,0,0:0:0:0:
64,192,136882,1,8,0:0:0:0:
320,192,136882,1,0,0:0:0:0:
192,192,136989,1,0,0:0:0:0:
320,192,136989,1,0,0:0:0:0:
64,192,137204,1,0,0:0:0:0:
448,192,137204,1,0,0:0:0:0:
192,192,137311,1,8,0:0:0:0:
320,192,137311,1,0,0:0:0:0:
64,192,137525,1,0,0:0:0:0:
192,192,137525,1,0,0:0:0:0:
192,192,137632,1,0,0:0:0:0:
320,192,137632,1,0,0:0:0:0:
64,192,137739,1,8,0:0:0:0:
448,192,137739,1,0,0:0:0:0:
192,192,137846,1,0,0:0:0:0:
320,192,137846,1,0,0:0:0:0:
320,192,137954,1,0,0:0:0:0:
448,192,137954,1,0,0:0:0:0:
64,192,138061,1,0,0:0:0:0:
192,192,138061,1,0,0:0:0:0:
320,192,138168,1,8,0:0:0:0:
448,192,138168,1,0,0:0:0:0:
192,192,138382,1,0,0:0:0:0:
448,192,138382,1,0,0:0:0:0:
64,192,138596,1,8,0:0:0:0:
320,192,138596,1,4,0:0:0:0:
448,192,138596,1,0,0:0:0:0:
64,192,138704,1,0,0:0:0:0:
192,192,138704,1,0,0:0:0:0:
320,192,138811,1,0,0:0:0:0:
64,192,138918,1,0,0:0:0:0:
448,192,138918,1,0,0:0:0:0:
192,192,139025,1,8,0:0:0:0:
320,192,139025,1,0,0:0:0:0:
64,192,139132,1,0,0:0:0:0:
192,192,139239,1,0,0:0:0:0:
448,192,139239,1,0,0:0:0:0:
320,192,139346,1,0,0:0:0:0:
448,192,139346,1,0,0:0:0:0:
64,192,139454,1,8,0:0:0:0:
192,192,139454,1,0,0:0:0:0:
320,192,139561,1,0,0:0:0:0:
448,192,139561,1,0,0:0:0:0:
192,192,139668,1,0,0:0:0:0:
64,192,139775,1,0,0:0:0:0:
320,192,139775,1,0,0:0:0:0:
192,192,139882,1,8,0:0:0:0:
448,192,139882,1,0,0:0:0:0:
320,192,139989,1,0,0:0:0:0:
192,192,140096,1,0,0:0:0:0:
64,192,140204,1,0,0:0:0:0:
320,192,140311,1,8,0:0:0:0:
448,192,140311,1,0,0:0:0:0:
64,192,140418,1,0,0:0:0:0:
448,192,140418,1,0,0:0:0:0:
192,192,140525,1,0,0:0:0:0:
64,192,140632,1,0,0:0:0:0:
320,192,140632,1,0,0:0:0:0:
192,192,140739,1,8,0:0:0:0:
448,192,140739,1,0,0:0:0:0:
320,192,140846,1,0,0:0:0:0:
64,192,140954,1,0,0:0:0:0:
192,192,140954,1,0,0:0:0:0:
64,192,141061,1,0,0:0:0:0:
448,192,141061,1,0,0:0:0:0:
192,192,141168,1,8,0:0:0:0:
320,192,141168,1,0,0:0:0:0:
64,192,141275,1,0,0:0:0:0:
448,192,141275,1,0,0:0:0:0:
320,192,141382,1,0,0:0:0:0:
64,192,141489,1,0,0:0:0:0:
192,192,141489,1,0,0:0:0:0:
320,192,141596,1,8,0:0:0:0:
448,192,141596,1,0,0:0:0:0:
192,192,141704,1,0,0:0:0:0:
64,192,141811,1,0,0:0:0:0:
320,192,141918,1,0,0:0:0:0:
192,192,142025,1,8,0:0:0:0:
448,192,142025,1,0,0:0:0:0:
64,192,142132,1,0,0:0:0:0:
448,192,142132,1,0,0:0:0:0:
320,192,142239,1,0,0:0:0:0:
64,192,142346,1,0,0:0:0:0:
192,192,142346,1,0,0:0:0:0:
320,192,142454,1,8,0:0:0:0:
448,192,142454,1,0,0:0:0:0:
192,192,142561,1,0,0:0:0:0:
64,192,142668,1,0,0:0:0:0:
320,192,142668,1,0,0:0:0:0:
64,192,142775,1,0,0:0:0:0:
448,192,142775,1,0,0:0:0:0:
192,192,142882,1,8,0:0:0:0:
320,192,142882,1,0,0:0:0:0:
64,192,142989,1,0,0:0:0:0:
448,192,142989,1,0,0:0:0:0:
320,192,143096,1,0,0:0:0:0:
64,192,143204,1,0,0:0:0:0:
192,192,143204,1,0,0:0:0:0:
320,192,143311,1,8,0:0:0:0:
448,192,143311,1,0,0:0:0:0:
64,192,143418,1,0,0:0:0:0:
192,192,143525,1,0,0:0:0:0:
320,192,143632,1,0,0:0:0:0:
192,192,143739,1,8,0:0:0:0:
448,192,143739,1,0,0:0:0:0:
192,192,143846,1,0,0:0:0:0:
320,192,143846,1,0,0:0:0:0:
448,192,143954,1,0,0:0:0:0:
64,192,144061,1,0,0:0:0:0:
192,192,144061,1,0,0:0:0:0:
320,192,144168,1,8,0:0:0:0:
448,192,144168,1,0,0:0:0:0:
192,192,144275,1,0,0:0:0:0:
64,192,144382,1,0,0:0:0:0:
320,192,144382,1,0,0:0:0:0:
192,192,144489,1,0,0:0:0:0:
320,192,144489,1,0,0:0:0:0:
64,192,144596,1,8,0:0:0:0:
448,192,144596,1,0,0:0:0:0:
192,192,144704,1,0,0:0:0:0:
320,192,144704,1,0,0:0:0:0:
448,192,144811,1,0,0:0:0:0:
64,192,144918,1,0,0:0:0:0:
192,192,144918,1,0,0:0:0:0:
320,192,145025,1,8,0:0:0:0:
448,192,145025,1,0,0:0:0:0:
192,192,145132,1,0,0:0:0:0:
64,192,145239,1,0,0:0:0:0:
448,192,145346,1,0,0:0:0:0:
64,192,145454,1,8,0:0:0:0:
320,192,145454,1,0,0:0:0:0:
64,192,145561,1,0,0:0:0:0:
192,192,145561,1,0,0:0:0:0:
320,192,145668,1,0,0:0:0:0:
64,192,145775,1,0,0:0:0:0:
448,192,145775,1,0,0:0:0:0:
192,192,145882,1,8,0:0:0:0:
320,192,145882,1,0,0:0:0:0:
64,192,145989,1,0,0:0:0:0:
192,192,146096,1,0,0:0:0:0:
448,192,146096,1,0,0:0:0:0:
320,192,146204,1,0,0:0:0:0:
448,192,146204,1,0,0:0:0:0:
64,192,146311,1,8,0:0:0:0:
192,192,146311,1,0,0:0:0:0:
320,192,146418,1,0,0:0:0:0:
448,192,146418,1,0,0:0:0:0:
192,192,146525,1,0,0:0:0:0:
64,192,146632,1,0,0:0:0:0:
320,192,146632,1,0,0:0:0:0:
192,192,146739,1,8,0:0:0:0:
448,192,146739,1,0,0:0:0:0:
320,192,146846,1,0,0:0:0:0:
192,192,146954,1,0,0:0:0:0:
64,192,147061,1,0,0:0:0:0:
320,192,147168,1,8,0:0:0:0:
448,192,147168,1,0,0:0:0:0:
64,192,147275,1,0,0:0:0:0:
448,192,147275,1,0,0:0:0:0:
192,192,147382,1,0,0:0:0:0:
64,192,147489,1,0,0:0:0:0:
320,192,147489,1,0,0:0:0:0:
192,192,147596,1,8,0:0:0:0:
448,192,147596,1,0,0:0:0:0:
320,192,147704,1,0,0:0:0:0:
64,192,147811,1,0,0:0:0:0:
192,192,147811,1,0,0:0:0:0:
64,192,147918,1,0,0:0:0:0:
448,192,147918,1,0,0:0:0:0:
192,192,148025,1,8,0:0:0:0:
320,192,148025,1,0,0:0:0:0:
64,192,148132,1,0,0:0:0:0:
448,192,148132,1,0,0:0:0:0:
320,192,148239,1,0,0:0:0:0:
64,192,148346,1,0,0:0:0:0:
192,192,148346,1,0,0:0:0:0:
320,192,148454,1,8,0:0:0:0:
448,192,148454,1,0,0:0:0:0:
64,192,148561,1,0,0:0:0:0:
192,192,148668,1,0,0:0:0:0:
320,192,148775,1,0,0:0:0:0:
192,192,148882,1,8,0:0:0:0:
448,192,148882,1,0,0:0:0:0:
64,192,148989,1,0,0:0:0:0:
448,192,148989,1,0,0:0:0:0:
64,192,149204,1,0,0:0:0:0:
192,192,149204,1,0,0:0:0:0:
320,192,149311,1,8,0:0:0:0:
448,192,149311,1,0,0:0:0:0:
192,192,149418,1,0,0:0:0:0:
64,192,149525,1,0,0:0:0:0:
320,192,149525,1,0,0:0:0:0:
64,192,149632,1,0,0:0:0:0:
448,192,149632,1,0,0:0:0:0:
192,192,149739,1,8,0:0:0:0:
320,192,149739,1,0,0:0:0:0:
64,192,149846,1,0,0:0:0:0:
448,192,149846,1,0,0:0:0:0:
320,192,149954,1,0,0:0:0:0:
64,192,150061,1,0,0:0:0:0:
192,192,150061,1,0,0:0:0:0:
320,192,150168,1,8,0:0:0:0:
448,192,150168,1,0,0:0:0:0:
192,192,150275,1,0,0:0:0:0:
64,192,150382,1,0,0:0:0:0:
448,192,150489,1,0,0:0:0:0:
192,192,150596,1,8,0:0:0:0:
320,192,150596,1,0,0:0:0:0:
192,192,150704,1,0,0:0:0:0:
448,192,150704,1,0,0:0:0:0:
320,192,150918,1,0,0:0:0:0:
448,192,150918,1,0,0:0:0:0:
64,192,151025,1,0,0:0:0:0:
448,192,151025,1,0,0:0:0:0:
192,192,151239,1,0,0:0:0:0:
320,192,151239,1,0,0:0:0:0:
192,192,151346,1,0,0:0:0:0:
448,192,151346,1,0,0:0:0:0:
320,192,151561,1,0,0:0:0:0:
448,192,151561,1,0,0:0:0:0:
192,192,151668,1,0,0:0:0:0:
448,192,151668,1,0,0:0:0:0:
64,192,151775,1,0,0:0:0:0:
320,192,151882,1,0,0:0:0:0:
448,192,151882,1,0,0:0:0:0:
64,192,151989,1,0,0:0:0:0:
192,192,152096,1,0,0:0:0:0:
448,192,152204,1,0,0:0:0:0:
64,192,152311,1,8,0:0:0:0:
192,192,152311,1,4,0:0:0:0:
320,192,152311,1,0,0:0:0:0:
448,192,152632,1,0,0:0:0:0:
64,192,152846,1,0,0:0:0:0:
320,192,152954,1,0,0:0:0:0:
320,192,153596,1,0,0:0:0:0:
448,192,153596,1,0,0:0:0:0:
192,192,153811,1,0,0:0:0:0:
64,192,154025,1,0,0:0:0:0:
192,192,154239,1,0,0:0:0:0:
448,192,154454,1,0,0:0:0:0:
192,192,154668,1,0,0:0:0:0:
320,192,155311,1,0,0:0:0:0:
64,192,155739,1,0,0:0:0:0:
448,192,155739,1,0,0:0:0:0:
192,192,155954,1,0,0:0:0:0:
320,192,156168,1,0,0:0:0:0:
192,192,156382,1,0,0:0:0:0:
448,192,156382,1,0,0:0:0:0:
64,192,157025,1,0,0:0:0:0:
192,192,157061,1,0,0:0:0:0:
448,192,157168,1,0,0:0:0:0:
320,192,158096,1,0,0:0:0:0:
192,192,158525,1,0,0:0:0:0:
448,192,158739,1,0,0:0:0:0:
64,192,158954,1,0,0:0:0:0:
320,192,159168,1,0,0:0:0:0:
448,192,159168,1,0,0:0:0:0:
192,192,159811,1,0,0:0:0:0:
64,192,160454,1,0,0:0:0:0:
192,192,160882,1,0,0:0:0:0:
320,192,160882,1,0,0:0:0:0:
192,192,161739,1,0,0:0:0:0:
448,192,161739,1,0,0:0:0:0:
320,192,162168,1,0,0:0:0:0:
64,192,162596,1,0,0:0:0:0:
192,192,162596,1,0,0:0:0:0:
64,192,163025,1,0,0:0:0:0:
192,192,163168,1,0,0:0:0:0:
320,192,163311,1,0,0:0:0:0:
448,192,163454,1,0,0:0:0:0:
192,192,163596,1,0,0:0:0:0:
64,192,163739,1,0,0:0:0:0:
448,192,163882,1,0,0:0:0:0:
320,192,164025,1,0,0:0:0:0:
192,192,164168,1,0,0:0:0:0:
64,192,164311,1,0,0:0:0:0:
320,192,164311,1,0,0:0:0:0:
64,192,165168,1,0,0:0:0:0:
448,192,165382,1,0,0:0:0:0:
64,192,165489,1,0,0:0:0:0:
192,192,165489,1,0,0:0:0:0:
320,192,165596,1,0,0:0:0:0:
448,192,165596,1,0,0:0:0:0:
64,192,165704,1,0,0:0:0:0:
192,192,165704,1,0,0:0:0:0:
64,192,165811,1,0,0:0:0:0:
448,192,165811,1,0,0:0:0:0:
320,192,165918,1,0,0:0:0:0:
64,192,166025,1,8,0:0:0:0:
192,192,166025,1,4,0:0:0:0:
448,192,166025,1,0,0:0:0:0:
448,192,166346,1,0,0:0:0:0:
64,192,166561,1,0,0:0:0:0:
192,192,166668,1,8,0:0:0:0:
320,192,166668,1,0,0:0:0:0:
64,192,167311,1,0,0:0:0:0:
320,192,167311,1,0,0:0:0:0:
192,192,167525,1,0,0:0:0:0:
64,192,167739,1,0,0:0:0:0:
192,192,167954,1,8,0:0:0:0:
448,192,167954,1,0,0:0:0:0:
320,192,168168,1,0,0:0:0:0:
64,192,168275,1,8,0:0:0:0:
448,192,168275,1,0,0:0:0:0:
192,192,168382,1,0,0:0:0:0:
320,192,169025,1,0,0:0:0:0:
192,192,169454,1,8,0:0:0:0:
448,192,169454,1,0,0:0:0:0:
64,192,169882,1,0,0:0:0:0:
192,192,170096,1,8,0:0:0:0:
320,192,170096,1,0,0:0:0:0:
64,192,170739,1,0,0:0:0:0:
192,192,170775,1,0,0:0:0:0:
448,192,170882,1,0,0:0:0:0:
64,192,171168,1,8,0:0:0:0:
320,192,171168,1,0,0:0:0:0:
64,192,171489,1,8,0:0:0:0:
320,192,171489,1,0,0:0:0:0:
64,192,171811,1,8,0:0:0:0:
192,192,171811,1,0,0:0:0:0:
320,192,172025,1,0,0:0:0:0:
448,192,172239,1,0,0:0:0:0:
64,192,172454,1,0,0:0:0:0:
320,192,172668,1,0,0:0:0:0:
64,192,172882,1,8,0:0:0:0:
448,192,172882,1,0,0:0:0:0:
64,192,173525,1,8,0:0:0:0:
320,192,173525,1,0,0:0:0:0:
192,192,174168,1,0,0:0:0:0:
64,192,174596,1,0,0:0:0:0:
192,192,174596,1,0,0:0:0:0:
320,192,174811,1,8,0:0:0:0:
448,192,174811,1,0,0:0:0:0:
320,192,175132,1,8,0:0:0:0:
448,192,175132,1,0,0:0:0:0:
64,192,175454,1,0,0:0:0:0:
448,192,175454,1,0,0:0:0:0:
320,192,175882,1,0,0:0:0:0:
192,192,176311,1,8,0:0:0:0:
448,192,176311,1,0,0:0:0:0:
64,192,176739,1,0,0:0:0:0:
192,192,176846,1,0,0:0:0:0:
64,192,176954,1,8,0:0:0:0:
448,192,176954,1,0,0:0:0:0:
320,192,177025,1,0,0:0:0:0:
64,192,177168,1,0,0:0:0:0:
448,192,177168,1,0,0:0:0:0:
192,192,177311,1,0,0:0:0:0:
64,192,177454,1,0,0:0:0:0:
320,192,177596,1,0,0:0:0:0:
192,192,177739,1,0,0:0:0:0:
320,192,178025,1,8,0:0:0:0:
448,192,178025,1,0,0:0:0:0:
64,192,178346,1,8,0:0:0:0:
448,192,178346,1,0,0:0:0:0:
64,192,178668,1,8,0:0:0:0:
448,192,178668,1,0,0:0:0:0:
64,192,178882,1,8,0:0:0:0:
448,192,178882,1,0,0:0:0:0:
192,192,179096,1,8,0:0:0:0:
64,192,179204,1,8,0:0:0:0:
448,192,179204,1,0,0:0:0:0:
320,192,179311,1,0,0:0:0:0:
192,192,179418,1,8,0:0:0:0:
320,192,179525,1,8,0:0:0:0:
448,192,179525,1,0,0:0:0:0:
64,192,179632,1,8,0:0:0:0:
192,192,179632,1,0,0:0:0:0:
64,192,179739,1,8,0:0:0:0:
320,192,179739,1,4,0:0:0:0:
448,192,179739,1,0,0:0:0:0:
192,192,179846,1,0,0:0:0:0:
320,192,179954,1,0,0:0:0:0:
448,192,180061,1,0,0:0:0:0:
64,192,180168,1,8,0:0:0:0:
320,192,180168,1,0,0:0:0:0:
192,192,180275,1,0,0:0:0:0:
320,192,180382,1,0,0:0:0:0:
448,192,180382,1,0,0:0:0:0:
64,192,180489,1,0,0:0:0:0:
192,192,180596,1,8,0:0:0:0:
320,192,180596,1,0,0:0:0:0:
448,192,180704,1,0,0:0:0:0:
320,192,180811,1,0,0:0:0:0:
64,192,181025,1,8,0:0:0:0:
192,192,181025,1,0,0:0:0:0:
320,192,181239,1,0,0:0:0:0:
64,192,181454,1,8,0:0:0:0:
448,192,181454,1,0,0:0:0:0:
192,192,181561,1,0,0:0:0:0:
320,192,181668,1,0,0:0:0:0:
64,192,181775,1,0,0:0:0:0:
192,192,181882,1,8,0:0:0:0:
448,192,181882,1,0,0:0:0:0:
320,192,181989,1,0,0:0:0:0:
192,192,182096,1,0,0:0:0:0:
64,192,182204,1,0,0:0:0:0:
320,192,182311,1,8,0:0:0:0:
448,192,182311,1,0,0:0:0:0:
192,192,182418,1,0,0:0:0:0:
64,192,182525,1,0,0:0:0:0:
320,192,182525,1,0,0:0:0:0:
192,192,182632,1,0,0:0:0:0:
320,192,182739,1,8,0:0:0:0:
448,192,182739,1,0,0:0:0:0:
192,192,182846,1,0,0:0:0:0:
64,192,182954,1,0,0:0:0:0:
448,192,182954,1,0,0:0:0:0:
320,192,183061,1,0,0:0:0:0:
192,192,183168,1,8,0:0:0:0:
448,192,183168,1,0,0:0:0:0:
320,192,183275,1,0,0:0:0:0:
192,192,183382,1,0,0:0:0:0:
64,192,183489,1,0,0:0:0:0:
192,192,183596,1,8,0:0:0:0:
448,192,183596,1,0,0:0:0:0:
320,192,183704,1,0,0:0:0:0:
192,192,183811,1,0,0:0:0:0:
64,192,183918,1,0,0:0:0:0:
192,192,184025,1,8,0:0:0:0:
448,192,184025,1,0,0:0:0:0:
320,192,184132,1,0,0:0:0:0:
192,192,184239,1,0,0:0:0:0:
64,192,184454,1,8,0:0:0:0:
448,192,184454,1,0,0:0:0:0:
192,192,184668,1,0,0:0:0:0:
320,192,184668,1,0,0:0:0:0:
64,192,184882,1,8,0:0:0:0:
192,192,184882,1,0,0:0:0:0:
320,192,184989,1,0,0:0:0:0:
448,192,185096,1,0,0:0:0:0:
192,192,185204,1,0,0:0:0:0:
64,192,185311,1,8,0:0:0:0:
448,192,185311,1,0,0:0:0:0:
320,192,185418,1,0,0:0:0:0:
192,192,185525,1,0,0:0:0:0:
64,192,185632,1,0,0:0:0:0:
192,192,185739,1,8,0:0:0:0:
448,192,185739,1,0,0:0:0:0:
320,192,185846,1,0,0:0:0:0:
448,192,185954,1,0,0:0:0:0:
192,192,186061,1,0,0:0:0:0:
64,192,186168,1,8,0:0:0:0:
320,192,186168,1,0,0:0:0:0:
448,192,186275,1,0,0:0:0:0:
64,192,186382,1,0,0:0:0:0:
448,192,186489,1,0,0:0:0:0:
64,192,186596,1,8,0:0:0:0:
320,192,186596,1,0,0:0:0:0:
192,192,186704,1,0,0:0:0:0:
320,192,186811,1,0,0:0:0:0:
448,192,186918,1,0,0:0:0:0:
64,192,187025,1,8,0:0:0:0:
320,192,187025,1,0,0:0:0:0:
192,192,187132,1,0,0:0:0:0:
320,192,187239,1,0,0:0:0:0:
448,192,187346,1,0,0:0:0:0:
64,192,187454,1,8,0:0:0:0:
320,192,187454,1,0,0:0:0:0:
192,192,187561,1,0,0:0:0:0:
320,192,187668,1,0,0:0:0:0:
448,192,187668,1,0,0:0:0:0:
64,192,187775,1,0,0:0:0:0:
192,192,187882,1,8,0:0:0:0:
320,192,187882,1,0,0:0:0:0:
64,192,188096,1,0,0:0:0:0:
192,192,188096,1,0,0:0:0:0:
64,192,188311,1,8,0:0:0:0:
448,192,188311,1,0,0:0:0:0:
320,192,188418,1,0,0:0:0:0:
64,192,188525,1,0,0:0:0:0:
192,192,188525,1,0,0:0:0:0:
320,192,188632,1,0,0:0:0:0:
192,192,188739,1,8,0:0:0:0:
448,192,188739,1,0,0:0:0:0:
64,192,188846,1,0,0:0:0:0:
192,192,188954,1,0,0:0:0:0:
320,192,188954,1,0,0:0:0:0:
448,192,189061,1,0,0:0:0:0:
64,192,189168,1,8,0:0:0:0:
320,192,189168,1,0,0:0:0:0:
192,192,189275,1,0,0:0:0:0:
320,192,189382,1,0,0:0:0:0:
192,192,189489,1,0,0:0:0:0:
448,192,189489,1,0,0:0:0:0:
64,192,189596,1,8,0:0:0:0:
320,192,189596,1,0,0:0:0:0:
192,192,189704,1,0,0:0:0:0:
64,192,189811,1,0,0:0:0:0:
448,192,189811,1,0,0:0:0:0:
320,192,189918,1,0,0:0:0:0:
192,192,190025,1,8,0:0:0:0:
448,192,190025,1,0,0:0:0:0:
320,192,190132,1,0,0:0:0:0:
192,192,190239,1,0,0:0:0:0:
64,192,190346,1,0,0:0:0:0:
192,192,190454,1,8,0:0:0:0:
448,192,190454,1,0,0:0:0:0:
320,192,190561,1,0,0:0:0:0:
192,192,190668,1,0,0:0:0:0:
64,192,190775,1,0,0:0:0:0:
192,192,190882,1,8,0:0:0:0:
448,192,190882,1,0,0:0:0:0:
320,192,190989,1,0,0:0:0:0:
192,192,191096,1,0,0:0:0:0:
64,192,191204,1,0,0:0:0:0:
192,192,191311,1,8,0:0:0:0:
448,192,191311,1,0,0:0:0:0:
192,192,191525,1,0,0:0:0:0:
320,192,191525,1,0,0:0:0:0:
320,192,191739,1,8,0:0:0:0:
448,192,191739,1,0,0:0:0:0:
192,192,191846,1,0,0:0:0:0:
64,192,191954,1,0,0:0:0:0:
320,192,192061,1,0,0:0:0:0:
64,192,192168,1,8,0:0:0:0:
448,192,192168,1,0,0:0:0:0:
192,192,192275,1,0,0:0:0:0:
320,192,192382,1,0,0:0:0:0:
64,192,192489,1,0,0:0:0:0:
192,192,192596,1,8,0:0:0:0:
448,192,192596,1,0,0:0:0:0:
320,192,192704,1,0,0:0:0:0:
448,192,192811,1,0,0:0:0:0:
192,192,192918,1,0,0:0:0:0:
64,192,193025,1,8,0:0:0:0:
320,192,193025,1,0,0:0:0:0:
448,192,193132,1,0,0:0:0:0:
64,192,193239,1,0,0:0:0:0:
192,192,193346,1,0,0:0:0:0:
64,192,193454,1,8,0:0:0:0:
320,192,193454,1,0,0:0:0:0:
192,192,193561,1,0,0:0:0:0:
320,192,193668,1,0,0:0:0:0:
448,192,193775,1,0,0:0:0:0:
64,192,193882,1,8,0:0:0:0:
320,192,193882,1,0,0:0:0:0:
192,192,193989,1,0,0:0:0:0:
320,192,194096,1,0,0:0:0:0:
448,192,194096,1,0,0:0:0:0:
64,192,194204,1,0,0:0:0:0:
192,192,194311,1,8,0:0:0:0:
320,192,194311,1,0,0:0:0:0:
448,192,194418,1,0,0:0:0:0:
320,192,194525,1,0,0:0:0:0:
192,192,194632,1,0,0:0:0:0:
64,192,194739,1,8,0:0:0:0:
448,192,194739,1,0,0:0:0:0:
320,192,194846,1,0,0:0:0:0:
192,192,194954,1,0,0:0:0:0:
320,192,195061,1,0,0:0:0:0:
64,192,195168,1,8,0:0:0:0:
448,192,195168,1,0,0:0:0:0:
192,192,195275,1,0,0:0:0:0:
320,192,195382,1,0,0:0:0:0:
64,192,195489,1,0,0:0:0:0:
192,192,195596,1,8,0:0:0:0:
448,192,195596,1,0,0:0:0:0:
320,192,195704,1,0,0:0:0:0:
192,192,195811,1,0,0:0:0:0:
64,192,195918,1,0,0:0:0:0:
320,192,196025,1,8,0:0:0:0:
448,192,196025,1,0,0:0:0:0:
192,192,196132,1,0,0:0:0:0:
64,192,196239,1,0,0:0:0:0:
320,192,196239,1,0,0:0:0:0:
192,192,196346,1,0,0:0:0:0:
320,192,196454,1,8,0:0:0:0:
448,192,196454,1,0,0:0:0:0:
192,192,196561,1,0,0:0:0:0:
64,192,196668,1,0,0:0:0:0:
448,192,196668,1,0,0:0:0:0:
320,192,196775,1,0,0:0:0:0:
192,192,196882,1,8,0:0:0:0:
448,192,196882,1,0,0:0:0:0:
320,192,196989,1,0,0:0:0:0:
192,192,197096,1,0,0:0:0:0:
64,192,197204,1,0,0:0:0:0:
192,192,197311,1,8,0:0:0:0:
448,192,197311,1,0,0:0:0:0:
320,192,197418,1,0,0:0:0:0:
192,192,197525,1,0,0:0:0:0:
64,192,197632,1,0,0:0:0:0:
192,192,197739,1,8,0:0:0:0:
448,192,197739,1,0,0:0:0:0:
320,192,197846,1,0,0:0:0:0:
192,192,197954,1,0,0:0:0:0:
320,192,198061,1,0,0:0:0:0:
64,192,198168,1,8,0:0:0:0:
448,192,198168,1,0,0:0:0:0:
192,192,198275,1,0,0:0:0:0:
320,192,198382,1,0,0:0:0:0:
448,192,198382,1,0,0:0:0:0:
192,192,198489,1,0,0:0:0:0:
64,192,198596,1,8,0:0:0:0:
320,192,198596,1,0,0:0:0:0:
448,192,198704,1,0,0:0:0:0:
192,192,198811,1,0,0:0:0:0:
320,192,198918,1,0,0:0:0:0:
64,192,199025,1,8,0:0:0:0:
448,192,199025,1,0,0:0:0:0:
320,192,199132,1,0,0:0:0:0:
192,192,199239,1,0,0:0:0:0:
64,192,199346,1,0,0:0:0:0:
192,192,199454,1,8,0:0:0:0:
448,192,199454,1,0,0:0:0:0:
320,192,199561,1,0,0:0:0:0:
64,192,199668,1,0,0:0:0:0:
192,192,199775,1,0,0:0:0:0:
64,192,199882,1,8,0:0:0:0:
320,192,199882,1,0,0:0:0:0:
448,192,199989,1,0,0:0:0:0:
64,192,200096,1,0,0:0:0:0:
448,192,200204,1,0,0:0:0:0:
64,192,200311,1,8,0:0:0:0:
320,192,200311,1,0,0:0:0:0:
192,192,200418,1,0,0:0:0:0:
320,192,200525,1,0,0:0:0:0:
448,192,200632,1,0,0:0:0:0:
64,192,200739,1,8,0:0:0:0:
320,192,200739,1,0,0:0:0:0:
192,192,200846,1,0,0:0:0:0:
320,192,200954,1,0,0:0:0:0:
448,192,201061,1,0,0:0:0:0:
64,192,201168,1,8,0:0:0:0:
320,192,201168,1,0,0:0:0:0:
192,192,201275,1,0,0:0:0:0:
320,192,201382,1,0,0:0:0:0:
448,192,201382,1,0,0:0:0:0:
64,192,201489,1,0,0:0:0:0:
192,192,201596,1,8,0:0:0:0:
320,192,201596,1,0,0:0:0:0:
448,192,201704,1,0,0:0:0:0:
64,192,201811,1,0,0:0:0:0:
192,192,201811,1,0,0:0:0:0:
320,192,201918,1,0,0:0:0:0:
64,192,202025,1,8,0:0:0:0:
448,192,202025,1,0,0:0:0:0:
320,192,202132,1,0,0:0:0:0:
64,192,202239,1,0,0:0:0:0:
192,192,202239,1,0,0:0:0:0:
320,192,202346,1,0,0:0:0:0:
192,192,202454,1,8,0:0:0:0:
448,192,202454,1,0,0:0:0:0:
64,192,202561,1,0,0:0:0:0:
192,192,202668,1,0,0:0:0:0:
320,192,202668,1,0,0:0:0:0:
448,192,202775,1,0,0:0:0:0:
64,192,202882,1,8,0:0:0:0:
320,192,202882,1,0,0:0:0:0:
192,192,202989,1,0,0:0:0:0:
320,192,203096,1,0,0:0:0:0:
192,192,203204,1,0,0:0:0:0:
448,192,203204,1,0,0:0:0:0:
64,192,203311,1,8,0:0:0:0:
320,192,203311,1,0,0:0:0:0:
192,192,203418,1,0,0:0:0:0:
64,192,203525,1,0,0:0:0:0:
448,192,203525,1,0,0:0:0:0:
320,192,203632,1,0,0:0:0:0:
192,192,203739,1,8,0:0:0:0:
448,192,203739,1,0,0:0:0:0:
320,192,203846,1,0,0:0:0:0:
192,192,203954,1,0,0:0:0:0:
64,192,204061,1,0,0:0:0:0:
192,192,204168,1,8,0:0:0:0:
448,192,204168,1,0,0:0:0:0:
320,192,204275,1,0,0:0:0:0:
192,192,204382,1,0,0:0:0:0:
64,192,204489,1,0,0:0:0:0:
192,192,204596,1,8,0:0:0:0:
448,192,204596,1,0,0:0:0:0:
320,192,204704,1,0,0:0:0:0:
192,192,204811,1,0,0:0:0:0:
64,192,204918,1,0,0:0:0:0:
192,192,205025,1,8,0:0:0:0:
448,192,205025,1,0,0:0:0:0:
320,192,205132,1,0,0:0:0:0:
64,192,205239,1,0,0:0:0:0:
192,192,205239,1,0,0:0:0:0:
320,192,205346,1,0,0:0:0:0:
64,192,205454,1,8,0:0:0:0:
448,192,205454,1,0,0:0:0:0:
320,192,206096,1,0,0:0:0:0:
192,192,206204,1,0,0:0:0:0:
64,192,206311,1,0,0:0:0:0:
448,192,206311,1,0,0:0:0:0:
192,192,206418,1,0,0:0:0:0:
320,192,206525,1,0,0:0:0:0:
448,192,206525,1,0,0:0:0:0:
64,192,206632,1,0,0:0:0:0:
192,192,206632,1,0,0:0:0:0:
320,192,206739,1,0,0:0:0:0:
448,192,206739,1,0,0:0:0:0:
192,192,206954,1,0,0:0:0:0:
320,192,206954,1,0,0:0:0:0:
64,192,207168,1,8,0:0:0:0:
192,192,207168,1,4,0:0:0:0:
448,192,207168,1,0,0:0:0:0:
320,192,207275,1,0,0:0:0:0:
64,192,207382,1,0,0:0:0:0:
192,192,207382,1,0,0:0:0:0:
192,192,207489,1,0,0:0:0:0:
320,192,207489,1,0,0:0:0:0:
64,192,207596,1,8,0:0:0:0:
448,192,207596,1,0,0:0:0:0:
192,192,207704,1,0,0:0:0:0:
320,192,207704,1,0,0:0:0:0:
320,192,207811,1,0,0:0:0:0:
448,192,207811,1,0,0:0:0:0:
192,192,207918,1,0,0:0:0:0:
64,192,208025,1,8,0:0:0:0:
320,192,208025,1,0,0:0:0:0:
64,192,208132,1,0,0:0:0:0:
192,192,208132,1,0,0:0:0:0:
448,192,208239,1,0,0:0:0:0:
192,192,208346,1,0,0:0:0:0:
320,192,208454,1,8,0:0:0:0:
448,192,208454,1,0,0:0:0:0:
64,192,208561,1,0,0:0:0:0:
192,192,208668,1,0,0:0:0:0:
448,192,208668,1,0,0:0:0:0:
192,192,208775,1,0,0:0:0:0:
320,192,208775,1,0,0:0:0:0:
64,192,208882,1,8,0:0:0:0:
448,192,208882,1,0,0:0:0:0:
320,192,208989,1,0,0:0:0:0:
64,192,209096,1,0,0:0:0:0:
192,192,209096,1,0,0:0:0:0:
64,192,209204,1,0,0:0:0:0:
448,192,209204,1,0,0:0:0:0:
192,192,209311,1,8,0:0:0:0:
320,192,209311,1,0,0:0:0:0:
64,192,209418,1,0,0:0:0:0:
448,192,209418,1,0,0:0:0:0:
320,192,209525,1,0,0:0:0:0:
448,192,209525,1,0,0:0:0:0:
64,192,209632,1,0,0:0:0:0:
192,192,209739,1,8,0:0:0:0:
448,192,209739,1,0,0:0:0:0:
64,192,209846,1,0,0:0:0:0:
192,192,209846,1,0,0:0:0:0:
320,192,209954,1,0,0:0:0:0:
192,192,210061,1,0,0:0:0:0:
64,192,210168,1,8,0:0:0:0:
448,192,210168,1,0,0:0:0:0:
320,192,210275,1,0,0:0:0:0:
64,192,210382,1,0,0:0:0:0:
192,192,210382,1,0,0:0:0:0:
64,192,210489,1,0,0:0:0:0:
448,192,210489,1,0,0:0:0:0:
192,192,210596,1,8,0:0:0:0:
320,192,210596,1,0,0:0:0:0:
448,192,210704,1,0,0:0:0:0:
64,192,210811,1,0,0:0:0:0:
192,192,210811,1,0,0:0:0:0:
64,192,210918,1,0,0:0:0:0:
320,192,210918,1,0,0:0:0:0:
192,192,211025,1,8,0:0:0:0:
448,192,211025,1,0,0:0:0:0:
64,192,211132,1,0,0:0:0:0:
320,192,211132,1,0,0:0:0:0:
320,192,211239,1,0,0:0:0:0:
448,192,211239,1,0,0:0:0:0:
192,192,211346,1,0,0:0:0:0:
64,192,211454,1,8,0:0:0:0:
320,192,211454,1,0,0:0:0:0:
64,192,211561,1,0,0:0:0:0:
192,192,211561,1,0,0:0:0:0:
320,192,211668,1,0,0:0:0:0:
448,192,211668,1,0,0:0:0:0:
64,192,211775,1,0,0:0:0:0:
320,192,211882,1,8,0:0:0:0:
448,192,211882,1,0,0:0:0:0:
192,192,211989,1,0,0:0:0:0:
64,192,212096,1,0,0:0:0:0:
320,192,212096,1,0,0:0:0:0:
192,192,212204,1,0,0:0:0:0:
320,192,212204,1,0,0:0:0:0:
64,192,212311,1,8,0:0:0:0:
448,192,212311,1,0,0:0:0:0:
320,192,212418,1,0,0:0:0:0:
64,192,212525,1,0,0:0:0:0:
192,192,212525,1,0,0:0:0:0:
192,192,212632,1,0,0:0:0:0:
448,192,212632,1,0,0:0:0:0:
64,192,212739,1,8,0:0:0:0:
320,192,212739,1,0,0:0:0:0:
192,192,212846,1,0,0:0:0:0:
448,192,212846,1,0,0:0:0:0:
320,192,212954,1,0,0:0:0:0:
448,192,212954,1,0,0:0:0:0:
192,192,213061,1,0,0:0:0:0:
64,192,213168,1,8,0:0:0:0:
320,192,213168,1,0,0:0:0:0:
64,192,213275,1,0,0:0:0:0:
192,192,213275,1,0,0:0:0:0:
320,192,213382,1,0,0:0:0:0:
448,192,213382,1,0,0:0:0:0:
64,192,213489,1,0,0:0:0:0:
192,192,213489,1,0,0:0:0:0:
64,192,213596,1,8,0:0:0:0:
448,192,213596,1,0,0:0:0:0:
320,192,213704,1,0,0:0:0:0:
448,192,213704,1,0,0:0:0:0:
64,192,213811,1,0,0:0:0:0:
192,192,213811,1,0,0:0:0:0:
192,192,213918,1,0,0:0:0:0:
320,192,213918,1,0,0:0:0:0:
64,192,214025,1,8,0:0:0:0:
448,192,214025,1,0,0:0:0:0:
192,192,214132,1,0,0:0:0:0:
320,192,214239,1,0,0:0:0:0:
448,192,214239,1,0,0:0:0:0:
192,192,214346,1,0,0:0:0:0:
320,192,214346,1,0,0:0:0:0:
64,192,214454,1,8,0:0:0:0:
448,192,214454,1,0,0:0:0:0:
192,192,214561,1,0,0:0:0:0:
320,192,214561,1,0,0:0:0:0:
64,192,214668,1,0,0:0:0:0:
192,192,214668,1,0,0:0:0:0:
320,192,214775,1,0,0:0:0:0:
192,192,214882,1,8,0:0:0:0:
448,192,214882,1,0,0:0:0:0:
320,192,214989,1,0,0:0:0:0:
448,192,214989,1,0,0:0:0:0:
64,192,215096,1,0,0:0:0:0:
320,192,215204,1,0,0:0:0:0:
64,192,215311,1,8,0:0:0:0:
192,192,215311,1,0,0:0:0:0:
448,192,215418,1,0,0:0:0:0:
64,192,215525,1,0,0:0:0:0:
320,192,215525,1,0,0:0:0:0:
192,192,215632,1,0,0:0:0:0:
320,192,215632,1,0,0:0:0:0:
64,192,215739,1,8,0:0:0:0:
448,192,215739,1,0,0:0:0:0:
192,192,215846,1,0,0:0:0:0:
320,192,215954,1,0,0:0:0:0:
448,192,215954,1,0,0:0:0:0:
64,192,216061,1,0,0:0:0:0:
448,192,216061,1,0,0:0:0:0:
192,192,216168,1,8,0:0:0:0:
320,192,216168,1,0,0:0:0:0:
64,192,216275,1,0,0:0:0:0:
448,192,216275,1,0,0:0:0:0:
64,192,216382,1,0,0:0:0:0:
192,192,216382,1,0,0:0:0:0:
448,192,216489,1,0,0:0:0:0:
64,192,216596,1,8,0:0:0:0:
320,192,216596,1,0,0:0:0:0:
320,192,216704,1,0,0:0:0:0:
448,192,216704,1,0,0:0:0:0:
192,192,216811,1,0,0:0:0:0:
320,192,216918,1,0,0:0:0:0:
64,192,217025,1,8,0:0:0:0:
448,192,217025,1,0,0:0:0:0:
192,192,217132,1,0,0:0:0:0:
320,192,217239,1,0,0:0:0:0:
448,192,217239,1,0,0:0:0:0:
64,192,217346,1,0,0:0:0:0:
448,192,217346,1,0,0:0:0:0:
192,192,217454,1,8,0:0:0:0:
320,192,217454,1,0,0:0:0:0:
64,192,217561,1,0,0:0:0:0:
320,192,217668,1,0,0:0:0:0:
448,192,217668,1,0,0:0:0:0:
192,192,217775,1,0,0:0:0:0:
448,192,217775,1,0,0:0:0:0:
64,192,217882,1,8,0:0:0:0:
320,192,217882,1,0,0:0:0:0:
192,192,217989,1,0,0:0:0:0:
448,192,217989,1,0,0:0:0:0:
64,192,218096,1,0,0:0:0:0:
192,192,218096,1,0,0:0:0:0:
320,192,218204,1,0,0:0:0:0:
192,192,218311,1,8,0:0:0:0:
448,192,218311,1,0,0:0:0:0:
320,192,218418,1,0,0:0:0:0:
448,192,218418,1,0,0:0:0:0:
64,192,218525,1,0,0:0:0:0:
192,192,218525,1,0,0:0:0:0:
448,192,218632,1,0,0:0:0:0:
64,192,218739,1,8,0:0:0:0:
192,192,218739,1,0,0:0:0:0:
320,192,218846,1,0,0:0:0:0:
192,192,218954,1,0,0:0:0:0:
448,192,218954,1,0,0:0:0:0:
192,192,219061,1,0,0:0:0:0:
320,192,219061,1,0,0:0:0:0:
64,192,219168,1,8,0:0:0:0:
448,192,219168,1,0,0:0:0:0:
192,192,219275,1,0,0:0:0:0:
320,192,219382,1,0,0:0:0:0:
448,192,219382,1,0,0:0:0:0:
64,192,219489,1,0,0:0:0:0:
320,192,219489,1,0,0:0:0:0:
192,192,219596,1,8,0:0:0:0:
448,192,219596,1,0,0:0:0:0:
64,192,219704,1,0,0:0:0:0:
320,192,219704,1,0,0:0:0:0:
64,192,219811,1,0,0:0:0:0:
192,192,219811,1,0,0:0:0:0:
320,192,219918,1,0,0:0:0:0:
192,192,220025,1,8,0:0:0:0:
448,192,220025,1,0,0:0:0:0:
320,192,220132,1,0,0:0:0:0:
448,192,220132,1,0,0:0:0:0:
64,192,220239,1,0,0:0:0:0:
192,192,220346,1,0,0:0:0:0:
320,192,220346,1,0,0:0:0:0:
192,192,220454,1,8,0:0:0:0:
448,192,220454,1,0,0:0:0:0:
320,192,220596,1,0,0:0:0:0:
448,192,220596,1,0,0:0:0:0:
192,192,220739,1,0,0:0:0:0:
320,192,220739,1,0,0:0:0:0:
64,192,220882,1,8,0:0:0:0:
192,192,220882,1,0,0:0:0:0:
448,192,220989,1,0,0:0:0:0:
64,192,221096,1,0,0:0:0:0:
192,192,221096,1,0,0:0:0:0:
192,192,221204,1,0,0:0:0:0:
320,192,221204,1,0,0:0:0:0:
64,192,221311,1,8,0:0:0:0:
448,192,221311,1,0,0:0:0:0:
192,192,221418,1,0,0:0:0:0:
320,192,221418,1,0,0:0:0:0:
320,192,221525,1,0,0:0:0:0:
448,192,221525,1,0,0:0:0:0:
192,192,221632,1,0,0:0:0:0:
64,192,221739,1,8,0:0:0:0:
320,192,221739,1,0,0:0:0:0:
64,192,221846,1,0,0:0:0:0:
192,192,221846,1,0,0:0:0:0:
448,192,221954,1,0,0:0:0:0:
64,192,222061,1,0,0:0:0:0:
320,192,222168,1,8,0:0:0:0:
448,192,222168,1,0,0:0:0:0:
64,192,222275,1,0,0:0:0:0:
192,192,222382,1,0,0:0:0:0:
448,192,222382,1,0,0:0:0:0:
192,192,222489,1,0,0:0:0:0:
320,192,222489,1,0,0:0:0:0:
64,192,222596,1,8,0:0:0:0:
448,192,222596,1,0,0:0:0:0:
320,192,222704,1,0,0:0:0:0:
64,192,222811,1,0,0:0:0:0:
192,192,222811,1,0,0:0:0:0:
64,192,222918,1,0,0:0:0:0:
448,192,222918,1,0,0:0:0:0:
192,192,223025,1,8,0:0:0:0:
320,192,223025,1,0,0:0:0:0:
64,192,223132,1,0,0:0:0:0:
448,192,223132,1,0,0:0:0:0:
320,192,223239,1,0,0:0:0:0:
448,192,223239,1,0,0:0:0:0:
64,192,223346,1,0,0:0:0:0:
192,192,223454,1,8,0:0:0:0:
448,192,223454,1,0,0:0:0:0:
64,192,223561,1,0,0:0:0:0:
192,192,223561,1,0,0:0:0:0:
448,192,223668,1,0,0:0:0:0:
192,192,223775,1,0,0:0:0:0:
320,192,223775,1,0,0:0:0:0:
64,192,223882,1,8,0:0:0:0:
448,192,223882,1,0,0:0:0:0:
320,192,223989,1,0,0:0:0:0:
64,192,224096,1,0,0:0:0:0:
192,192,224096,1,0,0:0:0:0:
64,192,224204,1,0,0:0:0:0:
448,192,224204,1,0,0:0:0:0:
192,192,224311,1,8,0:0:0:0:
320,192,224311,1,0,0:0:0:0:
448,192,224418,1,0,0:0:0:0:
64,192,224525,1,0,0:0:0:0:
192,192,224525,1,0,0:0:0:0:
64,192,224632,1,0,0:0:0:0:
320,192,224632,1,0,0:0:0:0:
192,192,224739,1,8,0:0:0:0:
448,192,224739,1,0,0:0:0:0:
64,192,224846,1,0,0:0:0:0:
320,192,224846,1,0,0:0:0:0:
320,192,224954,1,0,0:0:0:0:
448,192,224954,1,0,0:0:0:0:
192,192,225061,1,0,0:0:0:0:
64,192,225168,1,8,0:0:0:0:
320,192,225168,1,0,0:0:0:0:
64,192,225275,1,0,0:0:0:0:
192,192,225275,1,0,0:0:0:0:
448,192,225382,1,0,0:0:0:0:
64,192,225489,1,0,0:0:0:0:
320,192,225596,1,8,0:0:0:0:
448,192,225596,1,0,0:0:0:0:
192,192,225704,1,0,0:0:0:0:
64,192,225811,1,0,0:0:0:0:
320,192,225811,1,0,0:0:0:0:
192,192,225918,1,0,0:0:0:0:
320,192,225918,1,0,0:0:0:0:
64,192,226025,1,8,0:0:0:0:
448,192,226025,1,0,0:0:0:0:
320,192,226132,1,0,0:0:0:0:
64,192,226239,1,0,0:0:0:0:
192,192,226239,1,0,0:0:0:0:
192,192,226346,1,0,0:0:0:0:
448,192,226346,1,0,0:0:0:0:
64,192,226454,1,8,0:0:0:0:
320,192,226454,1,0,0:0:0:0:
192,192,226561,1,0,0:0:0:0:
448,192,226561,1,0,0:0:0:0:
320,192,226668,1,0,0:0:0:0:
448,192,226668,1,0,0:0:0:0:
192,192,226775,1,0,0:0:0:0:
64,192,226882,1,8,0:0:0:0:
320,192,226882,1,0,0:0:0:0:
64,192,226989,1,0,0:0:0:0:
192,192,226989,1,0,0:0:0:0:
448,192,227096,1,0,0:0:0:0:
192,192,227204,1,0,0:0:0:0:
64,192,227311,1,8,0:0:0:0:
448,192,227311,1,0,0:0:0:0:
320,192,227418,1,0,0:0:0:0:
64,192,227525,1,0,0:0:0:0:
192,192,227525,1,0,0:0:0:0:
64,192,227632,1,0,0:0:0:0:
448,192,227632,1,0,0:0:0:0:
192,192,227739,1,8,0:0:0:0:
320,192,227739,1,0,0:0:0:0:
64,192,227846,1,0,0:0:0:0:
320,192,227954,1,0,0:0:0:0:
448,192,227954,1,0,0:0:0:0:
192,192,228061,1,0,0:0:0:0:
320,192,228061,1,0,0:0:0:0:
64,192,228168,1,8,0:0:0:0:
448,192,228168,1,0,0:0:0:0:
192,192,228275,1,0,0:0:0:0:
320,192,228275,1,0,0:0:0:0:
64,192,228382,1,0,0:0:0:0:
192,192,228382,1,0,0:0:0:0:
320,192,228489,1,0,0:0:0:0:
192,192,228596,1,8,0:0:0:0:
448,192,228596,1,0,0:0:0:0:
320,192,228704,1,0,0:0:0:0:
448,192,228704,1,0,0:0:0:0:
64,192,228811,1,0,0:0:0:0:
448,192,228918,1,0,0:0:0:0:
64,192,229025,1,8,0:0:0:0:
192,192,229025,1,0,0:0:0:0:
448,192,229132,1,0,0:0:0:0:
64,192,229239,1,0,0:0:0:0:
320,192,229239,1,0,0:0:0:0:
192,192,229346,1,0,0:0:0:0:
320,192,229346,1,0,0:0:0:0:
64,192,229454,1,8,0:0:0:0:
448,192,229454,1,0,0:0:0:0:
192,192,229561,1,0,0:0:0:0:
320,192,229668,1,0,0:0:0:0:
448,192,229668,1,0,0:0:0:0:
64,192,229775,1,0,0:0:0:0:
448,192,229775,1,0,0:0:0:0:
192,192,229882,1,8,0:0:0:0:
320,192,229882,1,0,0:0:0:0:
64,192,229989,1,0,0:0:0:0:
448,192,229989,1,0,0:0:0:0:
64,192,230096,1,0,0:0:0:0:
192,192,230096,1,0,0:0:0:0:
448,192,230204,1,0,0:0:0:0:
64,192,230311,1,8,0:0:0:0:
320,192,230311,1,0,0:0:0:0:
320,192,230418,1,0,0:0:0:0:
448,192,230418,1,0,0:0:0:0:
192,192,230525,1,0,0:0:0:0:
320,192,230632,1,0,0:0:0:0:
64,192,230739,1,8,0:0:0:0:
448,192,230739,1,0,0:0:0:0:
192,192,230846,1,0,0:0:0:0:
320,192,230954,1,0,0:0:0:0:
448,192,230954,1,0,0:0:0:0:
64,192,231061,1,0,0:0:0:0:
448,192,231061,1,0,0:0:0:0:
192,192,231168,1,8,0:0:0:0:
320,192,231168,1,0,0:0:0:0:
64,192,231275,1,0,0:0:0:0:
320,192,231382,1,0,0:0:0:0:
448,192,231382,1,0,0:0:0:0:
192,192,231489,1,0,0:0:0:0:
448,192,231489,1,0,0:0:0:0:
320,192,231596,1,0,0:0:0:0:
192,192,231704,1,0,0:0:0:0:
448,192,231704,1,0,0:0:0:0:
64,192,231811,1,0,0:0:0:0:
192,192,231811,1,0,0:0:0:0:
192,192,232025,1,0,0:0:0:0:
448,192,232025,1,0,0:0:0:0:
320,192,232132,1,0,0:0:0:0:
448,192,232132,1,0,0:0:0:0:
64,192,232239,1,0,0:0:0:0:
64,192,232454,1,0,0:0:0:0:
320,192,232561,1,0,0:0:0:0:
192,192,232668,1,0,0:0:0:0:
448,192,232668,1,0,0:0:0:0:
192,192,232775,1,0,0:0:0:0:
320,192,232775,1,0,0:0:0:0:
448,192,232882,1,0,0:0:0:0:
192,192,232989,1,0,0:0:0:0:
64,192,233096,1,0,0:0:0:0:
320,192,233096,1,0,0:0:0:0:
192,192,233204,1,0,0:0:0:0:
320,192,233204,1,0,0:0:0:0:
448,192,233311,1,0,0:0:0:0:
192,192,233418,1,0,0:0:0:0:
320,192,233418,1,0,0:0:0:0:
192,192,233525,1,0,0:0:0:0:
448,192,233525,1,0,0:0:0:0:
64,192,233632,1,0,0:0:0:0:
320,192,233739,1,0,0:0:0:0:
448,192,233739,1,0,0:0:0:0:
192,192,233846,1,0,0:0:0:0:
320,192,233846,1,0,0:0:0:0:
64,192,233954,1,0,0:0:0:0:
320,192,234061,1,0,0:0:0:0:
448,192,234061,1,0,0:0:0:0:
64,192,234168,1,0,0:0:0:0:
192,192,234168,1,0,0:0:0:0:
320,192,234275,1,0,0:0:0:0:
448,192,234275,1,0,0:0:0:0:
64,192,234382,1,0,0:0:0:0:
448,192,234382,1,0,0:0:0:0:
192,192,234489,1,0,0:0:0:0:
320,192,234489,1,0,0:0:0:0:
64,192,234596,1,8,0:0:0:0:
320,192,234596,1,4,0:0:0:0:
448,192,234596,1,0,0:0:0:0:
192,192,234704,1,0,0:0:0:0:
192,192,234811,1,0,0:0:0:0:
320,192,234918,1,0,0:0:0:0:
448,192,234918,1,0,0:0:0:0:
64,192,235025,1,8,0:0:0:0:
192,192,235025,1,0,0:0:0:0:
320,192,235132,1,0,0:0:0:0:
448,192,235132,1,0,0:0:0:0:
64,192,235239,1,0,0:0:0:0:
192,192,235346,1,0,0:0:0:0:
64,192,235454,1,8,0:0:0:0:
448,192,235454,1,0,0:0:0:0:
320,192,235561,1,0,0:0:0:0:
192,192,235668,1,0,0:0:0:0:
448,192,235775,1,0,0:0:0:0:
64,192,235882,1,8,0:0:0:0:
192,192,235882,1,0,0:0:0:0:
320,192,235989,1,0,0:0:0:0:
448,192,235989,1,0,0:0:0:0:
192,192,236096,1,0,0:0:0:0:
64,192,236204,1,0,0:0:0:0:
320,192,236204,1,0,0:0:0:0:
192,192,236311,1,8,0:0:0:0:
448,192,236311,1,0,0:0:0:0:
320,192,236418,1,0,0:0:0:0:
320,192,236525,1,0,0:0:0:0:
64,192,236632,1,0,0:0:0:0:
320,192,236739,1,8,0:0:0:0:
448,192,236739,1,0,0:0:0:0:
64,192,236846,1,0,0:0:0:0:
192,192,236846,1,0,0:0:0:0:
320,192,236954,1,0,0:0:0:0:
192,192,237061,1,0,0:0:0:0:
64,192,237168,1,8,0:0:0:0:
448,192,237168,1,0,0:0:0:0:
320,192,237275,1,0,0:0:0:0:
64,192,237382,1,0,0:0:0:0:
192,192,237382,1,0,0:0:0:0:
448,192,237489,1,0,0:0:0:0:
64,192,237596,1,8,0:0:0:0:
320,192,237596,1,0,0:0:0:0:
192,192,237704,1,0,0:0:0:0:
320,192,237811,1,0,0:0:0:0:
64,192,237918,1,0,0:0:0:0:
192,192,238025,1,8,0:0:0:0:
448,192,238025,1,0,0:0:0:0:
320,192,238132,1,0,0:0:0:0:
320,192,238239,1,0,0:0:0:0:
64,192,238346,1,0,0:0:0:0:
192,192,238346,1,0,0:0:0:0:
320,192,238454,1,8,0:0:0:0:
448,192,238454,1,0,0:0:0:0:
64,192,238561,1,0,0:0:0:0:
192,192,238561,1,0,0:0:0:0:
448,192,238668,1,0,0:0:0:0:
320,192,238775,1,0,0:0:0:0:
64,192,238882,1,8,0:0:0:0:
448,192,238882,1,0,0:0:0:0:
192,192,238989,1,0,0:0:0:0:
320,192,239096,1,0,0:0:0:0:
64,192,239204,1,0,0:0:0:0:
320,192,239311,1,8,0:0:0:0:
448,192,239311,1,0,0:0:0:0:
64,192,239418,1,0,0:0:0:0:
192,192,239418,1,0,0:0:0:0:
320,192,239525,1,0,0:0:0:0:
192,192,239632,1,0,0:0:0:0:
448,192,239632,1,0,0:0:0:0:
64,192,239739,1,8,0:0:0:0:
320,192,239739,1,0,0:0:0:0:
192,192,239846,1,0,0:0:0:0:
192,192,239954,1,0,0:0:0:0:
448,192,240061,1,0,0:0:0:0:
64,192,240168,1,8,0:0:0:0:
192,192,240168,1,0,0:0:0:0:
320,192,240275,1,0,0:0:0:0:
448,192,240275,1,0,0:0:0:0:
192,192,240382,1,0,0:0:0:0:
320,192,240489,1,0,0:0:0:0:
64,192,240596,1,8,0:0:0:0:
448,192,240596,1,0,0:0:0:0:
192,192,240704,1,0,0:0:0:0:
320,192,240811,1,0,0:0:0:0:
448,192,240811,1,0,0:0:0:0:
64,192,240918,1,0,0:0:0:0:
192,192,241025,1,8,0:0:0:0:
448,192,241025,1,0,0:0:0:0:
320,192,241132,1,0,0:0:0:0:
192,192,241239,1,0,0:0:0:0:
448,192,241346,1,0,0:0:0:0:
64,192,241454,1,8,0:0:0:0:
320,192,241454,1,0,0:0:0:0:
192,192,241561,1,0,0:0:0:0:
192,192,241668,1,0,0:0:0:0:
320,192,241775,1,0,0:0:0:0:
448,192,241775,1,0,0:0:0:0:
64,192,241882,1,8,0:0:0:0:
192,192,241882,1,0,0:0:0:0:
320,192,241989,1,0,0:0:0:0:
448,192,241989,1,0,0:0:0:0:
64,192,242096,1,0,0:0:0:0:
192,192,242204,1,0,0:0:0:0:
64,192,242311,1,8,0:0:0:0:
448,192,242311,1,0,0:0:0:0:
320,192,242418,1,0,0:0:0:0:
192,192,242525,1,0,0:0:0:0:
448,192,242632,1,0,0:0:0:0:
64,192,242739,1,8,0:0:0:0:
192,192,242739,1,0,0:0:0:0:
320,192,242846,1,0,0:0:0:0:
448,192,242846,1,0,0:0:0:0:
192,192,242954,1,0,0:0:0:0:
64,192,243061,1,0,0:0:0:0:
320,192,243061,1,0,0:0:0:0:
192,192,243168,1,8,0:0:0:0:
448,192,243168,1,0,0:0:0:0:
320,192,243275,1,0,0:0:0:0:
320,192,243382,1,0,0:0:0:0:
64,192,243489,1,0,0:0:0:0:
320,192,243596,1,8,0:0:0:0:
448,192,243596,1,0,0:0:0:0:
64,192,243704,1,0,0:0:0:0:
192,192,243704,1,0,0:0:0:0:
320,192,243811,1,0,0:0:0:0:
192,192,243918,1,0,0:0:0:0:
64,192,244025,1,8,0:0:0:0:
448,192,244025,1,0,0:0:0:0:
320,192,244132,1,0,0:0:0:0:
64,192,244239,1,0,0:0:0:0:
192,192,244239,1,0,0:0:0:0:
448,192,244346,1,0,0:0:0:0:
64,192,244454,1,8,0:0:0:0:
320,192,244454,1,0,0:0:0:0:
192,192,244561,1,0,0:0:0:0:
320,192,244668,1,0,0:0:0:0:
64,192,244775,1,0,0:0:0:0:
192,192,244882,1,8,0:0:0:0:
448,192,244882,1,0,0:0:0:0:
320,192,244989,1,0,0:0:0:0:
320,192,245096,1,0,0:0:0:0:
192,192,245204,1,0,0:0:0:0:
64,192,245311,1,8,0:0:0:0:
448,192,245311,1,0,0:0:0:0:
192,192,245418,1,0,0:0:0:0:
320,192,245525,1,0,0:0:0:0:
64,192,245632,1,0,0:0:0:0:
320,192,245739,1,8,0:0:0:0:
448,192,245739,1,0,0:0:0:0:
192,192,245846,1,0,0:0:0:0:
320,192,245954,1,0,0:0:0:0:
448,192,246061,1,0,0:0:0:0:
64,192,246168,1,8,0:0:0:0:
192,192,246168,1,0,0:0:0:0:
320,192,246275,1,0,0:0:0:0:
192,192,246382,1,0,0:0:0:0:
64,192,246489,1,0,0:0:0:0:
320,192,246596,1,8,0:0:0:0:
448,192,246596,1,0,0:0:0:0:
192,192,246704,1,0,0:0:0:0:
448,192,246811,1,0,0:0:0:0:
192,192,246918,1,0,0:0:0:0:
64,192,247025,1,0,0:0:0:0:
192,192,247132,1,0,0:0:0:0:
320,192,247239,1,0,0:0:0:0:
64,192,247346,1,8,0:0:0:0:
192,192,247400,1,8,0:0:0:0:
320,192,247454,1,8,0:0:0:0:
448,192,247454,1,0,0:0:0:0:
64,192,247561,1,0,0:0:0:0:
192,192,247668,1,8,0:0:0:0:
320,192,247668,1,0,0:0:0:0:
64,192,247775,1,8,0:0:0:0:
448,192,247775,1,0,0:0:0:0:
320,192,247882,1,0,0:0:0:0:
64,192,247989,1,8,0:0:0:0:
192,192,247989,1,0,0:0:0:0:
320,192,248096,1,8,0:0:0:0:
448,192,248096,1,0,0:0:0:0:
64,192,248204,1,8,0:0:0:0:
192,192,248204,1,0,0:0:0:0:
