osu file format v14

[General]
AudioFilename: audio.mp3
AudioLeadIn: 0
PreviewTime: 80569
Countdown: 0
SampleSet: Normal
StackLeniency: 0.7
Mode: 1
LetterboxInBreaks: 0
WidescreenStoryboard: 1

[Editor]
DistanceSpacing: 1
BeatDivisor: 12
GridSize: 4
TimelineZoom: 2.799999

[Metadata]
Title:Chat perdu
TitleUnicode:Chat perdu
Artist:Feryquitous
ArtistUnicode:Feryquitous
Creator:Boaz
Version:Stray Cat
Source:Deemo
Tags:arialle igts intermediate global taiko showdown 2022 sf fm2 video game instrumental lost cat electronic jazz piano rayark
BeatmapID:4086908
BeatmapSetID:1744044

[Difficulty]
HPDrainRate:6.3
CircleSize:5
OverallDifficulty:6.3
ApproachRate:5
SliderMultiplier:1.4
SliderTickRate:1

[Events]
//Background and Video events
0,0,"bg.jpg",0,0
//Break Periods
//Storyboard Layer 0 (Background)
//Storyboard Layer 1 (Fail)
//Storyboard Layer 2 (Pass)
//Storyboard Layer 3 (Foreground)
//Storyboard Layer 4 (Overlay)
//Storyboard Sound Samples

[TimingPoints]
97,352.986857122686,4,1,0,100,1,8
1500,352.986857122686,4,1,0,100,1,0
1500,-125,4,1,0,65,0,0
1676,-124.53938,4,1,0,65,0,0
1852,-124.08304,4,1,0,65,0,0
2029,-123.625786,4,1,0,65,0,0
2205,-123.17279,4,1,0,65,0,0
2382,-122.71892,4,1,0,65,0,0
2558,-122.26924,4,1,0,65,0,0
2735,-121.81868,4,1,0,65,0,0
2911,-121.372314,4,1,0,65,0,0
3087,-120.92758,4,1,0,65,0,0
3264,-120.48195,4,1,0,65,0,0
3440,-120.0405,4,1,0,65,0,0
3617,-119.598145,4,1,0,65,0,0
3793,-119.15991,4,1,0,65,0,0
3970,-118.72081,4,1,0,65,0,0
4146,-118.28578,4,1,0,65,0,0
4323,-117.84991,4,1,0,65,0,0
4499,-117.418076,4,1,0,65,0,0
4675,-116.98783,4,1,0,65,0,0
4852,-116.556725,4,1,0,65,0,0
5029,-116.12722,4,1,0,65,0,0
5205,-115.701706,4,1,0,65,0,0
5382,-115.275345,4,1,0,65,0,0
5558,-114.85295,4,1,0,65,0,0
5735,-114.42972,4,1,0,65,0,0
5911,-114.01042,4,1,0,65,0,0
6087,-113.59265,4,1,0,65,0,0
6264,-113.17407,4,1,0,65,0,0
6440,-112.759384,4,1,0,65,0,0
6617,-112.343864,4,1,0,65,0,0
6793,-111.93221,4,1,0,65,0,0
6969,-111.52207,4,1,0,65,0,0
7146,-111.111115,4,1,0,75,0,0
35029,-100,4,1,0,80,0,0
35147,-98.3935288543943,4,1,0,80,0,0
35264,-96.8379504054121,4,1,0,80,0,0
35382,-95.3307022059524,4,1,0,80,0,0
57970,-100,4,1,0,80,0,0
80569,-90.9090909090909,4,1,0,85,0,1
103160,-90.9090909090909,4,1,0,85,0,0
103411,-90.90909,4,1,0,80,0,0
103499,-91.05476,4,1,0,80,0,0
103587,-91.200676,4,1,0,80,0,0
103676,-91.34848,4,1,0,80,0,0
103764,-91.49486,4,1,0,80,0,0
103852,-91.64147,4,1,0,80,0,0
103940,-91.78832,4,1,0,80,0,0
104029,-91.93707,4,1,0,80,0,0
104117,-92.084404,4,1,0,80,0,0
104205,-92.23196,4,1,0,80,0,0
104382,-92.52947,4,1,0,80,0,0
104558,-92.82625,4,1,0,80,0,0
104646,-92.97499,4,1,0,80,0,0
104735,-93.12567,4,1,0,80,0,0
104911,-93.42437,4,1,0,80,0,0
104999,-93.57407,4,1,0,80,0,0
105087,-93.72403,4,1,0,80,0,0
105176,-93.87592,4,1,0,80,0,0
105264,-94.02635,4,1,0,80,0,0
105440,-94.32793,4,1,0,80,0,0
105617,-94.6322,4,1,0,80,0,0
105970,-95.24195,4,1,0,80,0,0
106058,-95.39458,4,1,0,80,0,0
106146,-95.54743,4,1,0,80,0,0
106235,-95.70228,4,1,0,80,0,0
106323,-95.855644,4,1,0,80,0,0
106411,-96.00925,4,1,0,80,0,0
106499,-96.163086,4,1,0,80,0,0
106587,-96.31719,4,1,0,80,0,0
106676,-96.473274,4,1,0,80,0,0
106764,-96.62788,4,1,0,80,0,0
106852,-96.782715,4,1,0,80,0,0
106940,-96.937805,4,1,0,80,0,0
107029,-97.0949,4,1,0,80,0,0
107205,-97.406334,4,1,0,80,0,0
107382,-97.72052,4,1,0,80,0,0
107558,-98.03396,4,1,0,80,0,0
107735,-98.35019,4,1,0,80,0,0
107911,-98.66564,4,1,0,80,0,0
108087,-98.98209,4,1,0,80,0,0
108264,-99.30138,4,1,0,80,0,0
108440,-99.61989,4,1,0,80,0,0
108793,-100.26178,4,1,0,80,0,0
108882,-100.42426,4,1,0,80,0,0
108970,-100.58519,4,1,0,80,0,0
109058,-100.746376,4,1,0,80,0,0
109146,-100.90781,4,1,0,80,0,0
109323,-101.2333,4,1,0,80,0,0
109499,-101.558,4,1,0,80,0,0
109676,-101.88559,4,1,0,80,0,0
109852,-102.21238,4,1,0,80,0,0
110029,-102.54209,4,1,0,80,0,0
110205,-102.87099,4,1,0,80,0,0
110293,-103.03583,4,1,0,80,0,0
110382,-103.202805,4,1,0,80,0,0
110470,-103.368195,4,1,0,80,0,0
110558,-103.53383,4,1,0,80,0,0
110735,-103.86779,4,1,0,80,0,0
110911,-104.20094,4,1,0,80,0,0
111087,-104.535164,4,1,0,80,0,0
111264,-104.87235,4,1,0,80,0,0
111440,-105.208725,4,1,0,80,0,0
111617,-105.548096,4,1,0,80,0,0
111705,-105.717224,4,1,0,80,0,0
111793,-105.88664,4,1,0,80,0,0
111882,-106.058235,4,1,0,80,0,0
111970,-106.22819,4,1,0,80,0,0
112146,-106.5689,4,1,0,80,0,0
112323,-106.91267,4,1,0,80,0,0
112499,-107.25558,4,1,0,80,0,0
112676,-107.60155,4,1,0,80,0,0
112852,-107.94668,4,1,0,80,0,0
113029,-108.294876,4,1,0,80,0,0
113117,-108.468414,4,1,0,80,0,0
113205,-108.64223,4,1,0,80,0,0
113293,-108.81631,4,1,0,80,0,0
113382,-108.99267,4,1,0,80,0,0
113558,-109.34225,4,1,0,80,0,0
113735,-109.694954,4,1,0,80,0,0
114087,-110.399765,4,1,0,80,0,0
114440,-111.111115,4,1,0,75,0,0

[HitObjects]
201,165,1500,5,0,0:0:0:0:
201,165,1676,1,8,0:0:0:0:
201,165,1852,1,0,0:0:0:0:
201,165,2029,1,8,0:0:0:0:
201,165,2205,1,0,0:0:0:0:
201,165,2382,1,8,0:0:0:0:
201,165,2558,1,0,0:0:0:0:
201,165,2735,1,8,0:0:0:0:
201,165,2911,1,0,0:0:0:0:
201,165,3088,1,8,0:0:0:0:
201,165,3264,1,0,0:0:0:0:
201,165,3441,1,8,0:0:0:0:
201,165,3617,1,0,0:0:0:0:
201,165,3794,1,8,0:0:0:0:
201,165,3970,1,0,0:0:0:0:
201,165,4147,1,8,0:0:0:0:
201,165,4323,1,0,0:0:0:0:
201,165,4500,1,8,0:0:0:0:
201,165,4676,1,0,0:0:0:0:
201,165,4853,1,8,0:0:0:0:
201,165,5029,1,0,0:0:0:0:
201,165,5206,1,8,0:0:0:0:
201,165,5382,1,0,0:0:0:0:
201,165,5559,1,8,0:0:0:0:
201,165,5735,1,0,0:0:0:0:
201,165,5912,1,8,0:0:0:0:
201,165,6088,1,0,0:0:0:0:
201,165,6265,1,8,0:0:0:0:
201,165,6441,1,0,0:0:0:0:
201,165,6618,1,8,0:0:0:0:
201,165,6794,1,0,0:0:0:0:
201,165,6971,1,8,0:0:0:0:
201,165,7147,1,0,0:0:0:0:
151,153,7324,1,8,0:0:0:0:
201,165,7500,1,0,0:0:0:0:
266,165,7677,1,8,0:0:0:0:
268,138,7853,1,0,0:0:0:0:
276,155,8030,1,8,0:0:0:0:
268,138,8206,1,0,0:0:0:0:
230,158,8383,1,0,0:0:0:0:
268,138,8559,1,0,0:0:0:0:
151,153,8736,1,8,0:0:0:0:
268,138,8912,1,0,0:0:0:0:
217,140,9089,1,8,0:0:0:0:
223,165,9265,1,0,0:0:0:0:
217,140,9442,1,8,0:0:0:0:
223,165,9618,1,8,0:0:0:0:
217,140,9795,1,0,0:0:0:0:
223,165,9971,1,0,0:0:0:0:
151,153,10148,1,8,0:0:0:0:
232,146,10324,1,0,0:0:0:0:
192,140,10501,1,8,0:0:0:0:
232,146,10677,1,0,0:0:0:0:
192,140,10854,1,8,0:0:0:0:
232,146,11030,1,0,0:0:0:0:
192,140,11207,1,0,0:0:0:0:
232,146,11383,1,0,0:0:0:0:
151,153,11560,1,8,0:0:0:0:
232,146,11736,1,0,0:0:0:0:
192,140,11913,1,8,0:0:0:0:
232,146,12089,1,0,0:0:0:0:
192,140,12266,1,0,0:0:0:0:
232,146,12442,1,8,0:0:0:0:
232,146,12795,1,8,0:0:0:0:
155,140,12883,1,0,0:0:0:0:
232,146,12972,1,8,0:0:0:0:
232,146,13060,1,8,0:0:0:0:
232,146,13148,1,0,0:0:0:0:
204,144,13236,1,8,0:0:0:0:
155,140,13325,1,0,0:0:0:0:
204,144,13413,1,0,0:0:0:0:
155,140,13501,1,8,0:0:0:0:
204,144,13589,1,0,0:0:0:0:
155,140,13678,1,8,0:0:0:0:
179,167,13766,1,8,0:0:0:0:
204,144,13854,1,0,0:0:0:0:
165,150,14031,1,8,0:0:0:0:
155,140,14207,1,0,0:0:0:0:
137,141,14295,1,8,0:0:0:0:
137,141,14384,1,0,0:0:0:0:
137,141,14560,1,8,0:0:0:0:
165,151,14648,1,8,0:0:0:0:
165,151,14737,1,0,0:0:0:0:
170,159,14825,1,8,0:0:0:0:
165,150,14913,1,0,0:0:0:0:
165,150,15089,1,0,0:0:0:0:
165,151,15266,1,8,0:0:0:0:
175,134,15442,1,0,0:0:0:0:
165,151,15619,1,8,0:0:0:0:
194,124,15707,1,8,0:0:0:0:
194,124,15795,1,0,0:0:0:0:
194,124,15884,1,0,0:0:0:0:
194,124,15972,1,8,0:0:0:0:
175,134,16060,1,8,0:0:0:0:
194,124,16148,1,0,0:0:0:0:
175,134,16237,1,0,0:0:0:0:
194,124,16325,1,8,0:0:0:0:
175,134,16413,1,0,0:0:0:0:
194,124,16501,1,8,0:0:0:0:
182,167,16590,1,8,0:0:0:0:
194,124,16678,1,0,0:0:0:0:
194,124,16854,1,8,0:0:0:0:
144,72,17031,1,4,0:0:0:0:
202,150,17207,1,8,0:0:0:0:
208,146,17384,1,4,0:0:0:0:
208,146,17560,1,8,0:0:0:0:
208,146,17737,1,4,0:0:0:0:
208,146,17913,1,0,0:0:0:0:
208,146,18090,1,8,0:0:0:0:
203,170,18266,1,0,0:0:0:0:
208,146,18443,1,8,0:0:0:0:
191,163,18531,1,0,0:0:0:0:
191,163,18619,1,8,0:0:0:0:
191,163,18708,1,8,0:0:0:0:
191,163,18796,1,0,0:0:0:0:
191,163,18972,1,8,0:0:0:0:
191,163,19149,1,0,0:0:0:0:
191,163,19325,1,8,0:0:0:0:
191,163,19502,1,0,0:0:0:0:
191,163,19678,1,0,0:0:0:0:
191,163,19855,1,8,0:0:0:0:
191,163,19943,1,8,0:0:0:0:
191,163,20031,1,0,0:0:0:0:
191,163,20120,1,8,0:0:0:0:
191,163,20208,1,0,0:0:0:0:
191,163,20384,1,0,0:0:0:0:
191,163,20561,1,8,0:0:0:0:
214,177,20737,1,0,0:0:0:0:
214,177,20914,1,8,0:0:0:0:
214,177,21090,1,0,0:0:0:0:
214,177,21267,1,8,0:0:0:0:
214,177,21355,1,0,0:0:0:0:
214,177,21443,1,8,0:0:0:0:
214,177,21532,5,8,0:0:0:0:
214,177,21620,1,0,0:0:0:0:
214,177,21796,1,0,0:0:0:0:
214,177,21973,1,8,0:0:0:0:
214,177,22149,1,0,0:0:0:0:
214,177,22326,1,8,0:0:0:0:
214,177,22502,1,0,0:0:0:0:
252,104,22679,5,8,0:0:0:0:
252,104,22767,1,8,0:0:0:0:
252,104,22855,1,0,0:0:0:0:
252,104,22943,1,8,0:0:0:0:
252,104,23032,1,0,0:0:0:0:
252,104,23208,1,8,0:0:0:0:
252,104,23385,1,4,0:0:0:0:
252,104,23738,1,8,0:0:0:0:
252,104,24091,1,8,0:0:0:0:
183,129,24179,1,0,0:0:0:0:
183,129,24267,1,8,0:0:0:0:
183,129,24355,1,8,0:0:0:0:
183,129,24444,1,0,0:0:0:0:
221,159,24532,1,0,0:0:0:0:
183,129,24620,1,8,0:0:0:0:
221,159,24708,1,0,0:0:0:0:
183,129,24797,1,8,0:0:0:0:
221,159,24885,1,0,0:0:0:0:
183,129,24973,1,8,0:0:0:0:
183,129,25061,1,8,0:0:0:0:
183,129,25150,1,0,0:0:0:0:
183,129,25326,1,0,0:0:0:0:
183,129,25503,1,8,0:0:0:0:
183,129,25591,1,8,0:0:0:0:
183,129,25679,1,0,0:0:0:0:
183,129,25856,1,8,0:0:0:0:
183,129,25944,1,0,0:0:0:0:
183,129,26032,1,8,0:0:0:0:
200,115,26120,1,8,0:0:0:0:
198,131,26209,1,0,0:0:0:0:
183,129,26385,1,0,0:0:0:0:
251,104,26562,1,8,0:0:0:0:
251,104,26915,1,8,0:0:0:0:
183,129,27003,1,0,0:0:0:0:
183,129,27091,1,0,0:0:0:0:
183,129,27179,1,0,0:0:0:0:
183,129,27268,1,8,0:0:0:0:
222,143,27356,1,8,0:0:0:0:
183,129,27444,1,0,0:0:0:0:
222,143,27532,1,0,0:0:0:0:
183,129,27621,1,8,0:0:0:0:
222,143,27709,1,0,0:0:0:0:
183,129,27797,1,8,0:0:0:0:
183,129,27885,1,8,0:0:0:0:
183,129,27974,1,0,0:0:0:0:
183,129,28150,1,8,0:0:0:0:
251,104,28327,1,4,0:0:0:0:
251,104,28503,1,8,0:0:0:0:
251,104,28679,1,4,0:0:0:0:
251,104,28856,1,8,0:0:0:0:
251,104,29032,1,4,0:0:0:0:
222,143,29209,1,0,0:0:0:0:
251,104,29385,1,8,0:0:0:0:
222,143,29562,1,0,0:0:0:0:
251,104,29738,1,8,0:0:0:0:
251,104,29827,1,8,0:0:0:0:
251,104,29915,1,8,0:0:0:0:
251,104,30003,1,8,0:0:0:0:
251,104,30091,1,0,0:0:0:0:
251,104,30268,1,0,0:0:0:0:
251,104,30444,1,8,0:0:0:0:
251,104,30621,1,0,0:0:0:0:
251,104,30797,1,8,0:0:0:0:
251,104,30974,1,0,0:0:0:0:
251,104,31150,1,8,0:0:0:0:
251,104,31239,1,0,0:0:0:0:
251,104,31327,1,8,0:0:0:0:
251,104,31415,1,8,0:0:0:0:
251,104,31503,1,0,0:0:0:0:
251,104,31680,1,0,0:0:0:0:
251,104,31856,1,8,0:0:0:0:
251,104,32033,1,0,0:0:0:0:
251,104,32209,1,8,0:0:0:0:
251,104,32386,1,0,0:0:0:0:
251,104,32562,1,8,0:0:0:0:
251,104,32651,1,8,0:0:0:0:
251,104,32739,1,8,0:0:0:0:
251,104,32827,1,8,0:0:0:0:
251,104,32915,1,0,0:0:0:0:
251,104,33092,1,0,0:0:0:0:
251,104,33268,1,8,0:0:0:0:
251,104,33445,1,0,0:0:0:0:
251,104,33621,1,8,0:0:0:0:
251,104,33798,1,0,0:0:0:0:
251,104,33974,1,8,0:0:0:0:
251,104,34063,1,0,0:0:0:0:
251,104,34151,1,8,0:0:0:0:
251,104,34239,1,8,0:0:0:0:
251,104,34327,1,0,0:0:0:0:
251,104,34504,1,8,0:0:0:0:
251,104,34680,1,0,0:0:0:0:
251,104,35033,1,0,0:0:0:0:
251,104,35151,1,8,0:0:0:0:
251,104,35269,1,0,0:0:0:0:
251,104,35386,1,8,0:0:0:0:
194,107,35504,1,8,0:0:0:0:
194,107,35622,1,8,0:0:0:0:
251,104,35739,1,0,0:0:0:0:
194,107,35857,1,0,0:0:0:0:
194,107,35975,1,0,0:0:0:0:
251,104,36092,1,8,0:0:0:0:
251,104,36210,1,0,0:0:0:0:
251,104,36328,1,8,0:0:0:0:
251,104,36445,1,8,0:0:0:0:
194,107,36563,1,0,0:0:0:0:
188,143,36681,1,0,0:0:0:0:
251,104,36798,1,8,0:0:0:0:
251,104,36916,1,0,0:0:0:0:
251,104,37034,1,0,0:0:0:0:
251,104,37151,1,0,0:0:0:0:
194,107,37269,1,8,0:0:0:0:
251,104,37386,1,0,0:0:0:0:
251,104,37504,1,8,0:0:0:0:
194,107,37622,1,8,0:0:0:0:
251,104,37739,1,0,0:0:0:0:
251,104,37857,1,8,0:0:0:0:
194,107,37975,1,8,0:0:0:0:
194,107,38092,1,8,0:0:0:0:
251,104,38210,1,0,0:0:0:0:
251,104,38328,1,0,0:0:0:0:
251,104,38445,1,8,0:0:0:0:
251,104,38563,1,0,0:0:0:0:
194,107,38681,1,0,0:0:0:0:
188,142,38798,1,0,0:0:0:0:
251,104,38916,1,8,0:0:0:0:
251,104,39034,1,8,0:0:0:0:
251,104,39151,1,8,0:0:0:0:
251,104,39269,1,8,0:0:0:0:
194,107,39387,1,0,0:0:0:0:
203,100,39504,1,0,0:0:0:0:
251,104,39622,1,8,0:0:0:0:
237,143,39740,1,8,0:0:0:0:
237,143,39857,1,0,0:0:0:0:
237,143,39975,1,8,0:0:0:0:
194,107,40093,1,0,0:0:0:0:
237,143,40210,1,0,0:0:0:0:
237,143,40328,1,8,0:0:0:0:
194,107,40446,1,0,0:0:0:0:
237,143,40563,1,8,0:0:0:0:
237,143,40681,1,8,0:0:0:0:
194,107,40799,1,0,0:0:0:0:
194,107,40916,1,8,0:0:0:0:
237,143,41034,1,0,0:0:0:0:
237,143,41387,1,8,0:0:0:0:
237,143,41740,1,0,0:0:0:0:
223,146,41975,1,0,0:0:0:0:
237,143,42093,1,8,0:0:0:0:
247,176,42328,1,8,0:0:0:0:
237,143,42446,1,0,0:0:0:0:
237,143,42564,1,0,0:0:0:0:
237,143,42681,1,0,0:0:0:0:
237,143,42799,1,8,0:0:0:0:
223,146,43034,1,8,0:0:0:0:
223,146,43152,1,0,0:0:0:0:
223,146,43387,1,0,0:0:0:0:
223,146,43505,1,8,0:0:0:0:
223,146,43858,1,0,0:0:0:0:
223,146,43976,1,0,0:0:0:0:
223,146,44093,1,0,0:0:0:0:
223,146,44211,1,8,0:0:0:0:
194,107,44329,1,8,0:0:0:0:
122,212,44446,1,8,0:0:0:0:
223,146,44564,1,0,0:0:0:0:
194,107,44682,1,0,0:0:0:0:
223,146,44799,1,8,0:0:0:0:
223,146,44917,1,8,0:0:0:0:
194,107,45035,1,0,0:0:0:0:
132,157,45152,1,0,0:0:0:0:
223,146,45270,1,0,0:0:0:0:
223,146,45388,1,8,0:0:0:0:
223,146,45505,1,8,0:0:0:0:
223,146,45623,1,8,0:0:0:0:
194,107,45741,1,0,0:0:0:0:
223,146,45858,1,8,0:0:0:0:
223,146,45976,1,0,0:0:0:0:
183,133,46211,1,0,0:0:0:0:
223,146,46329,1,8,0:0:0:0:
223,146,46682,1,8,0:0:0:0:
223,146,46799,1,8,0:0:0:0:
223,146,46917,1,8,0:0:0:0:
223,146,47035,1,0,0:0:0:0:
183,133,47152,1,0,0:0:0:0:
169,192,47270,1,8,0:0:0:0:
223,146,47388,1,0,0:0:0:0:
183,133,47505,1,8,0:0:0:0:
223,146,47623,1,8,0:0:0:0:
223,146,47741,1,8,0:0:0:0:
158,161,47858,1,0,0:0:0:0:
158,161,47976,1,8,0:0:0:0:
223,146,48094,1,0,0:0:0:0:
183,133,48211,1,0,0:0:0:0:
223,146,48329,1,0,0:0:0:0:
223,146,48447,1,8,0:0:0:0:
183,133,48564,1,0,0:0:0:0:
223,146,48682,1,8,0:0:0:0:
223,146,48800,1,0,0:0:0:0:
183,133,48917,1,0,0:0:0:0:
223,146,49035,1,8,0:0:0:0:
223,146,49153,1,8,0:0:0:0:
183,133,49270,1,8,0:0:0:0:
183,133,49388,1,8,0:0:0:0:
183,133,49506,1,0,0:0:0:0:
241,158,49623,1,8,0:0:0:0:
241,158,49741,1,8,0:0:0:0:
241,158,49859,1,0,0:0:0:0:
183,133,49976,1,8,0:0:0:0:
234,157,50094,1,0,0:0:0:0:
240,158,50212,1,0,0:0:0:0:
183,133,50329,1,0,0:0:0:0:
240,158,50447,1,8,0:0:0:0:
241,158,50565,1,8,0:0:0:0:
183,133,50682,1,0,0:0:0:0:
231,143,50800,1,0,0:0:0:0:
231,143,50918,1,8,0:0:0:0:
183,133,51035,1,0,0:0:0:0:
231,143,51153,1,8,0:0:0:0:
231,143,51271,1,8,0:0:0:0:
208,164,51388,1,0,0:0:0:0:
208,164,51506,1,8,0:0:0:0:
231,143,51624,1,0,0:0:0:0:
183,133,51741,1,0,0:0:0:0:
231,143,51859,1,0,0:0:0:0:
231,143,51977,1,8,0:0:0:0:
183,133,52094,1,0,0:0:0:0:
231,143,52212,1,8,0:0:0:0:
231,143,52330,1,0,0:0:0:0:
258,147,52683,1,8,0:0:0:0:
258,147,53036,1,0,0:0:0:0:
245,131,53271,1,0,0:0:0:0:
258,147,53389,1,8,0:0:0:0:
154,192,53624,1,8,0:0:0:0:
258,147,53742,1,0,0:0:0:0:
258,147,53859,1,0,0:0:0:0:
258,147,53977,1,0,0:0:0:0:
219,162,54095,1,8,0:0:0:0:
151,148,54330,1,8,0:0:0:0:
245,131,54448,1,0,0:0:0:0:
245,131,54683,1,0,0:0:0:0:
245,131,54801,1,8,0:0:0:0:
245,131,55154,1,0,0:0:0:0:
245,131,55271,1,0,0:0:0:0:
245,131,55389,1,0,0:0:0:0:
245,131,55506,1,8,0:0:0:0:
182,133,55624,1,0,0:0:0:0:
245,131,55742,1,0,0:0:0:0:
245,131,55859,1,8,0:0:0:0:
182,133,55977,1,0,0:0:0:0:
245,131,56095,1,8,0:0:0:0:
245,131,56212,1,8,0:0:0:0:
190,91,56330,1,0,0:0:0:0:
190,91,56448,1,0,0:0:0:0:
245,131,56565,1,8,0:0:0:0:
182,133,56683,1,0,0:0:0:0:
245,131,56801,1,8,0:0:0:0:
245,131,56918,1,8,0:0:0:0:
182,133,57036,1,0,0:0:0:0:
245,131,57154,1,8,0:0:0:0:
245,131,57271,1,0,0:0:0:0:
245,131,57624,1,0,0:0:0:0:
245,131,57977,1,8,0:0:0:0:
183,130,58066,1,8,0:0:0:0:
183,130,58154,1,8,0:0:0:0:
183,130,58242,1,8,0:0:0:0:
183,130,58330,1,0,0:0:0:0:
220,141,58419,1,0,0:0:0:0:
183,130,58507,1,8,0:0:0:0:
220,141,58595,1,0,0:0:0:0:
183,130,58683,1,8,0:0:0:0:
220,141,58772,1,8,0:0:0:0:
233,148,58860,1,0,0:0:0:0:
233,148,58948,1,8,0:0:0:0:
233,148,59036,1,0,0:0:0:0:
233,148,59213,1,8,0:0:0:0:
233,148,59389,1,0,0:0:0:0:
233,148,59478,1,8,0:0:0:0:
233,148,59566,1,0,0:0:0:0:
233,148,59742,1,8,0:0:0:0:
233,148,59831,1,0,0:0:0:0:
233,148,59919,1,8,0:0:0:0:
220,141,60007,1,8,0:0:0:0:
233,148,60095,1,0,0:0:0:0:
233,148,60272,1,0,0:0:0:0:
233,148,60448,1,8,0:0:0:0:
200,141,60801,1,0,0:0:0:0:
200,141,60890,1,0,0:0:0:0:
200,141,60978,1,8,0:0:0:0:
200,141,61066,1,8,0:0:0:0:
200,141,61154,1,0,0:0:0:0:
220,141,61243,1,8,0:0:0:0:
200,141,61331,1,0,0:0:0:0:
220,141,61419,1,0,0:0:0:0:
200,141,61507,1,8,0:0:0:0:
220,141,61596,1,8,0:0:0:0:
220,141,61684,1,0,0:0:0:0:
200,141,61772,1,8,0:0:0:0:
200,141,61860,1,0,0:0:0:0:
200,141,62037,1,8,0:0:0:0:
200,141,62213,1,4,0:0:0:0:
200,141,62390,1,8,0:0:0:0:
200,141,62566,1,4,0:0:0:0:
200,141,62743,1,8,0:0:0:0:
200,141,62919,1,4,0:0:0:0:
200,141,63096,1,8,0:0:0:0:
200,141,63272,1,8,0:0:0:0:
200,141,63625,5,8,0:0:0:0:
200,141,63713,1,8,0:0:0:0:
200,141,63802,1,8,0:0:0:0:
200,141,63890,1,8,0:0:0:0:
200,141,63978,1,0,0:0:0:0:
200,141,64155,1,0,0:0:0:0:
200,141,64331,1,8,0:0:0:0:
200,141,64508,1,0,0:0:0:0:
200,141,64684,1,8,0:0:0:0:
200,141,64861,1,0,0:0:0:0:
200,141,65037,1,8,0:0:0:0:
237,139,65125,1,0,0:0:0:0:
237,139,65214,1,8,0:0:0:0:
237,139,65302,1,8,0:0:0:0:
237,139,65390,1,0,0:0:0:0:
237,139,65567,1,0,0:0:0:0:
237,139,65743,1,8,0:0:0:0:
185,135,65920,1,0,0:0:0:0:
237,139,66096,1,8,0:0:0:0:
185,154,66273,1,0,0:0:0:0:
243,146,66449,1,8,0:0:0:0:
243,146,66537,1,8,0:0:0:0:
243,146,66626,1,0,0:0:0:0:
243,146,66714,1,8,0:0:0:0:
243,146,66802,1,0,0:0:0:0:
243,146,66979,1,0,0:0:0:0:
243,146,67155,1,8,0:0:0:0:
243,146,67332,1,0,0:0:0:0:
243,146,67508,1,8,0:0:0:0:
243,146,67685,1,0,0:0:0:0:
243,146,67861,1,8,0:0:0:0:
243,146,67949,1,0,0:0:0:0:
243,146,68038,1,8,0:0:0:0:
243,146,68126,1,8,0:0:0:0:
243,146,68214,1,0,0:0:0:0:
243,146,68391,1,0,0:0:0:0:
243,146,68567,1,0,0:0:0:0:
243,146,68743,1,8,0:0:0:0:
243,146,68920,1,8,0:0:0:0:
243,146,69273,1,8,0:0:0:0:
243,146,69449,1,0,0:0:0:0:
243,146,69626,1,8,0:0:0:0:
243,146,69802,1,0,0:0:0:0:
243,146,69979,1,8,0:0:0:0:
243,146,70155,1,0,0:0:0:0:
243,146,70332,1,8,0:0:0:0:
243,146,70508,1,0,0:0:0:0:
243,146,70685,1,8,0:0:0:0:
243,146,70861,1,0,0:0:0:0:
243,146,71038,1,8,0:0:0:0:
243,146,71214,1,0,0:0:0:0:
243,146,71391,1,8,0:0:0:0:
243,146,71567,1,0,0:0:0:0:
243,146,71744,1,8,0:0:0:0:
243,146,71920,1,0,0:0:0:0:
243,146,72097,1,8,0:0:0:0:
243,146,72273,1,0,0:0:0:0:
243,146,72450,1,8,0:0:0:0:
243,146,72626,1,0,0:0:0:0:
243,146,72803,1,8,0:0:0:0:
243,146,72979,1,0,0:0:0:0:
243,146,73156,1,8,0:0:0:0:
243,146,73332,1,0,0:0:0:0:
243,146,73509,1,8,0:0:0:0:
243,146,73862,1,0,0:0:0:0:
243,146,74215,1,0,0:0:0:0:
182,141,74568,1,8,0:0:0:0:
182,141,74921,1,0,0:0:0:0:
182,141,75097,1,8,0:0:0:0:
182,141,75274,1,0,0:0:0:0:
182,141,75450,1,8,0:0:0:0:
182,141,75627,1,0,0:0:0:0:
182,141,75803,1,8,0:0:0:0:
182,141,75980,1,0,0:0:0:0:
155,140,76156,1,8,0:0:0:0:
155,140,76333,1,0,0:0:0:0:
155,140,76509,1,8,0:0:0:0:
155,140,76686,1,0,0:0:0:0:
155,140,76862,1,8,0:0:0:0:
155,140,77039,1,0,0:0:0:0:
155,140,77215,1,8,0:0:0:0:
155,140,77392,1,8,0:0:0:0:
155,140,77568,1,0,0:0:0:0:
155,140,77745,1,8,0:0:0:0:
155,140,77921,1,8,0:0:0:0:
183,131,78098,1,0,0:0:0:0:
183,131,78274,1,8,0:0:0:0:
183,131,78451,1,0,0:0:0:0:
183,131,78627,1,8,0:0:0:0:
183,131,78804,1,0,0:0:0:0:
183,131,78980,1,8,0:0:0:0:
183,131,79157,1,0,0:0:0:0:
183,131,79333,1,8,0:0:0:0:
166,130,79510,1,0,0:0:0:0:
166,130,79686,1,8,0:0:0:0:
166,130,79863,1,0,0:0:0:0:
407,259,80039,5,8,0:0:0:0:
407,259,80157,1,0,0:0:0:0:
407,259,80216,1,8,0:0:0:0:
407,259,80392,1,0,0:0:0:0:
407,259,80569,1,12,0:0:0:0:
129,186,80745,1,0,0:0:0:0:
280,188,80833,1,0,0:0:0:0:
129,186,80922,1,8,0:0:0:0:
129,186,81010,1,0,0:0:0:0:
129,186,81186,1,0,0:0:0:0:
166,130,81275,1,8,0:0:0:0:
166,130,81451,1,8,0:0:0:0:
268,184,81539,1,0,0:0:0:0:
129,186,81628,1,8,0:0:0:0:
129,186,81804,1,8,0:0:0:0:
216,158,81981,1,0,0:0:0:0:
216,158,82157,1,0,0:0:0:0:
216,158,82333,1,8,0:0:0:0:
216,158,82422,1,0,0:0:0:0:
216,158,82598,1,0,0:0:0:0:
166,130,82686,1,0,0:0:0:0:
166,130,82863,1,0,0:0:0:0:
228,145,82951,1,0,0:0:0:0:
166,130,83039,1,8,0:0:0:0:
166,130,83216,1,8,0:0:0:0:
166,130,83392,1,0,0:0:0:0:
166,130,83569,1,0,0:0:0:0:
166,130,83745,1,8,0:0:0:0:
179,120,83834,1,0,0:0:0:0:
179,120,83922,1,8,0:0:0:0:
179,120,84010,1,8,0:0:0:0:
179,120,84098,1,0,0:0:0:0:
229,146,84187,1,0,0:0:0:0:
145,137,84275,1,0,0:0:0:0:
229,146,84363,1,0,0:0:0:0:
229,146,84451,1,8,0:0:0:0:
229,146,84540,1,0,0:0:0:0:
145,137,84628,1,8,0:0:0:0:
145,137,84716,1,8,0:0:0:0:
145,137,84804,1,0,0:0:0:0:
234,149,84981,1,0,0:0:0:0:
195,127,85157,1,8,0:0:0:0:
191,145,85246,1,0,0:0:0:0:
191,145,85510,1,0,0:0:0:0:
198,151,85687,1,0,0:0:0:0:
198,151,85775,1,0,0:0:0:0:
191,145,85863,1,8,0:0:0:0:
198,149,86040,1,0,0:0:0:0:
191,145,86216,1,8,0:0:0:0:
192,125,86393,1,0,0:0:0:0:
195,125,86481,1,0,0:0:0:0:
192,125,86569,1,8,0:0:0:0:
192,125,86658,1,0,0:0:0:0:
192,125,86834,1,0,0:0:0:0:
192,125,86922,1,8,0:0:0:0:
192,125,87099,1,0,0:0:0:0:
228,145,87187,1,0,0:0:0:0:
192,125,87275,1,8,0:0:0:0:
192,125,87452,1,0,0:0:0:0:
192,125,87628,1,8,0:0:0:0:
192,125,87805,1,0,0:0:0:0:
192,125,87981,1,8,0:0:0:0:
192,125,88070,1,0,0:0:0:0:
192,125,88246,1,0,0:0:0:0:
192,125,88334,1,0,0:0:0:0:
337,175,88511,1,8,0:0:0:0:
192,125,88599,1,0,0:0:0:0:
337,175,88687,1,8,0:0:0:0:
128,138,88864,1,0,0:0:0:0:
128,138,89040,1,8,0:0:0:0:
151,103,89217,1,0,0:0:0:0:
151,103,89393,1,8,0:0:0:0:
151,103,89481,1,8,0:0:0:0:
151,103,89570,1,0,0:0:0:0:
151,103,89658,1,8,0:0:0:0:
151,103,89746,1,0,0:0:0:0:
228,145,89834,1,0,0:0:0:0:
151,103,89923,1,8,0:0:0:0:
228,145,90011,1,0,0:0:0:0:
151,103,90099,1,8,0:0:0:0:
228,145,90187,1,0,0:0:0:0:
151,103,90364,1,0,0:0:0:0:
151,103,90452,1,8,0:0:0:0:
337,175,90540,1,8,0:0:0:0:
155,167,90629,1,0,0:0:0:0:
167,141,90805,1,8,0:0:0:0:
149,164,90893,1,0,0:0:0:0:
151,103,91158,1,0,0:0:0:0:
184,141,91335,1,0,0:0:0:0:
149,164,91511,1,12,0:0:0:0:
149,164,91688,1,0,0:0:0:0:
149,164,91776,1,0,0:0:0:0:
149,164,91864,1,8,0:0:0:0:
236,146,91952,1,8,0:0:0:0:
169,80,92041,1,8,0:0:0:0:
336,202,92129,1,8,0:0:0:0:
336,202,92217,1,0,0:0:0:0:
169,80,92305,1,0,0:0:0:0:
336,202,92394,1,0,0:0:0:0:
169,80,92482,1,0,0:0:0:0:
336,202,92570,1,8,0:0:0:0:
236,146,92658,1,8,0:0:0:0:
169,80,92747,1,0,0:0:0:0:
336,202,92835,1,0,0:0:0:0:
336,202,92923,1,8,0:0:0:0:
169,80,93011,1,0,0:0:0:0:
336,202,93100,1,0,0:0:0:0:
169,80,93188,1,0,0:0:0:0:
336,202,93276,1,8,0:0:0:0:
406,218,93453,1,0,0:0:0:0:
406,218,93541,1,8,0:0:0:0:
178,161,93629,1,8,0:0:0:0:
265,157,93806,1,8,0:0:0:0:
265,157,93894,1,0,0:0:0:0:
178,161,93982,1,8,0:0:0:0:
178,161,94159,1,0,0:0:0:0:
178,161,94335,1,8,0:0:0:0:
169,80,94423,1,0,0:0:0:0:
208,164,94512,1,8,0:0:0:0:
208,164,94600,1,8,0:0:0:0:
178,120,94688,1,0,0:0:0:0:
236,146,94776,1,0,0:0:0:0:
169,80,94865,1,0,0:0:0:0:
178,120,94953,1,0,0:0:0:0:
178,120,95041,1,8,0:0:0:0:
169,80,95129,1,0,0:0:0:0:
236,146,95218,1,8,0:0:0:0:
169,80,95306,1,8,0:0:0:0:
178,120,95394,1,0,0:0:0:0:
236,146,95482,1,0,0:0:0:0:
169,80,95570,1,8,0:0:0:0:
178,120,95659,1,0,0:0:0:0:
123,129,95747,1,8,0:0:0:0:
169,80,95835,1,8,0:0:0:0:
236,146,95923,1,8,0:0:0:0:
169,80,96012,1,8,0:0:0:0:
169,80,96100,1,0,0:0:0:0:
123,129,96276,1,0,0:0:0:0:
155,102,96453,1,8,0:0:0:0:
123,129,96541,1,0,0:0:0:0:
123,129,96806,1,0,0:0:0:0:
157,91,96982,1,0,0:0:0:0:
188,131,97159,1,8,0:0:0:0:
157,91,97247,1,0,0:0:0:0:
188,131,97512,1,8,0:0:0:0:
103,137,97600,1,8,0:0:0:0:
169,80,97688,1,0,0:0:0:0:
188,131,97777,1,0,0:0:0:0:
188,131,97865,1,8,0:0:0:0:
169,80,97953,1,8,0:0:0:0:
236,146,98041,1,0,0:0:0:0:
169,80,98130,1,8,0:0:0:0:
188,131,98218,1,0,0:0:0:0:
99,137,98306,1,0,0:0:0:0:
169,80,98394,1,0,0:0:0:0:
188,131,98483,1,0,0:0:0:0:
188,131,98571,1,8,0:0:0:0:
169,80,98659,1,0,0:0:0:0:
236,146,98747,1,8,0:0:0:0:
169,80,98836,1,8,0:0:0:0:
188,131,98924,1,8,0:0:0:0:
122,129,99012,1,0,0:0:0:0:
311,165,99189,1,0,0:0:0:0:
188,131,99277,1,8,0:0:0:0:
311,165,99453,1,8,0:0:0:0:
311,165,99542,1,8,0:0:0:0:
188,131,99630,1,0,0:0:0:0:
323,189,99806,1,0,0:0:0:0:
323,189,99983,1,8,0:0:0:0:
323,189,100071,1,0,0:0:0:0:
323,189,100159,1,8,0:0:0:0:
323,189,100248,1,8,0:0:0:0:
323,189,100336,1,0,0:0:0:0:
169,80,100424,1,0,0:0:0:0:
323,189,100512,1,0,0:0:0:0:
169,80,100601,1,0,0:0:0:0:
323,189,100689,1,8,0:0:0:0:
169,80,100777,1,8,0:0:0:0:
249,171,100865,1,0,0:0:0:0:
323,189,100954,1,0,0:0:0:0:
323,189,101042,1,0,0:0:0:0:
169,80,101130,1,0,0:0:0:0:
249,171,101218,1,8,0:0:0:0:
169,80,101307,1,0,0:0:0:0:
249,171,101395,1,8,0:0:0:0:
169,80,101483,1,8,0:0:0:0:
276,155,101571,1,0,0:0:0:0:
334,155,101660,1,0,0:0:0:0:
276,155,101748,1,8,0:0:0:0:
276,155,101836,1,0,0:0:0:0:
363,147,101924,1,8,0:0:0:0:
363,147,102101,1,8,0:0:0:0:
363,147,102189,1,0,0:0:0:0:
363,147,102454,1,0,0:0:0:0:
363,147,102630,1,0,0:0:0:0:
363,147,102718,1,0,0:0:0:0:
363,147,102807,1,8,0:0:0:0:
363,147,102983,1,0,0:0:0:0:
363,147,103071,1,8,0:0:0:0:
363,147,103160,1,8,0:0:0:0:
347,158,103248,1,0,0:0:0:0:
157,143,103424,1,0,0:0:0:0:
157,143,103513,1,8,0:0:0:0:
347,158,103601,1,0,0:0:0:0:
72,135,103689,1,8,0:0:0:0:
347,158,103777,1,0,0:0:0:0:
72,135,103866,1,8,0:0:0:0:
347,158,103954,1,0,0:0:0:0:
347,158,104042,1,8,0:0:0:0:
347,158,104130,1,8,0:0:0:0:
72,135,104219,1,0,0:0:0:0:
72,135,104395,1,0,0:0:0:0:
72,135,104572,1,8,0:0:0:0:
72,135,104660,1,8,0:0:0:0:
149,41,104748,1,0,0:0:0:0:
72,135,104925,1,8,0:0:0:0:
220,127,105013,1,8,0:0:0:0:
220,127,105101,1,0,0:0:0:0:
194,115,105189,1,8,0:0:0:0:
220,127,105278,1,0,0:0:0:0:
220,127,105454,1,0,0:0:0:0:
220,127,105631,1,8,0:0:0:0:
220,127,105984,1,0,0:0:0:0:
220,127,106072,1,0,0:0:0:0:
220,127,106160,1,8,0:0:0:0:
220,127,106248,1,8,0:0:0:0:
220,127,106337,1,0,0:0:0:0:
194,115,106425,1,8,0:0:0:0:
194,115,106513,1,0,0:0:0:0:
194,115,106601,1,0,0:0:0:0:
220,127,106690,1,8,0:0:0:0:
194,115,106778,1,8,0:0:0:0:
220,127,106866,1,0,0:0:0:0:
220,127,106954,1,8,0:0:0:0:
220,127,107043,1,0,0:0:0:0:
220,127,107219,1,8,0:0:0:0:
220,127,107396,1,4,0:0:0:0:
220,127,107572,1,8,0:0:0:0:
220,127,107749,1,4,0:0:0:0:
220,127,107925,1,8,0:0:0:0:
220,127,108102,1,4,0:0:0:0:
220,127,108278,1,8,0:0:0:0:
220,127,108455,1,8,0:0:0:0:
220,127,108808,1,8,0:0:0:0:
220,127,108896,1,0,0:0:0:0:
220,127,108984,1,8,0:0:0:0:
220,127,109072,1,8,0:0:0:0:
220,127,109160,1,0,0:0:0:0:
220,127,109337,1,0,0:0:0:0:
220,127,109513,1,8,0:0:0:0:
220,127,109690,1,8,0:0:0:0:
201,107,109866,1,0,0:0:0:0:
220,127,110043,1,0,0:0:0:0:
199,151,110219,1,8,0:0:0:0:
199,151,110308,1,8,0:0:0:0:
199,151,110396,1,8,0:0:0:0:
199,151,110484,1,8,0:0:0:0:
199,151,110572,1,0,0:0:0:0:
199,151,110749,1,0,0:0:0:0:
199,151,110925,1,8,0:0:0:0:
199,151,111102,1,0,0:0:0:0:
199,151,111278,1,8,0:0:0:0:
199,151,111455,1,0,0:0:0:0:
199,151,111631,1,8,0:0:0:0:
199,151,111720,1,0,0:0:0:0:
199,151,111808,1,8,0:0:0:0:
199,151,111896,1,8,0:0:0:0:
199,151,111984,1,0,0:0:0:0:
199,151,112161,1,0,0:0:0:0:
199,151,112337,1,8,0:0:0:0:
199,151,112514,1,8,0:0:0:0:
199,151,112690,1,0,0:0:0:0:
199,151,112867,1,0,0:0:0:0:
199,151,113043,1,8,0:0:0:0:
199,151,113132,1,8,0:0:0:0:
199,151,113220,1,8,0:0:0:0:
199,151,113308,1,8,0:0:0:0:
199,151,113396,1,0,0:0:0:0:
199,151,113573,1,8,0:0:0:0:
199,151,113749,1,0,0:0:0:0:
199,151,114102,1,8,0:0:0:0:
199,151,114455,1,8,0:0:0:0:
199,151,114632,1,0,0:0:0:0:
199,151,114808,1,8,0:0:0:0:
199,151,114985,1,0,0:0:0:0:
199,151,115161,1,8,0:0:0:0:
199,151,115338,1,0,0:0:0:0:
199,151,115514,1,8,0:0:0:0:
199,151,115691,1,0,0:0:0:0:
199,151,115867,1,8,0:0:0:0:
199,151,116044,1,8,0:0:0:0:
199,151,116220,1,0,0:0:0:0:
199,151,116397,1,8,0:0:0:0:
199,151,116573,1,0,0:0:0:0:
199,151,116750,1,8,0:0:0:0:
199,151,116926,1,8,0:0:0:0:
199,151,117103,1,0,0:0:0:0:
199,151,117279,1,8,0:0:0:0:
199,151,117456,1,8,0:0:0:0:
199,151,117632,1,0,0:0:0:0:
199,151,117809,1,8,0:0:0:0:
199,151,117985,1,0,0:0:0:0:
199,151,118162,1,8,0:0:0:0:
199,151,118338,1,0,0:0:0:0:
199,151,118515,1,8,0:0:0:0:
199,151,118691,1,0,0:0:0:0:
199,151,118868,1,8,0:0:0:0:
199,151,119044,1,0,0:0:0:0:
199,151,119221,1,8,0:0:0:0:
199,151,119397,1,0,0:0:0:0:
199,151,119574,1,8,0:0:0:0:
199,151,119750,1,8,0:0:0:0:
199,151,119927,1,0,0:0:0:0:
199,151,120103,1,8,0:0:0:0:
199,151,120280,1,8,0:0:0:0:
199,151,120456,1,0,0:0:0:0:
199,151,120633,1,8,0:0:0:0:
199,151,120809,1,0,0:0:0:0:
199,151,120986,1,8,0:0:0:0:
199,151,121162,1,0,0:0:0:0:
199,151,121339,1,8,0:0:0:0:
199,151,121515,1,0,0:0:0:0:
199,151,121692,1,8,0:0:0:0:
199,151,121868,1,0,0:0:0:0:
199,151,122045,1,8,0:0:0:0:
199,151,122221,1,0,0:0:0:0:
199,151,122397,1,8,0:0:0:0:
199,151,122574,1,8,0:0:0:0:
199,151,122750,1,0,0:0:0:0:
199,151,122927,1,8,0:0:0:0:
199,151,123103,1,8,0:0:0:0:
199,151,123280,1,0,0:0:0:0:
199,151,123456,1,8,0:0:0:0:
199,151,123633,1,0,0:0:0:0:
199,151,123809,1,8,0:0:0:0:
199,151,123986,1,0,0:0:0:0:
199,151,124162,1,8,0:0:0:0:
199,151,124339,1,0,0:0:0:0:
199,151,124515,1,8,0:0:0:0:
199,151,124692,1,0,0:0:0:0:
199,151,124868,1,8,0:0:0:0:
157,158,125045,1,0,0:0:0:0:
191,145,125221,5,8,0:0:0:0:
191,145,125398,1,8,0:0:0:0:
