osu file format v14

[General]
AudioFilename: audio.mp3
AudioLeadIn: 0
PreviewTime: 80558
Countdown: 0
SampleSet: Soft
StackLeniency: 0.7
Mode: 3
LetterboxInBreaks: 0
SpecialStyle: 0
WidescreenStoryboard: 1

[Editor]
DistanceSpacing: 1
BeatDivisor: 4
GridSize: 4
TimelineZoom: 2.4

[Metadata]
Title:Chat perdu
TitleUnicode:Chat perdu
Artist:Feryquitous
ArtistUnicode:Feryquitous
Creator:-mint-
Version:Normal
Source:Deemo
Tags:lost cat rayark collection ♯2 #2 sharp qqqant piano video game electronic jazz instrumental
BeatmapID:3935271
BeatmapSetID:1886842

[Difficulty]
HPDrainRate:6.9
CircleSize:4
OverallDifficulty:6.9
ApproachRate:5
SliderMultiplier:1.4
SliderTickRate:1

[Events]
//Background and Video events
0,0,"Chat_Perdu.jpg",0,0
//Break Periods
//Storyboard Layer 0 (Background)
//Storyboard Layer 1 (Fail)
//Storyboard Layer 2 (Pass)
//Storyboard Layer 3 (Foreground)
//Storyboard Layer 4 (Overlay)
//Storyboard Sound Samples

[TimingPoints]
88,352.941176470588,4,2,1,40,1,0
80558,-100,4,2,1,40,0,1
103146,-100,4,2,1,40,0,0

[HitObjects]
320,192,1499,5,0,0:0:0:0:
192,192,1676,1,0,0:0:0:0:
448,192,1852,1,0,0:0:0:0:
64,192,2029,1,0,0:0:0:0:
192,192,2205,1,0,0:0:0:0:
448,192,2382,1,0,0:0:0:0:
320,192,2558,1,0,0:0:0:0:
192,192,2735,1,0,0:0:0:0:
64,192,2911,1,0,0:0:0:0:
448,192,3087,1,0,0:0:0:0:
192,192,3264,1,0,0:0:0:0:
64,192,3440,1,0,0:0:0:0:
320,192,3617,1,0,0:0:0:0:
448,192,3793,1,0,0:0:0:0:
64,192,3970,1,0,0:0:0:0:
320,192,4146,1,0,0:0:0:0:
448,192,4323,1,0,0:0:0:0:
192,192,4499,1,0,0:0:0:0:
320,192,4676,1,0,0:0:0:0:
64,192,4852,1,0,0:0:0:0:
192,192,5029,1,0,0:0:0:0:
448,192,5205,1,0,0:0:0:0:
320,192,5382,1,0,0:0:0:0:
192,192,5558,1,0,0:0:0:0:
64,192,5735,1,0,0:0:0:0:
448,192,5911,1,0,0:0:0:0:
192,192,6087,1,0,0:0:0:0:
64,192,6264,1,0,0:0:0:0:
320,192,6440,1,0,0:0:0:0:
448,192,6617,1,0,0:0:0:0:
64,192,6793,1,0,0:0:0:0:
320,192,6970,1,0,0:0:0:0:
448,192,7146,1,0,0:0:0:0:
192,192,7323,1,0,0:0:0:0:
448,192,7499,1,0,0:0:0:0:
64,192,7676,1,0,0:0:0:0:
192,192,7852,1,0,0:0:0:0:
448,192,8029,1,0,0:0:0:0:
320,192,8205,1,0,0:0:0:0:
192,192,8382,1,0,0:0:0:0:
64,192,8558,1,0,0:0:0:0:
448,192,8735,1,0,0:0:0:0:
64,192,8911,1,0,0:0:0:0:
320,192,9087,1,0,0:0:0:0:
192,192,9264,1,0,0:0:0:0:
64,192,9440,1,0,0:0:0:0:
448,192,9617,1,0,0:0:0:0:
192,192,9617,1,0,0:0:0:0:
320,192,9793,1,0,0:0:0:0:
448,192,9970,1,0,0:0:0:0:
192,192,10146,1,0,0:0:0:0:
448,192,10323,1,0,0:0:0:0:
64,192,10499,1,0,0:0:0:0:
192,192,10676,1,0,0:0:0:0:
448,192,10852,1,0,0:0:0:0:
320,192,11029,1,0,0:0:0:0:
192,192,11205,1,0,0:0:0:0:
64,192,11382,1,0,0:0:0:0:
448,192,11558,1,0,0:0:0:0:
64,192,11735,1,0,0:0:0:0:
320,192,11911,1,0,0:0:0:0:
192,192,12087,1,0,0:0:0:0:
448,192,12264,1,0,0:0:0:0:
64,192,12440,1,0,0:0:0:0:
320,192,12440,1,0,0:0:0:0:
64,192,12793,5,0,0:0:0:0:
192,192,12970,128,0,13146:0:0:0:0:
448,192,13146,1,0,0:0:0:0:
320,192,13323,128,0,13499:0:0:0:0:
192,192,13499,1,0,0:0:0:0:
64,192,13676,128,0,13852:0:0:0:0:
320,192,13852,1,0,0:0:0:0:
448,192,14029,128,0,14205:0:0:0:0:
64,192,14205,1,0,0:0:0:0:
192,192,14293,1,0,0:0:0:0:
320,192,14382,1,0,0:0:0:0:
64,192,14558,1,0,0:0:0:0:
192,192,14646,1,0,0:0:0:0:
448,192,14735,1,0,0:0:0:0:
320,192,14823,1,0,0:0:0:0:
192,192,14911,1,0,0:0:0:0:
448,192,15087,1,0,0:0:0:0:
320,192,15264,128,0,15617:0:0:0:0:
192,192,15264,1,0,0:0:0:0:
64,192,15617,1,0,0:0:0:0:
192,192,15793,128,0,15970:0:0:0:0:
448,192,15970,1,0,0:0:0:0:
320,192,16146,128,0,16323:0:0:0:0:
192,192,16323,1,0,0:0:0:0:
64,192,16499,128,0,16676:0:0:0:0:
320,192,16676,1,0,0:0:0:0:
448,192,16852,128,0,17029:0:0:0:0:
64,192,17029,128,0,17382:0:0:0:0:
320,192,17205,1,0,0:0:0:0:
448,192,17382,128,0,17735:0:0:0:0:
64,192,17558,1,0,0:0:0:0:
192,192,17735,128,0,18087:0:0:0:0:
448,192,17911,1,0,0:0:0:0:
320,192,18087,1,0,0:0:0:0:
64,192,18087,1,0,0:0:0:0:
192,192,18264,1,0,0:0:0:0:
320,192,18440,1,0,0:0:0:0:
448,192,18617,128,0,18793:0:0:0:0:
64,192,18793,1,0,0:0:0:0:
320,192,18970,128,0,19146:0:0:0:0:
192,192,19146,128,0,19323:0:0:0:0:
64,192,19323,128,0,19499:0:0:0:0:
320,192,19499,128,0,19676:0:0:0:0:
192,192,19676,128,0,19852:0:0:0:0:
448,192,19852,1,0,0:0:0:0:
64,192,20029,128,0,20205:0:0:0:0:
320,192,20205,1,0,0:0:0:0:
448,192,20382,128,0,20558:0:0:0:0:
64,192,20558,128,0,20735:0:0:0:0:
192,192,20735,128,0,20911:0:0:0:0:
448,192,20911,128,0,21087:0:0:0:0:
320,192,20911,1,0,0:0:0:0:
64,192,21087,128,0,21264:0:0:0:0:
320,192,21264,1,0,0:0:0:0:
448,192,21440,128,0,21617:0:0:0:0:
64,192,21617,1,0,0:0:0:0:
320,192,21793,128,0,21970:0:0:0:0:
192,192,21970,128,0,22146:0:0:0:0:
64,192,22146,128,0,22323:0:0:0:0:
320,192,22323,128,0,22499:0:0:0:0:
192,192,22499,128,0,22676:0:0:0:0:
448,192,22676,1,0,0:0:0:0:
64,192,22852,128,0,23029:0:0:0:0:
320,192,23029,1,0,0:0:0:0:
448,192,23205,128,0,23382:0:0:0:0:
192,192,23382,128,0,23735:0:0:0:0:
320,192,23558,1,0,0:0:0:0:
64,192,23735,1,0,0:0:0:0:
448,192,23735,1,0,0:0:0:0:
448,192,24087,1,0,0:0:0:0:
320,192,24264,128,0,24440:0:0:0:0:
64,192,24440,1,0,0:0:0:0:
192,192,24617,128,0,24793:0:0:0:0:
320,192,24793,1,0,0:0:0:0:
448,192,24970,128,0,25146:0:0:0:0:
192,192,25146,1,0,0:0:0:0:
64,192,25323,128,0,25499:0:0:0:0:
448,192,25499,1,0,0:0:0:0:
320,192,25587,1,0,0:0:0:0:
192,192,25676,1,0,0:0:0:0:
448,192,25852,1,0,0:0:0:0:
320,192,25940,1,0,0:0:0:0:
64,192,26029,1,0,0:0:0:0:
192,192,26117,1,0,0:0:0:0:
320,192,26205,1,0,0:0:0:0:
64,192,26382,1,0,0:0:0:0:
192,192,26558,128,0,26911:0:0:0:0:
320,192,26558,1,0,0:0:0:0:
448,192,26911,1,0,0:0:0:0:
320,192,27087,128,0,27264:0:0:0:0:
64,192,27264,1,0,0:0:0:0:
192,192,27440,128,0,27617:0:0:0:0:
320,192,27617,1,0,0:0:0:0:
448,192,27793,128,0,27970:0:0:0:0:
192,192,27970,1,0,0:0:0:0:
64,192,28146,128,0,28323:0:0:0:0:
448,192,28323,128,0,28676:0:0:0:0:
192,192,28499,1,0,0:0:0:0:
64,192,28676,128,0,29029:0:0:0:0:
448,192,28852,1,0,0:0:0:0:
320,192,29029,128,0,29382:0:0:0:0:
64,192,29205,1,0,0:0:0:0:
448,192,29382,1,0,0:0:0:0:
192,192,29382,1,0,0:0:0:0:
320,192,29558,1,0,0:0:0:0:
192,192,29735,1,0,0:0:0:0:
64,192,29911,128,0,30087:0:0:0:0:
448,192,30087,1,0,0:0:0:0:
192,192,30264,128,0,30440:0:0:0:0:
320,192,30440,128,0,30617:0:0:0:0:
448,192,30617,128,0,30793:0:0:0:0:
192,192,30793,128,0,30970:0:0:0:0:
320,192,30970,128,0,31146:0:0:0:0:
64,192,31146,1,0,0:0:0:0:
448,192,31323,128,0,31499:0:0:0:0:
192,192,31499,1,0,0:0:0:0:
64,192,31676,128,0,31852:0:0:0:0:
448,192,31852,128,0,32029:0:0:0:0:
320,192,32029,128,0,32205:0:0:0:0:
192,192,32205,1,0,0:0:0:0:
64,192,32205,128,0,32382:0:0:0:0:
448,192,32382,128,0,32558:0:0:0:0:
192,192,32558,1,0,0:0:0:0:
64,192,32735,128,0,32911:0:0:0:0:
448,192,32911,1,0,0:0:0:0:
192,192,33087,128,0,33264:0:0:0:0:
320,192,33264,128,0,33440:0:0:0:0:
448,192,33440,128,0,33617:0:0:0:0:
192,192,33617,128,0,33793:0:0:0:0:
320,192,33793,128,0,33970:0:0:0:0:
64,192,33970,1,0,0:0:0:0:
448,192,34146,128,0,34323:0:0:0:0:
192,192,34323,1,0,0:0:0:0:
64,192,34499,128,0,34676:0:0:0:0:
320,192,34676,128,0,35029:0:0:0:0:
192,192,34852,1,0,0:0:0:0:
64,192,35029,1,0,0:0:0:0:
448,192,35029,1,0,0:0:0:0:
192,192,35146,1,0,0:0:0:0:
320,192,35264,1,0,0:0:0:0:
64,192,35382,128,0,35735:0:0:0:0:
448,192,35382,1,0,0:0:0:0:
320,192,35735,1,0,0:0:0:0:
448,192,35735,128,0,36087:0:0:0:0:
192,192,36087,128,0,36440:0:0:0:0:
448,192,36323,1,0,0:0:0:0:
64,192,36440,128,0,36793:0:0:0:0:
320,192,36440,1,0,0:0:0:0:
448,192,36793,128,0,37146:0:0:0:0:
192,192,36911,1,0,0:0:0:0:
320,192,37029,1,0,0:0:0:0:
64,192,37146,1,0,0:0:0:0:
192,192,37146,128,0,37499:0:0:0:0:
448,192,37382,1,0,0:0:0:0:
320,192,37499,128,0,37852:0:0:0:0:
192,192,37735,1,0,0:0:0:0:
448,192,37852,128,0,38205:0:0:0:0:
64,192,37852,1,0,0:0:0:0:
64,192,38205,128,0,38558:0:0:0:0:
320,192,38558,1,0,0:0:0:0:
448,192,38558,128,0,38911:0:0:0:0:
192,192,38911,128,0,39264:0:0:0:0:
448,192,39146,1,0,0:0:0:0:
64,192,39264,128,0,39617:0:0:0:0:
320,192,39264,1,0,0:0:0:0:
448,192,39617,128,0,39970:0:0:0:0:
192,192,39735,1,0,0:0:0:0:
320,192,39852,1,0,0:0:0:0:
64,192,39970,1,0,0:0:0:0:
192,192,39970,128,0,40323:0:0:0:0:
448,192,40205,1,0,0:0:0:0:
320,192,40323,128,0,40676:0:0:0:0:
64,192,40558,1,0,0:0:0:0:
448,192,40676,128,0,41029:0:0:0:0:
192,192,40676,1,0,0:0:0:0:
320,192,41029,128,0,41382:0:0:0:0:
64,192,41382,128,0,41735:0:0:0:0:
192,192,41382,1,0,0:0:0:0:
448,192,41735,128,0,42087:0:0:0:0:
64,192,41970,1,0,0:0:0:0:
320,192,42087,128,0,42440:0:0:0:0:
192,192,42087,1,0,0:0:0:0:
64,192,42440,128,0,42793:0:0:0:0:
448,192,42558,1,0,0:0:0:0:
192,192,42676,1,0,0:0:0:0:
448,192,42793,128,0,43146:0:0:0:0:
320,192,42793,1,0,0:0:0:0:
64,192,43029,1,0,0:0:0:0:
192,192,43146,128,0,43499:0:0:0:0:
320,192,43382,1,0,0:0:0:0:
448,192,43499,1,0,0:0:0:0:
64,192,43499,128,0,43852:0:0:0:0:
448,192,43852,128,0,44205:0:0:0:0:
192,192,44205,1,0,0:0:0:0:
64,192,44205,128,0,44558:0:0:0:0:
320,192,44558,128,0,44911:0:0:0:0:
64,192,44793,1,0,0:0:0:0:
448,192,44911,128,0,45264:0:0:0:0:
192,192,44911,1,0,0:0:0:0:
320,192,45264,128,0,45617:0:0:0:0:
64,192,45382,1,0,0:0:0:0:
448,192,45499,1,0,0:0:0:0:
192,192,45617,1,0,0:0:0:0:
64,192,45617,128,0,45970:0:0:0:0:
320,192,45852,1,0,0:0:0:0:
192,192,45970,1,0,0:0:0:0:
448,192,45970,128,0,46323:0:0:0:0:
64,192,46205,1,0,0:0:0:0:
192,192,46323,128,0,46676:0:0:0:0:
64,192,46676,1,0,0:0:0:0:
448,192,46676,128,0,47029:0:0:0:0:
64,192,47029,128,0,47382:0:0:0:0:
192,192,47029,1,0,0:0:0:0:
320,192,47382,128,0,47735:0:0:0:0:
64,192,47617,1,0,0:0:0:0:
192,192,47735,1,0,0:0:0:0:
448,192,47735,128,0,48087:0:0:0:0:
64,192,48087,128,0,48440:0:0:0:0:
320,192,48205,1,0,0:0:0:0:
192,192,48323,1,0,0:0:0:0:
320,192,48440,128,0,48793:0:0:0:0:
448,192,48440,1,0,0:0:0:0:
64,192,48676,1,0,0:0:0:0:
192,192,48793,128,0,49146:0:0:0:0:
320,192,49029,1,0,0:0:0:0:
448,192,49146,1,0,0:0:0:0:
64,192,49146,128,0,49499:0:0:0:0:
448,192,49499,128,0,49852:0:0:0:0:
64,192,49852,128,0,50205:0:0:0:0:
192,192,49852,1,0,0:0:0:0:
320,192,50205,128,0,50558:0:0:0:0:
64,192,50440,1,0,0:0:0:0:
192,192,50558,1,0,0:0:0:0:
448,192,50558,128,0,50911:0:0:0:0:
64,192,50911,128,0,51264:0:0:0:0:
320,192,51029,1,0,0:0:0:0:
192,192,51146,1,0,0:0:0:0:
320,192,51264,128,0,51617:0:0:0:0:
448,192,51264,1,0,0:0:0:0:
64,192,51499,1,0,0:0:0:0:
192,192,51617,128,0,51970:0:0:0:0:
448,192,51852,1,0,0:0:0:0:
320,192,51970,1,0,0:0:0:0:
64,192,51970,128,0,52323:0:0:0:0:
192,192,52323,128,0,52676:0:0:0:0:
320,192,52676,1,0,0:0:0:0:
448,192,52676,128,0,53029:0:0:0:0:
64,192,53029,128,0,53382:0:0:0:0:
448,192,53264,1,0,0:0:0:0:
320,192,53382,1,0,0:0:0:0:
192,192,53382,128,0,53735:0:0:0:0:
448,192,53735,128,0,54087:0:0:0:0:
64,192,53852,1,0,0:0:0:0:
320,192,53970,1,0,0:0:0:0:
192,192,54087,1,0,0:0:0:0:
64,192,54087,128,0,54440:0:0:0:0:
448,192,54323,1,0,0:0:0:0:
320,192,54440,128,0,54793:0:0:0:0:
192,192,54676,1,0,0:0:0:0:
448,192,54793,128,0,55146:0:0:0:0:
64,192,54793,1,0,0:0:0:0:
64,192,55146,128,0,55499:0:0:0:0:
448,192,55499,128,0,55852:0:0:0:0:
320,192,55499,1,0,0:0:0:0:
192,192,55852,128,0,56205:0:0:0:0:
448,192,56087,1,0,0:0:0:0:
320,192,56205,1,0,0:0:0:0:
64,192,56205,128,0,56558:0:0:0:0:
192,192,56558,128,0,56911:0:0:0:0:
448,192,56676,1,0,0:0:0:0:
64,192,56793,5,0,0:0:0:0:
448,192,56911,128,0,57264:0:0:0:0:
320,192,56911,1,0,0:0:0:0:
192,192,57146,1,0,0:0:0:0:
64,192,57264,128,0,57617:0:0:0:0:
320,192,57264,1,0,0:0:0:0:
320,192,57617,128,0,57970:0:0:0:0:
64,192,57970,5,0,0:0:0:0:
448,192,57970,1,0,0:0:0:0:
192,192,58146,1,0,0:0:0:0:
448,192,58323,1,0,0:0:0:0:
320,192,58499,1,0,0:0:0:0:
192,192,58676,1,0,0:0:0:0:
64,192,58852,1,0,0:0:0:0:
320,192,59029,1,0,0:0:0:0:
448,192,59205,1,0,0:0:0:0:
64,192,59382,1,0,0:0:0:0:
192,192,59470,1,0,0:0:0:0:
320,192,59558,1,0,0:0:0:0:
64,192,59735,1,0,0:0:0:0:
192,192,59823,1,0,0:0:0:0:
448,192,59911,1,0,0:0:0:0:
320,192,59999,1,0,0:0:0:0:
192,192,60087,1,0,0:0:0:0:
448,192,60264,1,0,0:0:0:0:
320,192,60440,128,0,60793:0:0:0:0:
192,192,60440,1,0,0:0:0:0:
64,192,60793,1,0,0:0:0:0:
192,192,60970,1,0,0:0:0:0:
448,192,61146,1,0,0:0:0:0:
320,192,61323,1,0,0:0:0:0:
192,192,61499,1,0,0:0:0:0:
64,192,61676,1,0,0:0:0:0:
320,192,61852,1,0,0:0:0:0:
448,192,62029,1,0,0:0:0:0:
64,192,62205,128,0,62558:0:0:0:0:
320,192,62382,1,0,0:0:0:0:
448,192,62558,128,0,62911:0:0:0:0:
64,192,62735,1,0,0:0:0:0:
192,192,62911,128,0,63264:0:0:0:0:
448,192,63087,1,0,0:0:0:0:
320,192,63264,1,0,0:0:0:0:
64,192,63264,1,0,0:0:0:0:
192,192,63440,1,0,0:0:0:0:
320,192,63617,1,0,0:0:0:0:
448,192,63793,1,0,0:0:0:0:
64,192,63970,1,0,0:0:0:0:
320,192,64146,1,0,0:0:0:0:
192,192,64323,128,0,64499:0:0:0:0:
64,192,64499,128,0,64676:0:0:0:0:
320,192,64676,128,0,64852:0:0:0:0:
192,192,64852,128,0,65029:0:0:0:0:
448,192,65029,1,0,0:0:0:0:
64,192,65205,1,0,0:0:0:0:
320,192,65382,1,0,0:0:0:0:
448,192,65558,1,0,0:0:0:0:
64,192,65735,128,0,65911:0:0:0:0:
192,192,65911,128,0,66087:0:0:0:0:
448,192,66087,128,0,66264:0:0:0:0:
320,192,66087,1,0,0:0:0:0:
64,192,66264,128,0,66440:0:0:0:0:
320,192,66440,1,0,0:0:0:0:
448,192,66617,1,0,0:0:0:0:
64,192,66793,1,0,0:0:0:0:
320,192,66970,1,0,0:0:0:0:
192,192,67146,128,0,67323:0:0:0:0:
64,192,67323,128,0,67499:0:0:0:0:
320,192,67499,128,0,67676:0:0:0:0:
192,192,67676,128,0,67852:0:0:0:0:
448,192,67852,1,0,0:0:0:0:
64,192,68029,1,0,0:0:0:0:
320,192,68205,1,0,0:0:0:0:
448,192,68382,1,0,0:0:0:0:
192,192,68558,128,0,68911:0:0:0:0:
320,192,68735,1,0,0:0:0:0:
448,192,68911,1,0,0:0:0:0:
320,192,69264,1,0,0:0:0:0:
192,192,69440,1,0,0:0:0:0:
448,192,69617,1,0,0:0:0:0:
64,192,69793,1,0,0:0:0:0:
192,192,69970,1,0,0:0:0:0:
448,192,70146,1,0,0:0:0:0:
320,192,70323,1,0,0:0:0:0:
192,192,70499,1,0,0:0:0:0:
64,192,70676,1,0,0:0:0:0:
448,192,70852,1,0,0:0:0:0:
192,192,71029,1,0,0:0:0:0:
64,192,71205,1,0,0:0:0:0:
320,192,71382,1,0,0:0:0:0:
448,192,71558,1,0,0:0:0:0:
64,192,71735,1,0,0:0:0:0:
192,192,71735,1,0,0:0:0:0:
320,192,71911,1,0,0:0:0:0:
448,192,72087,1,0,0:0:0:0:
192,192,72264,1,0,0:0:0:0:
320,192,72440,1,0,0:0:0:0:
64,192,72617,1,0,0:0:0:0:
192,192,72793,1,0,0:0:0:0:
448,192,72970,1,0,0:0:0:0:
320,192,73146,1,0,0:0:0:0:
192,192,73323,1,0,0:0:0:0:
448,192,73499,128,0,73676:0:0:0:0:
320,192,73676,1,0,0:0:0:0:
64,192,73852,128,0,74029:0:0:0:0:
192,192,74029,1,0,0:0:0:0:
320,192,74205,128,0,74382:0:0:0:0:
448,192,74382,1,0,0:0:0:0:
64,192,74558,1,0,0:0:0:0:
192,192,74558,1,0,0:0:0:0:
448,192,74911,1,0,0:0:0:0:
192,192,75087,1,0,0:0:0:0:
448,192,75264,1,0,0:0:0:0:
64,192,75440,1,0,0:0:0:0:
192,192,75617,1,0,0:0:0:0:
448,192,75793,1,0,0:0:0:0:
320,192,75970,1,0,0:0:0:0:
192,192,76146,1,0,0:0:0:0:
64,192,76323,1,0,0:0:0:0:
448,192,76499,1,0,0:0:0:0:
64,192,76676,1,0,0:0:0:0:
320,192,76852,1,0,0:0:0:0:
192,192,77029,1,0,0:0:0:0:
64,192,77205,1,0,0:0:0:0:
448,192,77382,1,0,0:0:0:0:
192,192,77382,1,0,0:0:0:0:
320,192,77558,1,0,0:0:0:0:
448,192,77735,1,0,0:0:0:0:
192,192,77911,1,0,0:0:0:0:
448,192,78087,1,0,0:0:0:0:
64,192,78264,1,0,0:0:0:0:
192,192,78440,1,0,0:0:0:0:
448,192,78617,1,0,0:0:0:0:
320,192,78793,1,0,0:0:0:0:
192,192,78970,1,0,0:0:0:0:
64,192,79146,1,0,0:0:0:0:
448,192,79323,1,0,0:0:0:0:
64,192,79499,1,0,0:0:0:0:
320,192,79676,1,0,0:0:0:0:
192,192,79852,1,0,0:0:0:0:
448,192,80029,128,0,80205:0:0:0:0:
320,192,80205,128,0,80382:0:0:0:0:
192,192,80382,128,0,80558:0:0:0:0:
64,192,80558,1,0,0:0:0:0:
448,192,80558,1,0,0:0:0:0:
320,192,80735,1,0,0:0:0:0:
64,192,80911,1,0,0:0:0:0:
448,192,80999,1,0,0:0:0:0:
448,192,81176,128,0,81617:0:0:0:0:
192,192,81264,1,0,0:0:0:0:
320,192,81617,1,0,0:0:0:0:
64,192,81793,1,0,0:0:0:0:
192,192,81970,1,0,0:0:0:0:
448,192,82146,1,0,0:0:0:0:
320,192,82323,1,0,0:0:0:0:
64,192,82411,1,0,0:0:0:0:
64,192,82587,128,0,83205:0:0:0:0:
448,192,82676,1,0,0:0:0:0:
320,192,82940,1,0,0:0:0:0:
192,192,83205,1,0,0:0:0:0:
448,192,83382,1,0,0:0:0:0:
64,192,83558,1,0,0:0:0:0:
320,192,83735,128,0,83911:0:0:0:0:
192,192,83911,128,0,84087:0:0:0:0:
448,192,84087,128,0,84264:0:0:0:0:
320,192,84264,128,0,84440:0:0:0:0:
64,192,84440,128,0,84617:0:0:0:0:
448,192,84617,128,0,84793:0:0:0:0:
192,192,84793,128,0,85146:0:0:0:0:
320,192,84970,128,0,85146:0:0:0:0:
448,192,85146,128,0,85499:0:0:0:0:
192,192,85499,128,0,85852:0:0:0:0:
64,192,85676,1,0,0:0:0:0:
320,192,85852,128,0,86205:0:0:0:0:
64,192,86205,1,0,0:0:0:0:
192,192,86382,1,0,0:0:0:0:
448,192,86558,1,0,0:0:0:0:
64,192,86646,1,0,0:0:0:0:
64,192,86823,128,0,87264:0:0:0:0:
320,192,86911,1,0,0:0:0:0:
192,192,87264,1,0,0:0:0:0:
448,192,87440,1,0,0:0:0:0:
320,192,87617,1,0,0:0:0:0:
64,192,87793,1,0,0:0:0:0:
192,192,87970,1,0,0:0:0:0:
448,192,88058,1,0,0:0:0:0:
448,192,88235,128,0,88852:0:0:0:0:
64,192,88323,1,0,0:0:0:0:
192,192,88587,1,0,0:0:0:0:
320,192,88852,1,0,0:0:0:0:
64,192,89029,1,0,0:0:0:0:
448,192,89205,1,0,0:0:0:0:
192,192,89382,128,0,89558:0:0:0:0:
320,192,89558,128,0,89735:0:0:0:0:
64,192,89735,128,0,89911:0:0:0:0:
192,192,89911,128,0,90087:0:0:0:0:
448,192,90087,128,0,90264:0:0:0:0:
64,192,90264,128,0,90440:0:0:0:0:
320,192,90440,1,0,0:0:0:0:
448,192,90440,1,0,0:0:0:0:
192,192,90617,1,0,0:0:0:0:
320,192,90882,1,0,0:0:0:0:
192,192,91146,128,0,91499:0:0:0:0:
448,192,91499,1,0,0:0:0:0:
64,192,91676,1,0,0:0:0:0:
192,192,91764,1,0,0:0:0:0:
320,192,91852,128,0,92029:0:0:0:0:
448,192,91852,1,0,0:0:0:0:
64,192,92029,128,0,92205:0:0:0:0:
448,192,92205,128,0,92382:0:0:0:0:
192,192,92382,128,0,92558:0:0:0:0:
320,192,92558,128,0,92735:0:0:0:0:
64,192,92735,128,0,92911:0:0:0:0:
192,192,92911,128,0,93087:0:0:0:0:
320,192,93087,128,0,93264:0:0:0:0:
448,192,93264,1,0,0:0:0:0:
64,192,93352,1,0,0:0:0:0:
192,192,93529,1,0,0:0:0:0:
320,192,93617,1,0,0:0:0:0:
64,192,93793,1,0,0:0:0:0:
448,192,93970,1,0,0:0:0:0:
192,192,94146,128,0,94323:0:0:0:0:
320,192,94323,128,0,94499:0:0:0:0:
64,192,94499,128,0,94676:0:0:0:0:
448,192,94676,128,0,94852:0:0:0:0:
320,192,94852,128,0,95029:0:0:0:0:
192,192,95029,128,0,95205:0:0:0:0:
448,192,95205,128,0,95382:0:0:0:0:
64,192,95382,128,0,95558:0:0:0:0:
192,192,95558,128,0,95735:0:0:0:0:
320,192,95735,128,0,95911:0:0:0:0:
64,192,95911,128,0,96087:0:0:0:0:
448,192,96087,128,0,96264:0:0:0:0:
192,192,96264,128,0,96440:0:0:0:0:
64,192,96440,128,0,96617:0:0:0:0:
320,192,96617,128,0,96793:0:0:0:0:
448,192,96793,1,0,0:0:0:0:
192,192,96970,1,0,0:0:0:0:
64,192,97146,1,0,0:0:0:0:
320,192,97235,128,0,97499:0:0:0:0:
192,192,97499,128,0,97676:0:0:0:0:
448,192,97676,128,0,97852:0:0:0:0:
64,192,97852,128,0,98029:0:0:0:0:
320,192,98029,128,0,98205:0:0:0:0:
192,192,98205,128,0,98382:0:0:0:0:
448,192,98382,128,0,98558:0:0:0:0:
320,192,98558,128,0,98735:0:0:0:0:
192,192,98735,128,0,98911:0:0:0:0:
64,192,98911,1,0,0:0:0:0:
448,192,98999,1,0,0:0:0:0:
320,192,99176,1,0,0:0:0:0:
192,192,99264,1,0,0:0:0:0:
448,192,99440,1,0,0:0:0:0:
64,192,99617,1,0,0:0:0:0:
320,192,99793,128,0,99970:0:0:0:0:
192,192,99970,128,0,100146:0:0:0:0:
448,192,100146,128,0,100323:0:0:0:0:
64,192,100323,128,0,100499:0:0:0:0:
192,192,100499,128,0,100676:0:0:0:0:
320,192,100676,128,0,100852:0:0:0:0:
64,192,100852,128,0,101029:0:0:0:0:
448,192,101029,128,0,101205:0:0:0:0:
320,192,101205,128,0,101382:0:0:0:0:
192,192,101382,128,0,101558:0:0:0:0:
448,192,101558,128,0,101735:0:0:0:0:
64,192,101735,1,0,0:0:0:0:
192,192,101735,1,0,0:0:0:0:
320,192,101911,1,0,0:0:0:0:
192,192,102176,5,0,0:0:0:0:
448,192,102440,128,0,102793:0:0:0:0:
64,192,102793,1,0,0:0:0:0:
320,192,102970,1,0,0:0:0:0:
192,192,103058,1,0,0:0:0:0:
64,192,103146,5,0,0:0:0:0:
448,192,103146,1,0,0:0:0:0:
192,192,103323,128,0,103499:0:0:0:0:
448,192,103499,1,0,0:0:0:0:
320,192,103676,128,0,103852:0:0:0:0:
192,192,103852,1,0,0:0:0:0:
64,192,104029,128,0,104205:0:0:0:0:
320,192,104205,1,0,0:0:0:0:
448,192,104382,128,0,104558:0:0:0:0:
64,192,104558,1,0,0:0:0:0:
192,192,104646,1,0,0:0:0:0:
320,192,104735,1,0,0:0:0:0:
64,192,104911,1,0,0:0:0:0:
192,192,104999,1,0,0:0:0:0:
448,192,105087,1,0,0:0:0:0:
320,192,105176,1,0,0:0:0:0:
192,192,105264,1,0,0:0:0:0:
448,192,105440,1,0,0:0:0:0:
320,192,105617,128,0,105970:0:0:0:0:
192,192,105617,1,0,0:0:0:0:
64,192,105970,1,0,0:0:0:0:
192,192,106146,128,0,106323:0:0:0:0:
448,192,106323,1,0,0:0:0:0:
320,192,106499,128,0,106676:0:0:0:0:
192,192,106676,1,0,0:0:0:0:
64,192,106852,128,0,107029:0:0:0:0:
320,192,107029,1,0,0:0:0:0:
448,192,107205,128,0,107382:0:0:0:0:
64,192,107382,128,0,107735:0:0:0:0:
320,192,107558,1,0,0:0:0:0:
448,192,107735,128,0,108087:0:0:0:0:
64,192,107911,1,0,0:0:0:0:
192,192,108087,128,0,108440:0:0:0:0:
448,192,108264,1,0,0:0:0:0:
64,192,108440,1,0,0:0:0:0:
320,192,108440,1,0,0:0:0:0:
192,192,108617,1,0,0:0:0:0:
320,192,108793,1,0,0:0:0:0:
448,192,108970,128,0,109146:0:0:0:0:
64,192,109146,1,0,0:0:0:0:
320,192,109323,128,0,109499:0:0:0:0:
192,192,109499,128,0,109676:0:0:0:0:
64,192,109676,128,0,109852:0:0:0:0:
320,192,109852,128,0,110029:0:0:0:0:
192,192,110029,128,0,110205:0:0:0:0:
448,192,110205,1,0,0:0:0:0:
64,192,110382,128,0,110558:0:0:0:0:
320,192,110558,1,0,0:0:0:0:
448,192,110735,128,0,110911:0:0:0:0:
64,192,110911,128,0,111087:0:0:0:0:
192,192,111087,128,0,111264:0:0:0:0:
320,192,111264,1,0,0:0:0:0:
448,192,111264,128,0,111440:0:0:0:0:
64,192,111440,128,0,111617:0:0:0:0:
320,192,111617,1,0,0:0:0:0:
448,192,111793,128,0,111970:0:0:0:0:
64,192,111970,1,0,0:0:0:0:
320,192,112146,128,0,112323:0:0:0:0:
192,192,112323,128,0,112499:0:0:0:0:
64,192,112499,128,0,112676:0:0:0:0:
320,192,112676,128,0,112852:0:0:0:0:
192,192,112852,128,0,113029:0:0:0:0:
448,192,113029,1,0,0:0:0:0:
64,192,113205,128,0,113382:0:0:0:0:
320,192,113382,1,0,0:0:0:0:
448,192,113558,128,0,113735:0:0:0:0:
192,192,113735,128,0,114087:0:0:0:0:
320,192,113911,1,0,0:0:0:0:
448,192,114087,1,0,0:0:0:0:
64,192,114087,1,0,0:0:0:0:
320,192,114440,1,0,0:0:0:0:
448,192,114440,1,0,0:0:0:0:
192,192,114617,1,0,0:0:0:0:
448,192,114793,1,0,0:0:0:0:
64,192,114970,1,0,0:0:0:0:
192,192,115146,1,0,0:0:0:0:
448,192,115323,1,0,0:0:0:0:
320,192,115499,1,0,0:0:0:0:
192,192,115676,1,0,0:0:0:0:
64,192,115852,1,0,0:0:0:0:
320,192,116029,1,0,0:0:0:0:
64,192,116205,1,0,0:0:0:0:
192,192,116382,1,0,0:0:0:0:
320,192,116558,1,0,0:0:0:0:
448,192,116735,1,0,0:0:0:0:
64,192,116911,1,0,0:0:0:0:
192,192,116911,1,0,0:0:0:0:
320,192,117087,1,0,0:0:0:0:
448,192,117264,1,0,0:0:0:0:
192,192,117440,1,0,0:0:0:0:
448,192,117617,1,0,0:0:0:0:
64,192,117793,1,0,0:0:0:0:
192,192,117970,1,0,0:0:0:0:
448,192,118146,1,0,0:0:0:0:
320,192,118323,1,0,0:0:0:0:
192,192,118499,1,0,0:0:0:0:
64,192,118676,1,0,0:0:0:0:
320,192,118852,1,0,0:0:0:0:
64,192,119029,1,0,0:0:0:0:
192,192,119205,1,0,0:0:0:0:
320,192,119382,1,0,0:0:0:0:
448,192,119558,1,0,0:0:0:0:
64,192,119735,1,0,0:0:0:0:
192,192,119735,1,0,0:0:0:0:
320,192,119911,1,0,0:0:0:0:
448,192,120087,1,0,0:0:0:0:
192,192,120264,1,0,0:0:0:0:
448,192,120440,1,0,0:0:0:0:
64,192,120617,1,0,0:0:0:0:
192,192,120793,1,0,0:0:0:0:
448,192,120970,1,0,0:0:0:0:
320,192,121146,1,0,0:0:0:0:
192,192,121323,1,0,0:0:0:0:
64,192,121499,1,0,0:0:0:0:
448,192,121676,1,0,0:0:0:0:
64,192,121852,1,0,0:0:0:0:
320,192,122029,1,0,0:0:0:0:
192,192,122205,1,0,0:0:0:0:
64,192,122382,1,0,0:0:0:0:
192,192,122558,1,0,0:0:0:0:
448,192,122558,1,0,0:0:0:0:
320,192,122735,1,0,0:0:0:0:
448,192,122911,1,0,0:0:0:0:
192,192,123087,1,0,0:0:0:0:
448,192,123264,1,0,0:0:0:0:
64,192,123440,1,0,0:0:0:0:
192,192,123617,1,0,0:0:0:0:
448,192,123793,1,0,0:0:0:0:
320,192,123970,1,0,0:0:0:0:
192,192,124146,1,0,0:0:0:0:
64,192,124323,1,0,0:0:0:0:
448,192,124499,1,0,0:0:0:0:
64,192,124676,1,0,0:0:0:0:
320,192,124852,1,0,0:0:0:0:
192,192,125029,1,0,0:0:0:0:
448,192,125205,1,0,0:0:0:0:
64,192,125205,1,0,0:0:0:0:
320,192,125382,1,0,0:0:0:0:
192,192,125382,1,0,0:0:0:0:
