osu file format v14

[General]
AudioFilename: audio.mp3
AudioLeadIn: 0
PreviewTime: 80558
Countdown: 0
SampleSet: Soft
StackLeniency: 0.7
Mode: 3
LetterboxInBreaks: 0
SpecialStyle: 0
WidescreenStoryboard: 1

[Editor]
DistanceSpacing: 1
BeatDivisor: 2
GridSize: 4
TimelineZoom: 2.4

[Metadata]
Title:Chat perdu
TitleUnicode:Chat perdu
Artist:Feryquitous
ArtistUnicode:Feryquitous
Creator:-mint-
Version:Neuf vies
Source:Deemo
Tags:lost cat rayark collection ♯2 #2 sharp qqqant piano video game electronic jazz instrumental
BeatmapID:3885490
BeatmapSetID:1886842

[Difficulty]
HPDrainRate:7.5
CircleSize:4
OverallDifficulty:7.5
ApproachRate:5
SliderMultiplier:1.4
SliderTickRate:1

[Events]
//Background and Video events
0,0,"Chat_Perdu.jpg",0,0
//Break Periods
//Storyboard Layer 0 (Background)
//Storyboard Layer 1 (Fail)
//Storyboard Layer 2 (Pass)
//Storyboard Layer 3 (Foreground)
//Storyboard Layer 4 (Overlay)
//Storyboard Sound Samples

[TimingPoints]
88,352.941176470588,4,2,1,40,1,0
80558,-100,4,2,1,40,0,1
103146,-100,4,2,1,40,0,0

[HitObjects]
320,192,1499,5,0,0:0:0:0:
192,192,1676,128,0,1852:0:0:0:0:
448,192,1852,1,0,0:0:0:0:
64,192,2029,128,0,2205:0:0:0:0:
192,192,2205,1,0,0:0:0:0:
448,192,2382,128,0,2558:0:0:0:0:
320,192,2558,1,0,0:0:0:0:
192,192,2735,128,0,2911:0:0:0:0:
64,192,2911,5,0,0:0:0:0:
448,192,3087,128,0,3264:0:0:0:0:
192,192,3264,1,0,0:0:0:0:
64,192,3440,128,0,3617:0:0:0:0:
320,192,3617,1,0,0:0:0:0:
448,192,3793,128,0,3970:0:0:0:0:
64,192,3970,1,0,0:0:0:0:
320,192,4146,128,0,4323:0:0:0:0:
448,192,4323,1,0,0:0:0:0:
192,192,4499,128,0,4676:0:0:0:0:
320,192,4676,1,0,0:0:0:0:
64,192,4852,128,0,5029:0:0:0:0:
192,192,5029,1,0,0:0:0:0:
448,192,5205,128,0,5382:0:0:0:0:
320,192,5382,1,0,0:0:0:0:
192,192,5558,128,0,5735:0:0:0:0:
64,192,5735,5,0,0:0:0:0:
448,192,5911,128,0,6087:0:0:0:0:
192,192,6087,1,0,0:0:0:0:
64,192,6264,128,0,6440:0:0:0:0:
320,192,6440,1,0,0:0:0:0:
448,192,6617,128,0,6793:0:0:0:0:
64,192,6793,1,0,0:0:0:0:
320,192,6970,128,0,7146:0:0:0:0:
448,192,7146,1,0,0:0:0:0:
192,192,7323,128,0,7499:0:0:0:0:
448,192,7499,1,0,0:0:0:0:
64,192,7676,128,0,7852:0:0:0:0:
192,192,7852,1,0,0:0:0:0:
448,192,8029,128,0,8205:0:0:0:0:
320,192,8205,1,0,0:0:0:0:
192,192,8382,128,0,8558:0:0:0:0:
64,192,8558,5,0,0:0:0:0:
448,192,8735,128,0,8911:0:0:0:0:
64,192,8911,1,0,0:0:0:0:
320,192,9087,128,0,9264:0:0:0:0:
192,192,9264,1,0,0:0:0:0:
64,192,9440,128,0,9617:0:0:0:0:
192,192,9617,1,0,0:0:0:0:
320,192,9617,1,0,0:0:0:0:
320,192,9793,128,0,9970:0:0:0:0:
448,192,9970,1,0,0:0:0:0:
192,192,10146,128,0,10323:0:0:0:0:
448,192,10323,1,0,0:0:0:0:
64,192,10499,128,0,10676:0:0:0:0:
192,192,10676,1,0,0:0:0:0:
448,192,10852,128,0,11029:0:0:0:0:
320,192,11029,1,0,0:0:0:0:
192,192,11205,128,0,11382:0:0:0:0:
64,192,11382,5,0,0:0:0:0:
448,192,11558,128,0,11735:0:0:0:0:
64,192,11735,1,0,0:0:0:0:
320,192,11911,128,0,12087:0:0:0:0:
192,192,12087,1,0,0:0:0:0:
448,192,12264,128,0,12352:0:0:0:0:
64,192,12440,128,0,12617:0:0:0:0:
448,192,12440,128,0,12617:0:0:0:0:
192,192,12793,128,0,12882:0:0:0:0:
64,192,12793,128,0,12970:0:0:0:0:
448,192,12882,128,0,12970:0:0:0:0:
320,192,12970,128,0,13058:0:0:0:0:
192,192,12970,128,0,13146:0:0:0:0:
64,192,13058,128,0,13146:0:0:0:0:
320,192,13146,128,0,13323:0:0:0:0:
192,192,13235,128,0,13323:0:0:0:0:
448,192,13323,128,0,13411:0:0:0:0:
64,192,13323,128,0,13499:0:0:0:0:
192,192,13411,128,0,13499:0:0:0:0:
448,192,13499,128,0,13676:0:0:0:0:
320,192,13587,128,0,13676:0:0:0:0:
192,192,13676,128,0,13852:0:0:0:0:
64,192,13676,128,0,13764:0:0:0:0:
448,192,13764,128,0,13852:0:0:0:0:
64,192,13852,128,0,14029:0:0:0:0:
448,192,14029,128,0,14205:0:0:0:0:
192,192,14029,128,0,14205:0:0:0:0:
320,192,14205,128,0,14293:0:0:0:0:
64,192,14293,128,0,14382:0:0:0:0:
320,192,14382,128,0,14558:0:0:0:0:
448,192,14382,128,0,14470:0:0:0:0:
192,192,14470,128,0,14558:0:0:0:0:
448,192,14558,128,0,14646:0:0:0:0:
64,192,14646,128,0,14735:0:0:0:0:
192,192,14735,128,0,14823:0:0:0:0:
448,192,14735,128,0,14911:0:0:0:0:
320,192,14823,128,0,14911:0:0:0:0:
192,192,14911,128,0,14999:0:0:0:0:
320,192,15087,128,0,15176:0:0:0:0:
192,192,15087,128,0,15264:0:0:0:0:
320,192,15264,128,0,15617:0:0:0:0:
64,192,15264,128,0,15440:0:0:0:0:
448,192,15440,1,0,0:0:0:0:
192,192,15617,128,0,15705:0:0:0:0:
64,192,15617,128,0,15793:0:0:0:0:
448,192,15705,128,0,15793:0:0:0:0:
320,192,15793,128,0,15882:0:0:0:0:
192,192,15793,128,0,15970:0:0:0:0:
64,192,15882,128,0,15970:0:0:0:0:
320,192,15970,128,0,16146:0:0:0:0:
192,192,16058,128,0,16146:0:0:0:0:
448,192,16146,128,0,16235:0:0:0:0:
64,192,16146,128,0,16323:0:0:0:0:
192,192,16235,128,0,16323:0:0:0:0:
448,192,16323,128,0,16499:0:0:0:0:
320,192,16411,128,0,16499:0:0:0:0:
192,192,16499,128,0,16676:0:0:0:0:
64,192,16499,128,0,16587:0:0:0:0:
448,192,16587,128,0,16676:0:0:0:0:
64,192,16676,128,0,16852:0:0:0:0:
192,192,16852,128,0,16940:0:0:0:0:
448,192,16852,128,0,17029:0:0:0:0:
192,192,17029,128,0,17293:0:0:0:0:
320,192,17029,128,0,17205:0:0:0:0:
448,192,17205,128,0,17293:0:0:0:0:
192,192,17382,128,0,17558:0:0:0:0:
448,192,17382,128,0,17646:0:0:0:0:
64,192,17558,128,0,17646:0:0:0:0:
448,192,17735,128,0,17911:0:0:0:0:
64,192,17735,128,0,17999:0:0:0:0:
320,192,17911,128,0,17999:0:0:0:0:
64,192,18087,1,0,0:0:0:0:
320,192,18087,1,0,0:0:0:0:
192,192,18264,1,0,0:0:0:0:
320,192,18440,128,0,18617:0:0:0:0:
448,192,18440,128,0,18529:0:0:0:0:
64,192,18529,128,0,18617:0:0:0:0:
192,192,18617,128,0,18705:0:0:0:0:
448,192,18617,128,0,18793:0:0:0:0:
320,192,18705,128,0,18793:0:0:0:0:
192,192,18793,128,0,18882:0:0:0:0:
192,192,18970,128,0,19146:0:0:0:0:
448,192,18970,128,0,19058:0:0:0:0:
448,192,19146,128,0,19323:0:0:0:0:
64,192,19146,128,0,19235:0:0:0:0:
320,192,19323,128,0,19411:0:0:0:0:
64,192,19323,128,0,19499:0:0:0:0:
320,192,19499,128,0,19676:0:0:0:0:
448,192,19499,128,0,19587:0:0:0:0:
448,192,19676,128,0,19852:0:0:0:0:
192,192,19676,128,0,19764:0:0:0:0:
64,192,19852,128,0,19940:0:0:0:0:
192,192,19852,128,0,20029:0:0:0:0:
320,192,19940,128,0,20029:0:0:0:0:
448,192,20029,128,0,20117:0:0:0:0:
64,192,20029,128,0,20205:0:0:0:0:
192,192,20117,128,0,20205:0:0:0:0:
448,192,20205,128,0,20293:0:0:0:0:
64,192,20382,128,0,20470:0:0:0:0:
448,192,20382,128,0,20558:0:0:0:0:
192,192,20558,128,0,20646:0:0:0:0:
64,192,20558,128,0,20735:0:0:0:0:
192,192,20735,128,0,20911:0:0:0:0:
448,192,20735,128,0,20823:0:0:0:0:
64,192,20911,1,0,0:0:0:0:
448,192,20911,128,0,21087:0:0:0:0:
64,192,21087,128,0,21264:0:0:0:0:
320,192,21087,128,0,21176:0:0:0:0:
320,192,21264,128,0,21440:0:0:0:0:
448,192,21264,128,0,21352:0:0:0:0:
64,192,21352,128,0,21440:0:0:0:0:
192,192,21440,128,0,21529:0:0:0:0:
448,192,21440,128,0,21617:0:0:0:0:
320,192,21529,128,0,21617:0:0:0:0:
192,192,21617,128,0,21705:0:0:0:0:
192,192,21793,128,0,21970:0:0:0:0:
448,192,21793,128,0,21882:0:0:0:0:
448,192,21970,128,0,22146:0:0:0:0:
64,192,21970,128,0,22058:0:0:0:0:
320,192,22146,128,0,22235:0:0:0:0:
64,192,22146,128,0,22323:0:0:0:0:
320,192,22323,128,0,22499:0:0:0:0:
448,192,22323,128,0,22411:0:0:0:0:
448,192,22499,128,0,22676:0:0:0:0:
192,192,22499,128,0,22587:0:0:0:0:
64,192,22676,128,0,22764:0:0:0:0:
192,192,22676,128,0,22852:0:0:0:0:
320,192,22764,128,0,22852:0:0:0:0:
448,192,22852,128,0,22940:0:0:0:0:
64,192,22852,128,0,23029:0:0:0:0:
192,192,22940,128,0,23029:0:0:0:0:
448,192,23029,128,0,23117:0:0:0:0:
64,192,23205,128,0,23293:0:0:0:0:
448,192,23205,128,0,23382:0:0:0:0:
320,192,23382,128,0,23735:0:0:0:0:
64,192,23382,128,0,23646:0:0:0:0:
192,192,23558,128,0,23735:0:0:0:0:
64,192,23735,1,0,0:0:0:0:
448,192,23735,128,0,23823:0:0:0:0:
448,192,24087,128,0,24264:0:0:0:0:
320,192,24087,128,0,24176:0:0:0:0:
64,192,24176,128,0,24264:0:0:0:0:
320,192,24264,128,0,24440:0:0:0:0:
192,192,24264,128,0,24352:0:0:0:0:
448,192,24352,128,0,24440:0:0:0:0:
192,192,24440,128,0,24617:0:0:0:0:
320,192,24529,128,0,24617:0:0:0:0:
448,192,24617,128,0,24793:0:0:0:0:
64,192,24617,128,0,24705:0:0:0:0:
320,192,24705,128,0,24793:0:0:0:0:
64,192,24793,128,0,24970:0:0:0:0:
192,192,24882,128,0,24970:0:0:0:0:
448,192,24970,128,0,25058:0:0:0:0:
320,192,24970,128,0,25146:0:0:0:0:
64,192,25058,128,0,25146:0:0:0:0:
448,192,25146,128,0,25323:0:0:0:0:
320,192,25323,128,0,25499:0:0:0:0:
64,192,25323,128,0,25499:0:0:0:0:
192,192,25499,128,0,25587:0:0:0:0:
448,192,25587,128,0,25676:0:0:0:0:
192,192,25676,128,0,25852:0:0:0:0:
64,192,25676,128,0,25764:0:0:0:0:
320,192,25764,128,0,25852:0:0:0:0:
64,192,25852,128,0,25940:0:0:0:0:
448,192,25940,128,0,26029:0:0:0:0:
64,192,26029,128,0,26205:0:0:0:0:
320,192,26029,128,0,26117:0:0:0:0:
192,192,26117,128,0,26205:0:0:0:0:
320,192,26205,128,0,26293:0:0:0:0:
320,192,26382,128,0,26558:0:0:0:0:
192,192,26382,128,0,26470:0:0:0:0:
448,192,26558,128,0,26735:0:0:0:0:
192,192,26558,128,0,26911:0:0:0:0:
64,192,26735,1,0,0:0:0:0:
448,192,26911,128,0,27087:0:0:0:0:
320,192,26911,128,0,26999:0:0:0:0:
64,192,26999,128,0,27087:0:0:0:0:
320,192,27087,128,0,27264:0:0:0:0:
192,192,27087,128,0,27176:0:0:0:0:
448,192,27176,128,0,27264:0:0:0:0:
192,192,27264,128,0,27440:0:0:0:0:
320,192,27352,128,0,27440:0:0:0:0:
448,192,27440,128,0,27617:0:0:0:0:
64,192,27440,128,0,27529:0:0:0:0:
320,192,27529,128,0,27617:0:0:0:0:
64,192,27617,128,0,27793:0:0:0:0:
192,192,27705,128,0,27793:0:0:0:0:
448,192,27793,128,0,27882:0:0:0:0:
320,192,27793,128,0,27970:0:0:0:0:
64,192,27882,128,0,27970:0:0:0:0:
448,192,27970,128,0,28146:0:0:0:0:
64,192,28146,128,0,28323:0:0:0:0:
320,192,28146,128,0,28235:0:0:0:0:
192,192,28323,128,0,28499:0:0:0:0:
320,192,28323,128,0,28587:0:0:0:0:
64,192,28499,128,0,28587:0:0:0:0:
64,192,28676,128,0,28940:0:0:0:0:
320,192,28676,128,0,28852:0:0:0:0:
448,192,28852,128,0,28940:0:0:0:0:
448,192,29029,128,0,29293:0:0:0:0:
64,192,29029,128,0,29205:0:0:0:0:
192,192,29205,128,0,29293:0:0:0:0:
192,192,29382,1,0,0:0:0:0:
448,192,29382,1,0,0:0:0:0:
320,192,29558,1,0,0:0:0:0:
64,192,29735,128,0,29823:0:0:0:0:
192,192,29735,128,0,29911:0:0:0:0:
448,192,29823,128,0,29911:0:0:0:0:
64,192,29911,128,0,30087:0:0:0:0:
320,192,29911,128,0,29999:0:0:0:0:
192,192,29999,128,0,30087:0:0:0:0:
320,192,30087,128,0,30176:0:0:0:0:
64,192,30264,128,0,30352:0:0:0:0:
320,192,30264,128,0,30440:0:0:0:0:
448,192,30440,128,0,30529:0:0:0:0:
64,192,30440,128,0,30617:0:0:0:0:
448,192,30617,128,0,30793:0:0:0:0:
192,192,30617,128,0,30705:0:0:0:0:
64,192,30793,128,0,30882:0:0:0:0:
192,192,30793,128,0,30970:0:0:0:0:
320,192,30970,128,0,31058:0:0:0:0:
64,192,30970,128,0,31146:0:0:0:0:
320,192,31146,128,0,31323:0:0:0:0:
448,192,31146,128,0,31235:0:0:0:0:
192,192,31235,128,0,31323:0:0:0:0:
448,192,31323,128,0,31499:0:0:0:0:
64,192,31323,128,0,31411:0:0:0:0:
320,192,31411,128,0,31499:0:0:0:0:
64,192,31499,128,0,31587:0:0:0:0:
64,192,31676,128,0,31852:0:0:0:0:
448,192,31676,128,0,31764:0:0:0:0:
448,192,31852,128,0,32029:0:0:0:0:
320,192,31852,128,0,31940:0:0:0:0:
64,192,32029,128,0,32117:0:0:0:0:
320,192,32029,128,0,32205:0:0:0:0:
64,192,32205,128,0,32382:0:0:0:0:
448,192,32205,1,0,0:0:0:0:
192,192,32382,128,0,32470:0:0:0:0:
448,192,32382,128,0,32558:0:0:0:0:
64,192,32558,128,0,32646:0:0:0:0:
192,192,32558,128,0,32735:0:0:0:0:
448,192,32646,128,0,32735:0:0:0:0:
64,192,32735,128,0,32911:0:0:0:0:
320,192,32735,128,0,32823:0:0:0:0:
192,192,32823,128,0,32911:0:0:0:0:
320,192,32911,128,0,32999:0:0:0:0:
64,192,33087,128,0,33176:0:0:0:0:
320,192,33087,128,0,33264:0:0:0:0:
448,192,33264,128,0,33352:0:0:0:0:
64,192,33264,128,0,33440:0:0:0:0:
448,192,33440,128,0,33617:0:0:0:0:
192,192,33440,128,0,33529:0:0:0:0:
64,192,33617,128,0,33705:0:0:0:0:
192,192,33617,128,0,33793:0:0:0:0:
320,192,33793,128,0,33882:0:0:0:0:
64,192,33793,128,0,33970:0:0:0:0:
320,192,33970,128,0,34146:0:0:0:0:
448,192,33970,128,0,34058:0:0:0:0:
192,192,34058,128,0,34146:0:0:0:0:
448,192,34146,128,0,34323:0:0:0:0:
64,192,34146,128,0,34235:0:0:0:0:
320,192,34235,128,0,34323:0:0:0:0:
64,192,34323,128,0,34411:0:0:0:0:
448,192,34499,128,0,34587:0:0:0:0:
64,192,34499,128,0,34940:0:0:0:0:
448,192,34676,128,0,34852:0:0:0:0:
192,192,34676,128,0,35029:0:0:0:0:
320,192,34852,128,0,35029:0:0:0:0:
64,192,35029,128,0,35117:0:0:0:0:
448,192,35029,1,0,0:0:0:0:
320,192,35146,1,0,0:0:0:0:
320,192,35264,1,0,0:0:0:0:
192,192,35264,1,0,0:0:0:0:
448,192,35382,128,0,35499:0:0:0:0:
64,192,35382,128,0,35617:0:0:0:0:
192,192,35499,128,0,35617:0:0:0:0:
448,192,35617,128,0,35735:0:0:0:0:
64,192,35735,128,0,35852:0:0:0:0:
320,192,35735,128,0,36087:0:0:0:0:
192,192,35852,128,0,35970:0:0:0:0:
64,192,35970,128,0,36087:0:0:0:0:
192,192,36087,128,0,36205:0:0:0:0:
448,192,36087,128,0,36323:0:0:0:0:
64,192,36205,128,0,36323:0:0:0:0:
192,192,36323,1,0,0:0:0:0:
320,192,36323,128,0,36440:0:0:0:0:
448,192,36440,128,0,36558:0:0:0:0:
192,192,36440,128,0,36793:0:0:0:0:
64,192,36558,128,0,36676:0:0:0:0:
320,192,36676,128,0,36793:0:0:0:0:
64,192,36793,128,0,37029:0:0:0:0:
448,192,36793,128,0,36911:0:0:0:0:
320,192,36911,128,0,37029:0:0:0:0:
192,192,36911,128,0,37029:0:0:0:0:
448,192,37029,1,0,0:0:0:0:
448,192,37146,128,0,37499:0:0:0:0:
64,192,37146,128,0,37264:0:0:0:0:
320,192,37264,128,0,37382:0:0:0:0:
64,192,37382,128,0,37499:0:0:0:0:
192,192,37382,128,0,37499:0:0:0:0:
320,192,37499,128,0,37735:0:0:0:0:
192,192,37617,128,0,37735:0:0:0:0:
448,192,37735,128,0,37852:0:0:0:0:
64,192,37735,1,0,0:0:0:0:
320,192,37852,128,0,37970:0:0:0:0:
64,192,37852,128,0,38205:0:0:0:0:
192,192,37970,128,0,38087:0:0:0:0:
320,192,38087,128,0,38205:0:0:0:0:
448,192,38205,128,0,38323:0:0:0:0:
192,192,38323,128,0,38440:0:0:0:0:
448,192,38440,128,0,38558:0:0:0:0:
64,192,38558,128,0,38676:0:0:0:0:
320,192,38558,128,0,38911:0:0:0:0:
192,192,38676,128,0,38793:0:0:0:0:
64,192,38793,128,0,38911:0:0:0:0:
192,192,38911,128,0,39029:0:0:0:0:
448,192,38911,128,0,39146:0:0:0:0:
64,192,39029,128,0,39146:0:0:0:0:
192,192,39146,1,0,0:0:0:0:
320,192,39146,128,0,39264:0:0:0:0:
448,192,39264,128,0,39382:0:0:0:0:
192,192,39264,128,0,39617:0:0:0:0:
64,192,39382,128,0,39499:0:0:0:0:
320,192,39499,128,0,39617:0:0:0:0:
64,192,39617,128,0,39735:0:0:0:0:
448,192,39617,128,0,39852:0:0:0:0:
192,192,39735,128,0,39852:0:0:0:0:
320,192,39735,128,0,39852:0:0:0:0:
64,192,39852,1,0,0:0:0:0:
64,192,39970,128,0,40323:0:0:0:0:
448,192,39970,128,0,40087:0:0:0:0:
192,192,40087,128,0,40205:0:0:0:0:
448,192,40205,128,0,40323:0:0:0:0:
320,192,40205,128,0,40323:0:0:0:0:
192,192,40323,128,0,40558:0:0:0:0:
320,192,40440,128,0,40558:0:0:0:0:
64,192,40558,128,0,40676:0:0:0:0:
448,192,40558,1,0,0:0:0:0:
192,192,40676,128,0,40793:0:0:0:0:
448,192,40676,128,0,41029:0:0:0:0:
64,192,40793,128,0,40911:0:0:0:0:
320,192,40911,128,0,41029:0:0:0:0:
192,192,41029,128,0,41382:0:0:0:0:
64,192,41029,128,0,41264:0:0:0:0:
64,192,41382,128,0,41735:0:0:0:0:
448,192,41382,128,0,41617:0:0:0:0:
448,192,41735,128,0,42087:0:0:0:0:
320,192,41735,128,0,41970:0:0:0:0:
64,192,41970,1,0,0:0:0:0:
64,192,42087,128,0,42323:0:0:0:0:
320,192,42087,128,0,42440:0:0:0:0:
64,192,42440,128,0,42793:0:0:0:0:
320,192,42558,1,0,0:0:0:0:
320,192,42676,1,0,0:0:0:0:
448,192,42793,128,0,43146:0:0:0:0:
192,192,42793,128,0,43029:0:0:0:0:
320,192,43029,1,0,0:0:0:0:
64,192,43146,128,0,43382:0:0:0:0:
192,192,43146,128,0,43499:0:0:0:0:
448,192,43382,1,0,0:0:0:0:
64,192,43499,128,0,43852:0:0:0:0:
448,192,43499,128,0,43735:0:0:0:0:
448,192,43852,128,0,43970:0:0:0:0:
192,192,43970,128,0,44087:0:0:0:0:
448,192,44087,128,0,44205:0:0:0:0:
64,192,44205,128,0,44323:0:0:0:0:
320,192,44205,128,0,44558:0:0:0:0:
192,192,44323,128,0,44440:0:0:0:0:
64,192,44440,128,0,44558:0:0:0:0:
192,192,44558,128,0,44676:0:0:0:0:
448,192,44558,128,0,44793:0:0:0:0:
64,192,44676,128,0,44793:0:0:0:0:
192,192,44793,1,0,0:0:0:0:
320,192,44793,128,0,44911:0:0:0:0:
448,192,44911,128,0,45029:0:0:0:0:
192,192,44911,128,0,45264:0:0:0:0:
64,192,45029,128,0,45146:0:0:0:0:
320,192,45146,1,0,0:0:0:0:
64,192,45264,128,0,45382:0:0:0:0:
320,192,45264,128,0,45499:0:0:0:0:
192,192,45382,128,0,45499:0:0:0:0:
448,192,45382,128,0,45499:0:0:0:0:
64,192,45499,1,0,0:0:0:0:
64,192,45617,128,0,45852:0:0:0:0:
320,192,45617,128,0,45735:0:0:0:0:
192,192,45735,128,0,45852:0:0:0:0:
448,192,45852,128,0,45970:0:0:0:0:
320,192,45852,128,0,45970:0:0:0:0:
64,192,45970,128,0,46323:0:0:0:0:
192,192,45970,128,0,46205:0:0:0:0:
448,192,46205,1,0,0:0:0:0:
192,192,46323,128,0,46676:0:0:0:0:
448,192,46323,128,0,46558:0:0:0:0:
64,192,46676,128,0,46793:0:0:0:0:
448,192,46676,128,0,46911:0:0:0:0:
320,192,46793,128,0,47029:0:0:0:0:
64,192,46911,128,0,47029:0:0:0:0:
448,192,47029,128,0,47146:0:0:0:0:
192,192,47029,128,0,47382:0:0:0:0:
320,192,47146,128,0,47264:0:0:0:0:
448,192,47264,128,0,47382:0:0:0:0:
320,192,47382,128,0,47499:0:0:0:0:
64,192,47382,128,0,47617:0:0:0:0:
448,192,47499,128,0,47617:0:0:0:0:
320,192,47617,1,0,0:0:0:0:
192,192,47617,128,0,47735:0:0:0:0:
64,192,47735,128,0,47970:0:0:0:0:
320,192,47735,128,0,48087:0:0:0:0:
448,192,47852,128,0,47970:0:0:0:0:
192,192,47970,128,0,48087:0:0:0:0:
448,192,48087,128,0,48323:0:0:0:0:
64,192,48087,128,0,48205:0:0:0:0:
192,192,48205,128,0,48323:0:0:0:0:
320,192,48205,128,0,48440:0:0:0:0:
64,192,48323,1,0,0:0:0:0:
64,192,48440,128,0,48793:0:0:0:0:
448,192,48440,128,0,48558:0:0:0:0:
192,192,48558,128,0,48676:0:0:0:0:
448,192,48676,128,0,48793:0:0:0:0:
320,192,48676,128,0,48793:0:0:0:0:
192,192,48793,128,0,49029:0:0:0:0:
320,192,48911,128,0,49029:0:0:0:0:
64,192,49029,128,0,49146:0:0:0:0:
448,192,49029,1,0,0:0:0:0:
192,192,49146,128,0,49264:0:0:0:0:
448,192,49146,128,0,49499:0:0:0:0:
320,192,49264,128,0,49499:0:0:0:0:
192,192,49382,128,0,49499:0:0:0:0:
64,192,49499,128,0,49617:0:0:0:0:
320,192,49617,128,0,49852:0:0:0:0:
64,192,49735,128,0,49852:0:0:0:0:
448,192,49852,128,0,49970:0:0:0:0:
192,192,49852,128,0,50205:0:0:0:0:
320,192,49970,128,0,50087:0:0:0:0:
448,192,50087,128,0,50205:0:0:0:0:
320,192,50205,128,0,50323:0:0:0:0:
64,192,50205,128,0,50440:0:0:0:0:
448,192,50323,128,0,50440:0:0:0:0:
320,192,50440,1,0,0:0:0:0:
192,192,50440,128,0,50558:0:0:0:0:
64,192,50558,128,0,50793:0:0:0:0:
320,192,50558,128,0,50911:0:0:0:0:
448,192,50676,128,0,50793:0:0:0:0:
192,192,50793,128,0,50911:0:0:0:0:
448,192,50911,128,0,51029:0:0:0:0:
64,192,50911,128,0,51146:0:0:0:0:
320,192,51029,128,0,51146:0:0:0:0:
192,192,51029,128,0,51264:0:0:0:0:
448,192,51146,1,0,0:0:0:0:
448,192,51264,128,0,51617:0:0:0:0:
64,192,51264,128,0,51382:0:0:0:0:
320,192,51382,128,0,51499:0:0:0:0:
64,192,51499,128,0,51617:0:0:0:0:
192,192,51499,128,0,51617:0:0:0:0:
320,192,51617,128,0,51852:0:0:0:0:
192,192,51735,128,0,51852:0:0:0:0:
448,192,51852,128,0,51970:0:0:0:0:
64,192,51852,1,0,0:0:0:0:
320,192,51970,128,0,52205:0:0:0:0:
64,192,51970,128,0,52323:0:0:0:0:
448,192,52087,128,0,52205:0:0:0:0:
192,192,52205,128,0,52323:0:0:0:0:
320,192,52323,128,0,52676:0:0:0:0:
448,192,52323,128,0,52558:0:0:0:0:
448,192,52676,128,0,53029:0:0:0:0:
64,192,52676,128,0,52911:0:0:0:0:
64,192,53029,128,0,53382:0:0:0:0:
192,192,53029,128,0,53264:0:0:0:0:
448,192,53264,1,0,0:0:0:0:
448,192,53382,128,0,53617:0:0:0:0:
192,192,53382,128,0,53735:0:0:0:0:
448,192,53735,128,0,54087:0:0:0:0:
192,192,53852,1,0,0:0:0:0:
192,192,53970,1,0,0:0:0:0:
64,192,54087,128,0,54440:0:0:0:0:
320,192,54087,128,0,54323:0:0:0:0:
192,192,54323,1,0,0:0:0:0:
448,192,54440,128,0,54676:0:0:0:0:
320,192,54440,128,0,54793:0:0:0:0:
64,192,54676,1,0,0:0:0:0:
448,192,54793,128,0,55146:0:0:0:0:
64,192,54793,128,0,55029:0:0:0:0:
64,192,55146,128,0,55264:0:0:0:0:
320,192,55264,128,0,55499:0:0:0:0:
64,192,55382,128,0,55499:0:0:0:0:
448,192,55499,128,0,55617:0:0:0:0:
192,192,55499,128,0,55852:0:0:0:0:
320,192,55617,128,0,55735:0:0:0:0:
448,192,55735,128,0,55852:0:0:0:0:
320,192,55852,128,0,55970:0:0:0:0:
64,192,55852,128,0,56087:0:0:0:0:
448,192,55970,128,0,56087:0:0:0:0:
320,192,56087,1,0,0:0:0:0:
192,192,56087,128,0,56205:0:0:0:0:
64,192,56205,128,0,56440:0:0:0:0:
320,192,56205,128,0,56558:0:0:0:0:
448,192,56323,128,0,56440:0:0:0:0:
192,192,56440,1,0,0:0:0:0:
448,192,56558,128,0,56676:0:0:0:0:
192,192,56558,128,0,56793:0:0:0:0:
320,192,56676,128,0,56793:0:0:0:0:
64,192,56676,128,0,56793:0:0:0:0:
448,192,56793,1,0,0:0:0:0:
448,192,56911,128,0,57146:0:0:0:0:
192,192,56911,128,0,57029:0:0:0:0:
320,192,57029,128,0,57146:0:0:0:0:
64,192,57146,128,0,57264:0:0:0:0:
192,192,57146,128,0,57264:0:0:0:0:
320,192,57264,128,0,57617:0:0:0:0:
448,192,57264,128,0,57970:0:0:0:0:
64,192,57617,128,0,57882:0:0:0:0:
64,192,57970,128,0,58058:0:0:0:0:
192,192,57970,128,0,58146:0:0:0:0:
320,192,58058,128,0,58146:0:0:0:0:
64,192,58146,128,0,58323:0:0:0:0:
192,192,58235,128,0,58323:0:0:0:0:
320,192,58323,128,0,58499:0:0:0:0:
448,192,58323,1,0,0:0:0:0:
64,192,58411,128,0,58499:0:0:0:0:
448,192,58499,128,0,58676:0:0:0:0:
192,192,58587,128,0,58676:0:0:0:0:
320,192,58676,128,0,58852:0:0:0:0:
64,192,58676,1,0,0:0:0:0:
448,192,58764,128,0,58852:0:0:0:0:
64,192,58852,128,0,59029:0:0:0:0:
320,192,58940,128,0,59029:0:0:0:0:
192,192,59029,128,0,59205:0:0:0:0:
448,192,59029,1,0,0:0:0:0:
320,192,59205,128,0,59382:0:0:0:0:
448,192,59382,128,0,59470:0:0:0:0:
64,192,59382,1,0,0:0:0:0:
192,192,59470,128,0,59558:0:0:0:0:
448,192,59558,128,0,59735:0:0:0:0:
320,192,59735,128,0,59823:0:0:0:0:
64,192,59735,1,0,0:0:0:0:
192,192,59823,128,0,59911:0:0:0:0:
320,192,59911,128,0,60087:0:0:0:0:
448,192,59999,128,0,60087:0:0:0:0:
64,192,60087,128,0,60176:0:0:0:0:
192,192,60087,1,0,0:0:0:0:
64,192,60264,128,0,60440:0:0:0:0:
448,192,60264,128,0,60352:0:0:0:0:
192,192,60440,128,0,60617:0:0:0:0:
448,192,60440,128,0,60793:0:0:0:0:
320,192,60617,1,0,0:0:0:0:
192,192,60793,128,0,60970:0:0:0:0:
64,192,60793,1,0,0:0:0:0:
320,192,60882,128,0,60970:0:0:0:0:
64,192,60970,128,0,61146:0:0:0:0:
192,192,61058,128,0,61146:0:0:0:0:
320,192,61146,128,0,61323:0:0:0:0:
448,192,61146,1,0,0:0:0:0:
64,192,61235,128,0,61323:0:0:0:0:
448,192,61323,128,0,61499:0:0:0:0:
192,192,61411,128,0,61499:0:0:0:0:
320,192,61499,128,0,61676:0:0:0:0:
64,192,61499,1,0,0:0:0:0:
448,192,61587,128,0,61676:0:0:0:0:
64,192,61676,128,0,61852:0:0:0:0:
320,192,61764,128,0,61852:0:0:0:0:
192,192,61852,128,0,62029:0:0:0:0:
448,192,61852,1,0,0:0:0:0:
320,192,62029,128,0,62205:0:0:0:0:
64,192,62205,128,0,62470:0:0:0:0:
448,192,62205,128,0,62382:0:0:0:0:
320,192,62382,128,0,62470:0:0:0:0:
320,192,62558,128,0,62823:0:0:0:0:
64,192,62558,128,0,62735:0:0:0:0:
192,192,62735,128,0,62823:0:0:0:0:
192,192,62911,128,0,63176:0:0:0:0:
320,192,62911,128,0,63087:0:0:0:0:
448,192,63087,128,0,63176:0:0:0:0:
448,192,63264,1,0,0:0:0:0:
192,192,63264,1,0,0:0:0:0:
64,192,63440,1,0,0:0:0:0:
448,192,63617,128,0,63793:0:0:0:0:
320,192,63617,1,0,0:0:0:0:
192,192,63705,128,0,63793:0:0:0:0:
320,192,63793,128,0,63970:0:0:0:0:
448,192,63882,128,0,63970:0:0:0:0:
64,192,63970,128,0,64058:0:0:0:0:
192,192,63970,1,0,0:0:0:0:
64,192,64146,128,0,64323:0:0:0:0:
448,192,64323,128,0,64499:0:0:0:0:
192,192,64323,1,0,0:0:0:0:
192,192,64499,128,0,64676:0:0:0:0:
64,192,64676,128,0,64852:0:0:0:0:
320,192,64676,1,0,0:0:0:0:
320,192,64852,128,0,65029:0:0:0:0:
64,192,65029,128,0,65205:0:0:0:0:
192,192,65029,1,0,0:0:0:0:
448,192,65117,128,0,65205:0:0:0:0:
192,192,65205,128,0,65382:0:0:0:0:
64,192,65293,128,0,65382:0:0:0:0:
320,192,65382,128,0,65470:0:0:0:0:
448,192,65382,1,0,0:0:0:0:
320,192,65558,128,0,65735:0:0:0:0:
448,192,65735,1,0,0:0:0:0:
64,192,65735,128,0,65911:0:0:0:0:
448,192,65911,128,0,66087:0:0:0:0:
192,192,66087,1,0,0:0:0:0:
320,192,66087,128,0,66264:0:0:0:0:
192,192,66264,128,0,66440:0:0:0:0:
448,192,66440,128,0,66617:0:0:0:0:
320,192,66440,1,0,0:0:0:0:
192,192,66529,128,0,66617:0:0:0:0:
320,192,66617,128,0,66793:0:0:0:0:
448,192,66705,128,0,66793:0:0:0:0:
64,192,66793,128,0,66882:0:0:0:0:
192,192,66793,1,0,0:0:0:0:
64,192,66970,128,0,67146:0:0:0:0:
192,192,67146,1,0,0:0:0:0:
448,192,67146,128,0,67323:0:0:0:0:
192,192,67323,128,0,67499:0:0:0:0:
320,192,67499,1,0,0:0:0:0:
64,192,67499,128,0,67676:0:0:0:0:
320,192,67676,128,0,67852:0:0:0:0:
192,192,67852,1,0,0:0:0:0:
64,192,67852,128,0,68029:0:0:0:0:
448,192,67940,128,0,68029:0:0:0:0:
192,192,68029,128,0,68205:0:0:0:0:
64,192,68117,128,0,68205:0:0:0:0:
320,192,68205,128,0,68293:0:0:0:0:
448,192,68205,1,0,0:0:0:0:
320,192,68382,128,0,68558:0:0:0:0:
448,192,68558,128,0,68911:0:0:0:0:
192,192,68558,128,0,68735:0:0:0:0:
64,192,68735,1,0,0:0:0:0:
320,192,68911,128,0,68999:0:0:0:0:
64,192,68911,1,0,0:0:0:0:
320,192,69264,1,0,0:0:0:0:
192,192,69440,1,0,0:0:0:0:
448,192,69617,1,0,0:0:0:0:
64,192,69793,1,0,0:0:0:0:
192,192,69970,1,0,0:0:0:0:
448,192,70146,1,0,0:0:0:0:
320,192,70323,1,0,0:0:0:0:
192,192,70499,128,0,70676:0:0:0:0:
64,192,70676,5,0,0:0:0:0:
448,192,70852,1,0,0:0:0:0:
192,192,71029,1,0,0:0:0:0:
64,192,71205,1,0,0:0:0:0:
320,192,71382,1,0,0:0:0:0:
448,192,71558,1,0,0:0:0:0:
64,192,71735,1,0,0:0:0:0:
192,192,71735,1,0,0:0:0:0:
320,192,71911,128,0,72087:0:0:0:0:
448,192,72087,1,0,0:0:0:0:
192,192,72264,1,0,0:0:0:0:
320,192,72440,1,0,0:0:0:0:
64,192,72617,1,0,0:0:0:0:
192,192,72793,1,0,0:0:0:0:
448,192,72970,1,0,0:0:0:0:
320,192,73146,1,0,0:0:0:0:
192,192,73323,128,0,73499:0:0:0:0:
64,192,73499,128,0,73676:0:0:0:0:
448,192,73499,128,0,73676:0:0:0:0:
320,192,73676,1,0,0:0:0:0:
320,192,73852,128,0,74029:0:0:0:0:
64,192,73852,128,0,74029:0:0:0:0:
192,192,74029,1,0,0:0:0:0:
192,192,74205,128,0,74382:0:0:0:0:
320,192,74205,128,0,74382:0:0:0:0:
448,192,74382,1,0,0:0:0:0:
64,192,74558,1,0,0:0:0:0:
192,192,74558,1,0,0:0:0:0:
448,192,74911,1,0,0:0:0:0:
192,192,75087,128,0,75264:0:0:0:0:
448,192,75264,1,0,0:0:0:0:
64,192,75440,128,0,75617:0:0:0:0:
192,192,75617,1,0,0:0:0:0:
448,192,75793,128,0,75970:0:0:0:0:
320,192,75970,1,0,0:0:0:0:
192,192,76146,128,0,76323:0:0:0:0:
64,192,76323,5,0,0:0:0:0:
448,192,76499,128,0,76676:0:0:0:0:
64,192,76676,1,0,0:0:0:0:
320,192,76852,128,0,77029:0:0:0:0:
192,192,77029,1,0,0:0:0:0:
64,192,77205,128,0,77382:0:0:0:0:
320,192,77382,1,0,0:0:0:0:
192,192,77382,1,0,0:0:0:0:
320,192,77558,128,0,77735:0:0:0:0:
448,192,77735,1,0,0:0:0:0:
192,192,77911,128,0,78087:0:0:0:0:
448,192,78087,1,0,0:0:0:0:
64,192,78264,128,0,78440:0:0:0:0:
192,192,78440,1,0,0:0:0:0:
448,192,78617,128,0,78793:0:0:0:0:
320,192,78793,1,0,0:0:0:0:
192,192,78970,128,0,79146:0:0:0:0:
64,192,79146,5,0,0:0:0:0:
448,192,79323,128,0,79499:0:0:0:0:
64,192,79499,1,0,0:0:0:0:
320,192,79676,128,0,79852:0:0:0:0:
192,192,79852,1,0,0:0:0:0:
448,192,80029,128,0,80117:0:0:0:0:
64,192,80117,128,0,80293:0:0:0:0:
192,192,80161,128,0,80470:0:0:0:0:
320,192,80205,128,0,80558:0:0:0:0:
448,192,80205,1,0,0:0:0:0:
64,192,80382,128,0,80558:0:0:0:0:
192,192,80558,128,0,80735:0:0:0:0:
448,192,80558,128,0,80823:0:0:0:0:
320,192,80735,128,0,80911:0:0:0:0:
192,192,80823,128,0,81264:0:0:0:0:
64,192,80823,128,0,81176:0:0:0:0:
448,192,80911,128,0,81087:0:0:0:0:
320,192,80999,128,0,81087:0:0:0:0:
320,192,81176,128,0,81617:0:0:0:0:
64,192,81264,128,0,81440:0:0:0:0:
192,192,81352,128,0,81440:0:0:0:0:
192,192,81529,128,0,81970:0:0:0:0:
448,192,81617,128,0,81793:0:0:0:0:
64,192,81617,128,0,81793:0:0:0:0:
320,192,81793,128,0,81970:0:0:0:0:
64,192,81970,128,0,82146:0:0:0:0:
320,192,82058,128,0,82235:0:0:0:0:
448,192,82058,128,0,82235:0:0:0:0:
192,192,82146,128,0,82323:0:0:0:0:
64,192,82323,128,0,82676:0:0:0:0:
320,192,82323,128,0,82587:0:0:0:0:
448,192,82411,128,0,82499:0:0:0:0:
448,192,82587,128,0,82940:0:0:0:0:
192,192,82676,128,0,82940:0:0:0:0:
64,192,82940,128,0,83382:0:0:0:0:
320,192,82940,128,0,83205:0:0:0:0:
448,192,83029,1,0,0:0:0:0:
192,192,83205,128,0,83382:0:0:0:0:
320,192,83382,128,0,83646:0:0:0:0:
448,192,83382,128,0,83558:0:0:0:0:
64,192,83558,128,0,83735:0:0:0:0:
448,192,83646,128,0,84087:0:0:0:0:
192,192,83735,128,0,83911:0:0:0:0:
320,192,83735,128,0,83823:0:0:0:0:
64,192,83823,128,0,83911:0:0:0:0:
320,192,83911,128,0,84087:0:0:0:0:
192,192,83999,128,0,84087:0:0:0:0:
64,192,84087,128,0,84352:0:0:0:0:
320,192,84176,128,0,84352:0:0:0:0:
448,192,84264,128,0,84352:0:0:0:0:
192,192,84352,128,0,84705:0:0:0:0:
448,192,84440,128,0,84617:0:0:0:0:
320,192,84529,128,0,84617:0:0:0:0:
64,192,84617,128,0,84793:0:0:0:0:
320,192,84705,128,0,84793:0:0:0:0:
192,192,84793,128,0,85146:0:0:0:0:
64,192,84970,128,0,85146:0:0:0:0:
448,192,84970,128,0,85146:0:0:0:0:
320,192,85146,128,0,85499:0:0:0:0:
192,192,85235,128,0,85411:0:0:0:0:
64,192,85235,128,0,85411:0:0:0:0:
192,192,85499,128,0,85852:0:0:0:0:
448,192,85499,128,0,85764:0:0:0:0:
320,192,85676,1,0,0:0:0:0:
64,192,85852,128,0,86117:0:0:0:0:
448,192,85852,128,0,86205:0:0:0:0:
192,192,86029,1,0,0:0:0:0:
320,192,86205,128,0,86382:0:0:0:0:
64,192,86205,128,0,86470:0:0:0:0:
192,192,86382,128,0,86558:0:0:0:0:
320,192,86470,128,0,86911:0:0:0:0:
448,192,86470,128,0,86823:0:0:0:0:
64,192,86558,128,0,86735:0:0:0:0:
192,192,86646,128,0,86735:0:0:0:0:
192,192,86823,128,0,87264:0:0:0:0:
448,192,86911,128,0,87087:0:0:0:0:
320,192,86999,128,0,87087:0:0:0:0:
320,192,87176,128,0,87617:0:0:0:0:
64,192,87264,128,0,87440:0:0:0:0:
448,192,87264,128,0,87440:0:0:0:0:
192,192,87440,128,0,87617:0:0:0:0:
448,192,87617,128,0,87793:0:0:0:0:
192,192,87705,128,0,87882:0:0:0:0:
64,192,87705,128,0,87882:0:0:0:0:
320,192,87793,128,0,87970:0:0:0:0:
448,192,87970,128,0,88323:0:0:0:0:
192,192,87970,128,0,88235:0:0:0:0:
64,192,88058,128,0,88146:0:0:0:0:
64,192,88235,128,0,88587:0:0:0:0:
320,192,88323,128,0,88587:0:0:0:0:
448,192,88587,128,0,89029:0:0:0:0:
192,192,88587,128,0,88852:0:0:0:0:
64,192,88676,1,0,0:0:0:0:
320,192,88852,128,0,89029:0:0:0:0:
192,192,89029,128,0,89293:0:0:0:0:
64,192,89029,128,0,89205:0:0:0:0:
448,192,89205,128,0,89382:0:0:0:0:
64,192,89293,128,0,89735:0:0:0:0:
320,192,89382,128,0,89558:0:0:0:0:
192,192,89382,128,0,89470:0:0:0:0:
448,192,89470,128,0,89558:0:0:0:0:
192,192,89558,128,0,89735:0:0:0:0:
320,192,89646,128,0,89735:0:0:0:0:
448,192,89735,128,0,89999:0:0:0:0:
192,192,89823,128,0,89999:0:0:0:0:
64,192,89911,128,0,89999:0:0:0:0:
320,192,89999,128,0,90352:0:0:0:0:
64,192,90087,128,0,90264:0:0:0:0:
192,192,90176,128,0,90264:0:0:0:0:
448,192,90264,128,0,90440:0:0:0:0:
192,192,90352,128,0,90440:0:0:0:0:
64,192,90440,1,0,0:0:0:0:
320,192,90440,1,0,0:0:0:0:
448,192,90529,1,0,0:0:0:0:
192,192,90617,128,0,90793:0:0:0:0:
64,192,90617,128,0,90793:0:0:0:0:
448,192,90793,1,0,0:0:0:0:
192,192,90882,128,0,91058:0:0:0:0:
320,192,90882,128,0,91058:0:0:0:0:
64,192,90970,1,0,0:0:0:0:
64,192,91146,128,0,91499:0:0:0:0:
320,192,91146,128,0,91235:0:0:0:0:
320,192,91323,1,0,0:0:0:0:
448,192,91499,128,0,91676:0:0:0:0:
192,192,91499,1,0,0:0:0:0:
192,192,91676,1,0,0:0:0:0:
64,192,91764,1,0,0:0:0:0:
320,192,91852,128,0,92029:0:0:0:0:
448,192,91852,128,0,92029:0:0:0:0:
64,192,91940,128,0,92029:0:0:0:0:
192,192,92029,128,0,92117:0:0:0:0:
448,192,92117,128,0,92558:0:0:0:0:
192,192,92205,128,0,92382:0:0:0:0:
320,192,92293,128,0,92470:0:0:0:0:
64,192,92382,128,0,92558:0:0:0:0:
192,192,92470,128,0,92558:0:0:0:0:
320,192,92558,128,0,92646:0:0:0:0:
64,192,92646,128,0,92735:0:0:0:0:
448,192,92735,128,0,92823:0:0:0:0:
320,192,92823,128,0,93264:0:0:0:0:
64,192,92911,128,0,93087:0:0:0:0:
448,192,92999,128,0,93176:0:0:0:0:
192,192,93087,128,0,93264:0:0:0:0:
64,192,93176,128,0,93264:0:0:0:0:
448,192,93264,128,0,93440:0:0:0:0:
192,192,93352,128,0,93529:0:0:0:0:
64,192,93352,128,0,93529:0:0:0:0:
448,192,93529,128,0,93705:0:0:0:0:
320,192,93617,128,0,93793:0:0:0:0:
192,192,93617,128,0,93970:0:0:0:0:
448,192,93793,128,0,93882:0:0:0:0:
320,192,93882,128,0,94146:0:0:0:0:
64,192,93970,128,0,94146:0:0:0:0:
192,192,94146,128,0,94323:0:0:0:0:
448,192,94235,128,0,94411:0:0:0:0:
320,192,94235,128,0,94499:0:0:0:0:
64,192,94323,128,0,94499:0:0:0:0:
192,192,94411,128,0,94499:0:0:0:0:
448,192,94499,128,0,94676:0:0:0:0:
320,192,94587,128,0,94676:0:0:0:0:
64,192,94676,128,0,94764:0:0:0:0:
448,192,94764,128,0,94852:0:0:0:0:
192,192,94852,128,0,94940:0:0:0:0:
64,192,94940,128,0,95382:0:0:0:0:
320,192,95029,128,0,95117:0:0:0:0:
448,192,95117,128,0,95293:0:0:0:0:
320,192,95205,128,0,95382:0:0:0:0:
192,192,95293,128,0,95382:0:0:0:0:
448,192,95382,128,0,95646:0:0:0:0:
64,192,95470,128,0,95646:0:0:0:0:
192,192,95558,128,0,95646:0:0:0:0:
320,192,95646,128,0,96087:0:0:0:0:
64,192,95735,128,0,95911:0:0:0:0:
448,192,95823,128,0,95999:0:0:0:0:
192,192,95911,128,0,96087:0:0:0:0:
64,192,95999,128,0,96087:0:0:0:0:
448,192,96087,128,0,96176:0:0:0:0:
320,192,96176,128,0,96264:0:0:0:0:
64,192,96264,128,0,96352:0:0:0:0:
448,192,96264,128,0,96440:0:0:0:0:
192,192,96352,128,0,96440:0:0:0:0:
64,192,96440,128,0,96529:0:0:0:0:
320,192,96529,128,0,96705:0:0:0:0:
448,192,96529,128,0,96617:0:0:0:0:
192,192,96617,128,0,96705:0:0:0:0:
448,192,96705,128,0,96793:0:0:0:0:
320,192,96793,128,0,97058:0:0:0:0:
64,192,96793,128,0,96882:0:0:0:0:
64,192,96970,128,0,97146:0:0:0:0:
448,192,96970,128,0,97146:0:0:0:0:
320,192,97146,128,0,97499:0:0:0:0:
192,192,97146,128,0,97411:0:0:0:0:
448,192,97235,128,0,97499:0:0:0:0:
192,192,97499,128,0,97676:0:0:0:0:
64,192,97499,128,0,97676:0:0:0:0:
448,192,97587,128,0,97676:0:0:0:0:
320,192,97676,128,0,97764:0:0:0:0:
64,192,97764,128,0,98205:0:0:0:0:
320,192,97852,128,0,98029:0:0:0:0:
192,192,97940,128,0,98117:0:0:0:0:
448,192,98029,128,0,98205:0:0:0:0:
320,192,98117,128,0,98205:0:0:0:0:
192,192,98205,128,0,98293:0:0:0:0:
448,192,98293,128,0,98382:0:0:0:0:
64,192,98382,128,0,98470:0:0:0:0:
192,192,98470,128,0,98911:0:0:0:0:
448,192,98558,128,0,98735:0:0:0:0:
64,192,98646,128,0,98823:0:0:0:0:
320,192,98735,128,0,98911:0:0:0:0:
448,192,98823,128,0,98911:0:0:0:0:
64,192,98911,128,0,99087:0:0:0:0:
320,192,98999,128,0,99176:0:0:0:0:
448,192,98999,128,0,99176:0:0:0:0:
64,192,99176,128,0,99352:0:0:0:0:
192,192,99264,128,0,99440:0:0:0:0:
320,192,99264,128,0,99617:0:0:0:0:
64,192,99440,128,0,99529:0:0:0:0:
192,192,99529,128,0,99793:0:0:0:0:
448,192,99617,128,0,99793:0:0:0:0:
320,192,99793,128,0,99970:0:0:0:0:
64,192,99882,128,0,100058:0:0:0:0:
192,192,99882,128,0,100146:0:0:0:0:
448,192,99970,128,0,100146:0:0:0:0:
320,192,100058,128,0,100146:0:0:0:0:
64,192,100146,128,0,100323:0:0:0:0:
192,192,100235,128,0,100323:0:0:0:0:
448,192,100323,128,0,100411:0:0:0:0:
64,192,100411,128,0,100499:0:0:0:0:
320,192,100499,128,0,100587:0:0:0:0:
448,192,100587,128,0,101029:0:0:0:0:
192,192,100676,128,0,100764:0:0:0:0:
64,192,100764,128,0,100940:0:0:0:0:
192,192,100852,128,0,101029:0:0:0:0:
320,192,100940,128,0,101029:0:0:0:0:
64,192,101029,128,0,101293:0:0:0:0:
448,192,101117,128,0,101293:0:0:0:0:
320,192,101205,128,0,101293:0:0:0:0:
192,192,101293,128,0,101646:0:0:0:0:
448,192,101382,128,0,101558:0:0:0:0:
64,192,101470,128,0,101646:0:0:0:0:
320,192,101558,128,0,101735:0:0:0:0:
448,192,101646,128,0,101735:0:0:0:0:
192,192,101735,1,0,0:0:0:0:
64,192,101735,1,0,0:0:0:0:
320,192,101823,1,0,0:0:0:0:
64,192,101911,128,0,102087:0:0:0:0:
448,192,101911,128,0,102087:0:0:0:0:
320,192,102087,1,0,0:0:0:0:
64,192,102176,128,0,102352:0:0:0:0:
192,192,102176,128,0,102352:0:0:0:0:
448,192,102264,1,0,0:0:0:0:
192,192,102440,128,0,102529:0:0:0:0:
448,192,102440,128,0,102793:0:0:0:0:
192,192,102617,1,0,0:0:0:0:
320,192,102793,5,0,0:0:0:0:
64,192,102793,1,0,0:0:0:0:
320,192,102970,1,0,0:0:0:0:
448,192,103058,1,0,0:0:0:0:
192,192,103146,128,0,103235:0:0:0:0:
64,192,103146,128,0,103323:0:0:0:0:
448,192,103235,128,0,103323:0:0:0:0:
320,192,103323,128,0,103411:0:0:0:0:
192,192,103323,128,0,103499:0:0:0:0:
64,192,103411,128,0,103499:0:0:0:0:
320,192,103499,128,0,103676:0:0:0:0:
192,192,103587,128,0,103676:0:0:0:0:
448,192,103676,128,0,103764:0:0:0:0:
64,192,103676,128,0,103852:0:0:0:0:
192,192,103764,128,0,103852:0:0:0:0:
448,192,103852,128,0,104029:0:0:0:0:
320,192,103940,128,0,104029:0:0:0:0:
192,192,104029,128,0,104205:0:0:0:0:
64,192,104029,128,0,104117:0:0:0:0:
448,192,104117,128,0,104205:0:0:0:0:
64,192,104205,128,0,104382:0:0:0:0:
448,192,104382,128,0,104558:0:0:0:0:
192,192,104382,128,0,104558:0:0:0:0:
320,192,104558,128,0,104646:0:0:0:0:
64,192,104646,128,0,104735:0:0:0:0:
320,192,104735,128,0,104911:0:0:0:0:
448,192,104735,128,0,104823:0:0:0:0:
192,192,104823,128,0,104911:0:0:0:0:
448,192,104911,128,0,104999:0:0:0:0:
64,192,104999,128,0,105087:0:0:0:0:
192,192,105087,128,0,105176:0:0:0:0:
448,192,105087,128,0,105264:0:0:0:0:
320,192,105176,128,0,105264:0:0:0:0:
192,192,105264,128,0,105352:0:0:0:0:
320,192,105440,128,0,105529:0:0:0:0:
192,192,105440,128,0,105617:0:0:0:0:
320,192,105617,128,0,105970:0:0:0:0:
64,192,105617,128,0,105793:0:0:0:0:
448,192,105793,1,0,0:0:0:0:
192,192,105970,128,0,106058:0:0:0:0:
64,192,105970,128,0,106146:0:0:0:0:
448,192,106058,128,0,106146:0:0:0:0:
320,192,106146,128,0,106235:0:0:0:0:
192,192,106146,128,0,106323:0:0:0:0:
64,192,106235,128,0,106323:0:0:0:0:
320,192,106323,128,0,106499:0:0:0:0:
192,192,106411,128,0,106499:0:0:0:0:
448,192,106499,128,0,106587:0:0:0:0:
64,192,106499,128,0,106676:0:0:0:0:
192,192,106587,128,0,106676:0:0:0:0:
448,192,106676,128,0,106852:0:0:0:0:
320,192,106764,128,0,106852:0:0:0:0:
192,192,106852,128,0,107029:0:0:0:0:
64,192,106852,128,0,106940:0:0:0:0:
448,192,106940,128,0,107029:0:0:0:0:
64,192,107029,128,0,107205:0:0:0:0:
192,192,107205,128,0,107293:0:0:0:0:
448,192,107205,128,0,107382:0:0:0:0:
192,192,107382,128,0,107646:0:0:0:0:
320,192,107382,128,0,107558:0:0:0:0:
448,192,107558,128,0,107646:0:0:0:0:
192,192,107735,128,0,107911:0:0:0:0:
448,192,107735,128,0,107999:0:0:0:0:
64,192,107911,128,0,107999:0:0:0:0:
448,192,108087,128,0,108264:0:0:0:0:
64,192,108087,128,0,108352:0:0:0:0:
320,192,108264,128,0,108352:0:0:0:0:
64,192,108440,1,0,0:0:0:0:
320,192,108440,1,0,0:0:0:0:
192,192,108617,1,0,0:0:0:0:
320,192,108793,128,0,108970:0:0:0:0:
448,192,108793,128,0,108882:0:0:0:0:
64,192,108882,128,0,108970:0:0:0:0:
192,192,108970,128,0,109058:0:0:0:0:
448,192,108970,128,0,109146:0:0:0:0:
320,192,109058,128,0,109146:0:0:0:0:
192,192,109146,128,0,109235:0:0:0:0:
192,192,109323,128,0,109499:0:0:0:0:
448,192,109323,128,0,109411:0:0:0:0:
448,192,109499,128,0,109676:0:0:0:0:
64,192,109499,128,0,109587:0:0:0:0:
320,192,109676,128,0,109764:0:0:0:0:
64,192,109676,128,0,109852:0:0:0:0:
320,192,109852,128,0,110029:0:0:0:0:
448,192,109852,128,0,109940:0:0:0:0:
448,192,110029,128,0,110205:0:0:0:0:
192,192,110029,128,0,110117:0:0:0:0:
64,192,110205,128,0,110293:0:0:0:0:
192,192,110205,128,0,110382:0:0:0:0:
320,192,110293,128,0,110382:0:0:0:0:
448,192,110382,128,0,110470:0:0:0:0:
64,192,110382,128,0,110558:0:0:0:0:
192,192,110470,128,0,110558:0:0:0:0:
448,192,110558,128,0,110646:0:0:0:0:
64,192,110735,128,0,110823:0:0:0:0:
448,192,110735,128,0,110911:0:0:0:0:
192,192,110911,128,0,110999:0:0:0:0:
64,192,110911,128,0,111087:0:0:0:0:
192,192,111087,128,0,111264:0:0:0:0:
448,192,111087,128,0,111176:0:0:0:0:
64,192,111264,1,0,0:0:0:0:
448,192,111264,128,0,111440:0:0:0:0:
64,192,111440,128,0,111617:0:0:0:0:
320,192,111440,128,0,111529:0:0:0:0:
320,192,111617,128,0,111793:0:0:0:0:
448,192,111617,128,0,111705:0:0:0:0:
64,192,111705,128,0,111793:0:0:0:0:
192,192,111793,128,0,111882:0:0:0:0:
448,192,111793,128,0,111970:0:0:0:0:
320,192,111882,128,0,111970:0:0:0:0:
192,192,111970,128,0,112058:0:0:0:0:
192,192,112146,128,0,112323:0:0:0:0:
448,192,112146,128,0,112235:0:0:0:0:
448,192,112323,128,0,112499:0:0:0:0:
64,192,112323,128,0,112411:0:0:0:0:
320,192,112499,128,0,112587:0:0:0:0:
64,192,112499,128,0,112676:0:0:0:0:
320,192,112676,128,0,112852:0:0:0:0:
448,192,112676,128,0,112764:0:0:0:0:
448,192,112852,128,0,113029:0:0:0:0:
192,192,112852,128,0,112940:0:0:0:0:
64,192,113029,128,0,113117:0:0:0:0:
192,192,113029,128,0,113205:0:0:0:0:
320,192,113117,128,0,113205:0:0:0:0:
448,192,113205,128,0,113293:0:0:0:0:
64,192,113205,128,0,113382:0:0:0:0:
192,192,113293,128,0,113382:0:0:0:0:
448,192,113382,128,0,113470:0:0:0:0:
64,192,113558,128,0,113646:0:0:0:0:
448,192,113558,128,0,113735:0:0:0:0:
320,192,113735,128,0,114087:0:0:0:0:
64,192,113735,128,0,113911:0:0:0:0:
192,192,113911,128,0,114087:0:0:0:0:
64,192,114087,1,0,0:0:0:0:
448,192,114087,128,0,114176:0:0:0:0:
448,192,114440,1,0,0:0:0:0:
320,192,114440,1,0,0:0:0:0:
192,192,114617,128,0,114793:0:0:0:0:
448,192,114793,1,0,0:0:0:0:
64,192,114970,128,0,115146:0:0:0:0:
192,192,115146,1,0,0:0:0:0:
448,192,115323,128,0,115499:0:0:0:0:
320,192,115499,1,0,0:0:0:0:
192,192,115676,128,0,115852:0:0:0:0:
64,192,115852,5,0,0:0:0:0:
320,192,116029,128,0,116205:0:0:0:0:
64,192,116205,1,0,0:0:0:0:
192,192,116382,128,0,116558:0:0:0:0:
320,192,116558,1,0,0:0:0:0:
448,192,116735,128,0,116911:0:0:0:0:
192,192,116911,1,0,0:0:0:0:
64,192,116911,1,0,0:0:0:0:
320,192,117087,128,0,117264:0:0:0:0:
448,192,117264,1,0,0:0:0:0:
192,192,117440,128,0,117617:0:0:0:0:
448,192,117617,1,0,0:0:0:0:
64,192,117793,128,0,117970:0:0:0:0:
192,192,117970,1,0,0:0:0:0:
448,192,118146,128,0,118323:0:0:0:0:
320,192,118323,1,0,0:0:0:0:
192,192,118499,128,0,118676:0:0:0:0:
64,192,118676,5,0,0:0:0:0:
320,192,118852,128,0,119029:0:0:0:0:
64,192,119029,1,0,0:0:0:0:
192,192,119205,128,0,119382:0:0:0:0:
320,192,119382,1,0,0:0:0:0:
448,192,119558,128,0,119735:0:0:0:0:
192,192,119735,1,0,0:0:0:0:
64,192,119735,1,0,0:0:0:0:
320,192,119911,128,0,120087:0:0:0:0:
448,192,120087,1,0,0:0:0:0:
192,192,120264,128,0,120440:0:0:0:0:
448,192,120440,1,0,0:0:0:0:
64,192,120617,128,0,120793:0:0:0:0:
192,192,120793,1,0,0:0:0:0:
448,192,120970,128,0,121146:0:0:0:0:
320,192,121146,1,0,0:0:0:0:
192,192,121323,128,0,121499:0:0:0:0:
64,192,121499,5,0,0:0:0:0:
448,192,121676,128,0,121852:0:0:0:0:
64,192,121852,1,0,0:0:0:0:
320,192,122029,128,0,122205:0:0:0:0:
192,192,122205,1,0,0:0:0:0:
64,192,122382,128,0,122558:0:0:0:0:
192,192,122558,1,0,0:0:0:0:
320,192,122558,1,0,0:0:0:0:
320,192,122735,128,0,122911:0:0:0:0:
448,192,122911,1,0,0:0:0:0:
192,192,123087,128,0,123264:0:0:0:0:
448,192,123264,1,0,0:0:0:0:
64,192,123440,128,0,123617:0:0:0:0:
192,192,123617,1,0,0:0:0:0:
448,192,123793,128,0,123970:0:0:0:0:
320,192,123970,1,0,0:0:0:0:
192,192,124146,128,0,124323:0:0:0:0:
64,192,124323,5,0,0:0:0:0:
448,192,124499,128,0,124676:0:0:0:0:
64,192,124676,1,0,0:0:0:0:
320,192,124852,128,0,125029:0:0:0:0:
192,192,125029,1,0,0:0:0:0:
448,192,125205,128,0,125293:0:0:0:0:
320,192,125205,1,0,0:0:0:0:
64,192,125382,128,0,125558:0:0:0:0:
448,192,125382,128,0,125558:0:0:0:0:
