osu file format v14

[General]
AudioFilename: audio.mp3
AudioLeadIn: 0
PreviewTime: 80558
Countdown: 0
SampleSet: Soft
StackLeniency: 0.7
Mode: 3
LetterboxInBreaks: 0
SpecialStyle: 0
WidescreenStoryboard: 1

[Editor]
DistanceSpacing: 1
BeatDivisor: 4
GridSize: 4
TimelineZoom: 2.4

[Metadata]
Title:Chat perdu
TitleUnicode:Chat perdu
Artist:Feryquitous
ArtistUnicode:Feryquitous
Creator:-mint-
Version:Hard
Source:Deemo
Tags:lost cat rayark collection ♯2 #2 sharp qqqant piano video game electronic jazz instrumental
BeatmapID:3935220
BeatmapSetID:1886842

[Difficulty]
HPDrainRate:7.2
CircleSize:4
OverallDifficulty:7.2
ApproachRate:5
SliderMultiplier:1.4
SliderTickRate:1

[Events]
//Background and Video events
0,0,"Chat_Perdu.jpg",0,0
//Break Periods
//Storyboard Layer 0 (Background)
//Storyboard Layer 1 (Fail)
//Storyboard Layer 2 (Pass)
//Storyboard Layer 3 (Foreground)
//Storyboard Layer 4 (Overlay)
//Storyboard Sound Samples

[TimingPoints]
88,352.941176470588,4,2,1,40,1,0
80558,-100,4,2,1,40,0,1
103146,-100,4,2,1,40,0,0

[HitObjects]
320,192,1499,5,0,0:0:0:0:
192,192,1676,128,0,1852:0:0:0:0:
448,192,1852,1,0,0:0:0:0:
64,192,2029,128,0,2205:0:0:0:0:
192,192,2205,1,0,0:0:0:0:
448,192,2382,128,0,2558:0:0:0:0:
320,192,2558,1,0,0:0:0:0:
192,192,2735,128,0,2911:0:0:0:0:
64,192,2911,5,0,0:0:0:0:
448,192,3087,128,0,3264:0:0:0:0:
192,192,3264,1,0,0:0:0:0:
64,192,3440,128,0,3617:0:0:0:0:
320,192,3617,1,0,0:0:0:0:
448,192,3793,128,0,3970:0:0:0:0:
64,192,3970,1,0,0:0:0:0:
320,192,4146,128,0,4323:0:0:0:0:
448,192,4323,1,0,0:0:0:0:
192,192,4499,128,0,4676:0:0:0:0:
320,192,4676,1,0,0:0:0:0:
64,192,4852,128,0,5029:0:0:0:0:
192,192,5029,1,0,0:0:0:0:
448,192,5205,128,0,5382:0:0:0:0:
320,192,5382,1,0,0:0:0:0:
192,192,5558,128,0,5735:0:0:0:0:
64,192,5735,5,0,0:0:0:0:
448,192,5911,128,0,6087:0:0:0:0:
192,192,6087,1,0,0:0:0:0:
64,192,6264,128,0,6440:0:0:0:0:
320,192,6440,1,0,0:0:0:0:
448,192,6617,128,0,6793:0:0:0:0:
64,192,6793,1,0,0:0:0:0:
320,192,6970,128,0,7146:0:0:0:0:
448,192,7146,1,0,0:0:0:0:
192,192,7323,128,0,7499:0:0:0:0:
448,192,7499,1,0,0:0:0:0:
64,192,7676,128,0,7852:0:0:0:0:
192,192,7852,1,0,0:0:0:0:
448,192,8029,128,0,8205:0:0:0:0:
320,192,8205,1,0,0:0:0:0:
192,192,8382,128,0,8558:0:0:0:0:
64,192,8558,5,0,0:0:0:0:
448,192,8735,128,0,8911:0:0:0:0:
64,192,8911,1,0,0:0:0:0:
320,192,9087,128,0,9264:0:0:0:0:
192,192,9264,1,0,0:0:0:0:
64,192,9440,128,0,9617:0:0:0:0:
192,192,9617,1,0,0:0:0:0:
320,192,9617,1,0,0:0:0:0:
320,192,9793,128,0,9970:0:0:0:0:
448,192,9970,1,0,0:0:0:0:
192,192,10146,128,0,10323:0:0:0:0:
448,192,10323,1,0,0:0:0:0:
64,192,10499,128,0,10676:0:0:0:0:
192,192,10676,1,0,0:0:0:0:
448,192,10852,128,0,11029:0:0:0:0:
320,192,11029,1,0,0:0:0:0:
192,192,11205,128,0,11382:0:0:0:0:
64,192,11382,5,0,0:0:0:0:
448,192,11558,128,0,11735:0:0:0:0:
64,192,11735,1,0,0:0:0:0:
320,192,11911,128,0,12087:0:0:0:0:
192,192,12087,1,0,0:0:0:0:
448,192,12264,1,0,0:0:0:0:
448,192,12440,128,0,12617:0:0:0:0:
64,192,12440,1,0,0:0:0:0:
64,192,12793,1,0,0:0:0:0:
448,192,12882,1,0,0:0:0:0:
192,192,12970,128,0,13146:0:0:0:0:
320,192,13058,1,0,0:0:0:0:
64,192,13146,1,0,0:0:0:0:
192,192,13235,1,0,0:0:0:0:
320,192,13323,128,0,13499:0:0:0:0:
64,192,13411,1,0,0:0:0:0:
448,192,13499,1,0,0:0:0:0:
320,192,13587,1,0,0:0:0:0:
64,192,13676,128,0,13852:0:0:0:0:
448,192,13764,1,0,0:0:0:0:
192,192,13852,1,0,0:0:0:0:
448,192,14029,128,0,14205:0:0:0:0:
64,192,14205,1,0,0:0:0:0:
192,192,14293,1,0,0:0:0:0:
320,192,14382,128,0,14558:0:0:0:0:
64,192,14558,1,0,0:0:0:0:
192,192,14646,1,0,0:0:0:0:
448,192,14735,128,0,14911:0:0:0:0:
320,192,14823,1,0,0:0:0:0:
192,192,14911,128,0,15087:0:0:0:0:
448,192,15087,128,0,15264:0:0:0:0:
64,192,15264,128,0,15440:0:0:0:0:
320,192,15264,128,0,15617:0:0:0:0:
448,192,15440,1,0,0:0:0:0:
64,192,15617,1,0,0:0:0:0:
448,192,15705,1,0,0:0:0:0:
192,192,15793,128,0,15970:0:0:0:0:
320,192,15882,1,0,0:0:0:0:
64,192,15970,1,0,0:0:0:0:
192,192,16058,1,0,0:0:0:0:
320,192,16146,128,0,16323:0:0:0:0:
64,192,16235,1,0,0:0:0:0:
448,192,16323,1,0,0:0:0:0:
320,192,16411,1,0,0:0:0:0:
64,192,16499,128,0,16676:0:0:0:0:
448,192,16587,1,0,0:0:0:0:
192,192,16676,1,0,0:0:0:0:
448,192,16852,128,0,17029:0:0:0:0:
192,192,17029,128,0,17205:0:0:0:0:
320,192,17029,128,0,17382:0:0:0:0:
64,192,17205,1,0,0:0:0:0:
448,192,17382,128,0,17558:0:0:0:0:
192,192,17382,128,0,17735:0:0:0:0:
320,192,17558,1,0,0:0:0:0:
64,192,17735,128,0,17911:0:0:0:0:
448,192,17735,128,0,18087:0:0:0:0:
320,192,17911,1,0,0:0:0:0:
64,192,18087,1,0,0:0:0:0:
192,192,18087,1,0,0:0:0:0:
448,192,18264,1,0,0:0:0:0:
320,192,18440,1,0,0:0:0:0:
64,192,18529,1,0,0:0:0:0:
448,192,18617,128,0,18793:0:0:0:0:
192,192,18705,1,0,0:0:0:0:
64,192,18793,1,0,0:0:0:0:
320,192,18970,128,0,19146:0:0:0:0:
192,192,19146,128,0,19323:0:0:0:0:
448,192,19146,128,0,19499:0:0:0:0:
64,192,19323,128,0,19499:0:0:0:0:
192,192,19499,128,0,19676:0:0:0:0:
320,192,19499,128,0,19852:0:0:0:0:
448,192,19676,128,0,19852:0:0:0:0:
192,192,19852,1,0,0:0:0:0:
320,192,19940,1,0,0:0:0:0:
64,192,20029,128,0,20205:0:0:0:0:
448,192,20117,1,0,0:0:0:0:
320,192,20205,1,0,0:0:0:0:
448,192,20382,128,0,20558:0:0:0:0:
192,192,20558,128,0,20911:0:0:0:0:
64,192,20558,128,0,20735:0:0:0:0:
320,192,20735,128,0,20911:0:0:0:0:
64,192,20911,128,0,21264:0:0:0:0:
448,192,20911,1,0,0:0:0:0:
192,192,21087,128,0,21264:0:0:0:0:
320,192,21264,1,0,0:0:0:0:
64,192,21352,1,0,0:0:0:0:
448,192,21440,128,0,21617:0:0:0:0:
192,192,21529,1,0,0:0:0:0:
64,192,21617,1,0,0:0:0:0:
320,192,21793,128,0,21970:0:0:0:0:
192,192,21970,128,0,22146:0:0:0:0:
448,192,21970,128,0,22323:0:0:0:0:
64,192,22146,128,0,22323:0:0:0:0:
192,192,22323,128,0,22499:0:0:0:0:
320,192,22323,128,0,22676:0:0:0:0:
448,192,22499,128,0,22676:0:0:0:0:
192,192,22676,1,0,0:0:0:0:
320,192,22764,1,0,0:0:0:0:
64,192,22852,128,0,23029:0:0:0:0:
448,192,22940,1,0,0:0:0:0:
320,192,23029,1,0,0:0:0:0:
448,192,23205,128,0,23382:0:0:0:0:
320,192,23382,128,0,23735:0:0:0:0:
64,192,23382,128,0,23558:0:0:0:0:
192,192,23558,1,0,0:0:0:0:
64,192,23735,1,0,0:0:0:0:
448,192,23735,1,0,0:0:0:0:
448,192,24087,1,0,0:0:0:0:
64,192,24176,1,0,0:0:0:0:
320,192,24264,128,0,24440:0:0:0:0:
192,192,24352,1,0,0:0:0:0:
448,192,24440,1,0,0:0:0:0:
320,192,24529,1,0,0:0:0:0:
192,192,24617,128,0,24793:0:0:0:0:
448,192,24705,1,0,0:0:0:0:
64,192,24793,1,0,0:0:0:0:
192,192,24882,1,0,0:0:0:0:
448,192,24970,128,0,25146:0:0:0:0:
64,192,25058,1,0,0:0:0:0:
320,192,25146,1,0,0:0:0:0:
64,192,25323,128,0,25499:0:0:0:0:
448,192,25499,1,0,0:0:0:0:
320,192,25587,1,0,0:0:0:0:
192,192,25676,128,0,25852:0:0:0:0:
448,192,25852,1,0,0:0:0:0:
320,192,25940,1,0,0:0:0:0:
64,192,26029,128,0,26205:0:0:0:0:
192,192,26117,1,0,0:0:0:0:
320,192,26205,128,0,26382:0:0:0:0:
64,192,26382,128,0,26558:0:0:0:0:
448,192,26558,128,0,26735:0:0:0:0:
192,192,26558,128,0,26911:0:0:0:0:
64,192,26735,1,0,0:0:0:0:
448,192,26911,1,0,0:0:0:0:
64,192,26999,1,0,0:0:0:0:
320,192,27087,128,0,27264:0:0:0:0:
192,192,27176,1,0,0:0:0:0:
448,192,27264,1,0,0:0:0:0:
320,192,27352,1,0,0:0:0:0:
192,192,27440,128,0,27617:0:0:0:0:
448,192,27529,1,0,0:0:0:0:
64,192,27617,1,0,0:0:0:0:
192,192,27705,1,0,0:0:0:0:
448,192,27793,128,0,27970:0:0:0:0:
64,192,27882,1,0,0:0:0:0:
320,192,27970,1,0,0:0:0:0:
64,192,28146,128,0,28323:0:0:0:0:
320,192,28323,128,0,28499:0:0:0:0:
192,192,28323,128,0,28676:0:0:0:0:
448,192,28499,1,0,0:0:0:0:
64,192,28676,128,0,28852:0:0:0:0:
320,192,28676,128,0,29029:0:0:0:0:
192,192,28852,1,0,0:0:0:0:
448,192,29029,128,0,29205:0:0:0:0:
64,192,29029,128,0,29382:0:0:0:0:
192,192,29205,1,0,0:0:0:0:
320,192,29382,1,0,0:0:0:0:
448,192,29382,1,0,0:0:0:0:
64,192,29558,1,0,0:0:0:0:
192,192,29735,1,0,0:0:0:0:
448,192,29823,1,0,0:0:0:0:
64,192,29911,128,0,30087:0:0:0:0:
320,192,29999,1,0,0:0:0:0:
448,192,30087,1,0,0:0:0:0:
192,192,30264,128,0,30440:0:0:0:0:
320,192,30440,128,0,30617:0:0:0:0:
64,192,30440,128,0,30793:0:0:0:0:
448,192,30617,128,0,30793:0:0:0:0:
320,192,30793,128,0,30970:0:0:0:0:
192,192,30793,128,0,31146:0:0:0:0:
64,192,30970,128,0,31146:0:0:0:0:
320,192,31146,1,0,0:0:0:0:
192,192,31235,1,0,0:0:0:0:
448,192,31323,128,0,31499:0:0:0:0:
64,192,31411,1,0,0:0:0:0:
192,192,31499,1,0,0:0:0:0:
64,192,31676,128,0,31852:0:0:0:0:
320,192,31852,128,0,32205:0:0:0:0:
448,192,31852,128,0,32029:0:0:0:0:
192,192,32029,128,0,32205:0:0:0:0:
448,192,32205,128,0,32558:0:0:0:0:
64,192,32205,1,0,0:0:0:0:
320,192,32382,128,0,32558:0:0:0:0:
192,192,32558,1,0,0:0:0:0:
448,192,32646,1,0,0:0:0:0:
64,192,32735,128,0,32911:0:0:0:0:
320,192,32823,1,0,0:0:0:0:
448,192,32911,1,0,0:0:0:0:
192,192,33087,128,0,33264:0:0:0:0:
320,192,33264,128,0,33440:0:0:0:0:
64,192,33264,128,0,33617:0:0:0:0:
448,192,33440,128,0,33617:0:0:0:0:
320,192,33617,128,0,33793:0:0:0:0:
192,192,33617,128,0,33970:0:0:0:0:
64,192,33793,128,0,33970:0:0:0:0:
320,192,33970,1,0,0:0:0:0:
192,192,34058,1,0,0:0:0:0:
448,192,34146,128,0,34323:0:0:0:0:
64,192,34235,1,0,0:0:0:0:
192,192,34323,1,0,0:0:0:0:
64,192,34499,128,0,34676:0:0:0:0:
192,192,34676,128,0,35029:0:0:0:0:
448,192,34676,128,0,34852:0:0:0:0:
320,192,34852,1,0,0:0:0:0:
448,192,35029,1,0,0:0:0:0:
64,192,35029,1,0,0:0:0:0:
192,192,35146,1,0,0:0:0:0:
448,192,35264,1,0,0:0:0:0:
192,192,35382,1,0,0:0:0:0:
320,192,35382,1,0,0:0:0:0:
64,192,35499,1,0,0:0:0:0:
320,192,35617,1,0,0:0:0:0:
192,192,35735,1,0,0:0:0:0:
448,192,35735,128,0,36087:0:0:0:0:
64,192,35852,1,0,0:0:0:0:
192,192,35970,1,0,0:0:0:0:
320,192,36087,1,0,0:0:0:0:
192,192,36205,1,0,0:0:0:0:
64,192,36323,1,0,0:0:0:0:
448,192,36440,1,0,0:0:0:0:
320,192,36440,128,0,36793:0:0:0:0:
192,192,36558,1,0,0:0:0:0:
448,192,36676,1,0,0:0:0:0:
64,192,36793,1,0,0:0:0:0:
320,192,36911,1,0,0:0:0:0:
64,192,37029,1,0,0:0:0:0:
320,192,37146,1,0,0:0:0:0:
192,192,37146,128,0,37499:0:0:0:0:
448,192,37264,1,0,0:0:0:0:
320,192,37382,1,0,0:0:0:0:
448,192,37499,1,0,0:0:0:0:
64,192,37617,1,0,0:0:0:0:
448,192,37735,1,0,0:0:0:0:
320,192,37852,128,0,38205:0:0:0:0:
192,192,37852,1,0,0:0:0:0:
64,192,37970,1,0,0:0:0:0:
448,192,38087,1,0,0:0:0:0:
192,192,38205,1,0,0:0:0:0:
448,192,38323,1,0,0:0:0:0:
192,192,38440,1,0,0:0:0:0:
320,192,38558,1,0,0:0:0:0:
64,192,38558,128,0,38911:0:0:0:0:
448,192,38676,1,0,0:0:0:0:
320,192,38793,1,0,0:0:0:0:
192,192,38911,1,0,0:0:0:0:
320,192,39029,1,0,0:0:0:0:
448,192,39146,1,0,0:0:0:0:
64,192,39264,1,0,0:0:0:0:
192,192,39264,128,0,39617:0:0:0:0:
320,192,39382,1,0,0:0:0:0:
64,192,39499,1,0,0:0:0:0:
448,192,39617,1,0,0:0:0:0:
192,192,39735,1,0,0:0:0:0:
448,192,39852,1,0,0:0:0:0:
192,192,39970,1,0,0:0:0:0:
320,192,39970,128,0,40323:0:0:0:0:
64,192,40087,1,0,0:0:0:0:
192,192,40205,1,0,0:0:0:0:
64,192,40323,1,0,0:0:0:0:
448,192,40440,1,0,0:0:0:0:
192,192,40558,1,0,0:0:0:0:
320,192,40676,1,0,0:0:0:0:
64,192,40676,128,0,41029:0:0:0:0:
448,192,40793,1,0,0:0:0:0:
192,192,40911,1,0,0:0:0:0:
320,192,41029,128,0,41382:0:0:0:0:
64,192,41382,128,0,41735:0:0:0:0:
448,192,41382,128,0,41735:0:0:0:0:
192,192,41735,128,0,42087:0:0:0:0:
448,192,41970,1,0,0:0:0:0:
320,192,42087,128,0,42440:0:0:0:0:
64,192,42087,128,0,42440:0:0:0:0:
448,192,42440,128,0,42793:0:0:0:0:
192,192,42558,1,0,0:0:0:0:
320,192,42676,1,0,0:0:0:0:
64,192,42793,128,0,43146:0:0:0:0:
192,192,42793,128,0,43146:0:0:0:0:
448,192,43029,1,0,0:0:0:0:
320,192,43146,128,0,43499:0:0:0:0:
64,192,43382,1,0,0:0:0:0:
192,192,43499,128,0,43852:0:0:0:0:
448,192,43499,128,0,43852:0:0:0:0:
320,192,43852,1,0,0:0:0:0:
64,192,43970,1,0,0:0:0:0:
320,192,44087,1,0,0:0:0:0:
192,192,44205,1,0,0:0:0:0:
448,192,44205,128,0,44558:0:0:0:0:
64,192,44323,1,0,0:0:0:0:
192,192,44440,1,0,0:0:0:0:
320,192,44558,1,0,0:0:0:0:
192,192,44676,1,0,0:0:0:0:
64,192,44793,1,0,0:0:0:0:
448,192,44911,1,0,0:0:0:0:
320,192,44911,128,0,45264:0:0:0:0:
192,192,45029,1,0,0:0:0:0:
448,192,45146,1,0,0:0:0:0:
64,192,45264,1,0,0:0:0:0:
192,192,45382,1,0,0:0:0:0:
320,192,45499,1,0,0:0:0:0:
192,192,45617,128,0,45970:0:0:0:0:
448,192,45617,1,0,0:0:0:0:
64,192,45735,1,0,0:0:0:0:
448,192,45852,1,0,0:0:0:0:
64,192,45970,128,0,46323:0:0:0:0:
320,192,45970,128,0,46323:0:0:0:0:
192,192,46205,1,0,0:0:0:0:
448,192,46323,128,0,46676:0:0:0:0:
320,192,46676,1,0,0:0:0:0:
192,192,46676,1,0,0:0:0:0:
448,192,46793,1,0,0:0:0:0:
192,192,46911,1,0,0:0:0:0:
320,192,47029,1,0,0:0:0:0:
64,192,47029,128,0,47382:0:0:0:0:
448,192,47146,1,0,0:0:0:0:
320,192,47264,1,0,0:0:0:0:
192,192,47382,1,0,0:0:0:0:
320,192,47499,1,0,0:0:0:0:
448,192,47617,1,0,0:0:0:0:
64,192,47735,1,0,0:0:0:0:
192,192,47735,128,0,48087:0:0:0:0:
320,192,47852,1,0,0:0:0:0:
64,192,47970,1,0,0:0:0:0:
448,192,48087,1,0,0:0:0:0:
192,192,48205,1,0,0:0:0:0:
448,192,48323,1,0,0:0:0:0:
192,192,48440,1,0,0:0:0:0:
320,192,48440,128,0,48793:0:0:0:0:
64,192,48558,1,0,0:0:0:0:
192,192,48676,1,0,0:0:0:0:
64,192,48793,1,0,0:0:0:0:
448,192,48911,1,0,0:0:0:0:
64,192,49029,1,0,0:0:0:0:
192,192,49146,128,0,49499:0:0:0:0:
320,192,49146,1,0,0:0:0:0:
448,192,49264,1,0,0:0:0:0:
64,192,49382,1,0,0:0:0:0:
320,192,49499,1,0,0:0:0:0:
64,192,49617,1,0,0:0:0:0:
320,192,49735,1,0,0:0:0:0:
192,192,49852,1,0,0:0:0:0:
448,192,49852,128,0,50205:0:0:0:0:
64,192,49970,1,0,0:0:0:0:
192,192,50087,1,0,0:0:0:0:
320,192,50205,1,0,0:0:0:0:
192,192,50323,1,0,0:0:0:0:
64,192,50440,1,0,0:0:0:0:
448,192,50558,1,0,0:0:0:0:
320,192,50558,128,0,50911:0:0:0:0:
192,192,50676,1,0,0:0:0:0:
448,192,50793,1,0,0:0:0:0:
64,192,50911,1,0,0:0:0:0:
320,192,51029,1,0,0:0:0:0:
64,192,51146,1,0,0:0:0:0:
320,192,51264,1,0,0:0:0:0:
192,192,51264,128,0,51617:0:0:0:0:
448,192,51382,1,0,0:0:0:0:
320,192,51499,1,0,0:0:0:0:
448,192,51617,1,0,0:0:0:0:
64,192,51735,1,0,0:0:0:0:
320,192,51852,1,0,0:0:0:0:
192,192,51970,1,0,0:0:0:0:
448,192,51970,128,0,52323:0:0:0:0:
64,192,52087,1,0,0:0:0:0:
320,192,52205,1,0,0:0:0:0:
192,192,52323,128,0,52676:0:0:0:0:
448,192,52676,128,0,53029:0:0:0:0:
64,192,52676,128,0,53029:0:0:0:0:
320,192,53029,128,0,53382:0:0:0:0:
64,192,53264,1,0,0:0:0:0:
192,192,53382,128,0,53735:0:0:0:0:
448,192,53382,128,0,53735:0:0:0:0:
64,192,53735,128,0,54087:0:0:0:0:
320,192,53852,1,0,0:0:0:0:
192,192,53970,1,0,0:0:0:0:
448,192,54087,128,0,54440:0:0:0:0:
320,192,54087,128,0,54440:0:0:0:0:
64,192,54323,1,0,0:0:0:0:
192,192,54440,128,0,54793:0:0:0:0:
448,192,54676,1,0,0:0:0:0:
320,192,54793,128,0,55146:0:0:0:0:
64,192,54793,128,0,55146:0:0:0:0:
192,192,55146,1,0,0:0:0:0:
448,192,55264,1,0,0:0:0:0:
192,192,55382,1,0,0:0:0:0:
320,192,55499,1,0,0:0:0:0:
64,192,55499,128,0,55852:0:0:0:0:
448,192,55617,1,0,0:0:0:0:
320,192,55735,1,0,0:0:0:0:
192,192,55852,1,0,0:0:0:0:
320,192,55970,1,0,0:0:0:0:
448,192,56087,1,0,0:0:0:0:
64,192,56205,1,0,0:0:0:0:
192,192,56205,128,0,56558:0:0:0:0:
320,192,56323,1,0,0:0:0:0:
64,192,56440,1,0,0:0:0:0:
448,192,56558,1,0,0:0:0:0:
320,192,56676,1,0,0:0:0:0:
192,192,56793,1,0,0:0:0:0:
320,192,56911,128,0,57264:0:0:0:0:
64,192,56911,1,0,0:0:0:0:
448,192,57029,1,0,0:0:0:0:
64,192,57146,1,0,0:0:0:0:
448,192,57264,128,0,57617:0:0:0:0:
192,192,57264,128,0,57617:0:0:0:0:
64,192,57617,128,0,57970:0:0:0:0:
192,192,57970,1,0,0:0:0:0:
320,192,57970,1,0,0:0:0:0:
448,192,58058,1,0,0:0:0:0:
192,192,58146,1,0,0:0:0:0:
320,192,58235,1,0,0:0:0:0:
64,192,58323,1,0,0:0:0:0:
192,192,58411,1,0,0:0:0:0:
320,192,58499,1,0,0:0:0:0:
64,192,58587,1,0,0:0:0:0:
448,192,58676,1,0,0:0:0:0:
320,192,58764,1,0,0:0:0:0:
64,192,58852,1,0,0:0:0:0:
448,192,58940,1,0,0:0:0:0:
192,192,59029,1,0,0:0:0:0:
448,192,59205,1,0,0:0:0:0:
64,192,59382,1,0,0:0:0:0:
192,192,59470,1,0,0:0:0:0:
320,192,59558,1,0,0:0:0:0:
64,192,59735,1,0,0:0:0:0:
192,192,59823,1,0,0:0:0:0:
448,192,59911,1,0,0:0:0:0:
320,192,59999,1,0,0:0:0:0:
192,192,60087,1,0,0:0:0:0:
448,192,60264,1,0,0:0:0:0:
64,192,60440,128,0,60617:0:0:0:0:
320,192,60440,128,0,60793:0:0:0:0:
448,192,60617,1,0,0:0:0:0:
64,192,60793,1,0,0:0:0:0:
448,192,60882,1,0,0:0:0:0:
192,192,60970,1,0,0:0:0:0:
320,192,61058,1,0,0:0:0:0:
64,192,61146,1,0,0:0:0:0:
192,192,61235,1,0,0:0:0:0:
320,192,61323,1,0,0:0:0:0:
64,192,61411,1,0,0:0:0:0:
448,192,61499,1,0,0:0:0:0:
320,192,61587,1,0,0:0:0:0:
64,192,61676,1,0,0:0:0:0:
448,192,61764,1,0,0:0:0:0:
192,192,61852,1,0,0:0:0:0:
448,192,62029,1,0,0:0:0:0:
192,192,62205,128,0,62382:0:0:0:0:
320,192,62205,128,0,62558:0:0:0:0:
64,192,62382,1,0,0:0:0:0:
448,192,62558,128,0,62735:0:0:0:0:
192,192,62558,128,0,62911:0:0:0:0:
320,192,62735,1,0,0:0:0:0:
64,192,62911,128,0,63087:0:0:0:0:
448,192,62911,128,0,63264:0:0:0:0:
320,192,63087,1,0,0:0:0:0:
192,192,63264,1,0,0:0:0:0:
64,192,63264,1,0,0:0:0:0:
448,192,63440,1,0,0:0:0:0:
320,192,63617,1,0,0:0:0:0:
64,192,63705,1,0,0:0:0:0:
448,192,63793,1,0,0:0:0:0:
192,192,63882,1,0,0:0:0:0:
64,192,63970,1,0,0:0:0:0:
320,192,64146,1,0,0:0:0:0:
192,192,64323,128,0,64499:0:0:0:0:
448,192,64323,1,0,0:0:0:0:
64,192,64499,128,0,64676:0:0:0:0:
192,192,64676,1,0,0:0:0:0:
320,192,64676,128,0,64852:0:0:0:0:
448,192,64852,128,0,65029:0:0:0:0:
192,192,65029,1,0,0:0:0:0:
320,192,65117,1,0,0:0:0:0:
64,192,65205,1,0,0:0:0:0:
448,192,65293,1,0,0:0:0:0:
320,192,65382,1,0,0:0:0:0:
448,192,65558,1,0,0:0:0:0:
192,192,65735,128,0,65911:0:0:0:0:
64,192,65735,1,0,0:0:0:0:
320,192,65911,128,0,66087:0:0:0:0:
64,192,66087,128,0,66264:0:0:0:0:
448,192,66087,1,0,0:0:0:0:
192,192,66264,128,0,66440:0:0:0:0:
320,192,66440,1,0,0:0:0:0:
64,192,66529,1,0,0:0:0:0:
448,192,66617,1,0,0:0:0:0:
192,192,66705,1,0,0:0:0:0:
64,192,66793,1,0,0:0:0:0:
320,192,66970,1,0,0:0:0:0:
192,192,67146,128,0,67323:0:0:0:0:
448,192,67146,1,0,0:0:0:0:
64,192,67323,128,0,67499:0:0:0:0:
320,192,67499,128,0,67676:0:0:0:0:
192,192,67499,1,0,0:0:0:0:
448,192,67676,128,0,67852:0:0:0:0:
192,192,67852,1,0,0:0:0:0:
320,192,67940,1,0,0:0:0:0:
64,192,68029,1,0,0:0:0:0:
448,192,68117,1,0,0:0:0:0:
320,192,68205,1,0,0:0:0:0:
448,192,68382,1,0,0:0:0:0:
320,192,68558,128,0,68911:0:0:0:0:
64,192,68558,128,0,68735:0:0:0:0:
192,192,68735,1,0,0:0:0:0:
192,192,68911,1,0,0:0:0:0:
320,192,69264,1,0,0:0:0:0:
192,192,69440,1,0,0:0:0:0:
448,192,69617,1,0,0:0:0:0:
64,192,69793,1,0,0:0:0:0:
192,192,69970,1,0,0:0:0:0:
448,192,70146,1,0,0:0:0:0:
320,192,70323,1,0,0:0:0:0:
192,192,70499,128,0,70676:0:0:0:0:
64,192,70676,5,0,0:0:0:0:
448,192,70852,1,0,0:0:0:0:
192,192,71029,1,0,0:0:0:0:
64,192,71205,1,0,0:0:0:0:
320,192,71382,1,0,0:0:0:0:
448,192,71558,1,0,0:0:0:0:
64,192,71735,1,0,0:0:0:0:
192,192,71735,1,0,0:0:0:0:
320,192,71911,128,0,72087:0:0:0:0:
448,192,72087,1,0,0:0:0:0:
192,192,72264,1,0,0:0:0:0:
320,192,72440,1,0,0:0:0:0:
64,192,72617,1,0,0:0:0:0:
192,192,72793,1,0,0:0:0:0:
448,192,72970,1,0,0:0:0:0:
320,192,73146,1,0,0:0:0:0:
192,192,73323,128,0,73499:0:0:0:0:
448,192,73499,128,0,73676:0:0:0:0:
64,192,73499,1,0,0:0:0:0:
320,192,73676,1,0,0:0:0:0:
64,192,73852,128,0,74029:0:0:0:0:
192,192,73852,1,0,0:0:0:0:
448,192,74029,1,0,0:0:0:0:
320,192,74205,128,0,74382:0:0:0:0:
192,192,74205,1,0,0:0:0:0:
448,192,74382,1,0,0:0:0:0:
64,192,74558,1,0,0:0:0:0:
192,192,74558,1,0,0:0:0:0:
448,192,74911,1,0,0:0:0:0:
192,192,75087,128,0,75264:0:0:0:0:
448,192,75264,1,0,0:0:0:0:
64,192,75440,128,0,75617:0:0:0:0:
192,192,75617,1,0,0:0:0:0:
448,192,75793,128,0,75970:0:0:0:0:
320,192,75970,1,0,0:0:0:0:
192,192,76146,128,0,76323:0:0:0:0:
64,192,76323,5,0,0:0:0:0:
448,192,76499,128,0,76676:0:0:0:0:
64,192,76676,1,0,0:0:0:0:
320,192,76852,128,0,77029:0:0:0:0:
192,192,77029,1,0,0:0:0:0:
64,192,77205,128,0,77382:0:0:0:0:
320,192,77382,1,0,0:0:0:0:
192,192,77382,1,0,0:0:0:0:
320,192,77558,128,0,77735:0:0:0:0:
448,192,77735,1,0,0:0:0:0:
192,192,77911,128,0,78087:0:0:0:0:
448,192,78087,1,0,0:0:0:0:
64,192,78264,128,0,78440:0:0:0:0:
192,192,78440,1,0,0:0:0:0:
448,192,78617,128,0,78793:0:0:0:0:
320,192,78793,1,0,0:0:0:0:
192,192,78970,128,0,79146:0:0:0:0:
64,192,79146,5,0,0:0:0:0:
448,192,79323,128,0,79499:0:0:0:0:
64,192,79499,1,0,0:0:0:0:
320,192,79676,128,0,79852:0:0:0:0:
192,192,79852,1,0,0:0:0:0:
448,192,80029,1,0,0:0:0:0:
64,192,80117,1,0,0:0:0:0:
192,192,80161,1,0,0:0:0:0:
320,192,80205,128,0,80558:0:0:0:0:
64,192,80382,128,0,80558:0:0:0:0:
448,192,80558,128,0,80735:0:0:0:0:
192,192,80558,1,0,0:0:0:0:
320,192,80735,1,0,0:0:0:0:
64,192,80823,128,0,81176:0:0:0:0:
192,192,80911,1,0,0:0:0:0:
448,192,80999,1,0,0:0:0:0:
448,192,81176,128,0,81617:0:0:0:0:
320,192,81264,1,0,0:0:0:0:
192,192,81352,1,0,0:0:0:0:
192,192,81529,128,0,81793:0:0:0:0:
320,192,81617,1,0,0:0:0:0:
64,192,81793,1,0,0:0:0:0:
192,192,81970,1,0,0:0:0:0:
448,192,82058,128,0,82323:0:0:0:0:
64,192,82146,1,0,0:0:0:0:
192,192,82323,128,0,82676:0:0:0:0:
320,192,82411,1,0,0:0:0:0:
320,192,82587,128,0,82940:0:0:0:0:
64,192,82676,128,0,83029:0:0:0:0:
448,192,82940,128,0,83205:0:0:0:0:
192,192,83029,1,0,0:0:0:0:
64,192,83205,128,0,83382:0:0:0:0:
448,192,83382,128,0,83558:0:0:0:0:
320,192,83558,128,0,83735:0:0:0:0:
64,192,83646,128,0,83911:0:0:0:0:
192,192,83735,1,0,0:0:0:0:
448,192,83823,1,0,0:0:0:0:
320,192,83911,1,0,0:0:0:0:
192,192,83999,1,0,0:0:0:0:
448,192,84087,1,0,0:0:0:0:
64,192,84176,1,0,0:0:0:0:
192,192,84264,1,0,0:0:0:0:
448,192,84352,128,0,84617:0:0:0:0:
320,192,84440,1,0,0:0:0:0:
192,192,84529,1,0,0:0:0:0:
64,192,84617,1,0,0:0:0:0:
320,192,84705,1,0,0:0:0:0:
192,192,84793,128,0,85146:0:0:0:0:
448,192,84970,128,0,85146:0:0:0:0:
320,192,85146,128,0,85499:0:0:0:0:
64,192,85235,128,0,85499:0:0:0:0:
192,192,85499,128,0,85852:0:0:0:0:
448,192,85499,128,0,85676:0:0:0:0:
320,192,85676,1,0,0:0:0:0:
64,192,85852,128,0,86029:0:0:0:0:
448,192,85852,128,0,86205:0:0:0:0:
192,192,86029,1,0,0:0:0:0:
320,192,86205,1,0,0:0:0:0:
192,192,86382,1,0,0:0:0:0:
448,192,86470,128,0,86823:0:0:0:0:
320,192,86558,1,0,0:0:0:0:
64,192,86646,1,0,0:0:0:0:
64,192,86823,128,0,87264:0:0:0:0:
192,192,86911,1,0,0:0:0:0:
320,192,86999,1,0,0:0:0:0:
320,192,87176,128,0,87440:0:0:0:0:
192,192,87264,1,0,0:0:0:0:
448,192,87440,1,0,0:0:0:0:
320,192,87617,1,0,0:0:0:0:
64,192,87705,128,0,87970:0:0:0:0:
448,192,87793,1,0,0:0:0:0:
320,192,87970,128,0,88323:0:0:0:0:
192,192,88058,1,0,0:0:0:0:
192,192,88235,128,0,88587:0:0:0:0:
448,192,88323,128,0,88676:0:0:0:0:
64,192,88587,128,0,88852:0:0:0:0:
320,192,88676,1,0,0:0:0:0:
448,192,88852,128,0,89029:0:0:0:0:
64,192,89029,128,0,89205:0:0:0:0:
192,192,89205,128,0,89382:0:0:0:0:
448,192,89293,128,0,89558:0:0:0:0:
320,192,89382,1,0,0:0:0:0:
64,192,89470,1,0,0:0:0:0:
192,192,89558,1,0,0:0:0:0:
320,192,89646,1,0,0:0:0:0:
64,192,89735,1,0,0:0:0:0:
448,192,89823,1,0,0:0:0:0:
320,192,89911,1,0,0:0:0:0:
64,192,89999,128,0,90264:0:0:0:0:
448,192,90087,1,0,0:0:0:0:
192,192,90176,1,0,0:0:0:0:
320,192,90264,1,0,0:0:0:0:
448,192,90352,1,0,0:0:0:0:
64,192,90440,1,0,0:0:0:0:
192,192,90440,1,0,0:0:0:0:
320,192,90529,1,0,0:0:0:0:
192,192,90617,128,0,90793:0:0:0:0:
448,192,90793,5,0,0:0:0:0:
64,192,90882,128,0,91058:0:0:0:0:
320,192,90970,1,0,0:0:0:0:
448,192,91146,1,0,0:0:0:0:
192,192,91146,128,0,91499:0:0:0:0:
64,192,91323,1,0,0:0:0:0:
320,192,91499,5,0,0:0:0:0:
448,192,91499,1,0,0:0:0:0:
64,192,91676,1,0,0:0:0:0:
192,192,91764,1,0,0:0:0:0:
448,192,91852,1,0,0:0:0:0:
320,192,91852,1,0,0:0:0:0:
64,192,91940,1,0,0:0:0:0:
192,192,92029,1,0,0:0:0:0:
448,192,92117,128,0,92558:0:0:0:0:
64,192,92205,1,0,0:0:0:0:
320,192,92293,1,0,0:0:0:0:
192,192,92382,1,0,0:0:0:0:
64,192,92470,1,0,0:0:0:0:
320,192,92558,1,0,0:0:0:0:
192,192,92646,1,0,0:0:0:0:
448,192,92735,1,0,0:0:0:0:
320,192,92823,128,0,93087:0:0:0:0:
64,192,92911,1,0,0:0:0:0:
448,192,92999,1,0,0:0:0:0:
192,192,93087,1,0,0:0:0:0:
64,192,93176,1,0,0:0:0:0:
320,192,93264,1,0,0:0:0:0:
192,192,93352,128,0,93529:0:0:0:0:
320,192,93529,1,0,0:0:0:0:
64,192,93617,128,0,93882:0:0:0:0:
320,192,93793,1,0,0:0:0:0:
192,192,93882,1,0,0:0:0:0:
448,192,93970,1,0,0:0:0:0:
64,192,94146,1,0,0:0:0:0:
320,192,94235,128,0,94499:0:0:0:0:
192,192,94323,1,0,0:0:0:0:
64,192,94411,1,0,0:0:0:0:
448,192,94499,1,0,0:0:0:0:
192,192,94587,1,0,0:0:0:0:
320,192,94676,1,0,0:0:0:0:
448,192,94764,1,0,0:0:0:0:
192,192,94852,1,0,0:0:0:0:
64,192,94940,128,0,95205:0:0:0:0:
320,192,95029,1,0,0:0:0:0:
448,192,95117,1,0,0:0:0:0:
192,192,95205,1,0,0:0:0:0:
320,192,95293,1,0,0:0:0:0:
448,192,95382,1,0,0:0:0:0:
192,192,95470,1,0,0:0:0:0:
64,192,95558,1,0,0:0:0:0:
320,192,95646,128,0,95911:0:0:0:0:
192,192,95735,1,0,0:0:0:0:
448,192,95823,1,0,0:0:0:0:
64,192,95911,1,0,0:0:0:0:
192,192,95999,1,0,0:0:0:0:
448,192,96087,1,0,0:0:0:0:
320,192,96176,1,0,0:0:0:0:
64,192,96264,128,0,96440:0:0:0:0:
448,192,96352,1,0,0:0:0:0:
192,192,96440,1,0,0:0:0:0:
320,192,96529,128,0,96705:0:0:0:0:
64,192,96617,1,0,0:0:0:0:
448,192,96705,1,0,0:0:0:0:
192,192,96793,1,0,0:0:0:0:
192,192,96970,128,0,97146:0:0:0:0:
64,192,97146,1,0,0:0:0:0:
448,192,97146,1,0,0:0:0:0:
320,192,97235,128,0,97499:0:0:0:0:
64,192,97499,1,0,0:0:0:0:
192,192,97499,1,0,0:0:0:0:
448,192,97587,1,0,0:0:0:0:
320,192,97676,1,0,0:0:0:0:
64,192,97764,128,0,98205:0:0:0:0:
448,192,97852,1,0,0:0:0:0:
192,192,97940,1,0,0:0:0:0:
320,192,98029,1,0,0:0:0:0:
448,192,98117,1,0,0:0:0:0:
192,192,98205,1,0,0:0:0:0:
320,192,98293,1,0,0:0:0:0:
64,192,98382,1,0,0:0:0:0:
192,192,98470,128,0,98735:0:0:0:0:
448,192,98558,1,0,0:0:0:0:
64,192,98646,1,0,0:0:0:0:
320,192,98735,1,0,0:0:0:0:
448,192,98823,1,0,0:0:0:0:
192,192,98911,1,0,0:0:0:0:
320,192,98999,128,0,99176:0:0:0:0:
192,192,99176,1,0,0:0:0:0:
448,192,99264,128,0,99529:0:0:0:0:
192,192,99440,1,0,0:0:0:0:
320,192,99529,1,0,0:0:0:0:
64,192,99617,1,0,0:0:0:0:
448,192,99793,1,0,0:0:0:0:
192,192,99882,128,0,100146:0:0:0:0:
320,192,99970,1,0,0:0:0:0:
448,192,100058,1,0,0:0:0:0:
64,192,100146,1,0,0:0:0:0:
320,192,100235,1,0,0:0:0:0:
192,192,100323,1,0,0:0:0:0:
64,192,100411,1,0,0:0:0:0:
320,192,100499,1,0,0:0:0:0:
448,192,100587,128,0,100852:0:0:0:0:
192,192,100676,1,0,0:0:0:0:
64,192,100764,1,0,0:0:0:0:
320,192,100852,1,0,0:0:0:0:
192,192,100940,1,0,0:0:0:0:
64,192,101029,1,0,0:0:0:0:
320,192,101117,1,0,0:0:0:0:
448,192,101205,1,0,0:0:0:0:
192,192,101293,128,0,101558:0:0:0:0:
320,192,101382,1,0,0:0:0:0:
64,192,101470,1,0,0:0:0:0:
448,192,101558,1,0,0:0:0:0:
320,192,101646,1,0,0:0:0:0:
192,192,101735,1,0,0:0:0:0:
64,192,101735,1,0,0:0:0:0:
448,192,101823,1,0,0:0:0:0:
64,192,101911,128,0,102087:0:0:0:0:
448,192,102087,1,0,0:0:0:0:
192,192,102176,128,0,102352:0:0:0:0:
320,192,102264,1,0,0:0:0:0:
64,192,102440,1,0,0:0:0:0:
448,192,102440,128,0,102793:0:0:0:0:
320,192,102617,1,0,0:0:0:0:
192,192,102793,1,0,0:0:0:0:
64,192,102793,1,0,0:0:0:0:
448,192,102970,1,0,0:0:0:0:
320,192,103058,1,0,0:0:0:0:
192,192,103146,1,0,0:0:0:0:
64,192,103146,1,0,0:0:0:0:
448,192,103235,1,0,0:0:0:0:
192,192,103323,128,0,103499:0:0:0:0:
320,192,103411,1,0,0:0:0:0:
64,192,103499,1,0,0:0:0:0:
192,192,103587,1,0,0:0:0:0:
320,192,103676,128,0,103852:0:0:0:0:
64,192,103764,1,0,0:0:0:0:
448,192,103852,1,0,0:0:0:0:
320,192,103940,1,0,0:0:0:0:
64,192,104029,128,0,104205:0:0:0:0:
448,192,104117,1,0,0:0:0:0:
192,192,104205,1,0,0:0:0:0:
448,192,104382,128,0,104558:0:0:0:0:
64,192,104558,1,0,0:0:0:0:
192,192,104646,1,0,0:0:0:0:
320,192,104735,128,0,104911:0:0:0:0:
64,192,104911,1,0,0:0:0:0:
192,192,104999,1,0,0:0:0:0:
448,192,105087,128,0,105264:0:0:0:0:
320,192,105176,1,0,0:0:0:0:
192,192,105264,128,0,105440:0:0:0:0:
448,192,105440,128,0,105617:0:0:0:0:
64,192,105617,128,0,105793:0:0:0:0:
320,192,105617,128,0,105970:0:0:0:0:
448,192,105793,1,0,0:0:0:0:
64,192,105970,1,0,0:0:0:0:
448,192,106058,1,0,0:0:0:0:
192,192,106146,128,0,106323:0:0:0:0:
320,192,106235,1,0,0:0:0:0:
64,192,106323,1,0,0:0:0:0:
192,192,106411,1,0,0:0:0:0:
320,192,106499,128,0,106676:0:0:0:0:
64,192,106587,1,0,0:0:0:0:
448,192,106676,1,0,0:0:0:0:
320,192,106764,1,0,0:0:0:0:
64,192,106852,128,0,107029:0:0:0:0:
448,192,106940,1,0,0:0:0:0:
192,192,107029,1,0,0:0:0:0:
448,192,107205,128,0,107382:0:0:0:0:
192,192,107382,128,0,107558:0:0:0:0:
320,192,107382,128,0,107735:0:0:0:0:
64,192,107558,1,0,0:0:0:0:
448,192,107735,128,0,107911:0:0:0:0:
192,192,107735,128,0,108087:0:0:0:0:
320,192,107911,1,0,0:0:0:0:
64,192,108087,128,0,108264:0:0:0:0:
448,192,108087,128,0,108440:0:0:0:0:
320,192,108264,1,0,0:0:0:0:
192,192,108440,1,0,0:0:0:0:
64,192,108440,1,0,0:0:0:0:
448,192,108617,1,0,0:0:0:0:
320,192,108793,1,0,0:0:0:0:
64,192,108882,1,0,0:0:0:0:
448,192,108970,128,0,109146:0:0:0:0:
192,192,109058,1,0,0:0:0:0:
64,192,109146,1,0,0:0:0:0:
320,192,109323,128,0,109499:0:0:0:0:
192,192,109499,128,0,109676:0:0:0:0:
448,192,109499,128,0,109852:0:0:0:0:
64,192,109676,128,0,109852:0:0:0:0:
192,192,109852,128,0,110029:0:0:0:0:
320,192,109852,128,0,110205:0:0:0:0:
448,192,110029,128,0,110205:0:0:0:0:
192,192,110205,1,0,0:0:0:0:
320,192,110293,1,0,0:0:0:0:
64,192,110382,128,0,110558:0:0:0:0:
448,192,110470,1,0,0:0:0:0:
320,192,110558,1,0,0:0:0:0:
448,192,110735,128,0,110911:0:0:0:0:
64,192,110911,128,0,111087:0:0:0:0:
192,192,110911,128,0,111264:0:0:0:0:
320,192,111087,128,0,111264:0:0:0:0:
64,192,111264,128,0,111617:0:0:0:0:
448,192,111264,1,0,0:0:0:0:
192,192,111440,128,0,111617:0:0:0:0:
320,192,111617,1,0,0:0:0:0:
64,192,111705,1,0,0:0:0:0:
448,192,111793,128,0,111970:0:0:0:0:
192,192,111882,1,0,0:0:0:0:
64,192,111970,1,0,0:0:0:0:
320,192,112146,128,0,112323:0:0:0:0:
192,192,112323,128,0,112499:0:0:0:0:
448,192,112323,128,0,112676:0:0:0:0:
64,192,112499,128,0,112676:0:0:0:0:
192,192,112676,128,0,112852:0:0:0:0:
320,192,112676,128,0,113029:0:0:0:0:
448,192,112852,128,0,113029:0:0:0:0:
192,192,113029,1,0,0:0:0:0:
320,192,113117,1,0,0:0:0:0:
64,192,113205,128,0,113382:0:0:0:0:
448,192,113293,1,0,0:0:0:0:
320,192,113382,1,0,0:0:0:0:
448,192,113558,128,0,113735:0:0:0:0:
320,192,113735,128,0,114087:0:0:0:0:
64,192,113735,128,0,113911:0:0:0:0:
192,192,113911,1,0,0:0:0:0:
64,192,114087,1,0,0:0:0:0:
448,192,114087,1,0,0:0:0:0:
448,192,114440,1,0,0:0:0:0:
320,192,114440,1,0,0:0:0:0:
192,192,114617,128,0,114793:0:0:0:0:
448,192,114793,1,0,0:0:0:0:
64,192,114970,128,0,115146:0:0:0:0:
192,192,115146,1,0,0:0:0:0:
448,192,115323,128,0,115499:0:0:0:0:
320,192,115499,1,0,0:0:0:0:
192,192,115676,128,0,115852:0:0:0:0:
64,192,115852,5,0,0:0:0:0:
320,192,116029,128,0,116205:0:0:0:0:
64,192,116205,1,0,0:0:0:0:
192,192,116382,128,0,116558:0:0:0:0:
320,192,116558,1,0,0:0:0:0:
448,192,116735,128,0,116911:0:0:0:0:
192,192,116911,1,0,0:0:0:0:
64,192,116911,1,0,0:0:0:0:
320,192,117087,128,0,117264:0:0:0:0:
448,192,117264,1,0,0:0:0:0:
192,192,117440,128,0,117617:0:0:0:0:
448,192,117617,1,0,0:0:0:0:
64,192,117793,128,0,117970:0:0:0:0:
192,192,117970,1,0,0:0:0:0:
448,192,118146,128,0,118323:0:0:0:0:
320,192,118323,1,0,0:0:0:0:
192,192,118499,128,0,118676:0:0:0:0:
64,192,118676,5,0,0:0:0:0:
320,192,118852,128,0,119029:0:0:0:0:
64,192,119029,1,0,0:0:0:0:
192,192,119205,128,0,119382:0:0:0:0:
320,192,119382,1,0,0:0:0:0:
448,192,119558,128,0,119735:0:0:0:0:
192,192,119735,1,0,0:0:0:0:
64,192,119735,1,0,0:0:0:0:
320,192,119911,128,0,120087:0:0:0:0:
448,192,120087,1,0,0:0:0:0:
192,192,120264,128,0,120440:0:0:0:0:
448,192,120440,1,0,0:0:0:0:
64,192,120617,128,0,120793:0:0:0:0:
192,192,120793,1,0,0:0:0:0:
448,192,120970,128,0,121146:0:0:0:0:
320,192,121146,1,0,0:0:0:0:
192,192,121323,128,0,121499:0:0:0:0:
64,192,121499,5,0,0:0:0:0:
448,192,121676,128,0,121852:0:0:0:0:
64,192,121852,1,0,0:0:0:0:
320,192,122029,128,0,122205:0:0:0:0:
192,192,122205,1,0,0:0:0:0:
64,192,122382,128,0,122558:0:0:0:0:
192,192,122558,1,0,0:0:0:0:
320,192,122558,1,0,0:0:0:0:
320,192,122735,128,0,122911:0:0:0:0:
448,192,122911,1,0,0:0:0:0:
192,192,123087,128,0,123264:0:0:0:0:
448,192,123264,1,0,0:0:0:0:
64,192,123440,128,0,123617:0:0:0:0:
192,192,123617,1,0,0:0:0:0:
448,192,123793,128,0,123970:0:0:0:0:
320,192,123970,1,0,0:0:0:0:
192,192,124146,128,0,124323:0:0:0:0:
64,192,124323,5,0,0:0:0:0:
448,192,124499,128,0,124676:0:0:0:0:
64,192,124676,1,0,0:0:0:0:
320,192,124852,128,0,125029:0:0:0:0:
192,192,125029,1,0,0:0:0:0:
448,192,125205,1,0,0:0:0:0:
320,192,125205,1,0,0:0:0:0:
448,192,125382,128,0,125558:0:0:0:0:
64,192,125382,1,0,0:0:0:0:
