osu file format v14

[General]
AudioFilename: audio.mp3
AudioLeadIn: 0
PreviewTime: 80558
Countdown: 0
SampleSet: Soft
StackLeniency: 0.7
Mode: 3
LetterboxInBreaks: 0
SpecialStyle: 0
WidescreenStoryboard: 1

[Editor]
DistanceSpacing: 1
BeatDivisor: 3
GridSize: 4
TimelineZoom: 2.4

[Metadata]
Title:Chat perdu
TitleUnicode:Chat perdu
Artist:Feryquitous
ArtistUnicode:Feryquitous
Creator:Sillyp
Version:HD
Source:Deemo
Tags:biemote Famoss Video Game Instrumental Electronic lost cat jazz rayark piano
BeatmapID:2696983
BeatmapSetID:1300107

[Difficulty]
HPDrainRate:7.5
CircleSize:6
OverallDifficulty:7.5
ApproachRate:5
SliderMultiplier:1.4
SliderTickRate:1

[Events]
//Background and Video events
0,0,"Chat_Perdu.jpg",0,0
//Break Periods
//Storyboard Layer 0 (Background)
//Storyboard Layer 1 (Fail)
//Storyboard Layer 2 (Pass)
//Storyboard Layer 3 (Foreground)
//Storyboard Layer 4 (Overlay)
//Storyboard Sound Samples

[TimingPoints]
88,352.941176470588,4,2,1,50,1,0
80558,-100,4,2,1,50,0,1
103146,-100,4,2,1,50,0,0

[HitObjects]
213,192,1499,5,0,0:0:0:0:
469,192,1676,1,0,0:0:0:0:
128,192,1852,1,0,0:0:0:0:
384,192,2029,1,0,0:0:0:0:
42,192,2205,1,0,0:0:0:0:
298,192,2382,1,0,0:0:0:0:
42,192,2558,1,0,0:0:0:0:
469,192,2735,1,0,0:0:0:0:
298,192,2911,1,0,0:0:0:0:
42,192,3087,1,0,0:0:0:0:
384,192,3264,1,0,0:0:0:0:
128,192,3440,1,0,0:0:0:0:
469,192,3617,1,0,0:0:0:0:
213,192,3793,1,0,0:0:0:0:
469,192,3970,1,0,0:0:0:0:
42,192,4146,1,0,0:0:0:0:
213,192,4323,1,0,0:0:0:0:
469,192,4499,1,0,0:0:0:0:
128,192,4676,1,0,0:0:0:0:
384,192,4852,1,0,0:0:0:0:
42,192,5029,1,0,0:0:0:0:
298,192,5205,1,0,0:0:0:0:
42,192,5382,1,0,0:0:0:0:
469,192,5558,1,0,0:0:0:0:
298,192,5735,1,0,0:0:0:0:
42,192,5911,1,0,0:0:0:0:
384,192,6087,1,0,0:0:0:0:
128,192,6264,1,0,0:0:0:0:
469,192,6440,1,0,0:0:0:0:
213,192,6617,1,0,0:0:0:0:
469,192,6793,1,0,0:0:0:0:
42,192,6970,1,0,0:0:0:0:
213,192,7146,1,2,0:0:0:0:
469,192,7323,1,0,0:0:0:0:
128,192,7499,1,2,0:0:0:0:
384,192,7676,1,0,0:0:0:0:
42,192,7852,1,2,0:0:0:0:
298,192,8029,1,0,0:0:0:0:
42,192,8205,1,2,0:0:0:0:
469,192,8382,1,0,0:0:0:0:
298,192,8558,1,2,0:0:0:0:
42,192,8735,1,0,0:0:0:0:
384,192,8911,1,2,0:0:0:0:
128,192,9087,1,0,0:0:0:0:
469,192,9264,1,2,0:0:0:0:
213,192,9440,1,0,0:0:0:0:
298,192,9617,1,8,0:0:0:0:
469,192,9617,1,0,0:0:0:0:
42,192,9793,1,0,0:0:0:0:
213,192,9970,1,2,0:0:0:0:
469,192,10146,1,0,0:0:0:0:
128,192,10323,1,2,0:0:0:0:
384,192,10499,1,0,0:0:0:0:
42,192,10676,1,2,0:0:0:0:
298,192,10852,1,0,0:0:0:0:
42,192,11029,1,2,0:0:0:0:
469,192,11205,1,0,0:0:0:0:
298,192,11382,1,2,0:0:0:0:
42,192,11558,1,0,0:0:0:0:
384,192,11735,1,2,0:0:0:0:
128,192,11911,1,0,0:0:0:0:
469,192,12087,1,2,0:0:0:0:
213,192,12264,1,0,0:0:0:0:
42,192,12440,1,8,0:0:0:0:
469,192,12440,1,0,0:0:0:0:
298,192,12793,1,2,0:0:0:0:
213,192,12882,1,0,0:0:0:0:
128,192,12970,1,0,0:0:0:0:
42,192,13058,1,0,0:0:0:0:
384,192,13146,1,2,0:0:0:0:
298,192,13235,1,0,0:0:0:0:
213,192,13323,1,0,0:0:0:0:
128,192,13411,1,0,0:0:0:0:
469,192,13499,1,2,0:0:0:0:
384,192,13587,1,0,0:0:0:0:
298,192,13676,1,0,0:0:0:0:
213,192,13764,1,0,0:0:0:0:
42,192,13852,1,2,0:0:0:0:
384,192,14029,1,0,0:0:0:0:
128,192,14205,1,2,0:0:0:0:
213,192,14293,1,0,0:0:0:0:
298,192,14382,1,0,0:0:0:0:
384,192,14470,1,0,0:0:0:0:
128,192,14558,1,2,0:0:0:0:
213,192,14646,1,0,0:0:0:0:
298,192,14735,1,0,0:0:0:0:
384,192,14823,1,0,0:0:0:0:
42,192,14911,1,2,0:0:0:0:
298,192,15087,1,0,0:0:0:0:
128,192,15264,1,8,0:0:0:0:
469,192,15264,1,0,0:0:0:0:
384,192,15440,1,0,0:0:0:0:
213,192,15617,1,2,0:0:0:0:
298,192,15705,1,0,0:0:0:0:
384,192,15793,1,0,0:0:0:0:
469,192,15882,1,0,0:0:0:0:
128,192,15970,1,2,0:0:0:0:
213,192,16058,1,0,0:0:0:0:
298,192,16146,1,0,0:0:0:0:
384,192,16235,1,0,0:0:0:0:
42,192,16323,1,2,0:0:0:0:
128,192,16411,1,0,0:0:0:0:
213,192,16499,1,0,0:0:0:0:
298,192,16587,1,0,0:0:0:0:
469,192,16676,1,2,0:0:0:0:
384,192,16852,1,0,0:0:0:0:
42,192,17029,1,2,0:0:0:0:
298,192,17029,1,0,0:0:0:0:
213,192,17205,1,0,0:0:0:0:
128,192,17382,1,2,0:0:0:0:
384,192,17382,1,0,0:0:0:0:
298,192,17558,1,0,0:0:0:0:
213,192,17735,1,2,0:0:0:0:
469,192,17735,1,0,0:0:0:0:
128,192,17911,1,0,0:0:0:0:
42,192,18087,1,8,0:0:0:0:
384,192,18087,1,0,0:0:0:0:
298,192,18264,1,0,0:0:0:0:
128,192,18440,1,2,0:0:0:0:
213,192,18529,1,0,0:0:0:0:
298,192,18617,1,0,0:0:0:0:
384,192,18705,1,0,0:0:0:0:
469,192,18793,1,2,0:0:0:0:
42,192,18970,1,0,0:0:0:0:
213,192,19146,1,2,0:0:0:0:
469,192,19146,1,0,0:0:0:0:
128,192,19323,1,0,0:0:0:0:
384,192,19323,1,0,0:0:0:0:
42,192,19499,1,2,0:0:0:0:
298,192,19499,1,0,0:0:0:0:
213,192,19676,1,0,0:0:0:0:
469,192,19676,1,0,0:0:0:0:
384,192,19852,1,2,0:0:0:0:
298,192,19940,1,0,0:0:0:0:
213,192,20029,1,0,0:0:0:0:
128,192,20117,1,0,0:0:0:0:
42,192,20205,1,2,0:0:0:0:
469,192,20382,1,0,0:0:0:0:
42,192,20558,1,2,0:0:0:0:
298,192,20558,1,0,0:0:0:0:
213,192,20735,1,0,0:0:0:0:
469,192,20735,1,0,0:0:0:0:
128,192,20911,1,8,0:0:0:0:
384,192,20911,1,0,0:0:0:0:
42,192,21087,1,0,0:0:0:0:
298,192,21087,1,0,0:0:0:0:
128,192,21264,1,2,0:0:0:0:
213,192,21352,1,0,0:0:0:0:
298,192,21440,1,0,0:0:0:0:
384,192,21529,1,0,0:0:0:0:
469,192,21617,1,2,0:0:0:0:
42,192,21793,1,0,0:0:0:0:
213,192,21970,1,2,0:0:0:0:
469,192,21970,1,0,0:0:0:0:
128,192,22146,1,0,0:0:0:0:
384,192,22146,1,0,0:0:0:0:
42,192,22323,1,2,0:0:0:0:
298,192,22323,1,0,0:0:0:0:
213,192,22499,1,0,0:0:0:0:
469,192,22499,1,0,0:0:0:0:
384,192,22676,1,2,0:0:0:0:
298,192,22764,1,0,0:0:0:0:
213,192,22852,1,0,0:0:0:0:
128,192,22940,1,0,0:0:0:0:
42,192,23029,1,2,0:0:0:0:
384,192,23205,1,0,0:0:0:0:
213,192,23382,128,2,23735:0:0:0:0:
42,192,23735,1,8,0:0:0:0:
469,192,23735,1,0,0:0:0:0:
213,192,24087,1,2,0:0:0:0:
298,192,24176,1,0,0:0:0:0:
384,192,24264,1,0,0:0:0:0:
469,192,24352,1,0,0:0:0:0:
128,192,24440,1,2,0:0:0:0:
213,192,24529,1,0,0:0:0:0:
298,192,24617,1,0,0:0:0:0:
384,192,24705,1,0,0:0:0:0:
42,192,24793,1,2,0:0:0:0:
128,192,24882,1,0,0:0:0:0:
213,192,24970,1,0,0:0:0:0:
298,192,25058,1,0,0:0:0:0:
469,192,25146,1,2,0:0:0:0:
128,192,25323,1,0,0:0:0:0:
298,192,25499,1,2,0:0:0:0:
213,192,25587,1,0,0:0:0:0:
128,192,25676,1,0,0:0:0:0:
42,192,25764,1,0,0:0:0:0:
469,192,25852,1,2,0:0:0:0:
384,192,25940,1,0,0:0:0:0:
298,192,26029,1,0,0:0:0:0:
213,192,26117,1,0,0:0:0:0:
128,192,26205,1,2,0:0:0:0:
469,192,26382,1,0,0:0:0:0:
42,192,26558,1,8,0:0:0:0:
298,192,26558,1,0,0:0:0:0:
128,192,26735,1,0,0:0:0:0:
298,192,26911,1,2,0:0:0:0:
213,192,26999,1,0,0:0:0:0:
128,192,27087,1,0,0:0:0:0:
42,192,27176,1,0,0:0:0:0:
384,192,27264,1,2,0:0:0:0:
298,192,27352,1,0,0:0:0:0:
213,192,27440,1,0,0:0:0:0:
128,192,27529,1,0,0:0:0:0:
469,192,27617,1,2,0:0:0:0:
384,192,27705,1,0,0:0:0:0:
298,192,27793,1,0,0:0:0:0:
213,192,27882,1,0,0:0:0:0:
42,192,27970,1,2,0:0:0:0:
128,192,28146,1,0,0:0:0:0:
213,192,28323,1,2,0:0:0:0:
469,192,28323,1,0,0:0:0:0:
298,192,28499,1,0,0:0:0:0:
128,192,28676,1,2,0:0:0:0:
384,192,28676,1,0,0:0:0:0:
213,192,28852,1,0,0:0:0:0:
42,192,29029,1,2,0:0:0:0:
298,192,29029,1,0,0:0:0:0:
384,192,29205,1,0,0:0:0:0:
128,192,29382,1,8,0:0:0:0:
469,192,29382,1,0,0:0:0:0:
213,192,29558,1,0,0:0:0:0:
384,192,29735,1,2,0:0:0:0:
298,192,29823,1,0,0:0:0:0:
213,192,29911,1,0,0:0:0:0:
128,192,29999,1,0,0:0:0:0:
42,192,30087,1,2,0:0:0:0:
469,192,30264,1,0,0:0:0:0:
42,192,30440,1,2,0:0:0:0:
298,192,30440,1,0,0:0:0:0:
128,192,30617,1,0,0:0:0:0:
384,192,30617,1,0,0:0:0:0:
213,192,30793,1,2,0:0:0:0:
469,192,30793,1,0,0:0:0:0:
42,192,30970,1,0,0:0:0:0:
298,192,30970,1,0,0:0:0:0:
128,192,31146,1,2,0:0:0:0:
213,192,31235,1,0,0:0:0:0:
298,192,31323,1,0,0:0:0:0:
384,192,31411,1,0,0:0:0:0:
469,192,31499,1,2,0:0:0:0:
42,192,31676,1,0,0:0:0:0:
213,192,31852,1,2,0:0:0:0:
469,192,31852,1,0,0:0:0:0:
42,192,32029,1,0,0:0:0:0:
298,192,32029,1,0,0:0:0:0:
128,192,32205,1,8,0:0:0:0:
384,192,32205,1,0,0:0:0:0:
213,192,32382,1,0,0:0:0:0:
469,192,32382,1,0,0:0:0:0:
384,192,32558,1,2,0:0:0:0:
298,192,32646,1,0,0:0:0:0:
213,192,32735,1,0,0:0:0:0:
128,192,32823,1,0,0:0:0:0:
42,192,32911,1,2,0:0:0:0:
469,192,33087,1,0,0:0:0:0:
42,192,33264,1,2,0:0:0:0:
298,192,33264,1,0,0:0:0:0:
128,192,33440,1,0,0:0:0:0:
384,192,33440,1,0,0:0:0:0:
213,192,33617,1,2,0:0:0:0:
469,192,33617,1,0,0:0:0:0:
42,192,33793,1,0,0:0:0:0:
298,192,33793,1,0,0:0:0:0:
128,192,33970,1,2,0:0:0:0:
213,192,34058,1,0,0:0:0:0:
298,192,34146,1,0,0:0:0:0:
384,192,34235,1,0,0:0:0:0:
469,192,34323,1,2,0:0:0:0:
128,192,34499,1,0,0:0:0:0:
298,192,34676,128,2,35029:0:0:0:0:
42,192,35029,1,8,0:0:0:0:
469,192,35029,1,0,0:0:0:0:
213,192,35146,1,0,0:0:0:50:snare1.wav
42,192,35264,1,0,0:0:0:50:TMKD_SNARE1_BB14x6_L7_06.wav
469,192,35382,1,2,0:0:0:0:
128,192,35382,1,0,0:0:0:70:CrashL.wav
384,192,35499,1,0,0:0:0:0:
298,192,35617,1,0,0:0:0:0:
42,192,35735,1,8,0:0:0:0:
469,192,35735,1,0,0:0:0:0:
128,192,35852,1,0,0:0:0:0:
213,192,35970,1,0,0:0:0:0:
469,192,36087,1,2,0:0:0:0:
384,192,36205,1,0,0:0:0:0:
298,192,36323,1,2,0:0:0:0:
42,192,36440,1,8,0:0:0:0:
469,192,36440,1,0,0:0:0:0:
128,192,36558,1,0,0:0:0:0:
213,192,36676,1,0,0:0:0:0:
469,192,36793,1,2,0:0:0:0:
384,192,36911,1,2,0:0:0:0:
298,192,37029,1,2,0:0:0:0:
128,192,37146,1,8,0:0:0:0:
384,192,37146,1,0,0:0:0:0:
213,192,37264,1,0,0:0:0:0:
298,192,37382,1,0,0:0:0:50:snare1.wav
42,192,37499,1,2,0:0:0:0:
128,192,37617,1,0,0:0:0:0:
213,192,37735,1,2,0:0:0:0:
128,192,37852,1,8,0:0:0:0:
469,192,37852,1,0,0:0:0:0:
384,192,37970,1,0,0:0:0:0:
298,192,38087,1,0,0:0:0:0:
42,192,38205,1,2,0:0:0:0:
128,192,38323,1,0,0:0:0:0:
213,192,38440,1,0,0:0:0:0:
42,192,38558,1,8,0:0:0:0:
469,192,38558,1,0,0:0:0:0:
384,192,38676,1,0,0:0:0:0:
298,192,38793,1,0,0:0:0:0:
42,192,38911,1,2,0:0:0:0:
128,192,39029,1,0,0:0:0:0:
213,192,39146,1,2,0:0:0:0:
42,192,39264,1,8,0:0:0:0:
469,192,39264,1,0,0:0:0:0:
384,192,39382,1,0,0:0:0:0:
298,192,39499,1,0,0:0:0:0:
42,192,39617,1,2,0:0:0:0:
128,192,39735,1,2,0:0:0:0:
213,192,39852,1,2,0:0:0:0:
128,192,39970,1,8,0:0:0:0:
384,192,39970,1,0,0:0:0:0:
298,192,40087,1,0,0:0:0:0:
213,192,40205,1,0,0:0:0:50:snare1.wav
469,192,40323,1,2,0:0:0:0:
384,192,40440,1,0,0:0:0:0:
298,192,40558,1,2,0:0:0:0:
128,192,40676,1,8,0:0:0:0:
384,192,40676,1,0,0:0:0:0:
213,192,40793,1,0,0:0:0:0:
298,192,40911,1,0,0:0:0:0:
42,192,41029,1,2,0:0:0:0:
128,192,41382,1,8,0:0:0:0:
469,192,41382,1,0,0:0:0:0:
213,192,41735,1,2,0:0:0:0:
298,192,41970,1,2,0:0:0:0:
42,192,42087,1,8,0:0:0:0:
469,192,42087,1,0,0:0:0:0:
298,192,42440,1,2,0:0:0:0:
469,192,42558,1,2,0:0:0:0:
298,192,42676,1,2,0:0:0:0:
42,192,42793,1,8,0:0:0:0:
213,192,42793,1,0,0:0:0:0:
128,192,43029,1,0,0:0:0:50:snare1.wav
298,192,43146,1,2,0:0:0:0:
213,192,43382,1,2,0:0:0:0:
42,192,43499,1,8,0:0:0:0:
384,192,43499,1,0,0:0:0:0:
213,192,43852,1,2,0:0:0:0:
128,192,43970,1,0,0:0:0:0:
42,192,44087,1,0,0:0:0:0:
298,192,44205,1,8,0:0:0:0:
469,192,44205,1,0,0:0:0:0:
213,192,44323,1,0,0:0:0:0:
128,192,44440,1,0,0:0:0:0:
384,192,44558,1,2,0:0:0:0:
298,192,44676,1,0,0:0:0:0:
213,192,44793,1,2,0:0:0:0:
42,192,44911,1,8,0:0:0:0:
469,192,44911,1,0,0:0:0:0:
384,192,45029,1,0,0:0:0:0:
298,192,45146,1,0,0:0:0:0:
42,192,45264,1,2,0:0:0:0:
128,192,45382,1,2,0:0:0:0:
213,192,45499,1,2,0:0:0:0:
42,192,45617,1,8,0:0:0:0:
469,192,45617,1,0,0:0:0:0:
384,192,45735,1,0,0:0:0:0:
298,192,45852,1,0,0:0:0:50:snare1.wav
213,192,45970,1,2,0:0:0:0:
469,192,45970,1,0,0:0:0:0:
298,192,46205,1,2,0:0:0:0:
128,192,46323,1,8,0:0:0:0:
469,192,46323,1,0,0:0:0:0:
42,192,46676,1,2,0:0:0:0:
384,192,46676,1,0,0:0:0:70:CrashL.wav
128,192,46793,1,0,0:0:0:0:
213,192,46911,1,0,0:0:0:0:
42,192,47029,1,8,0:0:0:0:
469,192,47029,1,0,0:0:0:0:
384,192,47146,1,0,0:0:0:0:
298,192,47264,1,0,0:0:0:0:
42,192,47382,1,2,0:0:0:0:
128,192,47499,1,0,0:0:0:0:
213,192,47617,1,2,0:0:0:0:
42,192,47735,1,8,0:0:0:0:
469,192,47735,1,0,0:0:0:0:
384,192,47852,1,0,0:0:0:0:
298,192,47970,1,0,0:0:0:0:
42,192,48087,1,2,0:0:0:0:
128,192,48205,1,2,0:0:0:0:
213,192,48323,1,2,0:0:0:0:
128,192,48440,1,8,0:0:0:0:
384,192,48440,1,0,0:0:0:0:
298,192,48558,1,0,0:0:0:0:
213,192,48676,1,0,0:0:0:50:snare1.wav
469,192,48793,1,2,0:0:0:0:
384,192,48911,1,0,0:0:0:0:
298,192,49029,1,2,0:0:0:0:
42,192,49146,1,8,0:0:0:0:
384,192,49146,1,0,0:0:0:0:
128,192,49264,1,0,0:0:0:0:
213,192,49382,1,0,0:0:0:0:
469,192,49499,1,2,0:0:0:0:
384,192,49617,1,0,0:0:0:0:
298,192,49735,1,0,0:0:0:0:
42,192,49852,1,8,0:0:0:0:
469,192,49852,1,0,0:0:0:0:
128,192,49970,1,0,0:0:0:0:
213,192,50087,1,0,0:0:0:0:
469,192,50205,1,2,0:0:0:0:
384,192,50323,1,0,0:0:0:0:
298,192,50440,1,2,0:0:0:0:
42,192,50558,1,8,0:0:0:0:
469,192,50558,1,0,0:0:0:0:
128,192,50676,1,0,0:0:0:0:
213,192,50793,1,0,0:0:0:0:
469,192,50911,1,2,0:0:0:0:
384,192,51029,1,2,0:0:0:0:
298,192,51146,1,2,0:0:0:0:
128,192,51264,1,8,0:0:0:0:
384,192,51264,1,0,0:0:0:0:
213,192,51382,1,0,0:0:0:0:
298,192,51499,1,0,0:0:0:50:snare1.wav
42,192,51617,1,2,0:0:0:0:
128,192,51735,1,0,0:0:0:0:
213,192,51852,1,2,0:0:0:0:
128,192,51970,1,8,0:0:0:0:
384,192,51970,1,0,0:0:0:0:
298,192,52087,1,0,0:0:0:0:
213,192,52205,1,0,0:0:0:0:
469,192,52323,1,2,0:0:0:0:
42,192,52676,1,8,0:0:0:0:
384,192,52676,1,0,0:0:0:0:
298,192,53029,1,2,0:0:0:0:
213,192,53264,1,2,0:0:0:0:
42,192,53382,1,8,0:0:0:0:
469,192,53382,1,0,0:0:0:0:
213,192,53735,1,2,0:0:0:0:
42,192,53852,1,2,0:0:0:0:
213,192,53970,1,2,0:0:0:0:
298,192,54087,1,8,0:0:0:0:
469,192,54087,1,0,0:0:0:0:
384,192,54323,1,0,0:0:0:50:snare1.wav
213,192,54440,1,2,0:0:0:0:
298,192,54676,1,2,0:0:0:0:
128,192,54793,1,8,0:0:0:0:
469,192,54793,1,0,0:0:0:0:
298,192,55146,1,2,0:0:0:0:
384,192,55264,1,0,0:0:0:0:
469,192,55382,1,0,0:0:0:0:
42,192,55499,1,8,0:0:0:0:
213,192,55499,1,0,0:0:0:0:
298,192,55617,1,0,0:0:0:0:
384,192,55735,1,0,0:0:0:0:
128,192,55852,1,2,0:0:0:0:
213,192,55970,1,0,0:0:0:0:
298,192,56087,1,2,0:0:0:0:
42,192,56205,1,8,0:0:0:0:
469,192,56205,1,0,0:0:0:0:
128,192,56323,1,0,0:0:0:0:
213,192,56440,1,0,0:0:0:0:
469,192,56558,1,2,0:0:0:0:
384,192,56676,1,2,0:0:0:0:
298,192,56793,1,2,0:0:0:0:
42,192,56911,1,8,0:0:0:0:
469,192,56911,1,0,0:0:0:0:
128,192,57029,1,0,0:0:0:0:
213,192,57146,1,0,0:0:0:50:snare1.wav
42,192,57264,1,2,0:0:0:0:
298,192,57264,1,0,0:0:0:0:
384,192,57617,1,0,0:0:0:0:
298,192,57970,1,2,0:0:0:0:
469,192,57970,1,0,0:0:0:70:CrashR.wav
213,192,58058,1,0,0:0:0:0:
128,192,58146,1,0,0:0:0:0:
42,192,58235,1,0,0:0:0:0:
384,192,58323,1,2,0:0:0:0:
298,192,58411,1,0,0:0:0:0:
213,192,58499,1,0,0:0:0:0:
128,192,58587,1,0,0:0:0:0:
469,192,58676,1,2,0:0:0:0:
384,192,58764,1,0,0:0:0:0:
298,192,58852,1,0,0:0:0:0:
213,192,58940,1,0,0:0:0:0:
42,192,59029,1,2,0:0:0:0:
469,192,59205,1,0,0:0:0:0:
213,192,59382,1,2,0:0:0:0:
298,192,59470,1,0,0:0:0:0:
384,192,59558,1,0,0:0:0:0:
213,192,59735,1,2,0:0:0:0:
298,192,59823,1,0,0:0:0:0:
384,192,59911,1,0,0:0:0:0:
42,192,59999,1,0,0:0:0:0:
469,192,60087,1,2,0:0:0:0:
128,192,60264,1,0,0:0:0:0:
298,192,60440,1,8,0:0:0:0:
469,192,60440,1,0,0:0:0:0:
42,192,60617,1,0,0:0:0:0:
213,192,60793,1,2,0:0:0:0:
298,192,60882,1,0,0:0:0:0:
384,192,60970,1,0,0:0:0:0:
469,192,61058,1,0,0:0:0:0:
128,192,61146,1,2,0:0:0:0:
213,192,61235,1,0,0:0:0:0:
298,192,61323,1,0,0:0:0:0:
384,192,61411,1,0,0:0:0:0:
42,192,61499,1,2,0:0:0:0:
128,192,61587,1,0,0:0:0:0:
213,192,61676,1,0,0:0:0:0:
298,192,61764,1,0,0:0:0:0:
469,192,61852,1,2,0:0:0:0:
128,192,62029,1,0,0:0:0:0:
42,192,62205,1,2,0:0:0:0:
298,192,62205,1,0,0:0:0:0:
213,192,62382,1,0,0:0:0:0:
128,192,62558,1,2,0:0:0:0:
384,192,62558,1,0,0:0:0:0:
298,192,62735,1,0,0:0:0:0:
213,192,62911,1,2,0:0:0:0:
469,192,62911,1,0,0:0:0:0:
384,192,63087,1,0,0:0:0:0:
42,192,63264,1,8,0:0:0:0:
298,192,63264,1,0,0:0:0:0:
213,192,63440,1,0,0:0:0:0:
469,192,63617,1,2,0:0:0:0:
384,192,63705,1,0,0:0:0:0:
298,192,63793,1,0,0:0:0:0:
213,192,63882,1,0,0:0:0:0:
128,192,63970,1,2,0:0:0:0:
469,192,64146,1,0,0:0:0:0:
42,192,64323,1,2,0:0:0:0:
298,192,64323,1,0,0:0:0:0:
128,192,64499,1,0,0:0:0:0:
384,192,64499,1,0,0:0:0:0:
213,192,64676,1,2,0:0:0:0:
469,192,64676,1,0,0:0:0:0:
128,192,64852,1,0,0:0:0:0:
384,192,64852,1,0,0:0:0:0:
42,192,65029,1,2,0:0:0:0:
128,192,65117,1,0,0:0:0:0:
213,192,65205,1,0,0:0:0:0:
298,192,65293,1,0,0:0:0:0:
384,192,65382,1,2,0:0:0:0:
42,192,65558,1,0,0:0:0:0:
128,192,65735,1,2,0:0:0:0:
384,192,65735,1,0,0:0:0:0:
213,192,65911,1,0,0:0:0:0:
469,192,65911,1,0,0:0:0:0:
128,192,66087,1,8,0:0:0:0:
384,192,66087,1,0,0:0:0:0:
42,192,66264,1,0,0:0:0:0:
298,192,66264,1,0,0:0:0:0:
469,192,66440,1,2,0:0:0:0:
384,192,66529,1,0,0:0:0:0:
298,192,66617,1,0,0:0:0:0:
213,192,66705,1,0,0:0:0:0:
128,192,66793,1,2,0:0:0:0:
469,192,66970,1,0,0:0:0:0:
42,192,67146,1,2,0:0:0:0:
298,192,67146,1,0,0:0:0:0:
128,192,67323,1,0,0:0:0:0:
384,192,67323,1,0,0:0:0:0:
213,192,67499,1,2,0:0:0:0:
469,192,67499,1,0,0:0:0:0:
128,192,67676,1,0,0:0:0:0:
384,192,67676,1,0,0:0:0:0:
42,192,67852,1,2,0:0:0:0:
128,192,67940,1,0,0:0:0:0:
213,192,68029,1,0,0:0:0:0:
298,192,68117,1,0,0:0:0:0:
384,192,68205,1,2,0:0:0:0:
42,192,68382,1,0,0:0:0:0:
213,192,68558,1,2,0:0:0:0:
469,192,68558,1,0,0:0:0:0:
298,192,68735,1,0,0:0:0:70:Cowbell04.wav
42,192,68911,1,0,0:0:0:70:Cowbell05.wav
298,192,68911,1,0,0:0:0:0:
213,192,69264,1,2,0:0:0:0:
469,192,69440,1,0,0:0:0:0:
42,192,69617,1,2,0:0:0:0:
298,192,69793,1,0,0:0:0:0:
128,192,69970,1,2,0:0:0:0:
384,192,70146,1,0,0:0:0:0:
42,192,70323,1,2,0:0:0:0:
469,192,70499,1,0,0:0:0:0:
298,192,70676,1,2,0:0:0:0:
42,192,70852,1,0,0:0:0:0:
469,192,71029,1,2,0:0:0:0:
213,192,71205,1,0,0:0:0:0:
384,192,71382,1,2,0:0:0:0:
128,192,71558,1,0,0:0:0:0:
298,192,71735,1,8,0:0:0:0:
469,192,71735,1,0,0:0:0:0:
42,192,71911,1,0,0:0:0:0:
213,192,72087,1,2,0:0:0:0:
469,192,72264,1,0,0:0:0:0:
42,192,72440,1,2,0:0:0:0:
298,192,72617,1,0,0:0:0:0:
128,192,72793,1,2,0:0:0:0:
384,192,72970,1,0,0:0:0:0:
42,192,73146,1,2,0:0:0:0:
469,192,73323,1,0,0:0:0:0:
42,192,73499,1,2,0:0:0:0:
298,192,73499,1,0,0:0:0:0:
213,192,73676,1,0,0:0:0:0:
128,192,73852,1,2,0:0:0:0:
384,192,73852,1,0,0:0:0:0:
298,192,74029,1,0,0:0:0:0:
213,192,74205,1,2,0:0:0:0:
469,192,74205,1,0,0:0:0:0:
384,192,74382,1,0,0:0:0:0:
42,192,74558,1,8,0:0:0:0:
298,192,74558,1,0,0:0:0:0:
213,192,74911,1,2,0:0:0:0:
469,192,75087,1,0,0:0:0:0:
128,192,75264,1,2,0:0:0:0:
384,192,75440,1,0,0:0:0:0:
42,192,75617,1,2,0:0:0:0:
298,192,75793,1,0,0:0:0:0:
42,192,75970,1,2,0:0:0:0:
469,192,76146,1,0,0:0:0:0:
298,192,76323,1,2,0:0:0:0:
42,192,76499,1,0,0:0:0:0:
384,192,76676,1,2,0:0:0:0:
128,192,76852,1,0,0:0:0:0:
469,192,77029,1,2,0:0:0:0:
213,192,77205,1,0,0:0:0:0:
298,192,77382,1,8,0:0:0:0:
469,192,77382,1,0,0:0:0:0:
42,192,77558,1,0,0:0:0:0:
213,192,77735,1,2,0:0:0:0:
469,192,77911,1,0,0:0:0:0:
128,192,78087,1,2,0:0:0:0:
384,192,78264,1,0,0:0:0:0:
42,192,78440,1,2,0:0:0:0:
298,192,78617,1,0,0:0:0:0:
42,192,78793,1,2,0:0:0:0:
469,192,78970,1,0,0:0:0:0:
298,192,79146,1,2,0:0:0:0:
42,192,79323,1,0,0:0:0:0:
384,192,79499,1,2,0:0:0:0:
128,192,79676,1,0,0:0:0:0:
469,192,79852,1,2,0:0:0:0:
213,192,80029,1,0,0:0:0:0:
298,192,80117,1,0,0:0:0:0:
42,192,80205,1,8,0:0:0:0:
384,192,80205,1,0,0:0:0:0:
213,192,80382,1,0,0:0:0:0:
42,192,80558,1,2,0:0:0:0:
469,192,80558,1,0,0:0:0:70:cymbal00.wav
384,192,80735,1,0,0:0:0:0:
128,192,80823,1,0,0:0:0:0:
213,192,80911,1,8,0:0:0:0:
469,192,80911,1,0,0:0:0:0:
298,192,80999,1,0,0:0:0:0:
298,192,81176,1,0,0:0:0:0:
42,192,81264,1,2,0:0:0:0:
384,192,81264,1,0,0:0:0:0:
213,192,81352,1,0,0:0:0:0:
213,192,81529,1,0,0:0:0:0:
42,192,81617,1,8,0:0:0:0:
469,192,81617,1,0,0:0:0:0:
298,192,81793,1,0,0:0:0:0:
42,192,81970,1,2,0:0:0:0:
213,192,81970,1,0,0:0:0:0:
469,192,82058,1,0,0:0:0:0:
128,192,82146,1,0,0:0:0:0:
42,192,82323,1,8,0:0:0:0:
384,192,82323,1,0,0:0:0:0:
213,192,82411,1,0,0:0:0:0:
213,192,82587,1,0,0:0:0:0:
128,192,82676,1,2,0:0:0:0:
469,192,82676,1,0,0:0:0:0:
298,192,82940,1,0,0:0:0:0:
42,192,83029,1,8,0:0:0:0:
469,192,83029,1,0,0:0:0:0:
213,192,83205,1,0,0:0:0:0:
42,192,83382,1,2,0:0:0:0:
384,192,83382,1,0,0:0:0:0:
298,192,83558,1,0,0:0:0:0:
128,192,83646,1,0,0:0:0:0:
213,192,83735,1,8,0:0:0:0:
469,192,83735,1,0,0:0:0:0:
384,192,83823,1,0,0:0:0:0:
298,192,83911,1,0,0:0:0:0:
213,192,83999,1,0,0:0:0:0:
42,192,84087,1,2,0:0:0:0:
128,192,84087,1,0,0:0:0:0:
213,192,84176,1,0,0:0:0:0:
298,192,84264,1,0,0:0:0:0:
384,192,84352,1,0,0:0:0:0:
42,192,84440,1,8,0:0:0:0:
213,192,84440,1,0,0:0:0:0:
469,192,84529,1,0,0:0:0:0:
128,192,84617,1,0,0:0:0:0:
384,192,84705,1,0,0:0:0:0:
42,192,84793,1,2,0:0:0:0:
298,192,84793,1,0,0:0:0:0:
213,192,84970,1,0,0:0:0:0:
128,192,85146,1,8,0:0:0:0:
469,192,85146,1,0,0:0:0:0:
298,192,85235,1,0,0:0:0:0:
42,192,85499,1,2,0:0:0:0:
384,192,85499,1,0,0:0:0:0:
128,192,85852,1,8,0:0:0:0:
469,192,85852,1,0,0:0:0:0:
42,192,86205,1,2,0:0:0:0:
469,192,86205,1,0,0:0:0:0:
128,192,86382,1,0,0:0:0:0:
384,192,86470,1,0,0:0:0:0:
42,192,86558,1,8,0:0:0:0:
298,192,86558,1,0,0:0:0:0:
213,192,86646,1,0,0:0:0:0:
213,192,86823,1,0,0:0:0:0:
128,192,86911,1,2,0:0:0:0:
469,192,86911,1,0,0:0:0:0:
298,192,86999,1,0,0:0:0:0:
298,192,87176,1,0,0:0:0:0:
42,192,87264,1,8,0:0:0:0:
469,192,87264,1,0,0:0:0:0:
213,192,87440,1,0,0:0:0:0:
298,192,87617,1,2,0:0:0:0:
469,192,87617,1,0,0:0:0:0:
42,192,87705,1,0,0:0:0:0:
384,192,87793,1,0,0:0:0:0:
128,192,87970,1,8,0:0:0:0:
469,192,87970,1,0,0:0:0:0:
298,192,88058,1,0,0:0:0:0:
298,192,88235,1,0,0:0:0:0:
42,192,88323,1,2,0:0:0:0:
384,192,88323,1,0,0:0:0:0:
213,192,88587,1,0,0:0:0:0:
42,192,88676,1,8,0:0:0:0:
469,192,88676,1,0,0:0:0:0:
298,192,88852,1,0,0:0:0:0:
128,192,89029,1,2,0:0:0:0:
469,192,89029,1,0,0:0:0:0:
213,192,89205,1,0,0:0:0:0:
384,192,89293,1,0,0:0:0:0:
42,192,89382,1,8,0:0:0:0:
298,192,89382,1,0,0:0:0:0:
128,192,89470,1,0,0:0:0:0:
213,192,89558,1,0,0:0:0:0:
298,192,89646,1,0,0:0:0:0:
384,192,89735,1,2,0:0:0:0:
469,192,89735,1,0,0:0:0:0:
298,192,89823,1,0,0:0:0:0:
213,192,89911,1,0,0:0:0:0:
128,192,89999,1,0,0:0:0:0:
298,192,90087,1,8,0:0:0:0:
469,192,90087,1,0,0:0:0:0:
42,192,90176,1,0,0:0:0:0:
384,192,90264,1,0,0:0:0:0:
128,192,90352,1,0,0:0:0:0:
213,192,90440,1,2,0:0:0:0:
469,192,90440,1,0,0:0:0:0:
42,192,90617,1,2,0:0:0:0:
298,192,90617,1,0,0:0:0:0:
128,192,90882,1,2,0:0:0:0:
384,192,90882,1,0,0:0:0:0:
213,192,91146,1,2,0:0:0:0:
469,192,91146,1,0,0:0:0:0:
42,192,91499,1,8,0:0:0:0:
384,192,91499,1,0,0:0:0:0:
42,192,91852,1,2,0:0:0:0:
469,192,91852,1,0,0:0:0:70:cymbal00.wav
384,192,91940,1,0,0:0:0:0:
298,192,92029,1,0,0:0:0:0:
213,192,92117,1,0,0:0:0:0:
42,192,92205,1,8,0:0:0:0:
128,192,92205,1,0,0:0:0:0:
213,192,92293,1,0,0:0:0:0:
298,192,92382,1,0,0:0:0:0:
384,192,92470,1,0,0:0:0:0:
42,192,92558,1,2,0:0:0:0:
469,192,92558,1,0,0:0:0:0:
213,192,92646,1,0,0:0:0:0:
384,192,92735,1,0,0:0:0:0:
128,192,92823,1,0,0:0:0:0:
42,192,92911,1,8,0:0:0:0:
469,192,92911,1,0,0:0:0:0:
384,192,92999,1,0,0:0:0:0:
298,192,93087,1,0,0:0:0:0:
213,192,93176,1,0,0:0:0:0:
42,192,93264,1,2,0:0:0:0:
469,192,93264,1,0,0:0:0:0:
298,192,93352,1,0,0:0:0:0:
213,192,93529,1,0,0:0:0:0:
42,192,93617,1,8,0:0:0:0:
384,192,93617,1,0,0:0:0:0:
128,192,93793,1,0,0:0:0:0:
298,192,93882,1,0,0:0:0:0:
42,192,93970,1,2,0:0:0:0:
469,192,93970,1,0,0:0:0:0:
213,192,94146,1,0,0:0:0:0:
128,192,94235,1,0,0:0:0:0:
42,192,94323,1,8,0:0:0:0:
469,192,94323,1,0,0:0:0:0:
384,192,94411,1,0,0:0:0:0:
298,192,94499,1,0,0:0:0:0:
213,192,94587,1,0,0:0:0:0:
42,192,94676,1,2,0:0:0:0:
469,192,94676,1,0,0:0:0:0:
128,192,94764,1,0,0:0:0:0:
213,192,94852,1,0,0:0:0:0:
298,192,94940,1,0,0:0:0:0:
42,192,95029,1,8,0:0:0:0:
469,192,95029,1,0,0:0:0:0:
384,192,95117,1,0,0:0:0:0:
298,192,95205,1,0,0:0:0:0:
213,192,95293,1,0,0:0:0:0:
42,192,95382,1,2,0:0:0:0:
469,192,95382,1,0,0:0:0:0:
298,192,95470,1,0,0:0:0:0:
128,192,95558,1,0,0:0:0:0:
384,192,95646,1,0,0:0:0:0:
42,192,95735,1,8,0:0:0:0:
469,192,95735,1,0,0:0:0:0:
128,192,95823,1,0,0:0:0:0:
213,192,95911,1,0,0:0:0:0:
298,192,95999,1,0,0:0:0:0:
42,192,96087,1,2,0:0:0:0:
384,192,96087,1,0,0:0:0:0:
298,192,96176,1,0,0:0:0:0:
213,192,96264,1,0,0:0:0:0:
128,192,96352,1,0,0:0:0:0:
384,192,96440,1,8,0:0:0:0:
469,192,96440,1,0,0:0:0:0:
42,192,96529,1,0,0:0:0:0:
128,192,96617,1,0,0:0:0:0:
213,192,96705,1,0,0:0:0:0:
298,192,96793,1,2,0:0:0:0:
469,192,96793,1,0,0:0:0:0:
213,192,96970,1,0,0:0:0:0:
384,192,97146,1,8,0:0:0:0:
469,192,97146,1,0,0:0:0:0:
128,192,97235,1,0,0:0:0:0:
42,192,97499,1,2,0:0:0:0:
469,192,97499,1,0,0:0:0:0:
128,192,97587,1,0,0:0:0:0:
213,192,97676,1,0,0:0:0:0:
298,192,97764,1,0,0:0:0:0:
384,192,97852,1,8,0:0:0:0:
469,192,97852,1,0,0:0:0:0:
298,192,97940,1,0,0:0:0:0:
213,192,98029,1,0,0:0:0:0:
128,192,98117,1,0,0:0:0:0:
42,192,98205,1,2,0:0:0:0:
469,192,98205,1,0,0:0:0:0:
298,192,98293,1,0,0:0:0:0:
128,192,98382,1,0,0:0:0:0:
384,192,98470,1,0,0:0:0:0:
42,192,98558,1,8,0:0:0:0:
469,192,98558,1,0,0:0:0:0:
128,192,98646,1,0,0:0:0:0:
213,192,98735,1,0,0:0:0:0:
298,192,98823,1,0,0:0:0:0:
42,192,98911,1,2,0:0:0:0:
469,192,98911,1,0,0:0:0:0:
213,192,98999,1,0,0:0:0:0:
298,192,99176,1,0,0:0:0:0:
128,192,99264,1,8,0:0:0:0:
469,192,99264,1,0,0:0:0:0:
384,192,99440,1,0,0:0:0:0:
213,192,99529,1,0,0:0:0:0:
42,192,99617,1,2,0:0:0:0:
469,192,99617,1,0,0:0:0:0:
298,192,99793,1,0,0:0:0:0:
384,192,99882,1,0,0:0:0:0:
42,192,99970,1,8,0:0:0:0:
469,192,99970,1,0,0:0:0:0:
128,192,100058,1,0,0:0:0:0:
213,192,100146,1,0,0:0:0:0:
298,192,100235,1,0,0:0:0:0:
42,192,100323,1,2,0:0:0:0:
469,192,100323,1,0,0:0:0:0:
384,192,100411,1,0,0:0:0:0:
298,192,100499,1,0,0:0:0:0:
213,192,100587,1,0,0:0:0:0:
42,192,100676,1,8,0:0:0:0:
469,192,100676,1,0,0:0:0:0:
128,192,100764,1,0,0:0:0:0:
213,192,100852,1,0,0:0:0:0:
298,192,100940,1,0,0:0:0:0:
42,192,101029,1,2,0:0:0:0:
469,192,101029,1,0,0:0:0:0:
213,192,101117,1,0,0:0:0:0:
384,192,101205,1,0,0:0:0:0:
128,192,101293,1,0,0:0:0:0:
42,192,101382,1,8,0:0:0:0:
469,192,101382,1,0,0:0:0:0:
384,192,101470,1,0,0:0:0:0:
298,192,101558,1,0,0:0:0:0:
213,192,101646,1,0,0:0:0:0:
128,192,101735,1,2,0:0:0:0:
469,192,101735,1,0,0:0:0:0:
42,192,101911,1,2,0:0:0:0:
384,192,101911,1,0,0:0:0:0:
213,192,102176,1,2,0:0:0:0:
469,192,102176,1,0,0:0:0:0:
42,192,102440,1,2,0:0:0:0:
298,192,102440,1,0,0:0:0:0:
128,192,102793,1,8,0:0:0:0:
384,192,102793,1,0,0:0:0:0:
298,192,103146,1,2,0:0:0:0:
469,192,103146,1,0,0:0:0:70:CrashR.wav
213,192,103235,1,0,0:0:0:0:
128,192,103323,1,0,0:0:0:0:
42,192,103411,1,0,0:0:0:0:
384,192,103499,1,2,0:0:0:0:
298,192,103587,1,0,0:0:0:0:
213,192,103676,1,0,0:0:0:0:
128,192,103764,1,0,0:0:0:0:
469,192,103852,1,2,0:0:0:0:
384,192,103940,1,0,0:0:0:0:
298,192,104029,1,0,0:0:0:0:
213,192,104117,1,0,0:0:0:0:
42,192,104205,1,2,0:0:0:0:
384,192,104382,1,0,0:0:0:0:
128,192,104558,1,2,0:0:0:0:
213,192,104646,1,0,0:0:0:0:
298,192,104735,1,0,0:0:0:0:
384,192,104823,1,0,0:0:0:0:
128,192,104911,1,2,0:0:0:0:
213,192,104999,1,0,0:0:0:0:
298,192,105087,1,0,0:0:0:0:
384,192,105176,1,0,0:0:0:0:
42,192,105264,1,2,0:0:0:0:
298,192,105440,1,0,0:0:0:0:
128,192,105617,1,8,0:0:0:0:
469,192,105617,1,0,0:0:0:0:
213,192,105970,1,2,0:0:0:0:
298,192,106058,1,0,0:0:0:0:
384,192,106146,1,0,0:0:0:0:
469,192,106235,1,0,0:0:0:0:
128,192,106323,1,2,0:0:0:0:
213,192,106411,1,0,0:0:0:0:
298,192,106499,1,0,0:0:0:0:
384,192,106587,1,0,0:0:0:0:
42,192,106676,1,2,0:0:0:0:
128,192,106764,1,0,0:0:0:0:
213,192,106852,1,0,0:0:0:0:
298,192,106940,1,0,0:0:0:0:
469,192,107029,1,2,0:0:0:0:
384,192,107205,1,0,0:0:0:0:
298,192,107382,1,2,0:0:0:0:
42,192,107382,1,0,0:0:0:0:
213,192,107558,1,0,0:0:0:0:
384,192,107735,1,2,0:0:0:0:
128,192,107735,1,0,0:0:0:0:
298,192,107911,1,0,0:0:0:0:
469,192,108087,1,2,0:0:0:0:
213,192,108087,1,0,0:0:0:0:
128,192,108264,1,0,0:0:0:0:
42,192,108440,1,8,0:0:0:0:
384,192,108440,1,0,0:0:0:0:
298,192,108617,1,0,0:0:0:0:
128,192,108793,1,2,0:0:0:0:
213,192,108882,1,0,0:0:0:0:
298,192,108970,1,0,0:0:0:0:
384,192,109058,1,0,0:0:0:0:
469,192,109146,1,2,0:0:0:0:
42,192,109323,1,0,0:0:0:0:
213,192,109499,1,2,0:0:0:0:
469,192,109499,1,0,0:0:0:0:
128,192,109676,1,0,0:0:0:0:
384,192,109676,1,0,0:0:0:0:
42,192,109852,1,2,0:0:0:0:
298,192,109852,1,0,0:0:0:0:
213,192,110029,1,0,0:0:0:0:
469,192,110029,1,0,0:0:0:0:
384,192,110205,1,2,0:0:0:0:
298,192,110293,1,0,0:0:0:0:
213,192,110382,1,0,0:0:0:0:
128,192,110470,1,0,0:0:0:0:
42,192,110558,1,2,0:0:0:0:
469,192,110735,1,0,0:0:0:0:
42,192,110911,1,2,0:0:0:0:
298,192,110911,1,0,0:0:0:0:
213,192,111087,1,0,0:0:0:0:
469,192,111087,1,0,0:0:0:0:
128,192,111264,1,8,0:0:0:0:
384,192,111264,1,0,0:0:0:0:
42,192,111440,1,0,0:0:0:0:
298,192,111440,1,0,0:0:0:0:
128,192,111617,1,2,0:0:0:0:
213,192,111705,1,0,0:0:0:0:
298,192,111793,1,0,0:0:0:0:
384,192,111882,1,0,0:0:0:0:
469,192,111970,1,2,0:0:0:0:
42,192,112146,1,0,0:0:0:0:
213,192,112323,1,2,0:0:0:0:
469,192,112323,1,0,0:0:0:0:
128,192,112499,1,0,0:0:0:0:
384,192,112499,1,0,0:0:0:0:
42,192,112676,1,2,0:0:0:0:
298,192,112676,1,0,0:0:0:0:
213,192,112852,1,0,0:0:0:0:
469,192,112852,1,0,0:0:0:0:
384,192,113029,1,2,0:0:0:0:
298,192,113117,1,0,0:0:0:0:
213,192,113205,1,0,0:0:0:0:
128,192,113293,1,0,0:0:0:0:
42,192,113382,1,2,0:0:0:0:
469,192,113558,1,0,0:0:0:0:
213,192,113735,128,2,114087:0:0:0:0:
42,192,114087,1,8,0:0:0:0:
384,192,114087,1,0,0:0:0:0:
298,192,114440,1,2,0:0:0:0:
469,192,114440,1,0,0:0:0:70:CrashL.wav
42,192,114617,1,0,0:0:0:0:
384,192,114793,1,2,0:0:0:0:
128,192,114970,1,0,0:0:0:0:
469,192,115146,1,2,0:0:0:0:
213,192,115323,1,0,0:0:0:0:
469,192,115499,1,2,0:0:0:0:
42,192,115676,1,0,0:0:0:0:
213,192,115852,1,2,0:0:0:0:
469,192,116029,1,0,0:0:0:0:
128,192,116205,1,2,0:0:0:0:
384,192,116382,1,0,0:0:0:0:
42,192,116558,1,2,0:0:0:0:
298,192,116735,1,0,0:0:0:0:
42,192,116911,1,8,0:0:0:0:
213,192,116911,1,0,0:0:0:0:
469,192,117087,1,0,0:0:0:0:
298,192,117264,1,2,0:0:0:0:
42,192,117440,1,0,0:0:0:0:
384,192,117617,1,2,0:0:0:0:
128,192,117793,1,0,0:0:0:0:
469,192,117970,1,2,0:0:0:0:
213,192,118146,1,0,0:0:0:0:
469,192,118323,1,2,0:0:0:0:
42,192,118499,1,0,0:0:0:0:
213,192,118676,1,2,0:0:0:0:
469,192,118852,1,0,0:0:0:0:
128,192,119029,1,2,0:0:0:0:
384,192,119205,1,0,0:0:0:0:
42,192,119382,1,2,0:0:0:0:
298,192,119558,1,0,0:0:0:0:
42,192,119735,1,8,0:0:0:0:
213,192,119735,1,0,0:0:0:0:
469,192,119911,1,0,0:0:0:0:
298,192,120087,1,2,0:0:0:0:
42,192,120264,1,0,0:0:0:0:
384,192,120440,1,2,0:0:0:0:
128,192,120617,1,0,0:0:0:0:
469,192,120793,1,2,0:0:0:0:
213,192,120970,1,0,0:0:0:0:
469,192,121146,1,2,0:0:0:0:
42,192,121323,1,0,0:0:0:0:
213,192,121499,1,2,0:0:0:0:
469,192,121676,1,0,0:0:0:0:
128,192,121852,1,2,0:0:0:0:
384,192,122029,1,0,0:0:0:0:
42,192,122205,1,2,0:0:0:0:
298,192,122382,1,0,0:0:0:0:
42,192,122558,1,8,0:0:0:0:
213,192,122558,1,0,0:0:0:0:
469,192,122735,1,0,0:0:0:0:
298,192,122911,1,2,0:0:0:0:
42,192,123087,1,0,0:0:0:0:
384,192,123264,1,2,0:0:0:0:
128,192,123440,1,0,0:0:0:0:
469,192,123617,1,2,0:0:0:0:
213,192,123793,1,0,0:0:0:0:
469,192,123970,1,2,0:0:0:0:
42,192,124146,1,0,0:0:0:0:
213,192,124323,1,2,0:0:0:0:
469,192,124499,1,0,0:0:0:0:
128,192,124676,1,2,0:0:0:0:
384,192,124852,1,0,0:0:0:0:
42,192,125029,1,2,0:0:0:0:
298,192,125205,1,0,0:0:0:70:Cowbell04.wav
213,192,125205,1,0,0:0:0:0:
469,192,125382,1,0,0:0:0:70:Cowbell05.wav
128,192,125382,1,0,0:0:0:0:
