osu file format v14

[General]
AudioFilename: audio.mp3
AudioLeadIn: 0
PreviewTime: 80558
Countdown: 0
SampleSet: Soft
StackLeniency: 0.7
Mode: 3
LetterboxInBreaks: 0
SpecialStyle: 0
WidescreenStoryboard: 1

[Editor]
DistanceSpacing: 1
BeatDivisor: 3
GridSize: 4
TimelineZoom: 1.7

[Metadata]
Title:Chat perdu
TitleUnicode:Chat perdu
Artist:Feryquitous
ArtistUnicode:Feryquitous
Creator:Sillyp
Version:EZ
Source:Deemo
Tags:biemote Famoss Video Game Instrumental Electronic lost cat jazz rayark piano
BeatmapID:2696982
BeatmapSetID:1300107

[Difficulty]
HPDrainRate:6.5
CircleSize:6
OverallDifficulty:6.5
ApproachRate:5
SliderMultiplier:1.4
SliderTickRate:1

[Events]
//Background and Video events
0,0,"Chat_Perdu.jpg",0,0
//Break Periods
//Storyboard Layer 0 (Background)
//Storyboard Layer 1 (Fail)
//Storyboard Layer 2 (Pass)
//Storyboard Layer 3 (Foreground)
//Storyboard Layer 4 (Overlay)
//Storyboard Sound Samples

[TimingPoints]
88,352.941176470588,4,2,1,50,1,0
80558,-100,4,2,1,50,0,1
103146,-100,4,2,1,50,0,0

[HitObjects]
469,192,1499,5,0,0:0:0:0:
128,192,1852,1,0,0:0:0:0:
213,192,2205,1,0,0:0:0:0:
298,192,2558,1,0,0:0:0:0:
42,192,2911,1,0,0:0:0:0:
128,192,3264,1,0,0:0:0:0:
213,192,3617,1,0,0:0:0:0:
298,192,3970,1,0,0:0:0:0:
469,192,4323,1,0,0:0:0:0:
128,192,4676,1,0,0:0:0:0:
213,192,5029,1,0,0:0:0:0:
298,192,5382,1,0,0:0:0:0:
42,192,5735,1,0,0:0:0:0:
128,192,6087,1,0,0:0:0:0:
213,192,6440,1,0,0:0:0:0:
298,192,6793,1,0,0:0:0:0:
42,192,7146,1,2,0:0:0:0:
384,192,7499,1,2,0:0:0:0:
298,192,7852,1,2,0:0:0:0:
213,192,8205,1,2,0:0:0:0:
469,192,8558,1,2,0:0:0:0:
384,192,8911,1,2,0:0:0:0:
298,192,9264,1,2,0:0:0:0:
213,192,9617,1,8,0:0:0:0:
469,192,9617,1,0,0:0:0:0:
42,192,9970,1,2,0:0:0:0:
384,192,10323,1,2,0:0:0:0:
298,192,10676,1,2,0:0:0:0:
213,192,11029,1,2,0:0:0:0:
469,192,11382,1,2,0:0:0:0:
384,192,11735,1,2,0:0:0:0:
298,192,12087,1,2,0:0:0:0:
42,192,12264,1,0,0:0:0:0:
213,192,12440,1,8,0:0:0:0:
469,192,12440,1,0,0:0:0:0:
42,192,12793,1,2,0:0:0:0:
128,192,13146,1,2,0:0:0:0:
213,192,13499,1,2,0:0:0:0:
384,192,13852,1,2,0:0:0:0:
213,192,14205,1,2,0:0:0:0:
213,192,14558,1,2,0:0:0:0:
298,192,14911,1,2,0:0:0:0:
42,192,15264,1,8,0:0:0:0:
469,192,15264,1,0,0:0:0:0:
384,192,15617,1,2,0:0:0:0:
298,192,15970,1,2,0:0:0:0:
213,192,16323,1,2,0:0:0:0:
42,192,16676,1,2,0:0:0:0:
213,192,17029,1,2,0:0:0:0:
469,192,17029,1,0,0:0:0:0:
128,192,17382,1,2,0:0:0:0:
384,192,17382,1,0,0:0:0:0:
42,192,17735,1,2,0:0:0:0:
298,192,17735,1,0,0:0:0:0:
213,192,18087,1,8,0:0:0:0:
469,192,18087,1,0,0:0:0:0:
384,192,18440,128,2,19146:0:0:0:0:
42,192,19146,1,2,0:0:0:0:
298,192,19499,1,2,0:0:0:0:
128,192,19852,128,2,20558:0:0:0:0:
469,192,20558,1,2,0:0:0:0:
213,192,20911,1,8,0:0:0:0:
42,192,20911,1,0,0:0:0:0:
384,192,21264,128,2,21970:0:0:0:0:
42,192,21970,1,2,0:0:0:0:
298,192,22323,1,2,0:0:0:0:
128,192,22676,128,2,23382:0:0:0:0:
469,192,23382,1,2,0:0:0:0:
42,192,23735,1,8,0:0:0:0:
298,192,23735,1,0,0:0:0:0:
469,192,24087,1,2,0:0:0:0:
384,192,24440,1,2,0:0:0:0:
298,192,24793,1,2,0:0:0:0:
128,192,25146,1,2,0:0:0:0:
298,192,25499,1,2,0:0:0:0:
298,192,25852,1,2,0:0:0:0:
213,192,26205,1,2,0:0:0:0:
42,192,26558,1,8,0:0:0:0:
469,192,26558,1,0,0:0:0:0:
128,192,26911,1,2,0:0:0:0:
213,192,27264,1,2,0:0:0:0:
298,192,27617,1,2,0:0:0:0:
469,192,27970,1,2,0:0:0:0:
42,192,28323,1,2,0:0:0:0:
298,192,28323,1,0,0:0:0:0:
128,192,28676,1,2,0:0:0:0:
384,192,28676,1,0,0:0:0:0:
213,192,29029,1,2,0:0:0:0:
469,192,29029,1,0,0:0:0:0:
42,192,29382,1,8,0:0:0:0:
298,192,29382,1,0,0:0:0:0:
128,192,29735,128,2,30440:0:0:0:0:
469,192,30440,1,2,0:0:0:0:
213,192,30793,1,2,0:0:0:0:
384,192,31146,128,2,31852:0:0:0:0:
42,192,31852,1,2,0:0:0:0:
298,192,32205,1,8,0:0:0:0:
469,192,32205,1,0,0:0:0:0:
128,192,32558,128,2,33264:0:0:0:0:
469,192,33264,1,2,0:0:0:0:
213,192,33617,1,2,0:0:0:0:
384,192,33970,128,2,34676:0:0:0:0:
42,192,34676,1,2,0:0:0:0:
128,192,35029,128,8,35382:0:0:0:0:
469,192,35029,1,0,0:0:0:0:
298,192,35382,1,2,0:0:0:0:
213,192,35382,1,0,0:0:0:70:CrashL.wav
42,192,35735,1,8,0:0:0:0:
384,192,35735,1,0,0:0:0:0:
213,192,36087,1,2,0:0:0:0:
128,192,36440,1,8,0:0:0:0:
469,192,36440,1,0,0:0:0:0:
298,192,36793,128,2,37146:0:0:0:0:
42,192,37146,1,8,0:0:0:0:
384,192,37146,1,0,0:0:0:0:
213,192,37499,1,2,0:0:0:0:
128,192,37852,1,8,0:0:0:0:
469,192,37852,1,0,0:0:0:0:
298,192,38205,1,2,0:0:0:0:
42,192,38558,1,8,0:0:0:0:
384,192,38558,1,0,0:0:0:0:
213,192,38911,1,2,0:0:0:0:
128,192,39264,1,8,0:0:0:0:
469,192,39264,1,0,0:0:0:0:
298,192,39617,128,2,39970:0:0:0:0:
42,192,39970,1,8,0:0:0:0:
384,192,39970,1,0,0:0:0:0:
213,192,40323,1,2,0:0:0:0:
128,192,40676,1,8,0:0:0:0:
469,192,40676,1,0,0:0:0:0:
298,192,41029,1,2,0:0:0:0:
42,192,41382,1,8,0:0:0:0:
384,192,41382,1,0,0:0:0:0:
213,192,41735,1,2,0:0:0:0:
128,192,42087,1,8,0:0:0:0:
384,192,42087,1,0,0:0:0:0:
298,192,42440,128,2,42793:0:0:0:0:
213,192,42793,1,8,0:0:0:0:
469,192,42793,1,0,0:0:0:0:
298,192,43146,1,2,0:0:0:0:
128,192,43499,1,8,0:0:0:0:
384,192,43499,1,0,0:0:0:0:
213,192,43852,1,2,0:0:0:0:
42,192,44205,1,8,0:0:0:0:
384,192,44205,1,0,0:0:0:0:
298,192,44558,1,2,0:0:0:0:
128,192,44911,1,8,0:0:0:0:
469,192,44911,1,0,0:0:0:0:
213,192,45264,128,2,45617:0:0:0:0:
42,192,45617,1,8,0:0:0:0:
298,192,45617,1,0,0:0:0:0:
128,192,45970,1,2,0:0:0:0:
469,192,45970,1,0,0:0:0:0:
42,192,46323,1,8,0:0:0:0:
384,192,46323,1,0,0:0:0:0:
213,192,46676,1,2,0:0:0:0:
298,192,46676,1,0,0:0:0:70:CrashL.wav
128,192,47029,1,8,0:0:0:0:
469,192,47029,1,0,0:0:0:0:
298,192,47382,1,2,0:0:0:0:
42,192,47735,1,8,0:0:0:0:
384,192,47735,1,0,0:0:0:0:
213,192,48087,128,2,48440:0:0:0:0:
128,192,48440,1,8,0:0:0:0:
469,192,48440,1,0,0:0:0:0:
298,192,48793,1,2,0:0:0:0:
42,192,49146,1,8,0:0:0:0:
384,192,49146,1,0,0:0:0:0:
213,192,49499,1,2,0:0:0:0:
128,192,49852,1,8,0:0:0:0:
469,192,49852,1,0,0:0:0:0:
298,192,50205,1,2,0:0:0:0:
42,192,50558,1,8,0:0:0:0:
384,192,50558,1,0,0:0:0:0:
213,192,50911,128,2,51264:0:0:0:0:
128,192,51264,1,8,0:0:0:0:
469,192,51264,1,0,0:0:0:0:
298,192,51617,1,2,0:0:0:0:
42,192,51970,1,8,0:0:0:0:
384,192,51970,1,0,0:0:0:0:
213,192,52323,1,2,0:0:0:0:
128,192,52676,1,8,0:0:0:0:
469,192,52676,1,0,0:0:0:0:
298,192,53029,1,2,0:0:0:0:
128,192,53382,1,8,0:0:0:0:
384,192,53382,1,0,0:0:0:0:
213,192,53735,128,2,54087:0:0:0:0:
42,192,54087,1,8,0:0:0:0:
298,192,54087,1,0,0:0:0:0:
213,192,54440,1,2,0:0:0:0:
128,192,54793,1,8,0:0:0:0:
384,192,54793,1,0,0:0:0:0:
298,192,55146,1,2,0:0:0:0:
128,192,55499,1,8,0:0:0:0:
469,192,55499,1,0,0:0:0:0:
213,192,55852,1,2,0:0:0:0:
42,192,56205,1,8,0:0:0:0:
384,192,56205,1,0,0:0:0:0:
298,192,56558,128,2,56911:0:0:0:0:
213,192,56911,1,8,0:0:0:0:
469,192,56911,1,0,0:0:0:0:
42,192,57264,1,2,0:0:0:0:
384,192,57264,1,0,0:0:0:0:
128,192,57617,1,0,0:0:0:0:
469,192,57617,1,0,0:0:0:0:
213,192,57970,1,2,0:0:0:0:
298,192,57970,1,0,0:0:0:70:CrashR.wav
384,192,58323,1,2,0:0:0:0:
128,192,58676,1,2,0:0:0:0:
298,192,59029,1,2,0:0:0:0:
128,192,59382,1,2,0:0:0:0:
128,192,59735,1,2,0:0:0:0:
469,192,60087,1,2,0:0:0:0:
42,192,60440,1,8,0:0:0:0:
213,192,60440,1,0,0:0:0:0:
298,192,60793,1,2,0:0:0:0:
128,192,61146,1,2,0:0:0:0:
384,192,61499,1,2,0:0:0:0:
213,192,61852,1,2,0:0:0:0:
42,192,62205,1,2,0:0:0:0:
469,192,62205,1,0,0:0:0:0:
128,192,62558,1,2,0:0:0:0:
384,192,62558,1,0,0:0:0:0:
213,192,62911,1,2,0:0:0:0:
298,192,62911,1,0,0:0:0:0:
42,192,63264,1,8,0:0:0:0:
469,192,63264,1,0,0:0:0:0:
298,192,63617,128,2,64323:0:0:0:0:
42,192,64323,1,2,0:0:0:0:
469,192,64676,1,2,0:0:0:0:
213,192,65029,128,2,65735:0:0:0:0:
469,192,65735,1,2,0:0:0:0:
42,192,66087,1,8,0:0:0:0:
128,192,66087,1,0,0:0:0:0:
298,192,66440,128,2,67146:0:0:0:0:
42,192,67146,1,2,0:0:0:0:
469,192,67499,1,2,0:0:0:0:
213,192,67852,128,2,68558:0:0:0:0:
469,192,68558,1,2,0:0:0:0:
128,192,68735,1,0,0:0:0:70:Cowbell04.wav
384,192,68911,1,0,0:0:0:70:Cowbell05.wav
298,192,69264,1,2,0:0:0:0:
42,192,69617,1,2,0:0:0:0:
213,192,69970,1,2,0:0:0:0:
384,192,70323,1,2,0:0:0:0:
128,192,70676,1,2,0:0:0:0:
384,192,71029,1,2,0:0:0:0:
213,192,71382,1,2,0:0:0:0:
42,192,71735,1,8,0:0:0:0:
469,192,71735,1,0,0:0:0:0:
298,192,72087,1,2,0:0:0:0:
42,192,72440,1,2,0:0:0:0:
213,192,72793,1,2,0:0:0:0:
384,192,73146,1,2,0:0:0:0:
42,192,73499,1,2,0:0:0:0:
128,192,73499,1,0,0:0:0:0:
384,192,73852,1,2,0:0:0:0:
469,192,73852,1,0,0:0:0:0:
213,192,74205,1,2,0:0:0:0:
298,192,74205,1,0,0:0:0:0:
42,192,74558,1,8,0:0:0:0:
128,192,74558,1,0,0:0:0:0:
469,192,74911,1,2,0:0:0:0:
213,192,75264,1,2,0:0:0:0:
298,192,75617,1,2,0:0:0:0:
384,192,75970,1,2,0:0:0:0:
42,192,76323,1,2,0:0:0:0:
298,192,76676,1,2,0:0:0:0:
213,192,77029,1,2,0:0:0:0:
128,192,77382,1,8,0:0:0:0:
384,192,77382,1,0,0:0:0:0:
469,192,77735,1,2,0:0:0:0:
213,192,78087,1,2,0:0:0:0:
298,192,78440,1,2,0:0:0:0:
384,192,78793,1,2,0:0:0:0:
42,192,79146,1,2,0:0:0:0:
298,192,79499,1,2,0:0:0:0:
213,192,79852,1,2,0:0:0:0:
128,192,80205,1,8,0:0:0:0:
384,192,80205,1,0,0:0:0:0:
213,192,80558,1,2,0:0:0:0:
298,192,80558,1,0,0:0:0:70:cymbal00.wav
42,192,80911,1,8,0:0:0:0:
469,192,80911,1,0,0:0:0:0:
298,192,81264,1,2,0:0:0:0:
128,192,81617,1,8,0:0:0:0:
469,192,81617,1,0,0:0:0:0:
469,192,81970,1,2,0:0:0:0:
42,192,82323,1,8,0:0:0:0:
298,192,82323,1,0,0:0:0:0:
42,192,82676,1,2,0:0:0:0:
213,192,83029,1,8,0:0:0:0:
469,192,83029,1,0,0:0:0:0:
469,192,83382,1,2,0:0:0:0:
128,192,83735,1,8,0:0:0:0:
384,192,83735,1,0,0:0:0:0:
128,192,84087,1,2,0:0:0:0:
42,192,84440,1,8,0:0:0:0:
298,192,84440,1,0,0:0:0:0:
298,192,84793,1,2,0:0:0:0:
128,192,85146,1,8,0:0:0:0:
469,192,85146,1,0,0:0:0:0:
213,192,85499,1,2,0:0:0:0:
298,192,85499,1,0,0:0:0:0:
42,192,85852,1,8,0:0:0:0:
384,192,85852,1,0,0:0:0:0:
128,192,86205,1,2,0:0:0:0:
213,192,86558,1,8,0:0:0:0:
384,192,86558,1,0,0:0:0:0:
298,192,86911,1,2,0:0:0:0:
128,192,87264,1,8,0:0:0:0:
469,192,87264,1,0,0:0:0:0:
469,192,87617,1,2,0:0:0:0:
42,192,87970,1,8,0:0:0:0:
298,192,87970,1,0,0:0:0:0:
42,192,88323,1,2,0:0:0:0:
213,192,88676,1,8,0:0:0:0:
469,192,88676,1,0,0:0:0:0:
469,192,89029,1,2,0:0:0:0:
128,192,89382,1,8,0:0:0:0:
384,192,89382,1,0,0:0:0:0:
128,192,89735,1,2,0:0:0:0:
42,192,90087,1,8,0:0:0:0:
298,192,90087,1,0,0:0:0:0:
213,192,90617,1,2,0:0:0:0:
469,192,90617,1,0,0:0:0:0:
128,192,90882,1,2,0:0:0:0:
384,192,90882,1,0,0:0:0:0:
42,192,91146,1,2,0:0:0:0:
298,192,91146,1,0,0:0:0:0:
213,192,91499,1,8,0:0:0:0:
42,192,91852,1,2,0:0:0:0:
469,192,91852,1,0,0:0:0:70:cymbal00.wav
128,192,92205,1,8,0:0:0:0:
384,192,92205,1,0,0:0:0:0:
298,192,92558,1,2,0:0:0:0:
42,192,92911,1,8,0:0:0:0:
213,192,92911,1,0,0:0:0:0:
384,192,93264,1,2,0:0:0:0:
128,192,93617,1,8,0:0:0:0:
384,192,93617,1,0,0:0:0:0:
469,192,93970,1,2,0:0:0:0:
298,192,94323,1,8,0:0:0:0:
213,192,94323,1,0,0:0:0:0:
42,192,94676,1,2,0:0:0:0:
128,192,95029,1,8,0:0:0:0:
469,192,95029,1,0,0:0:0:0:
213,192,95382,1,2,0:0:0:0:
42,192,95735,1,8,0:0:0:0:
298,192,95735,1,0,0:0:0:0:
384,192,96087,1,2,0:0:0:0:
42,192,96440,1,8,0:0:0:0:
298,192,96440,1,0,0:0:0:0:
213,192,96793,1,2,0:0:0:0:
128,192,97146,1,8,0:0:0:0:
469,192,97146,1,0,0:0:0:0:
298,192,97499,1,2,0:0:0:0:
128,192,97852,1,8,0:0:0:0:
384,192,97852,1,0,0:0:0:0:
298,192,98205,1,2,0:0:0:0:
42,192,98558,1,8,0:0:0:0:
213,192,98558,1,0,0:0:0:0:
384,192,98911,1,2,0:0:0:0:
128,192,99264,1,8,0:0:0:0:
384,192,99264,1,0,0:0:0:0:
469,192,99617,1,2,0:0:0:0:
213,192,99970,1,8,0:0:0:0:
298,192,99970,1,0,0:0:0:0:
42,192,100323,1,2,0:0:0:0:
128,192,100676,1,8,0:0:0:0:
469,192,100676,1,0,0:0:0:0:
213,192,101029,1,2,0:0:0:0:
42,192,101382,1,8,0:0:0:0:
298,192,101382,1,0,0:0:0:0:
128,192,101911,1,2,0:0:0:0:
384,192,101911,1,0,0:0:0:0:
42,192,102176,1,2,0:0:0:0:
298,192,102176,1,0,0:0:0:0:
213,192,102440,1,2,0:0:0:0:
469,192,102440,1,0,0:0:0:0:
42,192,102793,1,8,0:0:0:0:
384,192,102793,1,0,0:0:0:0:
298,192,103146,1,2,0:0:0:0:
213,192,103146,1,0,0:0:0:70:CrashR.wav
469,192,103499,1,2,0:0:0:0:
298,192,103852,1,2,0:0:0:0:
128,192,104205,1,2,0:0:0:0:
298,192,104558,1,2,0:0:0:0:
298,192,104911,1,2,0:0:0:0:
213,192,105264,1,2,0:0:0:0:
42,192,105617,1,8,0:0:0:0:
469,192,105617,1,0,0:0:0:0:
128,192,105970,1,2,0:0:0:0:
213,192,106323,1,2,0:0:0:0:
298,192,106676,1,2,0:0:0:0:
469,192,107029,1,2,0:0:0:0:
42,192,107382,1,2,0:0:0:0:
298,192,107382,1,0,0:0:0:0:
128,192,107735,1,2,0:0:0:0:
384,192,107735,1,0,0:0:0:0:
213,192,108087,1,2,0:0:0:0:
469,192,108087,1,0,0:0:0:0:
42,192,108440,1,8,0:0:0:0:
298,192,108440,1,0,0:0:0:0:
128,192,108793,128,2,109499:0:0:0:0:
469,192,109499,1,2,0:0:0:0:
213,192,109852,1,2,0:0:0:0:
384,192,110205,128,2,110911:0:0:0:0:
42,192,110911,1,2,0:0:0:0:
298,192,111264,1,8,0:0:0:0:
469,192,111264,1,0,0:0:0:0:
128,192,111617,128,2,112323:0:0:0:0:
469,192,112323,1,2,0:0:0:0:
213,192,112676,1,2,0:0:0:0:
384,192,113029,128,2,113735:0:0:0:0:
42,192,113735,1,2,0:0:0:0:
128,192,114087,1,8,0:0:0:0:
469,192,114087,1,0,0:0:0:0:
213,192,114440,1,2,0:0:0:0:
298,192,114440,1,0,0:0:0:70:CrashL.wav
384,192,114793,1,2,0:0:0:0:
298,192,115146,1,2,0:0:0:0:
213,192,115499,1,2,0:0:0:0:
469,192,115852,1,2,0:0:0:0:
384,192,116205,1,2,0:0:0:0:
298,192,116558,1,2,0:0:0:0:
213,192,116911,1,8,0:0:0:0:
42,192,116911,1,0,0:0:0:0:
384,192,117264,1,2,0:0:0:0:
298,192,117617,1,2,0:0:0:0:
213,192,117970,1,2,0:0:0:0:
128,192,118323,1,2,0:0:0:0:
469,192,118676,1,2,0:0:0:0:
384,192,119029,1,2,0:0:0:0:
298,192,119382,1,2,0:0:0:0:
469,192,119735,1,8,0:0:0:0:
213,192,119735,1,0,0:0:0:0:
128,192,120087,1,2,0:0:0:0:
213,192,120440,1,2,0:0:0:0:
298,192,120793,1,2,0:0:0:0:
384,192,121146,1,2,0:0:0:0:
42,192,121499,1,2,0:0:0:0:
128,192,121852,1,2,0:0:0:0:
213,192,122205,1,2,0:0:0:0:
298,192,122558,1,8,0:0:0:0:
469,192,122558,1,0,0:0:0:0:
128,192,122911,1,2,0:0:0:0:
213,192,123264,1,2,0:0:0:0:
298,192,123617,1,2,0:0:0:0:
384,192,123970,1,2,0:0:0:0:
42,192,124323,1,2,0:0:0:0:
128,192,124676,1,2,0:0:0:0:
213,192,125029,1,2,0:0:0:0:
469,192,125205,1,0,0:0:0:70:Cowbell04.wav
128,192,125382,1,0,0:0:0:70:Cowbell05.wav
