osu file format v14

[General]
AudioFilename: audio.ogg
AudioLeadIn: 0
PreviewTime: 220585
Countdown: 0
SampleSet: Soft
StackLeniency: 0.7
Mode: 3
LetterboxInBreaks: 0
SpecialStyle: 0
WidescreenStoryboard: 1

[Editor]
Bookmarks: 1157,23099,88928,132814,154757,198642,220585,242528,264471,286414,308357,352242
DistanceSpacing: 0.5
BeatDivisor: 4
GridSize: 32
TimelineZoom: 3.399998

[Metadata]
Title:Central Nucleus
TitleUnicode:Central Nucleus
Artist:Feryquitous
ArtistUnicode:Feryquitous
Creator:ruka
Version:Primordial Nucleosynthesis
Source:
Tags:tyrcs electronic instrumental focus d&b dubstep techno trance ad:drum'n'bass 3 diverse system dnb drum and bass dvsp-0180 diverse focus feryquitous tech ln long note hybrid marathon
BeatmapID:4097226
BeatmapSetID:1973616

[Difficulty]
HPDrainRate:7.8
CircleSize:7
OverallDifficulty:6
ApproachRate:5
SliderMultiplier:1.4
SliderTickRate:1

[Events]
//Background and Video events
0,0,"bg.png",0,0
//Break Periods
//Storyboard Layer 0 (Background)
//Storyboard Layer 1 (Fail)
//Storyboard Layer 2 (Pass)
//Storyboard Layer 3 (Foreground)
//Storyboard Layer 4 (Overlay)
//Storyboard Sound Samples

[TimingPoints]
1157,342.857142857143,4,2,1,50,1,0
66985,-100,4,2,1,70,0,1
77614,-100,4,2,1,50,0,0
77957,-100,4,2,1,70,0,1
88585,-100,4,2,1,50,0,0
176699,-100,4,2,1,70,0,1
187328,-100,4,2,1,50,0,0
187671,-100,4,2,1,70,0,1
198642,-100,4,2,1,50,0,0
286414,-100,4,2,1,70,0,1
297042,-100,4,2,1,50,0,0
297385,-100,4,2,1,70,0,1
308014,-100,4,2,1,50,0,0
308357,-100,4,2,1,70,0,1
318985,-100,4,2,1,50,0,0
319328,-100,4,2,1,70,0,1
330299,-100,4,2,1,50,0,0

[HitObjects]
109,192,1157,5,0,0:0:0:0:
182,192,1157,1,0,0:0:0:0:
475,192,1157,128,0,5528:0:0:0:0:
109,192,1328,1,0,0:0:0:0:
256,192,1328,128,0,4157:0:0:0:0:
182,192,1499,1,0,0:0:0:0:
402,192,1499,1,0,0:0:0:0:
329,192,1499,1,0,0:0:0:0:
36,192,1499,128,0,2785:0:0:0:0:
109,192,1671,1,0,0:0:0:0:
402,192,1757,1,0,0:0:0:0:
182,192,1842,1,0,0:0:0:0:
402,192,1928,1,0,0:0:0:0:
109,192,2014,1,0,0:0:0:0:
329,192,2014,1,0,0:0:0:0:
402,192,2185,1,0,0:0:0:0:
329,192,2185,1,0,0:0:0:0:
109,192,2185,1,0,0:0:0:0:
182,192,2185,1,0,0:0:0:0:
182,192,2357,1,0,0:0:0:0:
402,192,2528,5,0,0:0:0:0:
329,192,2528,1,0,0:0:0:0:
402,192,2699,1,0,0:0:0:0:
329,192,2871,1,0,0:0:0:0:
109,192,2871,1,0,0:0:0:0:
182,192,2871,1,0,0:0:0:0:
36,192,2871,1,0,0:0:0:0:
402,192,3042,1,0,0:0:0:0:
109,192,3128,1,0,0:0:0:0:
329,192,3214,1,0,0:0:0:0:
109,192,3299,1,0,0:0:0:0:
329,192,3385,1,0,0:0:0:0:
402,192,3385,1,0,0:0:0:0:
109,192,3557,1,0,0:0:0:0:
182,192,3557,1,0,0:0:0:0:
402,192,3557,1,0,0:0:0:0:
36,192,3557,1,0,0:0:0:0:
329,192,3728,1,0,0:0:0:0:
36,192,3899,1,0,0:0:0:0:
109,192,3899,1,0,0:0:0:0:
36,192,4071,1,0,0:0:0:0:
402,192,4242,1,0,0:0:0:0:
329,192,4242,1,0,0:0:0:0:
109,192,4242,1,0,0:0:0:0:
256,192,4242,1,0,0:0:0:0:
36,192,4414,1,0,0:0:0:0:
329,192,4499,1,0,0:0:0:0:
109,192,4585,1,0,0:0:0:0:
329,192,4671,1,0,0:0:0:0:
36,192,4757,1,0,0:0:0:0:
109,192,4757,1,0,0:0:0:0:
329,192,4928,1,0,0:0:0:0:
402,192,4928,1,0,0:0:0:0:
256,192,4928,1,0,0:0:0:0:
36,192,4928,1,0,0:0:0:0:
109,192,5099,1,0,0:0:0:0:
329,192,5271,1,0,0:0:0:0:
256,192,5271,1,0,0:0:0:0:
329,192,5442,1,0,0:0:0:0:
475,192,5614,1,0,0:0:0:0:
109,192,5614,1,0,0:0:0:0:
256,192,5614,1,0,0:0:0:0:
36,192,5614,1,0,0:0:0:0:
329,192,5785,1,0,0:0:0:0:
109,192,5871,1,0,0:0:0:0:
256,192,5957,1,0,0:0:0:0:
109,192,6042,1,0,0:0:0:0:
256,192,6128,1,0,0:0:0:0:
329,192,6128,1,0,0:0:0:0:
329,192,6299,1,0,0:0:0:0:
109,192,6299,1,0,0:0:0:0:
475,192,6299,1,0,0:0:0:0:
36,192,6299,1,0,0:0:0:0:
256,192,6471,1,0,0:0:0:0:
402,192,6642,5,0,0:0:0:0:
329,192,6642,1,0,0:0:0:0:
36,192,6642,128,0,11014:0:0:0:0:
402,192,6814,1,0,0:0:0:0:
256,192,6814,128,0,9642:0:0:0:0:
329,192,6985,1,0,0:0:0:0:
109,192,6985,1,0,0:0:0:0:
182,192,6985,1,0,0:0:0:0:
475,192,6985,128,0,8271:0:0:0:0:
402,192,7157,1,0,0:0:0:0:
109,192,7242,1,0,0:0:0:0:
329,192,7328,1,0,0:0:0:0:
109,192,7414,1,0,0:0:0:0:
402,192,7499,1,0,0:0:0:0:
182,192,7499,1,0,0:0:0:0:
109,192,7671,1,0,0:0:0:0:
182,192,7671,1,0,0:0:0:0:
402,192,7671,1,0,0:0:0:0:
329,192,7671,1,0,0:0:0:0:
329,192,7842,1,0,0:0:0:0:
109,192,8014,5,0,0:0:0:0:
182,192,8014,1,0,0:0:0:0:
109,192,8185,1,0,0:0:0:0:
182,192,8357,1,0,0:0:0:0:
402,192,8357,1,0,0:0:0:0:
329,192,8357,1,0,0:0:0:0:
475,192,8357,1,0,0:0:0:0:
109,192,8528,1,0,0:0:0:0:
402,192,8614,1,0,0:0:0:0:
182,192,8699,1,0,0:0:0:0:
402,192,8785,1,0,0:0:0:0:
182,192,8871,1,0,0:0:0:0:
109,192,8871,1,0,0:0:0:0:
402,192,9042,1,0,0:0:0:0:
329,192,9042,1,0,0:0:0:0:
109,192,9042,1,0,0:0:0:0:
475,192,9042,1,0,0:0:0:0:
182,192,9214,1,0,0:0:0:0:
475,192,9385,1,0,0:0:0:0:
402,192,9385,1,0,0:0:0:0:
475,192,9557,1,0,0:0:0:0:
109,192,9728,1,0,0:0:0:0:
182,192,9728,1,0,0:0:0:0:
402,192,9728,1,0,0:0:0:0:
256,192,9728,1,0,0:0:0:0:
475,192,9899,1,0,0:0:0:0:
182,192,9985,1,0,0:0:0:0:
402,192,10071,1,0,0:0:0:0:
182,192,10157,1,0,0:0:0:0:
475,192,10242,1,0,0:0:0:0:
402,192,10242,1,0,0:0:0:0:
182,192,10414,1,0,0:0:0:0:
109,192,10414,1,0,0:0:0:0:
256,192,10414,1,0,0:0:0:0:
475,192,10414,1,0,0:0:0:0:
402,192,10585,1,0,0:0:0:0:
182,192,10757,1,0,0:0:0:0:
256,192,10757,1,0,0:0:0:0:
182,192,10928,1,0,0:0:0:0:
36,192,11099,1,0,0:0:0:0:
402,192,11099,1,0,0:0:0:0:
256,192,11099,1,0,0:0:0:0:
475,192,11099,1,0,0:0:0:0:
182,192,11271,1,0,0:0:0:0:
402,192,11357,1,0,0:0:0:0:
256,192,11442,1,0,0:0:0:0:
402,192,11528,1,0,0:0:0:0:
256,192,11614,1,0,0:0:0:0:
182,192,11614,1,0,0:0:0:0:
182,192,11785,1,0,0:0:0:0:
402,192,11785,1,0,0:0:0:0:
36,192,11785,1,0,0:0:0:0:
475,192,11785,1,0,0:0:0:0:
256,192,11957,1,0,0:0:0:0:
402,192,12128,5,0,0:0:0:0:
329,192,12128,1,0,0:0:0:0:
36,192,12128,128,0,13757:0:0:0:0:
402,192,12299,1,0,0:0:0:0:
256,192,12299,128,0,15128:0:0:0:0:
329,192,12471,1,0,0:0:0:0:
109,192,12471,1,0,0:0:0:0:
182,192,12471,1,0,0:0:0:0:
475,192,12471,128,0,16499:0:0:0:0:
402,192,12642,1,0,0:0:0:0:
109,192,12728,1,0,0:0:0:0:
329,192,12814,1,0,0:0:0:0:
109,192,12899,1,0,0:0:0:0:
402,192,12985,1,0,0:0:0:0:
182,192,12985,1,0,0:0:0:0:
109,192,13157,1,0,0:0:0:0:
182,192,13157,1,0,0:0:0:0:
402,192,13157,1,0,0:0:0:0:
329,192,13157,1,0,0:0:0:0:
329,192,13328,1,0,0:0:0:0:
109,192,13499,5,0,0:0:0:0:
182,192,13499,1,0,0:0:0:0:
109,192,13671,1,0,0:0:0:0:
182,192,13842,1,0,0:0:0:0:
402,192,13842,1,0,0:0:0:0:
329,192,13842,1,0,0:0:0:0:
36,192,13842,1,0,0:0:0:0:
109,192,14014,1,0,0:0:0:0:
402,192,14099,1,0,0:0:0:0:
182,192,14185,1,0,0:0:0:0:
402,192,14271,1,0,0:0:0:0:
182,192,14357,1,0,0:0:0:0:
109,192,14357,1,0,0:0:0:0:
402,192,14528,1,0,0:0:0:0:
329,192,14528,1,0,0:0:0:0:
109,192,14528,1,0,0:0:0:0:
36,192,14528,1,0,0:0:0:0:
182,192,14699,1,0,0:0:0:0:
36,192,14871,1,0,0:0:0:0:
402,192,14871,1,0,0:0:0:0:
36,192,15042,1,0,0:0:0:0:
109,192,15214,1,0,0:0:0:0:
182,192,15214,1,0,0:0:0:0:
402,192,15214,1,0,0:0:0:0:
256,192,15214,1,0,0:0:0:0:
36,192,15385,1,0,0:0:0:0:
182,192,15471,1,0,0:0:0:0:
402,192,15557,1,0,0:0:0:0:
182,192,15642,1,0,0:0:0:0:
36,192,15728,1,0,0:0:0:0:
402,192,15728,1,0,0:0:0:0:
182,192,15899,1,0,0:0:0:0:
109,192,15899,1,0,0:0:0:0:
256,192,15899,1,0,0:0:0:0:
36,192,15899,1,0,0:0:0:0:
402,192,16071,1,0,0:0:0:0:
182,192,16242,1,0,0:0:0:0:
256,192,16242,1,0,0:0:0:0:
182,192,16414,1,0,0:0:0:0:
475,192,16585,1,0,0:0:0:0:
402,192,16585,1,0,0:0:0:0:
256,192,16585,1,0,0:0:0:0:
36,192,16585,1,0,0:0:0:0:
182,192,16757,1,0,0:0:0:0:
402,192,16842,1,0,0:0:0:0:
256,192,16928,1,0,0:0:0:0:
402,192,17014,1,0,0:0:0:0:
256,192,17099,1,0,0:0:0:0:
182,192,17099,1,0,0:0:0:0:
182,192,17271,1,0,0:0:0:0:
402,192,17271,1,0,0:0:0:0:
475,192,17271,1,0,0:0:0:0:
36,192,17271,1,0,0:0:0:0:
256,192,17442,1,0,0:0:0:0:
109,192,17614,5,0,0:0:0:0:
182,192,17614,1,0,0:0:0:0:
475,192,17614,128,0,19242:0:0:0:0:
109,192,17785,1,0,0:0:0:0:
256,192,17785,128,0,20614:0:0:0:0:
182,192,17957,1,0,0:0:0:0:
402,192,17957,1,0,0:0:0:0:
329,192,17957,1,0,0:0:0:0:
36,192,17957,128,0,21985:0:0:0:0:
109,192,18128,1,0,0:0:0:0:
402,192,18214,1,0,0:0:0:0:
182,192,18299,1,0,0:0:0:0:
402,192,18385,1,0,0:0:0:0:
109,192,18471,1,0,0:0:0:0:
329,192,18471,1,0,0:0:0:0:
402,192,18642,1,0,0:0:0:0:
329,192,18642,1,0,0:0:0:0:
109,192,18642,1,0,0:0:0:0:
182,192,18642,1,0,0:0:0:0:
182,192,18814,1,0,0:0:0:0:
402,192,18985,5,0,0:0:0:0:
329,192,18985,1,0,0:0:0:0:
402,192,19157,1,0,0:0:0:0:
329,192,19328,1,0,0:0:0:0:
109,192,19328,1,0,0:0:0:0:
182,192,19328,1,0,0:0:0:0:
475,192,19328,1,0,0:0:0:0:
402,192,19499,1,0,0:0:0:0:
109,192,19585,1,0,0:0:0:0:
329,192,19671,1,0,0:0:0:0:
109,192,19757,1,0,0:0:0:0:
329,192,19842,1,0,0:0:0:0:
402,192,19842,1,0,0:0:0:0:
109,192,20014,1,0,0:0:0:0:
182,192,20014,1,0,0:0:0:0:
402,192,20014,1,0,0:0:0:0:
475,192,20014,1,0,0:0:0:0:
329,192,20185,1,0,0:0:0:0:
475,192,20357,1,0,0:0:0:0:
109,192,20357,1,0,0:0:0:0:
475,192,20528,1,0,0:0:0:0:
402,192,20699,1,0,0:0:0:0:
329,192,20699,1,0,0:0:0:0:
109,192,20699,1,0,0:0:0:0:
256,192,20699,1,0,0:0:0:0:
475,192,20871,1,0,0:0:0:0:
329,192,20957,1,0,0:0:0:0:
109,192,21042,1,0,0:0:0:0:
329,192,21128,1,0,0:0:0:0:
475,192,21214,1,0,0:0:0:0:
109,192,21214,1,0,0:0:0:0:
329,192,21385,1,0,0:0:0:0:
402,192,21385,1,0,0:0:0:0:
256,192,21385,1,0,0:0:0:0:
475,192,21385,1,0,0:0:0:0:
109,192,21557,1,0,0:0:0:0:
329,192,21728,1,0,0:0:0:0:
256,192,21728,1,0,0:0:0:0:
329,192,21899,1,0,0:0:0:0:
256,192,22071,1,0,0:0:0:0:
36,192,22071,1,0,0:0:0:0:
329,192,22242,1,0,0:0:0:0:
109,192,22328,1,0,0:0:0:0:
256,192,22414,1,0,0:0:0:0:
402,192,22499,1,0,0:0:0:0:
182,192,22585,1,0,0:0:0:0:
256,192,22757,1,0,0:0:0:0:
475,192,22757,1,0,0:0:0:0:
182,192,22928,1,0,0:0:0:0:
36,192,23099,128,0,23442:0:0:0:0:
329,192,23099,128,0,23185:0:0:0:0:
475,192,23099,1,0,0:0:0:0:
109,192,23185,1,0,0:0:0:0:
182,192,23185,128,0,23271:0:0:0:0:
256,192,23271,1,0,0:0:0:0:
182,192,23357,1,0,0:0:0:0:
402,192,23442,128,0,24128:0:0:0:0:
329,192,23442,1,0,0:0:0:0:
256,192,23442,1,0,0:0:0:0:
109,192,23442,1,0,0:0:0:0:
475,192,23442,1,0,0:0:0:0:
256,192,23614,128,0,23699:0:0:0:0:
329,192,23614,1,0,0:0:0:0:
109,192,23699,128,0,23785:0:0:0:0:
36,192,23699,1,0,0:0:0:0:
182,192,23785,1,0,0:0:0:0:
329,192,23871,1,0,0:0:0:0:
182,192,23957,128,0,24985:0:0:0:0:
109,192,23957,1,0,0:0:0:0:
256,192,23957,1,0,0:0:0:0:
475,192,23957,1,0,0:0:0:0:
329,192,24128,1,0,0:0:0:0:
36,192,24128,1,0,0:0:0:0:
475,192,24128,1,0,0:0:0:0:
256,192,24128,1,0,0:0:0:0:
402,192,24299,1,0,0:0:0:0:
36,192,24471,1,0,0:0:0:0:
329,192,24471,128,0,24528:0:0:0:0:
256,192,24471,1,0,0:0:0:0:
109,192,24471,1,0,0:0:0:0:
402,192,24499,128,0,24557:0:0:0:0:
475,192,24528,128,0,24814:0:0:0:0:
36,192,24557,128,0,24728:0:0:0:0:
329,192,24642,1,0,0:0:0:0:
256,192,24728,128,0,24985:0:0:0:0:
109,192,24814,1,0,0:0:0:0:
36,192,24814,1,0,0:0:0:0:
402,192,24814,1,0,0:0:0:0:
329,192,24814,1,0,0:0:0:0:
475,192,24985,1,0,0:0:0:0:
109,192,24985,128,0,25671:0:0:0:0:
36,192,24985,1,0,0:0:0:0:
475,192,25071,128,0,25242:0:0:0:0:
329,192,25071,1,0,0:0:0:0:
256,192,25157,128,0,25242:0:0:0:0:
182,192,25157,1,0,0:0:0:0:
402,192,25242,128,0,25328:0:0:0:0:
329,192,25328,128,0,25414:0:0:0:0:
475,192,25328,1,0,0:0:0:0:
36,192,25328,1,0,0:0:0:0:
256,192,25328,1,0,0:0:0:0:
182,192,25414,128,0,25499:0:0:0:0:
36,192,25499,1,0,0:0:0:0:
475,192,25499,1,0,0:0:0:0:
256,192,25499,1,0,0:0:0:0:
402,192,25499,1,0,0:0:0:0:
329,192,25499,128,0,26185:0:0:0:0:
182,192,25585,128,0,25671:0:0:0:0:
402,192,25671,1,0,0:0:0:0:
109,192,25757,1,0,0:0:0:0:
182,192,25842,128,0,25928:0:0:0:0:
256,192,25842,1,0,0:0:0:0:
475,192,25842,1,0,0:0:0:0:
36,192,25928,128,0,26014:0:0:0:0:
402,192,26014,1,0,0:0:0:0:
475,192,26099,1,0,0:0:0:0:
256,192,26185,1,0,0:0:0:0:
182,192,26185,1,0,0:0:0:0:
109,192,26185,1,0,0:0:0:0:
36,192,26185,1,0,0:0:0:0:
256,192,26357,128,0,26442:0:0:0:0:
475,192,26357,1,0,0:0:0:0:
109,192,26442,128,0,26528:0:0:0:0:
402,192,26442,1,0,0:0:0:0:
475,192,26528,1,0,0:0:0:0:
182,192,26614,1,0,0:0:0:0:
329,192,26699,1,0,0:0:0:0:
109,192,26699,1,0,0:0:0:0:
36,192,26699,1,0,0:0:0:0:
256,192,26871,1,0,0:0:0:0:
329,192,26871,1,0,0:0:0:0:
402,192,26871,1,0,0:0:0:0:
475,192,26871,1,0,0:0:0:0:
109,192,27042,1,0,0:0:0:0:
475,192,27214,128,0,27385:0:0:0:0:
402,192,27214,128,0,27257:0:0:0:0:
256,192,27214,1,0,0:0:0:0:
36,192,27214,1,0,0:0:0:0:
109,192,27299,1,0,0:0:0:0:
329,192,27385,1,0,0:0:0:0:
182,192,27385,1,0,0:0:0:0:
329,192,27471,128,0,27557:0:0:0:0:
36,192,27471,1,0,0:0:0:0:
256,192,27557,1,0,0:0:0:0:
182,192,27557,1,0,0:0:0:0:
402,192,27557,1,0,0:0:0:0:
475,192,27557,1,0,0:0:0:0:
402,192,27728,128,0,27771:0:0:0:0:
475,192,27728,128,0,27899:0:0:0:0:
36,192,27728,1,0,0:0:0:0:
109,192,27814,1,0,0:0:0:0:
329,192,27899,1,0,0:0:0:0:
36,192,27899,128,0,27985:0:0:0:0:
256,192,27899,1,0,0:0:0:0:
329,192,27985,128,0,28157:0:0:0:0:
182,192,28071,128,0,28157:0:0:0:0:
109,192,28071,1,0,0:0:0:0:
402,192,28071,1,0,0:0:0:0:
475,192,28071,1,0,0:0:0:0:
475,192,28242,128,0,28285:0:0:0:0:
329,192,28242,1,0,0:0:0:0:
256,192,28242,1,0,0:0:0:0:
109,192,28242,1,0,0:0:0:0:
36,192,28242,1,0,0:0:0:0:
402,192,28328,128,0,28371:0:0:0:0:
475,192,28414,128,0,28457:0:0:0:0:
109,192,28414,1,0,0:0:0:0:
402,192,28499,128,0,28542:0:0:0:0:
36,192,28585,128,0,28928:0:0:0:0:
182,192,28585,1,0,0:0:0:0:
256,192,28585,128,0,28671:0:0:0:0:
402,192,28671,128,0,28757:0:0:0:0:
475,192,28671,1,0,0:0:0:0:
329,192,28757,1,0,0:0:0:0:
402,192,28842,1,0,0:0:0:0:
256,192,28928,128,0,29614:0:0:0:0:
329,192,28928,1,0,0:0:0:0:
475,192,28928,1,0,0:0:0:0:
182,192,28928,1,0,0:0:0:0:
109,192,28928,1,0,0:0:0:0:
36,192,29099,1,0,0:0:0:0:
329,192,29099,128,0,29185:0:0:0:0:
475,192,29185,128,0,29271:0:0:0:0:
182,192,29185,1,0,0:0:0:0:
36,192,29271,1,0,0:0:0:0:
182,192,29357,1,0,0:0:0:0:
475,192,29442,128,0,30471:0:0:0:0:
402,192,29442,1,0,0:0:0:0:
329,192,29442,1,0,0:0:0:0:
109,192,29442,1,0,0:0:0:0:
402,192,29614,1,0,0:0:0:0:
182,192,29614,1,0,0:0:0:0:
109,192,29614,1,0,0:0:0:0:
36,192,29614,1,0,0:0:0:0:
256,192,29785,1,0,0:0:0:0:
109,192,29957,128,0,30299:0:0:0:0:
256,192,29957,1,0,0:0:0:0:
36,192,29957,1,0,0:0:0:0:
329,192,29957,1,0,0:0:0:0:
256,192,30042,128,0,30214:0:0:0:0:
402,192,30042,1,0,0:0:0:0:
329,192,30128,1,0,0:0:0:0:
402,192,30214,128,0,30471:0:0:0:0:
256,192,30299,1,0,0:0:0:0:
329,192,30299,1,0,0:0:0:0:
182,192,30299,1,0,0:0:0:0:
36,192,30299,1,0,0:0:0:0:
36,192,30471,128,0,31157:0:0:0:0:
182,192,30471,1,0,0:0:0:0:
256,192,30471,1,0,0:0:0:0:
256,192,30557,128,0,30728:0:0:0:0:
475,192,30557,1,0,0:0:0:0:
402,192,30642,128,0,30728:0:0:0:0:
109,192,30642,1,0,0:0:0:0:
182,192,30728,128,0,30814:0:0:0:0:
329,192,30814,128,0,30899:0:0:0:0:
256,192,30814,1,0,0:0:0:0:
475,192,30814,1,0,0:0:0:0:
402,192,30814,1,0,0:0:0:0:
109,192,30899,128,0,30985:0:0:0:0:
402,192,30985,128,0,31671:0:0:0:0:
329,192,30985,1,0,0:0:0:0:
256,192,30985,1,0,0:0:0:0:
182,192,30985,1,0,0:0:0:0:
475,192,30985,1,0,0:0:0:0:
109,192,31071,128,0,31157:0:0:0:0:
256,192,31157,1,0,0:0:0:0:
329,192,31242,1,0,0:0:0:0:
109,192,31328,128,0,31414:0:0:0:0:
36,192,31328,1,0,0:0:0:0:
475,192,31328,1,0,0:0:0:0:
256,192,31414,128,0,31499:0:0:0:0:
329,192,31414,1,0,0:0:0:0:
109,192,31499,1,0,0:0:0:0:
182,192,31585,1,0,0:0:0:0:
256,192,31671,1,0,0:0:0:0:
109,192,31671,1,0,0:0:0:0:
36,192,31671,1,0,0:0:0:0:
475,192,31671,1,0,0:0:0:0:
182,192,31842,128,0,31928:0:0:0:0:
475,192,31842,1,0,0:0:0:0:
329,192,31928,128,0,32014:0:0:0:0:
36,192,31928,1,0,0:0:0:0:
475,192,32014,1,0,0:0:0:0:
182,192,32099,1,0,0:0:0:0:
329,192,32185,1,0,0:0:0:0:
402,192,32185,1,0,0:0:0:0:
109,192,32185,1,0,0:0:0:0:
256,192,32357,1,0,0:0:0:0:
402,192,32357,1,0,0:0:0:0:
475,192,32357,1,0,0:0:0:0:
36,192,32357,1,0,0:0:0:0:
182,192,32528,1,0,0:0:0:0:
402,192,32699,128,0,32742:0:0:0:0:
475,192,32699,128,0,32871:0:0:0:0:
256,192,32699,1,0,0:0:0:0:
36,192,32699,1,0,0:0:0:0:
109,192,32785,1,0,0:0:0:0:
182,192,32871,1,0,0:0:0:0:
329,192,32957,128,0,33042:0:0:0:0:
475,192,32957,1,0,0:0:0:0:
182,192,33042,1,0,0:0:0:0:
256,192,33042,1,0,0:0:0:0:
109,192,33042,1,0,0:0:0:0:
36,192,33042,1,0,0:0:0:0:
402,192,33214,128,0,33257:0:0:0:0:
475,192,33214,128,0,33385:0:0:0:0:
256,192,33214,1,0,0:0:0:0:
36,192,33299,1,0,0:0:0:0:
329,192,33385,1,0,0:0:0:0:
109,192,33385,128,0,33471:0:0:0:0:
256,192,33385,1,0,0:0:0:0:
329,192,33471,128,0,33642:0:0:0:0:
182,192,33557,128,0,33642:0:0:0:0:
256,192,33557,1,0,0:0:0:0:
36,192,33557,1,0,0:0:0:0:
475,192,33557,1,0,0:0:0:0:
475,192,33728,128,0,33771:0:0:0:0:
256,192,33728,1,0,0:0:0:0:
402,192,33728,1,0,0:0:0:0:
109,192,33728,1,0,0:0:0:0:
36,192,33728,1,0,0:0:0:0:
329,192,33814,128,0,33857:0:0:0:0:
475,192,33899,128,0,33942:0:0:0:0:
182,192,33899,1,0,0:0:0:0:
329,192,33985,128,0,34028:0:0:0:0:
475,192,34071,128,0,34414:0:0:0:0:
182,192,34071,128,0,34157:0:0:0:0:
36,192,34071,1,0,0:0:0:0:
402,192,34157,1,0,0:0:0:0:
329,192,34157,128,0,34242:0:0:0:0:
256,192,34242,1,0,0:0:0:0:
329,192,34328,1,0,0:0:0:0:
109,192,34414,128,0,35099:0:0:0:0:
182,192,34414,1,0,0:0:0:0:
256,192,34414,1,0,0:0:0:0:
402,192,34414,1,0,0:0:0:0:
36,192,34414,1,0,0:0:0:0:
256,192,34585,128,0,34671:0:0:0:0:
182,192,34585,1,0,0:0:0:0:
402,192,34671,128,0,34757:0:0:0:0:
475,192,34671,1,0,0:0:0:0:
329,192,34757,1,0,0:0:0:0:
182,192,34842,1,0,0:0:0:0:
402,192,34928,1,0,0:0:0:0:
256,192,34928,1,0,0:0:0:0:
36,192,34928,1,0,0:0:0:0:
329,192,34928,128,0,35957:0:0:0:0:
182,192,35099,1,0,0:0:0:0:
475,192,35099,1,0,0:0:0:0:
36,192,35099,1,0,0:0:0:0:
256,192,35099,1,0,0:0:0:0:
109,192,35271,1,0,0:0:0:0:
475,192,35442,1,0,0:0:0:0:
256,192,35442,1,0,0:0:0:0:
402,192,35442,1,0,0:0:0:0:
36,192,35442,128,0,35785:0:0:0:0:
182,192,35442,1,0,0:0:0:0:
475,192,35528,128,0,35699:0:0:0:0:
182,192,35614,1,0,0:0:0:0:
256,192,35699,128,0,35957:0:0:0:0:
402,192,35785,1,0,0:0:0:0:
475,192,35785,1,0,0:0:0:0:
109,192,35785,1,0,0:0:0:0:
182,192,35785,1,0,0:0:0:0:
36,192,35957,1,0,0:0:0:0:
402,192,35957,128,0,36642:0:0:0:0:
475,192,35957,1,0,0:0:0:0:
36,192,36042,128,0,36214:0:0:0:0:
182,192,36042,1,0,0:0:0:0:
256,192,36128,128,0,36214:0:0:0:0:
329,192,36128,1,0,0:0:0:0:
109,192,36214,128,0,36299:0:0:0:0:
182,192,36299,128,0,36385:0:0:0:0:
36,192,36299,1,0,0:0:0:0:
475,192,36299,1,0,0:0:0:0:
256,192,36299,1,0,0:0:0:0:
329,192,36385,128,0,36471:0:0:0:0:
475,192,36471,1,0,0:0:0:0:
36,192,36471,1,0,0:0:0:0:
256,192,36471,1,0,0:0:0:0:
109,192,36471,1,0,0:0:0:0:
182,192,36471,128,0,37157:0:0:0:0:
329,192,36557,128,0,36642:0:0:0:0:
109,192,36642,1,0,0:0:0:0:
402,192,36728,1,0,0:0:0:0:
329,192,36814,128,0,36899:0:0:0:0:
256,192,36814,1,0,0:0:0:0:
36,192,36814,1,0,0:0:0:0:
475,192,36899,128,0,36985:0:0:0:0:
109,192,36985,1,0,0:0:0:0:
36,192,37071,1,0,0:0:0:0:
256,192,37157,1,0,0:0:0:0:
329,192,37157,1,0,0:0:0:0:
402,192,37157,1,0,0:0:0:0:
475,192,37157,1,0,0:0:0:0:
256,192,37328,128,0,37414:0:0:0:0:
36,192,37328,1,0,0:0:0:0:
402,192,37414,128,0,37499:0:0:0:0:
109,192,37414,1,0,0:0:0:0:
36,192,37499,1,0,0:0:0:0:
329,192,37585,1,0,0:0:0:0:
182,192,37671,1,0,0:0:0:0:
402,192,37671,1,0,0:0:0:0:
475,192,37671,1,0,0:0:0:0:
256,192,37842,1,0,0:0:0:0:
182,192,37842,1,0,0:0:0:0:
109,192,37842,1,0,0:0:0:0:
36,192,37842,1,0,0:0:0:0:
402,192,38014,1,0,0:0:0:0:
36,192,38185,128,0,38357:0:0:0:0:
109,192,38185,128,0,38228:0:0:0:0:
256,192,38185,1,0,0:0:0:0:
475,192,38185,1,0,0:0:0:0:
402,192,38271,1,0,0:0:0:0:
182,192,38357,1,0,0:0:0:0:
329,192,38357,1,0,0:0:0:0:
182,192,38442,128,0,38528:0:0:0:0:
475,192,38442,1,0,0:0:0:0:
256,192,38528,1,0,0:0:0:0:
329,192,38528,1,0,0:0:0:0:
109,192,38528,1,0,0:0:0:0:
36,192,38528,1,0,0:0:0:0:
109,192,38699,128,0,38742:0:0:0:0:
36,192,38699,128,0,38871:0:0:0:0:
475,192,38699,1,0,0:0:0:0:
402,192,38785,1,0,0:0:0:0:
182,192,38871,1,0,0:0:0:0:
475,192,38871,128,0,38957:0:0:0:0:
256,192,38871,1,0,0:0:0:0:
182,192,38957,128,0,39128:0:0:0:0:
329,192,39042,128,0,39128:0:0:0:0:
402,192,39042,1,0,0:0:0:0:
109,192,39042,1,0,0:0:0:0:
36,192,39042,1,0,0:0:0:0:
36,192,39214,128,0,39257:0:0:0:0:
182,192,39214,1,0,0:0:0:0:
256,192,39214,1,0,0:0:0:0:
402,192,39214,1,0,0:0:0:0:
475,192,39214,1,0,0:0:0:0:
109,192,39299,128,0,39342:0:0:0:0:
36,192,39385,128,0,39428:0:0:0:0:
402,192,39385,1,0,0:0:0:0:
109,192,39471,128,0,39514:0:0:0:0:
475,192,39557,128,0,39899:0:0:0:0:
256,192,39557,128,0,39614:0:0:0:0:
329,192,39585,128,0,39642:0:0:0:0:
402,192,39614,128,0,39671:0:0:0:0:
109,192,39642,128,0,39728:0:0:0:0:
36,192,39642,1,0,0:0:0:0:
182,192,39728,1,0,0:0:0:0:
109,192,39814,1,0,0:0:0:0:
256,192,39899,128,0,40585:0:0:0:0:
182,192,39899,1,0,0:0:0:0:
36,192,39899,1,0,0:0:0:0:
329,192,39899,1,0,0:0:0:0:
402,192,39899,1,0,0:0:0:0:
182,192,40071,128,0,40157:0:0:0:0:
475,192,40071,1,0,0:0:0:0:
36,192,40157,128,0,40242:0:0:0:0:
329,192,40157,1,0,0:0:0:0:
475,192,40242,1,0,0:0:0:0:
329,192,40328,1,0,0:0:0:0:
36,192,40414,128,0,41442:0:0:0:0:
109,192,40414,1,0,0:0:0:0:
182,192,40414,1,0,0:0:0:0:
402,192,40414,1,0,0:0:0:0:
109,192,40585,1,0,0:0:0:0:
329,192,40585,1,0,0:0:0:0:
402,192,40585,1,0,0:0:0:0:
475,192,40585,1,0,0:0:0:0:
256,192,40757,1,0,0:0:0:0:
402,192,40928,128,0,41271:0:0:0:0:
256,192,40928,1,0,0:0:0:0:
475,192,40928,1,0,0:0:0:0:
182,192,40928,1,0,0:0:0:0:
256,192,41014,128,0,41185:0:0:0:0:
109,192,41014,1,0,0:0:0:0:
182,192,41099,1,0,0:0:0:0:
109,192,41185,128,0,41442:0:0:0:0:
256,192,41271,1,0,0:0:0:0:
182,192,41271,1,0,0:0:0:0:
329,192,41271,1,0,0:0:0:0:
475,192,41271,1,0,0:0:0:0:
475,192,41442,128,0,42128:0:0:0:0:
256,192,41442,1,0,0:0:0:0:
329,192,41442,1,0,0:0:0:0:
36,192,41528,1,0,0:0:0:0:
256,192,41528,128,0,41699:0:0:0:0:
109,192,41614,128,0,41699:0:0:0:0:
402,192,41614,1,0,0:0:0:0:
329,192,41699,128,0,41785:0:0:0:0:
182,192,41785,128,0,41871:0:0:0:0:
256,192,41785,1,0,0:0:0:0:
36,192,41785,1,0,0:0:0:0:
109,192,41785,1,0,0:0:0:0:
402,192,41871,128,0,41957:0:0:0:0:
109,192,41957,128,0,42642:0:0:0:0:
182,192,41957,1,0,0:0:0:0:
256,192,41957,1,0,0:0:0:0:
329,192,41957,1,0,0:0:0:0:
36,192,41957,1,0,0:0:0:0:
402,192,42042,128,0,42128:0:0:0:0:
256,192,42128,1,0,0:0:0:0:
256,192,42214,1,0,0:0:0:0:
402,192,42299,128,0,42385:0:0:0:0:
475,192,42299,1,0,0:0:0:0:
36,192,42299,1,0,0:0:0:0:
256,192,42385,128,0,42471:0:0:0:0:
182,192,42385,1,0,0:0:0:0:
402,192,42471,1,0,0:0:0:0:
329,192,42557,1,0,0:0:0:0:
256,192,42642,1,0,0:0:0:0:
475,192,42642,1,0,0:0:0:0:
182,192,42728,1,0,0:0:0:0:
329,192,42814,128,0,42899:0:0:0:0:
36,192,42814,1,0,0:0:0:0:
182,192,42899,128,0,42985:0:0:0:0:
475,192,42899,1,0,0:0:0:0:
36,192,42985,1,0,0:0:0:0:
329,192,43071,1,0,0:0:0:0:
182,192,43157,1,0,0:0:0:0:
256,192,43328,1,0,0:0:0:0:
475,192,43328,1,0,0:0:0:0:
402,192,43499,1,0,0:0:0:0:
109,192,43499,1,0,0:0:0:0:
36,192,43671,128,0,44957:0:0:0:0:
475,192,44014,128,0,44957:0:0:0:0:
256,192,44528,128,0,44957:0:0:0:0:
36,192,45042,1,0,0:0:0:0:
329,192,45042,1,0,0:0:0:0:
402,192,45042,1,0,0:0:0:0:
109,192,45042,128,0,45728:0:0:0:0:
475,192,45042,1,0,0:0:0:0:
182,192,45128,1,0,0:0:0:0:
329,192,45128,128,0,45299:0:0:0:0:
36,192,45214,1,0,0:0:0:0:
475,192,45214,1,0,0:0:0:0:
402,192,45299,1,0,0:0:0:0:
182,192,45385,1,0,0:0:0:0:
36,192,45385,1,0,0:0:0:0:
475,192,45385,1,0,0:0:0:0:
329,192,45385,1,0,0:0:0:0:
256,192,45385,1,0,0:0:0:0:
182,192,45557,1,0,0:0:0:0:
475,192,45557,1,0,0:0:0:0:
329,192,45642,1,0,0:0:0:0:
475,192,45642,128,0,45814:0:0:0:0:
256,192,45728,1,0,0:0:0:0:
36,192,45728,1,0,0:0:0:0:
329,192,45814,1,0,0:0:0:0:
256,192,45899,1,0,0:0:0:0:
109,192,45899,1,0,0:0:0:0:
36,192,45899,1,0,0:0:0:0:
475,192,45899,1,0,0:0:0:0:
109,192,46071,1,0,0:0:0:0:
329,192,46071,1,0,0:0:0:0:
182,192,46071,1,0,0:0:0:0:
36,192,46071,1,0,0:0:0:0:
475,192,46071,1,0,0:0:0:0:
402,192,46071,1,0,0:0:0:0:
402,192,46242,1,0,0:0:0:0:
256,192,46242,1,0,0:0:0:0:
36,192,46242,1,0,0:0:0:0:
475,192,46414,128,0,46928:0:0:0:0:
182,192,46414,1,0,0:0:0:0:
256,192,46414,1,0,0:0:0:0:
329,192,46414,1,0,0:0:0:0:
402,192,46414,128,0,46499:0:0:0:0:
109,192,46499,1,0,0:0:0:0:
182,192,46499,128,0,46585:0:0:0:0:
36,192,46585,1,0,0:0:0:0:
256,192,46585,128,0,46671:0:0:0:0:
109,192,46671,1,0,0:0:0:0:
329,192,46671,128,0,46757:0:0:0:0:
182,192,46757,1,0,0:0:0:0:
36,192,46757,1,0,0:0:0:0:
402,192,46757,1,0,0:0:0:0:
256,192,46757,1,0,0:0:0:0:
329,192,46928,1,0,0:0:0:0:
256,192,46928,1,0,0:0:0:0:
109,192,46928,128,0,47014:0:0:0:0:
402,192,47014,1,0,0:0:0:0:
182,192,47014,1,0,0:0:0:0:
329,192,47014,128,0,47099:0:0:0:0:
256,192,47099,128,0,47614:0:0:0:0:
475,192,47099,128,0,47185:0:0:0:0:
36,192,47099,1,0,0:0:0:0:
402,192,47185,128,0,47271:0:0:0:0:
182,192,47185,1,0,0:0:0:0:
475,192,47271,1,0,0:0:0:0:
329,192,47271,128,0,47357:0:0:0:0:
36,192,47271,1,0,0:0:0:0:
109,192,47271,1,0,0:0:0:0:
182,192,47357,128,0,47442:0:0:0:0:
109,192,47442,1,0,0:0:0:0:
36,192,47442,1,0,0:0:0:0:
402,192,47442,1,0,0:0:0:0:
475,192,47442,1,0,0:0:0:0:
329,192,47442,1,0,0:0:0:0:
109,192,47614,1,0,0:0:0:0:
402,192,47614,1,0,0:0:0:0:
329,192,47699,1,0,0:0:0:0:
36,192,47785,128,0,48471:0:0:0:0:
475,192,47785,1,0,0:0:0:0:
402,192,47785,1,0,0:0:0:0:
256,192,47785,1,0,0:0:0:0:
182,192,47785,1,0,0:0:0:0:
109,192,47871,1,0,0:0:0:0:
475,192,47871,128,0,48042:0:0:0:0:
329,192,47957,1,0,0:0:0:0:
402,192,47957,1,0,0:0:0:0:
182,192,48042,1,0,0:0:0:0:
256,192,48128,1,0,0:0:0:0:
329,192,48128,1,0,0:0:0:0:
109,192,48128,1,0,0:0:0:0:
475,192,48128,1,0,0:0:0:0:
402,192,48128,1,0,0:0:0:0:
475,192,48299,1,0,0:0:0:0:
256,192,48299,1,0,0:0:0:0:
402,192,48385,1,0,0:0:0:0:
256,192,48385,128,0,48557:0:0:0:0:
475,192,48471,1,0,0:0:0:0:
182,192,48471,1,0,0:0:0:0:
329,192,48557,1,0,0:0:0:0:
182,192,48642,1,0,0:0:0:0:
109,192,48642,1,0,0:0:0:0:
36,192,48642,1,0,0:0:0:0:
256,192,48642,1,0,0:0:0:0:
256,192,48814,128,0,48899:0:0:0:0:
109,192,48814,1,0,0:0:0:0:
36,192,48814,1,0,0:0:0:0:
329,192,48814,1,0,0:0:0:0:
475,192,48814,1,0,0:0:0:0:
402,192,48814,1,0,0:0:0:0:
36,192,48985,1,0,0:0:0:0:
402,192,48985,1,0,0:0:0:0:
182,192,48985,1,0,0:0:0:0:
475,192,49157,128,0,49757:0:0:0:0:
256,192,49157,1,0,0:0:0:0:
329,192,49157,1,0,0:0:0:0:
402,192,49157,1,0,0:0:0:0:
36,192,49157,128,0,49242:0:0:0:0:
256,192,49242,128,0,49328:0:0:0:0:
109,192,49242,1,0,0:0:0:0:
182,192,49328,1,0,0:0:0:0:
329,192,49328,128,0,49414:0:0:0:0:
109,192,49414,1,0,0:0:0:0:
402,192,49414,128,0,49499:0:0:0:0:
182,192,49499,128,0,49757:0:0:0:0:
329,192,49499,1,0,0:0:0:0:
256,192,49499,1,0,0:0:0:0:
36,192,49499,1,0,0:0:0:0:
329,192,49671,1,0,0:0:0:0:
402,192,49671,1,0,0:0:0:0:
36,192,49671,128,0,49757:0:0:0:0:
109,192,49757,1,0,0:0:0:0:
329,192,49757,128,0,49842:0:0:0:0:
36,192,49842,128,0,50442:0:0:0:0:
256,192,49842,1,0,0:0:0:0:
402,192,49842,128,0,49928:0:0:0:0:
475,192,49928,128,0,50014:0:0:0:0:
182,192,49928,1,0,0:0:0:0:
109,192,50014,1,0,0:0:0:0:
402,192,50014,1,0,0:0:0:0:
329,192,50014,1,0,0:0:0:0:
256,192,50014,128,0,50185:0:0:0:0:
329,192,50185,128,0,50442:0:0:0:0:
109,192,50185,1,0,0:0:0:0:
475,192,50185,1,0,0:0:0:0:
182,192,50185,1,0,0:0:0:0:
402,192,50185,1,0,0:0:0:0:
256,192,50271,1,0,0:0:0:0:
182,192,50357,1,0,0:0:0:0:
402,192,50442,1,0,0:0:0:0:
256,192,50528,128,0,51214:0:0:0:0:
182,192,50528,1,0,0:0:0:0:
109,192,50528,1,0,0:0:0:0:
36,192,50528,1,0,0:0:0:0:
475,192,50528,1,0,0:0:0:0:
329,192,50614,1,0,0:0:0:0:
475,192,50614,128,0,50785:0:0:0:0:
109,192,50699,1,0,0:0:0:0:
402,192,50699,1,0,0:0:0:0:
182,192,50785,1,0,0:0:0:0:
109,192,50871,1,0,0:0:0:0:
36,192,50871,1,0,0:0:0:0:
329,192,50871,1,0,0:0:0:0:
402,192,50871,1,0,0:0:0:0:
475,192,50871,1,0,0:0:0:0:
329,192,51042,1,0,0:0:0:0:
36,192,51042,1,0,0:0:0:0:
182,192,51128,1,0,0:0:0:0:
36,192,51128,128,0,51299:0:0:0:0:
109,192,51214,1,0,0:0:0:0:
475,192,51214,1,0,0:0:0:0:
329,192,51299,1,0,0:0:0:0:
182,192,51385,1,0,0:0:0:0:
109,192,51385,1,0,0:0:0:0:
36,192,51385,1,0,0:0:0:0:
475,192,51385,1,0,0:0:0:0:
36,192,51557,128,0,51899:0:0:0:0:
256,192,51557,1,0,0:0:0:0:
182,192,51557,1,0,0:0:0:0:
402,192,51557,1,0,0:0:0:0:
475,192,51557,1,0,0:0:0:0:
109,192,51557,128,0,51599:0:0:0:0:
329,192,51728,1,0,0:0:0:0:
402,192,51728,1,0,0:0:0:0:
182,192,51728,1,0,0:0:0:0:
402,192,51899,128,0,52499:0:0:0:0:
256,192,51899,1,0,0:0:0:0:
109,192,51899,1,0,0:0:0:0:
329,192,51899,1,0,0:0:0:0:
475,192,51899,128,0,51985:0:0:0:0:
182,192,51985,1,0,0:0:0:0:
256,192,51985,128,0,52071:0:0:0:0:
329,192,52071,1,0,0:0:0:0:
109,192,52071,128,0,52157:0:0:0:0:
256,192,52157,1,0,0:0:0:0:
36,192,52157,128,0,52242:0:0:0:0:
182,192,52242,1,0,0:0:0:0:
109,192,52242,1,0,0:0:0:0:
329,192,52242,1,0,0:0:0:0:
475,192,52242,1,0,0:0:0:0:
182,192,52414,1,0,0:0:0:0:
109,192,52414,1,0,0:0:0:0:
36,192,52414,128,0,52499:0:0:0:0:
256,192,52499,1,0,0:0:0:0:
329,192,52499,1,0,0:0:0:0:
182,192,52499,128,0,52585:0:0:0:0:
109,192,52585,128,0,53185:0:0:0:0:
402,192,52585,1,0,0:0:0:0:
475,192,52585,128,0,52671:0:0:0:0:
36,192,52671,1,0,0:0:0:0:
256,192,52671,128,0,52757:0:0:0:0:
182,192,52757,1,0,0:0:0:0:
475,192,52757,1,0,0:0:0:0:
329,192,52757,1,0,0:0:0:0:
402,192,52757,128,0,52842:0:0:0:0:
256,192,52842,128,0,52928:0:0:0:0:
182,192,52928,1,0,0:0:0:0:
36,192,52928,1,0,0:0:0:0:
329,192,52928,1,0,0:0:0:0:
402,192,52928,1,0,0:0:0:0:
475,192,52928,1,0,0:0:0:0:
329,192,53099,1,0,0:0:0:0:
36,192,53099,1,0,0:0:0:0:
256,192,53185,1,0,0:0:0:0:
475,192,53271,128,0,53957:0:0:0:0:
182,192,53271,1,0,0:0:0:0:
109,192,53271,1,0,0:0:0:0:
36,192,53271,1,0,0:0:0:0:
402,192,53271,1,0,0:0:0:0:
329,192,53357,1,0,0:0:0:0:
109,192,53357,128,0,53528:0:0:0:0:
182,192,53442,1,0,0:0:0:0:
402,192,53442,1,0,0:0:0:0:
329,192,53528,1,0,0:0:0:0:
256,192,53614,1,0,0:0:0:0:
182,192,53614,1,0,0:0:0:0:
109,192,53614,1,0,0:0:0:0:
36,192,53614,1,0,0:0:0:0:
402,192,53614,1,0,0:0:0:0:
36,192,53785,1,0,0:0:0:0:
256,192,53785,1,0,0:0:0:0:
329,192,53871,1,0,0:0:0:0:
36,192,53871,128,0,54042:0:0:0:0:
402,192,53957,1,0,0:0:0:0:
182,192,53957,1,0,0:0:0:0:
109,192,54042,1,0,0:0:0:0:
329,192,54128,1,0,0:0:0:0:
402,192,54128,1,0,0:0:0:0:
475,192,54128,1,0,0:0:0:0:
256,192,54128,1,0,0:0:0:0:
109,192,54299,1,0,0:0:0:0:
36,192,54299,1,0,0:0:0:0:
256,192,54299,1,0,0:0:0:0:
402,192,54299,1,0,0:0:0:0:
475,192,54299,1,0,0:0:0:0:
182,192,54299,1,0,0:0:0:0:
329,192,54471,1,0,0:0:0:0:
36,192,54471,1,0,0:0:0:0:
256,192,54471,1,0,0:0:0:0:
182,192,54642,128,0,55242:0:0:0:0:
402,192,54642,1,0,0:0:0:0:
475,192,54642,1,0,0:0:0:0:
329,192,54642,1,0,0:0:0:0:
36,192,54642,128,0,54728:0:0:0:0:
109,192,54728,1,0,0:0:0:0:
475,192,54728,128,0,54814:0:0:0:0:
256,192,54814,1,0,0:0:0:0:
329,192,54814,128,0,54899:0:0:0:0:
475,192,54899,1,0,0:0:0:0:
402,192,54899,128,0,54985:0:0:0:0:
36,192,54985,128,0,55242:0:0:0:0:
256,192,54985,1,0,0:0:0:0:
109,192,54985,1,0,0:0:0:0:
329,192,54985,1,0,0:0:0:0:
402,192,55157,1,0,0:0:0:0:
475,192,55157,1,0,0:0:0:0:
256,192,55157,128,0,55242:0:0:0:0:
109,192,55242,1,0,0:0:0:0:
402,192,55242,128,0,55328:0:0:0:0:
329,192,55328,128,0,55928:0:0:0:0:
475,192,55328,1,0,0:0:0:0:
182,192,55328,128,0,55414:0:0:0:0:
36,192,55414,1,0,0:0:0:0:
109,192,55414,128,0,55499:0:0:0:0:
182,192,55499,1,0,0:0:0:0:
402,192,55499,1,0,0:0:0:0:
475,192,55499,1,0,0:0:0:0:
256,192,55499,128,0,55671:0:0:0:0:
475,192,55671,128,0,55928:0:0:0:0:
182,192,55671,1,0,0:0:0:0:
109,192,55671,1,0,0:0:0:0:
402,192,55671,1,0,0:0:0:0:
36,192,55671,1,0,0:0:0:0:
256,192,55757,1,0,0:0:0:0:
109,192,55842,1,0,0:0:0:0:
36,192,55842,1,0,0:0:0:0:
256,192,55928,1,0,0:0:0:0:
402,192,56014,128,0,56699:0:0:0:0:
475,192,56014,1,0,0:0:0:0:
182,192,56014,1,0,0:0:0:0:
36,192,56014,1,0,0:0:0:0:
109,192,56014,1,0,0:0:0:0:
329,192,56099,1,0,0:0:0:0:
182,192,56099,128,0,56271:0:0:0:0:
475,192,56185,1,0,0:0:0:0:
36,192,56185,1,0,0:0:0:0:
109,192,56271,1,0,0:0:0:0:
329,192,56357,1,0,0:0:0:0:
475,192,56357,1,0,0:0:0:0:
36,192,56357,1,0,0:0:0:0:
182,192,56357,1,0,0:0:0:0:
256,192,56357,1,0,0:0:0:0:
329,192,56528,1,0,0:0:0:0:
36,192,56528,1,0,0:0:0:0:
182,192,56614,1,0,0:0:0:0:
36,192,56614,128,0,56785:0:0:0:0:
256,192,56699,1,0,0:0:0:0:
475,192,56699,1,0,0:0:0:0:
182,192,56785,1,0,0:0:0:0:
256,192,56871,1,0,0:0:0:0:
402,192,56871,1,0,0:0:0:0:
475,192,56871,1,0,0:0:0:0:
36,192,56871,1,0,0:0:0:0:
402,192,57042,1,0,0:0:0:0:
182,192,57042,1,0,0:0:0:0:
329,192,57042,1,0,0:0:0:0:
475,192,57042,1,0,0:0:0:0:
36,192,57042,1,0,0:0:0:0:
109,192,57042,1,0,0:0:0:0:
109,192,57214,1,0,0:0:0:0:
256,192,57214,1,0,0:0:0:0:
475,192,57214,1,0,0:0:0:0:
36,192,57385,128,0,57899:0:0:0:0:
329,192,57385,1,0,0:0:0:0:
256,192,57385,1,0,0:0:0:0:
109,192,57385,1,0,0:0:0:0:
182,192,57385,128,0,57471:0:0:0:0:
402,192,57471,1,0,0:0:0:0:
329,192,57471,128,0,57557:0:0:0:0:
475,192,57557,1,0,0:0:0:0:
256,192,57557,128,0,57642:0:0:0:0:
402,192,57642,1,0,0:0:0:0:
182,192,57642,128,0,57728:0:0:0:0:
329,192,57728,1,0,0:0:0:0:
475,192,57728,1,0,0:0:0:0:
109,192,57728,1,0,0:0:0:0:
256,192,57728,1,0,0:0:0:0:
182,192,57899,1,0,0:0:0:0:
256,192,57899,1,0,0:0:0:0:
402,192,57899,128,0,57985:0:0:0:0:
109,192,57985,1,0,0:0:0:0:
329,192,57985,1,0,0:0:0:0:
182,192,57985,128,0,58071:0:0:0:0:
256,192,58071,128,0,58585:0:0:0:0:
475,192,58071,1,0,0:0:0:0:
36,192,58071,128,0,58157:0:0:0:0:
329,192,58157,1,0,0:0:0:0:
109,192,58157,128,0,58242:0:0:0:0:
36,192,58242,1,0,0:0:0:0:
475,192,58242,1,0,0:0:0:0:
182,192,58242,128,0,58328:0:0:0:0:
402,192,58242,1,0,0:0:0:0:
329,192,58328,128,0,58414:0:0:0:0:
402,192,58414,1,0,0:0:0:0:
475,192,58414,1,0,0:0:0:0:
109,192,58414,1,0,0:0:0:0:
36,192,58414,1,0,0:0:0:0:
182,192,58414,1,0,0:0:0:0:
402,192,58585,1,0,0:0:0:0:
109,192,58585,1,0,0:0:0:0:
182,192,58671,1,0,0:0:0:0:
475,192,58757,128,0,59442:0:0:0:0:
36,192,58757,1,0,0:0:0:0:
109,192,58757,1,0,0:0:0:0:
256,192,58757,1,0,0:0:0:0:
329,192,58757,1,0,0:0:0:0:
402,192,58842,1,0,0:0:0:0:
36,192,58842,128,0,59014:0:0:0:0:
182,192,58928,1,0,0:0:0:0:
256,192,58928,1,0,0:0:0:0:
329,192,59014,1,0,0:0:0:0:
182,192,59099,1,0,0:0:0:0:
402,192,59099,1,0,0:0:0:0:
36,192,59099,1,0,0:0:0:0:
109,192,59099,1,0,0:0:0:0:
256,192,59099,1,0,0:0:0:0:
36,192,59271,1,0,0:0:0:0:
256,192,59271,1,0,0:0:0:0:
109,192,59357,1,0,0:0:0:0:
256,192,59357,128,0,59528:0:0:0:0:
36,192,59442,1,0,0:0:0:0:
329,192,59442,1,0,0:0:0:0:
182,192,59528,1,0,0:0:0:0:
329,192,59614,1,0,0:0:0:0:
402,192,59614,1,0,0:0:0:0:
475,192,59614,1,0,0:0:0:0:
256,192,59614,1,0,0:0:0:0:
256,192,59785,128,0,59871:0:0:0:0:
402,192,59785,1,0,0:0:0:0:
475,192,59785,1,0,0:0:0:0:
182,192,59785,1,0,0:0:0:0:
36,192,59785,1,0,0:0:0:0:
109,192,59785,1,0,0:0:0:0:
475,192,59957,1,0,0:0:0:0:
109,192,59957,1,0,0:0:0:0:
329,192,59957,1,0,0:0:0:0:
36,192,60128,128,0,60728:0:0:0:0:
256,192,60128,1,0,0:0:0:0:
182,192,60128,1,0,0:0:0:0:
109,192,60128,1,0,0:0:0:0:
475,192,60128,128,0,60214:0:0:0:0:
402,192,60214,1,0,0:0:0:0:
256,192,60214,128,0,60299:0:0:0:0:
329,192,60299,1,0,0:0:0:0:
182,192,60299,128,0,60385:0:0:0:0:
402,192,60385,1,0,0:0:0:0:
109,192,60385,128,0,60471:0:0:0:0:
329,192,60471,128,0,60728:0:0:0:0:
182,192,60471,1,0,0:0:0:0:
256,192,60471,1,0,0:0:0:0:
475,192,60471,1,0,0:0:0:0:
182,192,60642,1,0,0:0:0:0:
109,192,60642,1,0,0:0:0:0:
475,192,60642,128,0,60728:0:0:0:0:
402,192,60728,1,0,0:0:0:0:
182,192,60728,128,0,60814:0:0:0:0:
475,192,60814,128,0,61414:0:0:0:0:
256,192,60814,1,0,0:0:0:0:
109,192,60814,128,0,60899:0:0:0:0:
329,192,60899,1,0,0:0:0:0:
36,192,60899,128,0,60985:0:0:0:0:
402,192,60985,1,0,0:0:0:0:
182,192,60985,1,0,0:0:0:0:
109,192,60985,1,0,0:0:0:0:
256,192,60985,128,0,61157:0:0:0:0:
182,192,61157,128,0,61414:0:0:0:0:
402,192,61157,1,0,0:0:0:0:
36,192,61157,1,0,0:0:0:0:
329,192,61157,1,0,0:0:0:0:
109,192,61157,1,0,0:0:0:0:
256,192,61242,1,0,0:0:0:0:
329,192,61328,1,0,0:0:0:0:
109,192,61414,1,0,0:0:0:0:
256,192,61499,128,0,62185:0:0:0:0:
329,192,61499,1,0,0:0:0:0:
402,192,61499,1,0,0:0:0:0:
475,192,61499,1,0,0:0:0:0:
36,192,61499,1,0,0:0:0:0:
182,192,61585,1,0,0:0:0:0:
36,192,61585,128,0,61757:0:0:0:0:
402,192,61671,1,0,0:0:0:0:
109,192,61671,1,0,0:0:0:0:
329,192,61757,1,0,0:0:0:0:
402,192,61842,1,0,0:0:0:0:
475,192,61842,1,0,0:0:0:0:
182,192,61842,1,0,0:0:0:0:
109,192,61842,1,0,0:0:0:0:
36,192,61842,1,0,0:0:0:0:
182,192,62014,1,0,0:0:0:0:
475,192,62014,1,0,0:0:0:0:
329,192,62099,1,0,0:0:0:0:
475,192,62099,128,0,62271:0:0:0:0:
402,192,62185,1,0,0:0:0:0:
36,192,62185,1,0,0:0:0:0:
182,192,62271,1,0,0:0:0:0:
329,192,62357,1,0,0:0:0:0:
402,192,62357,1,0,0:0:0:0:
475,192,62357,1,0,0:0:0:0:
36,192,62357,1,0,0:0:0:0:
475,192,62528,128,0,62871:0:0:0:0:
256,192,62528,1,0,0:0:0:0:
329,192,62528,1,0,0:0:0:0:
402,192,62528,1,0,0:0:0:0:
109,192,62528,1,0,0:0:0:0:
36,192,62528,1,0,0:0:0:0:
182,192,62699,1,0,0:0:0:0:
109,192,62699,1,0,0:0:0:0:
329,192,62699,128,0,62742:0:0:0:0:
109,192,62871,128,0,63471:0:0:0:0:
256,192,62871,1,0,0:0:0:0:
402,192,62871,1,0,0:0:0:0:
182,192,62871,1,0,0:0:0:0:
36,192,62871,128,0,62957:0:0:0:0:
329,192,62957,1,0,0:0:0:0:
256,192,62957,128,0,63042:0:0:0:0:
182,192,63042,1,0,0:0:0:0:
402,192,63042,128,0,63128:0:0:0:0:
256,192,63128,1,0,0:0:0:0:
475,192,63128,128,0,63214:0:0:0:0:
329,192,63214,1,0,0:0:0:0:
402,192,63214,1,0,0:0:0:0:
182,192,63214,1,0,0:0:0:0:
36,192,63214,1,0,0:0:0:0:
329,192,63385,1,0,0:0:0:0:
402,192,63385,1,0,0:0:0:0:
475,192,63385,128,0,63471:0:0:0:0:
256,192,63471,1,0,0:0:0:0:
182,192,63471,1,0,0:0:0:0:
329,192,63471,128,0,63557:0:0:0:0:
402,192,63557,128,0,64157:0:0:0:0:
109,192,63557,1,0,0:0:0:0:
36,192,63557,128,0,63642:0:0:0:0:
475,192,63642,1,0,0:0:0:0:
256,192,63642,128,0,63728:0:0:0:0:
329,192,63728,1,0,0:0:0:0:
182,192,63728,1,0,0:0:0:0:
36,192,63728,1,0,0:0:0:0:
109,192,63728,128,0,63814:0:0:0:0:
256,192,63814,128,0,63899:0:0:0:0:
329,192,63899,1,0,0:0:0:0:
475,192,63899,1,0,0:0:0:0:
182,192,63899,1,0,0:0:0:0:
109,192,63899,1,0,0:0:0:0:
36,192,63899,1,0,0:0:0:0:
182,192,64071,1,0,0:0:0:0:
475,192,64071,1,0,0:0:0:0:
256,192,64157,1,0,0:0:0:0:
36,192,64242,128,0,64928:0:0:0:0:
109,192,64242,1,0,0:0:0:0:
475,192,64242,128,0,65614:0:0:0:0:
402,192,64242,128,0,64285:0:0:0:0:
182,192,64328,1,0,0:0:0:0:
329,192,64328,128,0,64371:0:0:0:0:
256,192,64414,1,0,0:0:0:0:
109,192,64499,5,0,0:0:0:0:
329,192,64585,1,0,0:0:0:0:
402,192,64585,1,0,0:0:0:0:
402,192,64757,1,0,0:0:0:0:
109,192,64757,128,0,64799:0:0:0:0:
329,192,64842,1,0,0:0:0:0:
182,192,64842,128,0,64885:0:0:0:0:
256,192,64928,1,0,0:0:0:0:
402,192,65014,1,0,0:0:0:0:
256,192,65099,1,0,0:0:0:0:
109,192,65099,1,0,0:0:0:0:
402,192,65185,1,0,0:0:0:0:
182,192,65271,1,0,0:0:0:0:
36,192,65271,1,0,0:0:0:0:
329,192,65357,1,0,0:0:0:0:
182,192,65442,1,0,0:0:0:0:
329,192,65528,1,0,0:0:0:0:
256,192,65614,128,0,66214:0:0:0:0:
36,192,65614,128,0,65785:0:0:0:0:
109,192,65614,1,0,0:0:0:0:
475,192,65785,128,0,65871:0:0:0:0:
402,192,65785,1,0,0:0:0:0:
36,192,65871,128,0,65957:0:0:0:0:
182,192,65871,1,0,0:0:0:0:
475,192,65957,128,0,66042:0:0:0:0:
329,192,65957,1,0,0:0:0:0:
36,192,66042,128,0,66214:0:0:0:0:
109,192,66042,1,0,0:0:0:0:
475,192,66128,128,0,66385:0:0:0:0:
402,192,66128,1,0,0:0:0:0:
36,192,66299,128,0,66471:0:0:0:0:
256,192,66299,1,0,0:0:0:0:
182,192,66299,1,0,0:0:0:0:
475,192,66471,128,0,66557:0:0:0:0:
402,192,66471,1,0,0:0:0:0:
36,192,66557,128,0,66642:0:0:0:0:
109,192,66557,1,0,0:0:0:0:
402,192,66642,128,0,66728:0:0:0:0:
329,192,66642,1,0,0:0:0:0:
109,192,66728,128,0,66814:0:0:0:0:
182,192,66728,1,0,0:0:0:0:
329,192,66814,128,0,66899:0:0:0:0:
256,192,66814,1,0,0:0:0:0:
475,192,66985,5,0,0:0:0:0:
36,192,66985,1,0,0:0:0:0:
402,192,66985,1,0,0:0:0:0:
256,192,66985,1,0,0:0:0:0:
109,192,67014,1,0,0:0:0:0:
182,192,67042,1,0,0:0:0:0:
402,192,67071,1,0,0:0:0:0:
329,192,67114,1,0,0:0:0:0:
256,192,67157,1,0,0:0:0:0:
475,192,67242,1,0,0:0:0:0:
256,192,67242,1,0,0:0:0:0:
36,192,67328,1,0,0:0:0:0:
256,192,67328,1,0,0:0:0:0:
109,192,67328,1,0,0:0:0:0:
182,192,67328,1,0,0:0:0:0:
329,192,67349,1,0,0:0:0:0:
402,192,67371,1,0,0:0:0:0:
475,192,67392,1,0,0:0:0:0:
36,192,67414,1,0,0:0:0:0:
329,192,67499,1,0,0:0:0:0:
182,192,67499,1,0,0:0:0:0:
256,192,67521,1,0,0:0:0:0:
182,192,67585,1,0,0:0:0:0:
329,192,67585,1,0,0:0:0:0:
256,192,67607,1,0,0:0:0:0:
402,192,67671,1,0,0:0:0:0:
109,192,67671,1,0,0:0:0:0:
475,192,67757,1,0,0:0:0:0:
182,192,67757,1,0,0:0:0:0:
36,192,67757,1,0,0:0:0:0:
475,192,67842,1,0,0:0:0:0:
256,192,67842,1,0,0:0:0:0:
329,192,67842,1,0,0:0:0:0:
402,192,67842,1,0,0:0:0:0:
256,192,67928,1,0,0:0:0:0:
109,192,67928,1,0,0:0:0:0:
36,192,67928,1,0,0:0:0:0:
36,192,68014,1,0,0:0:0:0:
402,192,68014,1,0,0:0:0:0:
475,192,68014,1,0,0:0:0:0:
329,192,68014,1,0,0:0:0:0:
109,192,68042,1,0,0:0:0:0:
182,192,68071,1,0,0:0:0:0:
256,192,68099,1,0,0:0:0:0:
475,192,68128,1,0,0:0:0:0:
402,192,68157,1,0,0:0:0:0:
329,192,68185,1,0,0:0:0:0:
256,192,68214,1,0,0:0:0:0:
109,192,68271,1,0,0:0:0:0:
402,192,68271,1,0,0:0:0:0:
182,192,68357,1,0,0:0:0:0:
36,192,68357,1,0,0:0:0:0:
109,192,68357,1,0,0:0:0:0:
329,192,68378,1,0,0:0:0:0:
475,192,68399,1,0,0:0:0:0:
402,192,68421,1,0,0:0:0:0:
256,192,68442,1,0,0:0:0:0:
109,192,68464,1,0,0:0:0:0:
36,192,68485,1,0,0:0:0:0:
182,192,68507,1,0,0:0:0:0:
329,192,68528,1,0,0:0:0:0:
402,192,68557,1,0,0:0:0:0:
256,192,68585,1,0,0:0:0:0:
109,192,68614,1,0,0:0:0:0:
182,192,68642,1,0,0:0:0:0:
329,192,68699,1,0,0:0:0:0:
402,192,68699,1,0,0:0:0:0:
475,192,68699,1,0,0:0:0:0:
36,192,68699,1,0,0:0:0:0:
109,192,68721,1,0,0:0:0:0:
182,192,68742,1,0,0:0:0:0:
256,192,68764,1,0,0:0:0:0:
329,192,68785,1,0,0:0:0:0:
36,192,68871,1,0,0:0:0:0:
475,192,68871,1,0,0:0:0:0:
256,192,68892,1,0,0:0:0:0:
475,192,68957,1,0,0:0:0:0:
36,192,68957,1,0,0:0:0:0:
256,192,68978,1,0,0:0:0:0:
182,192,69042,1,0,0:0:0:0:
329,192,69071,1,0,0:0:0:0:
109,192,69099,1,0,0:0:0:0:
402,192,69128,1,0,0:0:0:0:
182,192,69157,1,0,0:0:0:0:
329,192,69185,1,0,0:0:0:0:
256,192,69214,1,0,0:0:0:0:
36,192,69214,1,0,0:0:0:0:
109,192,69214,1,0,0:0:0:0:
475,192,69214,1,0,0:0:0:0:
402,192,69299,1,0,0:0:0:0:
475,192,69299,1,0,0:0:0:0:
329,192,69299,1,0,0:0:0:0:
109,192,69385,1,0,0:0:0:0:
36,192,69385,1,0,0:0:0:0:
182,192,69385,1,0,0:0:0:0:
256,192,69385,1,0,0:0:0:0:
402,192,69414,1,0,0:0:0:0:
475,192,69442,1,0,0:0:0:0:
256,192,69471,1,0,0:0:0:0:
36,192,69499,1,0,0:0:0:0:
109,192,69528,1,0,0:0:0:0:
329,192,69557,1,0,0:0:0:0:
402,192,69557,1,0,0:0:0:0:
402,192,69642,1,0,0:0:0:0:
329,192,69642,1,0,0:0:0:0:
182,192,69728,1,0,0:0:0:0:
36,192,69728,1,0,0:0:0:0:
109,192,69728,1,0,0:0:0:0:
475,192,69728,1,0,0:0:0:0:
256,192,69757,1,0,0:0:0:0:
329,192,69785,1,0,0:0:0:0:
182,192,69814,1,0,0:0:0:0:
109,192,69857,1,0,0:0:0:0:
36,192,69899,1,0,0:0:0:0:
36,192,69985,1,0,0:0:0:0:
329,192,69985,1,0,0:0:0:0:
36,192,70071,1,0,0:0:0:0:
475,192,70071,1,0,0:0:0:0:
182,192,70071,1,0,0:0:0:0:
109,192,70071,1,0,0:0:0:0:
402,192,70092,1,0,0:0:0:0:
329,192,70114,1,0,0:0:0:0:
256,192,70135,1,0,0:0:0:0:
182,192,70157,1,0,0:0:0:0:
109,192,70242,1,0,0:0:0:0:
402,192,70242,1,0,0:0:0:0:
256,192,70264,1,0,0:0:0:0:
109,192,70328,1,0,0:0:0:0:
402,192,70328,1,0,0:0:0:0:
256,192,70349,1,0,0:0:0:0:
329,192,70414,1,0,0:0:0:0:
182,192,70414,1,0,0:0:0:0:
36,192,70499,1,0,0:0:0:0:
475,192,70499,1,0,0:0:0:0:
402,192,70499,1,0,0:0:0:0:
182,192,70585,1,0,0:0:0:0:
475,192,70585,1,0,0:0:0:0:
256,192,70585,1,0,0:0:0:0:
329,192,70585,1,0,0:0:0:0:
182,192,70671,1,0,0:0:0:0:
109,192,70671,1,0,0:0:0:0:
36,192,70671,1,0,0:0:0:0:
36,192,70757,1,0,0:0:0:0:
402,192,70757,1,0,0:0:0:0:
475,192,70757,1,0,0:0:0:0:
329,192,70757,1,0,0:0:0:0:
109,192,70785,1,0,0:0:0:0:
256,192,70814,1,0,0:0:0:0:
182,192,70842,1,0,0:0:0:0:
475,192,70871,1,0,0:0:0:0:
402,192,70899,1,0,0:0:0:0:
256,192,70928,1,0,0:0:0:0:
329,192,70957,1,0,0:0:0:0:
109,192,71014,1,0,0:0:0:0:
402,192,71014,1,0,0:0:0:0:
256,192,71099,1,0,0:0:0:0:
182,192,71099,1,0,0:0:0:0:
36,192,71099,1,0,0:0:0:0:
475,192,71099,1,0,0:0:0:0:
329,192,71099,1,0,0:0:0:0:
182,192,71185,1,0,0:0:0:0:
36,192,71185,1,0,0:0:0:0:
109,192,71271,1,0,0:0:0:0:
36,192,71271,1,0,0:0:0:0:
256,192,71328,1,0,0:0:0:0:
329,192,71328,1,0,0:0:0:0:
109,192,71385,1,0,0:0:0:0:
36,192,71385,1,0,0:0:0:0:
475,192,71442,1,0,0:0:0:0:
182,192,71442,1,0,0:0:0:0:
256,192,71442,1,0,0:0:0:0:
402,192,71442,1,0,0:0:0:0:
109,192,71485,1,0,0:0:0:0:
182,192,71528,1,0,0:0:0:0:
256,192,71571,1,0,0:0:0:0:
475,192,71614,1,0,0:0:0:0:
329,192,71614,1,0,0:0:0:0:
256,192,71699,1,0,0:0:0:0:
402,192,71699,1,0,0:0:0:0:
182,192,71785,1,0,0:0:0:0:
329,192,71814,1,0,0:0:0:0:
36,192,71842,1,0,0:0:0:0:
475,192,71871,1,0,0:0:0:0:
182,192,71899,1,0,0:0:0:0:
329,192,71928,1,0,0:0:0:0:
256,192,71957,1,0,0:0:0:0:
109,192,71957,1,0,0:0:0:0:
36,192,71957,1,0,0:0:0:0:
475,192,71957,1,0,0:0:0:0:
256,192,72042,1,0,0:0:0:0:
36,192,72042,1,0,0:0:0:0:
182,192,72042,1,0,0:0:0:0:
182,192,72128,1,0,0:0:0:0:
329,192,72128,1,0,0:0:0:0:
402,192,72128,1,0,0:0:0:0:
475,192,72128,1,0,0:0:0:0:
109,192,72157,1,0,0:0:0:0:
36,192,72185,1,0,0:0:0:0:
256,192,72214,1,0,0:0:0:0:
475,192,72242,1,0,0:0:0:0:
402,192,72271,1,0,0:0:0:0:
109,192,72299,128,0,72342:0:0:0:0:
329,192,72299,128,0,72342:0:0:0:0:
182,192,72385,128,0,72428:0:0:0:0:
402,192,72385,128,0,72428:0:0:0:0:
36,192,72471,5,0,0:0:0:0:
475,192,72471,1,0,0:0:0:0:
109,192,72471,1,0,0:0:0:0:
256,192,72471,1,0,0:0:0:0:
402,192,72499,1,0,0:0:0:0:
329,192,72528,1,0,0:0:0:0:
109,192,72557,1,0,0:0:0:0:
182,192,72599,1,0,0:0:0:0:
256,192,72642,1,0,0:0:0:0:
36,192,72728,1,0,0:0:0:0:
256,192,72728,1,0,0:0:0:0:
475,192,72814,1,0,0:0:0:0:
256,192,72814,1,0,0:0:0:0:
402,192,72814,1,0,0:0:0:0:
329,192,72814,1,0,0:0:0:0:
182,192,72835,1,0,0:0:0:0:
109,192,72857,1,0,0:0:0:0:
36,192,72878,1,0,0:0:0:0:
475,192,72899,1,0,0:0:0:0:
182,192,72985,1,0,0:0:0:0:
329,192,72985,1,0,0:0:0:0:
256,192,73007,1,0,0:0:0:0:
329,192,73071,1,0,0:0:0:0:
182,192,73071,1,0,0:0:0:0:
256,192,73092,1,0,0:0:0:0:
109,192,73157,1,0,0:0:0:0:
402,192,73157,1,0,0:0:0:0:
36,192,73242,1,0,0:0:0:0:
329,192,73242,1,0,0:0:0:0:
475,192,73242,1,0,0:0:0:0:
36,192,73328,1,0,0:0:0:0:
256,192,73328,1,0,0:0:0:0:
182,192,73328,1,0,0:0:0:0:
109,192,73328,1,0,0:0:0:0:
256,192,73414,1,0,0:0:0:0:
402,192,73414,1,0,0:0:0:0:
475,192,73414,1,0,0:0:0:0:
475,192,73499,1,0,0:0:0:0:
109,192,73499,1,0,0:0:0:0:
36,192,73499,1,0,0:0:0:0:
182,192,73499,1,0,0:0:0:0:
402,192,73528,1,0,0:0:0:0:
256,192,73557,1,0,0:0:0:0:
329,192,73585,1,0,0:0:0:0:
36,192,73614,1,0,0:0:0:0:
109,192,73642,1,0,0:0:0:0:
256,192,73671,1,0,0:0:0:0:
182,192,73699,1,0,0:0:0:0:
402,192,73757,1,0,0:0:0:0:
109,192,73757,1,0,0:0:0:0:
329,192,73842,1,0,0:0:0:0:
475,192,73842,1,0,0:0:0:0:
402,192,73842,1,0,0:0:0:0:
182,192,73864,1,0,0:0:0:0:
36,192,73885,1,0,0:0:0:0:
109,192,73907,1,0,0:0:0:0:
256,192,73928,1,0,0:0:0:0:
402,192,73949,1,0,0:0:0:0:
475,192,73971,1,0,0:0:0:0:
329,192,73992,1,0,0:0:0:0:
182,192,74014,1,0,0:0:0:0:
109,192,74042,1,0,0:0:0:0:
256,192,74071,1,0,0:0:0:0:
402,192,74099,1,0,0:0:0:0:
329,192,74128,1,0,0:0:0:0:
182,192,74185,1,0,0:0:0:0:
109,192,74185,1,0,0:0:0:0:
36,192,74185,1,0,0:0:0:0:
475,192,74185,1,0,0:0:0:0:
402,192,74207,1,0,0:0:0:0:
329,192,74228,1,0,0:0:0:0:
256,192,74249,1,0,0:0:0:0:
182,192,74271,1,0,0:0:0:0:
475,192,74357,1,0,0:0:0:0:
36,192,74357,1,0,0:0:0:0:
256,192,74378,1,0,0:0:0:0:
36,192,74442,1,0,0:0:0:0:
475,192,74442,1,0,0:0:0:0:
256,192,74464,1,0,0:0:0:0:
329,192,74528,1,0,0:0:0:0:
182,192,74557,1,0,0:0:0:0:
402,192,74585,1,0,0:0:0:0:
109,192,74614,1,0,0:0:0:0:
329,192,74642,1,0,0:0:0:0:
182,192,74671,1,0,0:0:0:0:
256,192,74699,1,0,0:0:0:0:
475,192,74699,1,0,0:0:0:0:
402,192,74699,1,0,0:0:0:0:
36,192,74699,1,0,0:0:0:0:
109,192,74785,1,0,0:0:0:0:
36,192,74785,1,0,0:0:0:0:
182,192,74785,1,0,0:0:0:0:
402,192,74871,1,0,0:0:0:0:
475,192,74871,1,0,0:0:0:0:
329,192,74871,1,0,0:0:0:0:
256,192,74871,1,0,0:0:0:0:
109,192,74899,1,0,0:0:0:0:
36,192,74928,1,0,0:0:0:0:
256,192,74957,1,0,0:0:0:0:
475,192,74985,1,0,0:0:0:0:
402,192,75014,1,0,0:0:0:0:
182,192,75042,1,0,0:0:0:0:
109,192,75042,1,0,0:0:0:0:
109,192,75128,1,0,0:0:0:0:
182,192,75128,1,0,0:0:0:0:
329,192,75214,1,0,0:0:0:0:
475,192,75214,1,0,0:0:0:0:
402,192,75214,1,0,0:0:0:0:
36,192,75214,1,0,0:0:0:0:
256,192,75242,1,0,0:0:0:0:
182,192,75271,1,0,0:0:0:0:
329,192,75299,1,0,0:0:0:0:
402,192,75342,1,0,0:0:0:0:
475,192,75385,1,0,0:0:0:0:
475,192,75471,1,0,0:0:0:0:
182,192,75471,1,0,0:0:0:0:
475,192,75557,1,0,0:0:0:0:
36,192,75557,1,0,0:0:0:0:
329,192,75557,1,0,0:0:0:0:
402,192,75557,1,0,0:0:0:0:
109,192,75578,1,0,0:0:0:0:
182,192,75599,1,0,0:0:0:0:
256,192,75621,1,0,0:0:0:0:
329,192,75642,1,0,0:0:0:0:
402,192,75728,1,0,0:0:0:0:
109,192,75728,1,0,0:0:0:0:
256,192,75749,1,0,0:0:0:0:
402,192,75814,1,0,0:0:0:0:
109,192,75814,1,0,0:0:0:0:
256,192,75835,1,0,0:0:0:0:
182,192,75899,1,0,0:0:0:0:
329,192,75899,1,0,0:0:0:0:
475,192,75985,1,0,0:0:0:0:
36,192,75985,1,0,0:0:0:0:
109,192,75985,1,0,0:0:0:0:
329,192,76071,1,0,0:0:0:0:
36,192,76071,1,0,0:0:0:0:
256,192,76071,1,0,0:0:0:0:
182,192,76071,1,0,0:0:0:0:
329,192,76157,1,0,0:0:0:0:
402,192,76157,1,0,0:0:0:0:
475,192,76157,1,0,0:0:0:0:
475,192,76242,1,0,0:0:0:0:
109,192,76242,1,0,0:0:0:0:
36,192,76242,1,0,0:0:0:0:
182,192,76242,1,0,0:0:0:0:
402,192,76271,1,0,0:0:0:0:
329,192,76299,1,0,0:0:0:0:
256,192,76328,1,0,0:0:0:0:
36,192,76357,1,0,0:0:0:0:
109,192,76385,1,0,0:0:0:0:
182,192,76414,1,0,0:0:0:0:
256,192,76442,1,0,0:0:0:0:
402,192,76499,1,0,0:0:0:0:
109,192,76499,1,0,0:0:0:0:
256,192,76585,1,0,0:0:0:0:
329,192,76585,1,0,0:0:0:0:
475,192,76585,1,0,0:0:0:0:
36,192,76585,1,0,0:0:0:0:
182,192,76585,1,0,0:0:0:0:
329,192,76671,1,0,0:0:0:0:
475,192,76671,1,0,0:0:0:0:
402,192,76757,1,0,0:0:0:0:
475,192,76757,1,0,0:0:0:0:
256,192,76814,1,0,0:0:0:0:
182,192,76814,1,0,0:0:0:0:
402,192,76871,1,0,0:0:0:0:
475,192,76871,1,0,0:0:0:0:
36,192,76928,1,0,0:0:0:0:
329,192,76928,1,0,0:0:0:0:
256,192,76928,1,0,0:0:0:0:
109,192,76928,1,0,0:0:0:0:
402,192,76971,1,0,0:0:0:0:
329,192,77014,1,0,0:0:0:0:
256,192,77057,1,0,0:0:0:0:
36,192,77099,1,0,0:0:0:0:
182,192,77099,1,0,0:0:0:0:
256,192,77185,1,0,0:0:0:0:
109,192,77185,1,0,0:0:0:0:
329,192,77271,1,0,0:0:0:0:
182,192,77299,1,0,0:0:0:0:
475,192,77328,1,0,0:0:0:0:
36,192,77357,1,0,0:0:0:0:
329,192,77385,1,0,0:0:0:0:
182,192,77414,1,0,0:0:0:0:
256,192,77442,1,0,0:0:0:0:
402,192,77442,1,0,0:0:0:0:
475,192,77442,1,0,0:0:0:0:
36,192,77442,1,0,0:0:0:0:
256,192,77528,1,0,0:0:0:0:
475,192,77528,1,0,0:0:0:0:
329,192,77528,1,0,0:0:0:0:
182,192,77614,128,0,77657:0:0:0:0:
109,192,77614,128,0,77657:0:0:0:0:
36,192,77614,128,0,77657:0:0:0:0:
329,192,77614,128,0,77657:0:0:0:0:
402,192,77614,128,0,77657:0:0:0:0:
475,192,77614,128,0,77657:0:0:0:0:
256,192,77957,128,0,78128:0:0:0:0:
329,192,77957,128,0,78042:0:0:0:0:
402,192,77957,128,0,77999:0:0:0:0:
475,192,77957,1,0,0:0:0:0:
36,192,77957,1,0,0:0:0:0:
109,192,77999,1,0,0:0:0:0:
182,192,78042,128,0,78171:0:0:0:0:
109,192,78085,128,0,78257:0:0:0:0:
402,192,78128,1,0,0:0:0:0:
475,192,78128,1,0,0:0:0:0:
36,192,78128,128,0,78214:0:0:0:0:
402,192,78214,1,0,0:0:0:0:
329,192,78214,1,0,0:0:0:0:
182,192,78257,128,0,78299:0:0:0:0:
402,192,78299,128,0,78342:0:0:0:0:
36,192,78299,128,0,78342:0:0:0:0:
475,192,78299,128,0,78471:0:0:0:0:
256,192,78299,128,0,78557:0:0:0:0:
109,192,78342,128,0,78385:0:0:0:0:
182,192,78385,128,0,78557:0:0:0:0:
109,192,78471,128,0,78557:0:0:0:0:
36,192,78471,128,0,78685:0:0:0:0:
329,192,78471,1,0,0:0:0:0:
329,192,78557,128,0,78771:0:0:0:0:
475,192,78557,1,0,0:0:0:0:
109,192,78642,128,0,78685:0:0:0:0:
182,192,78642,128,0,78728:0:0:0:0:
256,192,78728,1,0,0:0:0:0:
402,192,78728,128,0,78771:0:0:0:0:
475,192,78728,128,0,78771:0:0:0:0:
256,192,78814,128,0,78985:0:0:0:0:
109,192,78814,128,0,78899:0:0:0:0:
36,192,78814,128,0,78857:0:0:0:0:
475,192,78814,1,0,0:0:0:0:
329,192,78899,128,0,78942:0:0:0:0:
402,192,78899,128,0,78942:0:0:0:0:
36,192,78985,128,0,79242:0:0:0:0:
109,192,78985,1,0,0:0:0:0:
182,192,78985,1,0,0:0:0:0:
475,192,78985,128,0,79242:0:0:0:0:
402,192,79014,128,0,79099:0:0:0:0:
329,192,79042,128,0,79128:0:0:0:0:
256,192,79071,128,0,79157:0:0:0:0:
182,192,79099,128,0,79185:0:0:0:0:
109,192,79128,128,0,79214:0:0:0:0:
402,192,79157,1,0,0:0:0:0:
256,192,79242,1,0,0:0:0:0:
36,192,79328,128,0,79414:0:0:0:0:
402,192,79328,128,0,79371:0:0:0:0:
329,192,79328,1,0,0:0:0:0:
475,192,79328,128,0,79542:0:0:0:0:
109,192,79357,128,0,79442:0:0:0:0:
182,192,79385,128,0,79499:0:0:0:0:
256,192,79414,128,0,79928:0:0:0:0:
329,192,79457,1,0,0:0:0:0:
36,192,79499,1,0,0:0:0:0:
402,192,79499,128,0,79585:0:0:0:0:
329,192,79542,128,0,79671:0:0:0:0:
36,192,79585,1,0,0:0:0:0:
109,192,79585,1,0,0:0:0:0:
109,192,79671,128,0,79714:0:0:0:0:
36,192,79671,128,0,79842:0:0:0:0:
182,192,79671,128,0,79714:0:0:0:0:
402,192,79671,128,0,79714:0:0:0:0:
475,192,79714,128,0,79757:0:0:0:0:
329,192,79757,128,0,79928:0:0:0:0:
182,192,79842,1,0,0:0:0:0:
402,192,79842,128,0,79928:0:0:0:0:
475,192,79842,128,0,80057:0:0:0:0:
182,192,79928,128,0,80099:0:0:0:0:
36,192,79928,1,0,0:0:0:0:
402,192,80014,128,0,80057:0:0:0:0:
329,192,80014,128,0,80185:0:0:0:0:
109,192,80057,128,0,80228:0:0:0:0:
36,192,80099,128,0,80185:0:0:0:0:
256,192,80099,1,0,0:0:0:0:
402,192,80142,128,0,80314:0:0:0:0:
475,192,80185,128,0,80271:0:0:0:0:
256,192,80185,128,0,80228:0:0:0:0:
182,192,80228,128,0,80314:0:0:0:0:
329,192,80271,128,0,80357:0:0:0:0:
36,192,80357,128,0,80485:0:0:0:0:
256,192,80357,128,0,80614:0:0:0:0:
475,192,80357,1,0,0:0:0:0:
109,192,80378,1,0,0:0:0:0:
402,192,80399,1,0,0:0:0:0:
182,192,80399,128,0,80528:0:0:0:0:
329,192,80442,128,0,80571:0:0:0:0:
475,192,80485,128,0,80614:0:0:0:0:
36,192,80528,1,0,0:0:0:0:
109,192,80614,1,0,0:0:0:0:
475,192,80699,128,0,80871:0:0:0:0:
402,192,80699,128,0,80785:0:0:0:0:
329,192,80699,128,0,80742:0:0:0:0:
256,192,80699,1,0,0:0:0:0:
36,192,80699,128,0,80871:0:0:0:0:
182,192,80742,1,0,0:0:0:0:
109,192,80785,128,0,80914:0:0:0:0:
182,192,80828,128,0,80999:0:0:0:0:
256,192,80871,128,0,81085:0:0:0:0:
329,192,80871,1,0,0:0:0:0:
329,192,80957,1,0,0:0:0:0:
402,192,80957,1,0,0:0:0:0:
109,192,80999,128,0,81042:0:0:0:0:
402,192,81042,128,0,81085:0:0:0:0:
475,192,81042,128,0,81085:0:0:0:0:
329,192,81042,128,0,81214:0:0:0:0:
36,192,81042,128,0,81299:0:0:0:0:
182,192,81085,128,0,81128:0:0:0:0:
109,192,81128,128,0,81299:0:0:0:0:
475,192,81214,1,0,0:0:0:0:
182,192,81214,128,0,81299:0:0:0:0:
256,192,81214,128,0,81428:0:0:0:0:
329,192,81299,1,0,0:0:0:0:
475,192,81299,128,0,81514:0:0:0:0:
182,192,81385,128,0,81428:0:0:0:0:
109,192,81385,128,0,81471:0:0:0:0:
402,192,81471,128,0,81514:0:0:0:0:
36,192,81471,1,0,0:0:0:0:
329,192,81471,128,0,81514:0:0:0:0:
36,192,81557,128,0,81728:0:0:0:0:
256,192,81557,128,0,81599:0:0:0:0:
182,192,81557,128,0,81642:0:0:0:0:
329,192,81557,1,0,0:0:0:0:
475,192,81642,128,0,81685:0:0:0:0:
402,192,81642,128,0,81685:0:0:0:0:
182,192,81728,1,0,0:0:0:0:
109,192,81728,1,0,0:0:0:0:
256,192,81728,128,0,81985:0:0:0:0:
329,192,81728,128,0,81842:0:0:0:0:
402,192,81757,128,0,81871:0:0:0:0:
475,192,81785,128,0,81899:0:0:0:0:
36,192,81814,128,0,81928:0:0:0:0:
109,192,81842,128,0,81957:0:0:0:0:
182,192,81871,128,0,81985:0:0:0:0:
329,192,81985,1,0,0:0:0:0:
402,192,81985,1,0,0:0:0:0:
475,192,82071,128,0,82128:0:0:0:0:
402,192,82071,128,0,82185:0:0:0:0:
182,192,82071,128,0,82157:0:0:0:0:
36,192,82071,1,0,0:0:0:0:
329,192,82128,128,0,82299:0:0:0:0:
109,192,82157,128,0,82199:0:0:0:0:
256,192,82185,128,0,82242:0:0:0:0:
36,192,82199,128,0,82242:0:0:0:0:
402,192,82242,128,0,82414:0:0:0:0:
182,192,82242,1,0,0:0:0:0:
475,192,82299,128,0,82357:0:0:0:0:
182,192,82328,128,0,82414:0:0:0:0:
109,192,82328,1,0,0:0:0:0:
329,192,82357,128,0,82471:0:0:0:0:
256,192,82414,128,0,82671:0:0:0:0:
36,192,82414,128,0,82499:0:0:0:0:
475,192,82457,1,0,0:0:0:0:
109,192,82471,128,0,82557:0:0:0:0:
402,192,82499,1,0,0:0:0:0:
182,192,82528,128,0,82614:0:0:0:0:
329,192,82542,128,0,82757:0:0:0:0:
402,192,82585,128,0,82699:0:0:0:0:
36,192,82585,1,0,0:0:0:0:
475,192,82642,1,0,0:0:0:0:
36,192,82671,128,0,82757:0:0:0:0:
109,192,82671,1,0,0:0:0:0:
256,192,82757,128,0,82814:0:0:0:0:
475,192,82757,128,0,82814:0:0:0:0:
182,192,82785,128,0,82871:0:0:0:0:
109,192,82814,128,0,82985:0:0:0:0:
402,192,82814,128,0,82871:0:0:0:0:
36,192,82842,128,0,82928:0:0:0:0:
329,192,82871,128,0,82928:0:0:0:0:
182,192,82928,128,0,83185:0:0:0:0:
402,192,82928,1,0,0:0:0:0:
475,192,82928,128,0,83014:0:0:0:0:
256,192,82985,128,0,83071:0:0:0:0:
329,192,83014,1,0,0:0:0:0:
109,192,83042,128,0,83128:0:0:0:0:
36,192,83099,1,0,0:0:0:0:
475,192,83099,1,0,0:0:0:0:
402,192,83099,128,0,83399:0:0:0:0:
256,192,83142,128,0,83228:0:0:0:0:
329,192,83185,128,0,83399:0:0:0:0:
36,192,83228,128,0,83314:0:0:0:0:
109,192,83271,128,0,83314:0:0:0:0:
475,192,83271,128,0,83399:0:0:0:0:
256,192,83314,128,0,83399:0:0:0:0:
182,192,83357,128,0,83399:0:0:0:0:
36,192,83442,128,0,83614:0:0:0:0:
109,192,83442,128,0,83528:0:0:0:0:
182,192,83442,128,0,83485:0:0:0:0:
256,192,83442,1,0,0:0:0:0:
475,192,83442,128,0,83614:0:0:0:0:
329,192,83485,1,0,0:0:0:0:
402,192,83528,128,0,83657:0:0:0:0:
329,192,83571,128,0,83742:0:0:0:0:
256,192,83614,128,0,83828:0:0:0:0:
182,192,83614,1,0,0:0:0:0:
182,192,83699,1,0,0:0:0:0:
109,192,83699,1,0,0:0:0:0:
402,192,83742,128,0,83785:0:0:0:0:
109,192,83785,128,0,83828:0:0:0:0:
36,192,83785,128,0,83828:0:0:0:0:
182,192,83785,128,0,83957:0:0:0:0:
475,192,83785,128,0,84042:0:0:0:0:
329,192,83828,128,0,83871:0:0:0:0:
402,192,83871,128,0,84042:0:0:0:0:
36,192,83957,1,0,0:0:0:0:
329,192,83957,128,0,84042:0:0:0:0:
256,192,83957,128,0,84171:0:0:0:0:
182,192,84042,1,0,0:0:0:0:
36,192,84042,128,0,84257:0:0:0:0:
329,192,84128,128,0,84171:0:0:0:0:
402,192,84128,128,0,84214:0:0:0:0:
109,192,84214,128,0,84257:0:0:0:0:
475,192,84214,1,0,0:0:0:0:
182,192,84214,128,0,84257:0:0:0:0:
475,192,84299,128,0,84471:0:0:0:0:
256,192,84299,128,0,84342:0:0:0:0:
329,192,84299,128,0,84385:0:0:0:0:
182,192,84299,1,0,0:0:0:0:
36,192,84385,128,0,84428:0:0:0:0:
109,192,84385,128,0,84428:0:0:0:0:
402,192,84471,1,0,0:0:0:0:
182,192,84471,128,0,84585:0:0:0:0:
329,192,84471,1,0,0:0:0:0:
256,192,84471,128,0,84728:0:0:0:0:
109,192,84499,128,0,84614:0:0:0:0:
36,192,84528,128,0,84642:0:0:0:0:
475,192,84557,128,0,84671:0:0:0:0:
402,192,84585,128,0,84699:0:0:0:0:
329,192,84614,128,0,84728:0:0:0:0:
182,192,84728,1,0,0:0:0:0:
109,192,84728,1,0,0:0:0:0:
475,192,84814,128,0,84899:0:0:0:0:
109,192,84814,128,0,84857:0:0:0:0:
256,192,84814,1,0,0:0:0:0:
36,192,84814,128,0,85028:0:0:0:0:
402,192,84842,128,0,84928:0:0:0:0:
329,192,84871,128,0,84985:0:0:0:0:
256,192,84899,128,0,85414:0:0:0:0:
182,192,84942,1,0,0:0:0:0:
475,192,84985,1,0,0:0:0:0:
109,192,84985,128,0,85071:0:0:0:0:
182,192,85028,128,0,85157:0:0:0:0:
475,192,85071,1,0,0:0:0:0:
402,192,85071,1,0,0:0:0:0:
402,192,85157,128,0,85199:0:0:0:0:
475,192,85157,128,0,85328:0:0:0:0:
329,192,85157,128,0,85199:0:0:0:0:
109,192,85157,128,0,85199:0:0:0:0:
36,192,85199,128,0,85242:0:0:0:0:
182,192,85242,128,0,85414:0:0:0:0:
329,192,85328,1,0,0:0:0:0:
109,192,85328,128,0,85414:0:0:0:0:
36,192,85328,128,0,85542:0:0:0:0:
329,192,85414,128,0,85585:0:0:0:0:
475,192,85414,1,0,0:0:0:0:
109,192,85499,128,0,85542:0:0:0:0:
182,192,85499,128,0,85671:0:0:0:0:
402,192,85542,128,0,85714:0:0:0:0:
475,192,85585,128,0,85671:0:0:0:0:
256,192,85585,1,0,0:0:0:0:
109,192,85628,128,0,85799:0:0:0:0:
36,192,85671,128,0,85757:0:0:0:0:
256,192,85671,128,0,85714:0:0:0:0:
329,192,85714,128,0,85799:0:0:0:0:
182,192,85757,128,0,85842:0:0:0:0:
475,192,85842,128,0,85971:0:0:0:0:
256,192,85842,128,0,86099:0:0:0:0:
36,192,85842,1,0,0:0:0:0:
402,192,85864,1,0,0:0:0:0:
109,192,85885,1,0,0:0:0:0:
329,192,85885,128,0,86014:0:0:0:0:
182,192,85928,128,0,86057:0:0:0:0:
36,192,85971,128,0,86099:0:0:0:0:
475,192,86014,1,0,0:0:0:0:
402,192,86099,1,0,0:0:0:0:
256,192,86185,128,0,86357:0:0:0:0:
182,192,86185,128,0,86271:0:0:0:0:
109,192,86185,128,0,86228:0:0:0:0:
36,192,86185,1,0,0:0:0:0:
475,192,86185,1,0,0:0:0:0:
402,192,86228,1,0,0:0:0:0:
329,192,86271,128,0,86399:0:0:0:0:
402,192,86314,128,0,86485:0:0:0:0:
109,192,86357,1,0,0:0:0:0:
36,192,86357,1,0,0:0:0:0:
475,192,86357,128,0,86442:0:0:0:0:
109,192,86442,1,0,0:0:0:0:
182,192,86442,1,0,0:0:0:0:
329,192,86485,128,0,86528:0:0:0:0:
109,192,86528,128,0,86571:0:0:0:0:
475,192,86528,128,0,86571:0:0:0:0:
36,192,86528,128,0,86699:0:0:0:0:
256,192,86528,128,0,86785:0:0:0:0:
402,192,86571,128,0,86614:0:0:0:0:
329,192,86614,128,0,86785:0:0:0:0:
402,192,86699,128,0,86785:0:0:0:0:
475,192,86699,128,0,86914:0:0:0:0:
182,192,86699,1,0,0:0:0:0:
182,192,86785,128,0,86999:0:0:0:0:
36,192,86785,1,0,0:0:0:0:
402,192,86871,128,0,86914:0:0:0:0:
329,192,86871,128,0,86957:0:0:0:0:
256,192,86957,1,0,0:0:0:0:
109,192,86957,128,0,86999:0:0:0:0:
36,192,86957,128,0,86999:0:0:0:0:
256,192,87042,128,0,87214:0:0:0:0:
402,192,87042,128,0,87128:0:0:0:0:
475,192,87042,128,0,87085:0:0:0:0:
36,192,87042,1,0,0:0:0:0:
182,192,87128,128,0,87171:0:0:0:0:
109,192,87128,128,0,87171:0:0:0:0:
329,192,87214,1,0,0:0:0:0:
475,192,87214,128,0,87471:0:0:0:0:
402,192,87214,1,0,0:0:0:0:
36,192,87214,128,0,87471:0:0:0:0:
109,192,87242,128,0,87328:0:0:0:0:
182,192,87271,128,0,87357:0:0:0:0:
256,192,87299,128,0,87385:0:0:0:0:
329,192,87328,128,0,87414:0:0:0:0:
402,192,87357,128,0,87442:0:0:0:0:
109,192,87385,1,0,0:0:0:0:
256,192,87471,1,0,0:0:0:0:
36,192,87557,128,0,87614:0:0:0:0:
109,192,87557,128,0,87671:0:0:0:0:
475,192,87557,1,0,0:0:0:0:
329,192,87557,128,0,87642:0:0:0:0:
182,192,87614,128,0,87785:0:0:0:0:
402,192,87642,128,0,87685:0:0:0:0:
256,192,87671,128,0,87728:0:0:0:0:
475,192,87685,128,0,87728:0:0:0:0:
109,192,87728,128,0,87899:0:0:0:0:
329,192,87728,1,0,0:0:0:0:
36,192,87785,128,0,87842:0:0:0:0:
329,192,87814,128,0,87899:0:0:0:0:
402,192,87814,1,0,0:0:0:0:
182,192,87842,128,0,87957:0:0:0:0:
256,192,87899,128,0,88157:0:0:0:0:
475,192,87899,128,0,87985:0:0:0:0:
36,192,87942,1,0,0:0:0:0:
402,192,87957,128,0,88042:0:0:0:0:
109,192,87985,1,0,0:0:0:0:
329,192,88014,128,0,88099:0:0:0:0:
182,192,88028,128,0,88242:0:0:0:0:
109,192,88071,128,0,88185:0:0:0:0:
475,192,88071,1,0,0:0:0:0:
36,192,88128,1,0,0:0:0:0:
475,192,88157,128,0,88242:0:0:0:0:
402,192,88157,1,0,0:0:0:0:
256,192,88242,128,0,88299:0:0:0:0:
36,192,88242,128,0,88299:0:0:0:0:
329,192,88271,128,0,88357:0:0:0:0:
402,192,88299,128,0,88471:0:0:0:0:
109,192,88299,128,0,88357:0:0:0:0:
475,192,88328,128,0,88414:0:0:0:0:
182,192,88357,128,0,88414:0:0:0:0:
329,192,88414,128,0,88585:0:0:0:0:
109,192,88414,1,0,0:0:0:0:
36,192,88414,128,0,88499:0:0:0:0:
256,192,88471,128,0,88528:0:0:0:0:
182,192,88499,1,0,0:0:0:0:
402,192,88528,128,0,88585:0:0:0:0:
475,192,88585,1,0,0:0:0:0:
36,192,88585,1,0,0:0:0:0:
256,192,88585,1,0,0:0:0:0:
109,192,88585,1,0,0:0:0:0:
182,192,88757,1,0,0:0:0:0:
256,192,88799,1,0,0:0:0:0:
329,192,88842,1,0,0:0:0:0:
402,192,88928,5,0,0:0:0:0:
475,192,88928,128,0,89185:0:0:0:0:
36,192,88928,128,0,89528:0:0:0:0:
256,192,88928,128,0,89014:0:0:0:0:
182,192,88928,1,0,0:0:0:0:
109,192,88928,128,0,89099:0:0:0:0:
329,192,89014,128,0,89099:0:0:0:0:
402,192,89099,128,0,89271:0:0:0:0:
256,192,89099,1,0,0:0:0:0:
182,192,89099,128,0,89185:0:0:0:0:
329,192,89185,128,0,89357:0:0:0:0:
109,192,89185,1,0,0:0:0:0:
182,192,89271,128,0,89442:0:0:0:0:
475,192,89271,128,0,89442:0:0:0:0:
256,192,89271,128,0,89357:0:0:0:0:
402,192,89357,128,0,89614:0:0:0:0:
109,192,89357,128,0,89442:0:0:0:0:
256,192,89442,128,0,89699:0:0:0:0:
329,192,89442,1,0,0:0:0:0:
475,192,89528,128,0,89614:0:0:0:0:
182,192,89528,128,0,89614:0:0:0:0:
109,192,89528,128,0,89871:0:0:0:0:
329,192,89614,128,0,89871:0:0:0:0:
36,192,89614,1,0,0:0:0:0:
402,192,89699,128,0,89785:0:0:0:0:
182,192,89699,1,0,0:0:0:0:
475,192,89699,128,0,89957:0:0:0:0:
256,192,89785,128,0,89957:0:0:0:0:
36,192,89785,128,0,89871:0:0:0:0:
182,192,89871,128,0,89957:0:0:0:0:
36,192,89957,1,0,0:0:0:0:
109,192,89957,1,0,0:0:0:0:
329,192,89957,1,0,0:0:0:0:
402,192,89957,1,0,0:0:0:0:
109,192,90128,1,0,0:0:0:0:
256,192,90171,1,0,0:0:0:0:
402,192,90214,1,0,0:0:0:0:
109,192,90299,128,0,90557:0:0:0:0:
36,192,90299,1,0,0:0:0:0:
329,192,90299,128,0,90385:0:0:0:0:
182,192,90299,1,0,0:0:0:0:
475,192,90299,128,0,90471:0:0:0:0:
256,192,90299,128,0,90471:0:0:0:0:
402,192,90385,128,0,90557:0:0:0:0:
182,192,90471,128,0,90642:0:0:0:0:
329,192,90471,1,0,0:0:0:0:
36,192,90471,128,0,90899:0:0:0:0:
256,192,90557,128,0,90814:0:0:0:0:
475,192,90557,128,0,90728:0:0:0:0:
109,192,90642,1,0,0:0:0:0:
329,192,90642,128,0,90728:0:0:0:0:
402,192,90642,128,0,90728:0:0:0:0:
182,192,90728,128,0,90985:0:0:0:0:
109,192,90814,128,0,90899:0:0:0:0:
402,192,90814,128,0,91071:0:0:0:0:
475,192,90814,1,0,0:0:0:0:
329,192,90899,128,0,90985:0:0:0:0:
256,192,90899,128,0,91157:0:0:0:0:
475,192,90985,128,0,91242:0:0:0:0:
109,192,90985,1,0,0:0:0:0:
36,192,90985,128,0,91071:0:0:0:0:
182,192,91071,128,0,91242:0:0:0:0:
329,192,91071,1,0,0:0:0:0:
36,192,91157,1,0,0:0:0:0:
402,192,91157,128,0,91242:0:0:0:0:
109,192,91157,128,0,91328:0:0:0:0:
329,192,91242,128,0,91328:0:0:0:0:
256,192,91242,1,0,0:0:0:0:
402,192,91328,1,0,0:0:0:0:
182,192,91328,1,0,0:0:0:0:
36,192,91328,128,0,91371:0:0:0:0:
475,192,91328,1,0,0:0:0:0:
329,192,91499,1,0,0:0:0:0:
256,192,91542,1,0,0:0:0:0:
182,192,91585,1,0,0:0:0:0:
36,192,91671,128,0,92014:0:0:0:0:
256,192,91671,128,0,91757:0:0:0:0:
402,192,91671,128,0,92014:0:0:0:0:
109,192,91671,1,0,0:0:0:0:
475,192,91671,1,0,0:0:0:0:
329,192,91671,128,0,91842:0:0:0:0:
182,192,91757,128,0,91842:0:0:0:0:
109,192,91842,128,0,91928:0:0:0:0:
256,192,91842,1,0,0:0:0:0:
475,192,91842,128,0,91928:0:0:0:0:
182,192,91928,128,0,92099:0:0:0:0:
329,192,91928,128,0,92185:0:0:0:0:
109,192,92014,128,0,92357:0:0:0:0:
256,192,92014,128,0,92099:0:0:0:0:
475,192,92014,1,0,0:0:0:0:
36,192,92099,128,0,92185:0:0:0:0:
402,192,92099,128,0,92185:0:0:0:0:
182,192,92185,1,0,0:0:0:0:
256,192,92185,128,0,92442:0:0:0:0:
475,192,92185,128,0,92271:0:0:0:0:
36,192,92271,1,0,0:0:0:0:
329,192,92271,128,0,92357:0:0:0:0:
402,192,92271,128,0,92614:0:0:0:0:
475,192,92357,1,0,0:0:0:0:
182,192,92357,128,0,92614:0:0:0:0:
329,192,92442,1,0,0:0:0:0:
109,192,92442,128,0,92528:0:0:0:0:
36,192,92442,128,0,92699:0:0:0:0:
256,192,92528,128,0,92699:0:0:0:0:
475,192,92528,128,0,92614:0:0:0:0:
329,192,92614,128,0,92699:0:0:0:0:
182,192,92699,1,0,0:0:0:0:
402,192,92699,1,0,0:0:0:0:
475,192,92699,1,0,0:0:0:0:
109,192,92699,1,0,0:0:0:0:
182,192,92871,1,0,0:0:0:0:
256,192,92914,1,0,0:0:0:0:
329,192,92957,1,0,0:0:0:0:
36,192,93042,128,0,93299:0:0:0:0:
109,192,93042,1,0,0:0:0:0:
182,192,93042,128,0,93128:0:0:0:0:
475,192,93042,1,0,0:0:0:0:
402,192,93042,128,0,93299:0:0:0:0:
256,192,93128,1,0,0:0:0:0:
329,192,93128,128,0,93214:0:0:0:0:
109,192,93214,128,0,93385:0:0:0:0:
182,192,93214,1,0,0:0:0:0:
475,192,93214,128,0,93299:0:0:0:0:
256,192,93299,128,0,93557:0:0:0:0:
329,192,93299,1,0,0:0:0:0:
36,192,93385,1,0,0:0:0:0:
182,192,93385,128,0,93471:0:0:0:0:
402,192,93385,1,0,0:0:0:0:
475,192,93385,128,0,93642:0:0:0:0:
109,192,93471,128,0,93642:0:0:0:0:
329,192,93471,128,0,93557:0:0:0:0:
182,192,93557,128,0,93728:0:0:0:0:
36,192,93557,128,0,93642:0:0:0:0:
402,192,93557,128,0,93642:0:0:0:0:
329,192,93642,128,0,93814:0:0:0:0:
256,192,93642,1,0,0:0:0:0:
475,192,93728,128,0,93985:0:0:0:0:
36,192,93728,1,0,0:0:0:0:
109,192,93728,128,0,93985:0:0:0:0:
402,192,93728,1,0,0:0:0:0:
256,192,93814,1,0,0:0:0:0:
182,192,93814,128,0,93899:0:0:0:0:
402,192,93899,128,0,94071:0:0:0:0:
329,192,93899,1,0,0:0:0:0:
36,192,93899,128,0,93985:0:0:0:0:
182,192,93985,1,0,0:0:0:0:
256,192,93985,128,0,94199:0:0:0:0:
329,192,94071,128,0,94157:0:0:0:0:
475,192,94071,1,0,0:0:0:0:
109,192,94071,1,0,0:0:0:0:
36,192,94071,128,0,94328:0:0:0:0:
182,192,94157,128,0,94242:0:0:0:0:
402,192,94157,128,0,94328:0:0:0:0:
109,192,94242,128,0,94328:0:0:0:0:
475,192,94242,128,0,94328:0:0:0:0:
329,192,94242,1,0,0:0:0:0:
256,192,94285,1,0,0:0:0:0:
182,192,94328,1,0,0:0:0:0:
475,192,94414,128,0,95014:0:0:0:0:
329,192,94414,128,0,94499:0:0:0:0:
402,192,94414,1,0,0:0:0:0:
109,192,94414,128,0,94671:0:0:0:0:
36,192,94414,1,0,0:0:0:0:
256,192,94414,128,0,94585:0:0:0:0:
182,192,94499,128,0,94585:0:0:0:0:
329,192,94585,1,0,0:0:0:0:
402,192,94585,128,0,94671:0:0:0:0:
36,192,94585,128,0,94757:0:0:0:0:
256,192,94671,128,0,94842:0:0:0:0:
182,192,94671,1,0,0:0:0:0:
402,192,94757,128,0,94928:0:0:0:0:
329,192,94757,128,0,94842:0:0:0:0:
109,192,94757,128,0,94928:0:0:0:0:
36,192,94842,128,0,95099:0:0:0:0:
182,192,94842,128,0,94928:0:0:0:0:
329,192,94928,128,0,95185:0:0:0:0:
256,192,94928,1,0,0:0:0:0:
182,192,95014,128,0,95185:0:0:0:0:
109,192,95014,128,0,95099:0:0:0:0:
402,192,95014,128,0,95099:0:0:0:0:
256,192,95099,128,0,95357:0:0:0:0:
475,192,95099,128,0,95357:0:0:0:0:
109,192,95185,128,0,95442:0:0:0:0:
36,192,95185,128,0,95271:0:0:0:0:
402,192,95185,1,0,0:0:0:0:
182,192,95271,128,0,95357:0:0:0:0:
329,192,95271,128,0,95442:0:0:0:0:
402,192,95357,128,0,95442:0:0:0:0:
182,192,95442,1,0,0:0:0:0:
36,192,95442,1,0,0:0:0:0:
475,192,95442,1,0,0:0:0:0:
256,192,95442,1,0,0:0:0:0:
182,192,95614,1,0,0:0:0:0:
256,192,95657,1,0,0:0:0:0:
329,192,95699,1,0,0:0:0:0:
36,192,95785,128,0,96042:0:0:0:0:
402,192,95785,1,0,0:0:0:0:
256,192,95785,128,0,95871:0:0:0:0:
475,192,95785,128,0,95957:0:0:0:0:
109,192,95785,1,0,0:0:0:0:
182,192,95785,128,0,95957:0:0:0:0:
329,192,95871,128,0,96042:0:0:0:0:
109,192,95957,128,0,96128:0:0:0:0:
256,192,95957,1,0,0:0:0:0:
402,192,95957,128,0,96385:0:0:0:0:
182,192,96042,128,0,96299:0:0:0:0:
475,192,96042,128,0,96214:0:0:0:0:
36,192,96128,1,0,0:0:0:0:
256,192,96128,128,0,96214:0:0:0:0:
329,192,96128,128,0,96214:0:0:0:0:
109,192,96214,128,0,96471:0:0:0:0:
36,192,96299,128,0,96385:0:0:0:0:
329,192,96299,128,0,96557:0:0:0:0:
475,192,96299,1,0,0:0:0:0:
256,192,96385,128,0,96471:0:0:0:0:
182,192,96385,128,0,96642:0:0:0:0:
36,192,96471,1,0,0:0:0:0:
475,192,96471,128,0,96728:0:0:0:0:
402,192,96471,128,0,96557:0:0:0:0:
109,192,96557,128,0,96728:0:0:0:0:
256,192,96557,1,0,0:0:0:0:
402,192,96642,1,0,0:0:0:0:
329,192,96642,128,0,96728:0:0:0:0:
36,192,96642,128,0,96814:0:0:0:0:
256,192,96728,128,0,96814:0:0:0:0:
182,192,96728,1,0,0:0:0:0:
329,192,96814,1,0,0:0:0:0:
109,192,96814,1,0,0:0:0:0:
402,192,96814,1,0,0:0:0:0:
475,192,96814,128,0,96857:0:0:0:0:
402,192,96985,1,0,0:0:0:0:
256,192,97028,1,0,0:0:0:0:
109,192,97071,1,0,0:0:0:0:
475,192,97157,1,0,0:0:0:0:
329,192,97157,1,0,0:0:0:0:
36,192,97157,128,0,97499:0:0:0:0:
402,192,97157,128,0,97499:0:0:0:0:
182,192,97157,128,0,97242:0:0:0:0:
256,192,97157,128,0,97328:0:0:0:0:
109,192,97242,128,0,97328:0:0:0:0:
329,192,97328,128,0,97414:0:0:0:0:
182,192,97328,1,0,0:0:0:0:
475,192,97328,128,0,97414:0:0:0:0:
109,192,97414,128,0,97671:0:0:0:0:
256,192,97414,128,0,97585:0:0:0:0:
329,192,97499,1,0,0:0:0:0:
182,192,97499,128,0,97585:0:0:0:0:
475,192,97499,128,0,97842:0:0:0:0:
36,192,97585,128,0,97671:0:0:0:0:
402,192,97585,128,0,97671:0:0:0:0:
329,192,97671,128,0,97757:0:0:0:0:
182,192,97671,128,0,97928:0:0:0:0:
256,192,97671,1,0,0:0:0:0:
36,192,97757,128,0,98099:0:0:0:0:
109,192,97757,128,0,97842:0:0:0:0:
402,192,97757,1,0,0:0:0:0:
256,192,97842,128,0,98099:0:0:0:0:
329,192,97842,1,0,0:0:0:0:
402,192,97928,128,0,98185:0:0:0:0:
475,192,97928,128,0,98014:0:0:0:0:
109,192,97928,1,0,0:0:0:0:
329,192,98014,128,0,98099:0:0:0:0:
182,192,98014,128,0,98185:0:0:0:0:
109,192,98099,128,0,98185:0:0:0:0:
329,192,98185,1,0,0:0:0:0:
475,192,98185,1,0,0:0:0:0:
256,192,98185,1,0,0:0:0:0:
36,192,98185,1,0,0:0:0:0:
182,192,98357,1,0,0:0:0:0:
256,192,98399,1,0,0:0:0:0:
329,192,98442,1,0,0:0:0:0:
109,192,98528,128,0,98785:0:0:0:0:
36,192,98528,1,0,0:0:0:0:
182,192,98528,128,0,98614:0:0:0:0:
402,192,98528,1,0,0:0:0:0:
475,192,98528,128,0,98785:0:0:0:0:
256,192,98614,1,0,0:0:0:0:
329,192,98614,128,0,98699:0:0:0:0:
36,192,98699,128,0,98871:0:0:0:0:
182,192,98699,1,0,0:0:0:0:
402,192,98699,128,0,98785:0:0:0:0:
256,192,98785,128,0,99042:0:0:0:0:
329,192,98785,1,0,0:0:0:0:
109,192,98871,1,0,0:0:0:0:
182,192,98871,128,0,98957:0:0:0:0:
475,192,98871,1,0,0:0:0:0:
402,192,98871,128,0,99128:0:0:0:0:
36,192,98957,128,0,99128:0:0:0:0:
329,192,98957,128,0,99042:0:0:0:0:
182,192,99042,128,0,99214:0:0:0:0:
109,192,99042,128,0,99128:0:0:0:0:
475,192,99042,128,0,99128:0:0:0:0:
329,192,99128,128,0,99299:0:0:0:0:
256,192,99128,1,0,0:0:0:0:
402,192,99214,128,0,99471:0:0:0:0:
109,192,99214,1,0,0:0:0:0:
36,192,99214,128,0,99471:0:0:0:0:
475,192,99214,1,0,0:0:0:0:
256,192,99299,1,0,0:0:0:0:
182,192,99299,128,0,99385:0:0:0:0:
475,192,99385,128,0,99557:0:0:0:0:
329,192,99385,1,0,0:0:0:0:
109,192,99385,128,0,99471:0:0:0:0:
182,192,99471,1,0,0:0:0:0:
256,192,99471,128,0,99685:0:0:0:0:
329,192,99557,128,0,99642:0:0:0:0:
402,192,99557,1,0,0:0:0:0:
36,192,99557,1,0,0:0:0:0:
109,192,99557,128,0,99814:0:0:0:0:
182,192,99642,128,0,99728:0:0:0:0:
475,192,99642,128,0,99814:0:0:0:0:
36,192,99728,128,0,99814:0:0:0:0:
402,192,99728,128,0,99814:0:0:0:0:
329,192,99728,1,0,0:0:0:0:
256,192,99771,1,0,0:0:0:0:
182,192,99814,1,0,0:0:0:0:
109,192,99899,1,0,0:0:0:0:
36,192,99899,128,0,100157:0:0:0:0:
475,192,99899,128,0,100499:0:0:0:0:
256,192,99899,128,0,99985:0:0:0:0:
329,192,99899,1,0,0:0:0:0:
402,192,99899,128,0,100071:0:0:0:0:
182,192,99985,128,0,100071:0:0:0:0:
109,192,100071,128,0,100242:0:0:0:0:
256,192,100071,1,0,0:0:0:0:
329,192,100071,128,0,100157:0:0:0:0:
182,192,100157,128,0,100328:0:0:0:0:
402,192,100157,1,0,0:0:0:0:
329,192,100242,128,0,100414:0:0:0:0:
36,192,100242,128,0,100414:0:0:0:0:
256,192,100242,128,0,100328:0:0:0:0:
109,192,100328,128,0,100585:0:0:0:0:
402,192,100328,128,0,100414:0:0:0:0:
256,192,100414,128,0,100671:0:0:0:0:
182,192,100414,1,0,0:0:0:0:
36,192,100499,128,0,100585:0:0:0:0:
329,192,100499,128,0,100585:0:0:0:0:
402,192,100499,128,0,100842:0:0:0:0:
182,192,100585,128,0,100842:0:0:0:0:
475,192,100585,1,0,0:0:0:0:
109,192,100671,128,0,100757:0:0:0:0:
329,192,100671,1,0,0:0:0:0:
36,192,100671,128,0,100928:0:0:0:0:
256,192,100757,128,0,100928:0:0:0:0:
475,192,100757,128,0,100842:0:0:0:0:
329,192,100842,128,0,100928:0:0:0:0:
475,192,100928,1,0,0:0:0:0:
402,192,100928,1,0,0:0:0:0:
182,192,100928,1,0,0:0:0:0:
109,192,100928,1,0,0:0:0:0:
402,192,101099,1,0,0:0:0:0:
256,192,101142,1,0,0:0:0:0:
109,192,101185,1,0,0:0:0:0:
402,192,101271,128,0,101528:0:0:0:0:
475,192,101271,1,0,0:0:0:0:
182,192,101271,128,0,101357:0:0:0:0:
329,192,101271,1,0,0:0:0:0:
36,192,101271,128,0,101442:0:0:0:0:
256,192,101271,128,0,101442:0:0:0:0:
109,192,101357,128,0,101528:0:0:0:0:
329,192,101442,128,0,101614:0:0:0:0:
182,192,101442,1,0,0:0:0:0:
475,192,101442,128,0,101871:0:0:0:0:
256,192,101528,128,0,101785:0:0:0:0:
36,192,101528,128,0,101699:0:0:0:0:
402,192,101614,1,0,0:0:0:0:
182,192,101614,128,0,101699:0:0:0:0:
109,192,101614,128,0,101699:0:0:0:0:
329,192,101699,128,0,101957:0:0:0:0:
402,192,101785,128,0,101871:0:0:0:0:
109,192,101785,128,0,102042:0:0:0:0:
36,192,101785,1,0,0:0:0:0:
182,192,101871,128,0,101957:0:0:0:0:
256,192,101871,128,0,102128:0:0:0:0:
36,192,101957,128,0,102214:0:0:0:0:
402,192,101957,1,0,0:0:0:0:
475,192,101957,128,0,102042:0:0:0:0:
329,192,102042,128,0,102214:0:0:0:0:
182,192,102042,1,0,0:0:0:0:
475,192,102128,1,0,0:0:0:0:
109,192,102128,128,0,102214:0:0:0:0:
402,192,102128,128,0,102299:0:0:0:0:
182,192,102214,128,0,102299:0:0:0:0:
256,192,102214,1,0,0:0:0:0:
109,192,102299,1,0,0:0:0:0:
329,192,102299,1,0,0:0:0:0:
475,192,102299,1,0,0:0:0:0:
36,192,102299,128,0,102342:0:0:0:0:
182,192,102471,1,0,0:0:0:0:
256,192,102514,1,0,0:0:0:0:
329,192,102557,1,0,0:0:0:0:
475,192,102642,128,0,102985:0:0:0:0:
256,192,102642,128,0,102728:0:0:0:0:
109,192,102642,128,0,102985:0:0:0:0:
402,192,102642,1,0,0:0:0:0:
36,192,102642,1,0,0:0:0:0:
182,192,102642,128,0,102814:0:0:0:0:
329,192,102728,128,0,102814:0:0:0:0:
402,192,102814,128,0,102899:0:0:0:0:
256,192,102814,1,0,0:0:0:0:
36,192,102814,128,0,102899:0:0:0:0:
329,192,102899,128,0,103071:0:0:0:0:
182,192,102899,128,0,103157:0:0:0:0:
402,192,102985,128,0,103328:0:0:0:0:
256,192,102985,128,0,103071:0:0:0:0:
36,192,102985,1,0,0:0:0:0:
475,192,103071,128,0,103157:0:0:0:0:
109,192,103071,128,0,103157:0:0:0:0:
329,192,103157,1,0,0:0:0:0:
256,192,103157,128,0,103414:0:0:0:0:
36,192,103157,128,0,103242:0:0:0:0:
475,192,103242,1,0,0:0:0:0:
182,192,103242,128,0,103328:0:0:0:0:
109,192,103242,128,0,103585:0:0:0:0:
36,192,103328,1,0,0:0:0:0:
329,192,103328,128,0,103585:0:0:0:0:
182,192,103414,1,0,0:0:0:0:
402,192,103414,128,0,103499:0:0:0:0:
475,192,103414,128,0,103671:0:0:0:0:
256,192,103499,128,0,103671:0:0:0:0:
36,192,103499,128,0,103585:0:0:0:0:
182,192,103585,128,0,103671:0:0:0:0:
329,192,103671,1,0,0:0:0:0:
109,192,103671,1,0,0:0:0:0:
36,192,103671,1,0,0:0:0:0:
402,192,103671,1,0,0:0:0:0:
329,192,103842,1,0,0:0:0:0:
256,192,103885,1,0,0:0:0:0:
182,192,103928,1,0,0:0:0:0:
109,192,104014,128,0,104271:0:0:0:0:
36,192,104014,1,0,0:0:0:0:
329,192,104014,128,0,104099:0:0:0:0:
402,192,104014,1,0,0:0:0:0:
475,192,104014,128,0,104271:0:0:0:0:
256,192,104099,1,0,0:0:0:0:
182,192,104099,128,0,104185:0:0:0:0:
36,192,104185,128,0,104357:0:0:0:0:
329,192,104185,1,0,0:0:0:0:
402,192,104185,128,0,104271:0:0:0:0:
256,192,104271,128,0,104528:0:0:0:0:
182,192,104271,1,0,0:0:0:0:
109,192,104357,1,0,0:0:0:0:
329,192,104357,128,0,104442:0:0:0:0:
475,192,104357,1,0,0:0:0:0:
402,192,104357,128,0,104614:0:0:0:0:
36,192,104442,128,0,104614:0:0:0:0:
182,192,104442,128,0,104528:0:0:0:0:
329,192,104528,128,0,104699:0:0:0:0:
109,192,104528,128,0,104614:0:0:0:0:
475,192,104528,128,0,104614:0:0:0:0:
182,192,104614,128,0,104785:0:0:0:0:
256,192,104614,1,0,0:0:0:0:
402,192,104699,128,0,104957:0:0:0:0:
109,192,104699,1,0,0:0:0:0:
36,192,104699,128,0,104957:0:0:0:0:
475,192,104699,1,0,0:0:0:0:
256,192,104785,1,0,0:0:0:0:
329,192,104785,128,0,104871:0:0:0:0:
475,192,104871,128,0,105042:0:0:0:0:
182,192,104871,1,0,0:0:0:0:
109,192,104871,128,0,104957:0:0:0:0:
329,192,104957,1,0,0:0:0:0:
256,192,104957,128,0,105171:0:0:0:0:
182,192,105042,128,0,105128:0:0:0:0:
402,192,105042,1,0,0:0:0:0:
36,192,105042,1,0,0:0:0:0:
109,192,105042,128,0,105299:0:0:0:0:
329,192,105128,128,0,105214:0:0:0:0:
475,192,105128,128,0,105299:0:0:0:0:
182,192,105214,1,0,0:0:0:0:
36,192,105214,128,0,105299:0:0:0:0:
402,192,105214,128,0,105299:0:0:0:0:
256,192,105257,1,0,0:0:0:0:
329,192,105299,1,0,0:0:0:0:
256,192,105385,1,0,0:0:0:0:
182,192,105385,128,0,105642:0:0:0:0:
36,192,105385,128,0,105985:0:0:0:0:
402,192,105385,128,0,105471:0:0:0:0:
475,192,105385,1,0,0:0:0:0:
109,192,105385,128,0,105557:0:0:0:0:
329,192,105471,128,0,105557:0:0:0:0:
256,192,105557,128,0,105728:0:0:0:0:
402,192,105557,1,0,0:0:0:0:
475,192,105557,128,0,105642:0:0:0:0:
329,192,105642,128,0,105814:0:0:0:0:
109,192,105642,1,0,0:0:0:0:
475,192,105728,128,0,105899:0:0:0:0:
182,192,105728,128,0,105899:0:0:0:0:
402,192,105728,128,0,105814:0:0:0:0:
256,192,105814,128,0,106071:0:0:0:0:
109,192,105814,128,0,105899:0:0:0:0:
402,192,105899,128,0,106157:0:0:0:0:
329,192,105899,1,0,0:0:0:0:
182,192,105985,128,0,106071:0:0:0:0:
475,192,105985,128,0,106071:0:0:0:0:
109,192,105985,128,0,106157:0:0:0:0:
329,192,106071,128,0,106328:0:0:0:0:
36,192,106071,128,0,106328:0:0:0:0:
256,192,106157,128,0,106242:0:0:0:0:
475,192,106157,1,0,0:0:0:0:
182,192,106157,128,0,106414:0:0:0:0:
402,192,106242,128,0,106414:0:0:0:0:
109,192,106242,128,0,106328:0:0:0:0:
475,192,106328,128,0,106414:0:0:0:0:
36,192,106414,1,0,0:0:0:0:
109,192,106414,1,0,0:0:0:0:
329,192,106414,1,0,0:0:0:0:
256,192,106414,1,0,0:0:0:0:
109,192,106585,1,0,0:0:0:0:
256,192,106628,1,0,0:0:0:0:
402,192,106671,1,0,0:0:0:0:
256,192,106757,128,0,107014:0:0:0:0:
182,192,106757,1,0,0:0:0:0:
475,192,106757,128,0,106842:0:0:0:0:
36,192,106757,128,0,106928:0:0:0:0:
329,192,106757,1,0,0:0:0:0:
109,192,106757,128,0,107014:0:0:0:0:
402,192,106842,128,0,106928:0:0:0:0:
329,192,106928,128,0,107099:0:0:0:0:
475,192,106928,1,0,0:0:0:0:
182,192,106928,128,0,107357:0:0:0:0:
402,192,107014,128,0,107271:0:0:0:0:
36,192,107014,128,0,107185:0:0:0:0:
256,192,107099,1,0,0:0:0:0:
475,192,107099,128,0,107185:0:0:0:0:
109,192,107099,128,0,107185:0:0:0:0:
329,192,107185,128,0,107442:0:0:0:0:
256,192,107271,128,0,107357:0:0:0:0:
109,192,107271,128,0,107528:0:0:0:0:
36,192,107271,1,0,0:0:0:0:
475,192,107357,128,0,107442:0:0:0:0:
402,192,107357,128,0,107614:0:0:0:0:
256,192,107442,1,0,0:0:0:0:
36,192,107442,128,0,107699:0:0:0:0:
182,192,107442,128,0,107528:0:0:0:0:
329,192,107528,128,0,107699:0:0:0:0:
475,192,107528,1,0,0:0:0:0:
182,192,107614,1,0,0:0:0:0:
109,192,107614,128,0,107699:0:0:0:0:
256,192,107614,128,0,107785:0:0:0:0:
475,192,107699,128,0,107785:0:0:0:0:
402,192,107699,1,0,0:0:0:0:
109,192,107785,1,0,0:0:0:0:
36,192,107785,1,0,0:0:0:0:
182,192,107785,128,0,107828:0:0:0:0:
329,192,107785,1,0,0:0:0:0:
329,192,107957,1,0,0:0:0:0:
256,192,107999,1,0,0:0:0:0:
182,192,108042,1,0,0:0:0:0:
475,192,108128,128,0,108814:0:0:0:0:
109,192,108128,1,0,0:0:0:0:
402,192,108128,1,0,0:0:0:0:
36,192,108128,128,0,109499:0:0:0:0:
256,192,108214,1,0,0:0:0:0:
182,192,108299,1,0,0:0:0:0:
329,192,108299,1,0,0:0:0:0:
402,192,108385,5,0,0:0:0:0:
182,192,108471,1,0,0:0:0:0:
109,192,108471,1,0,0:0:0:0:
329,192,108557,1,0,0:0:0:0:
256,192,108557,1,0,0:0:0:0:
109,192,108642,1,0,0:0:0:0:
402,192,108642,1,0,0:0:0:0:
256,192,108728,1,0,0:0:0:0:
182,192,108814,1,0,0:0:0:0:
329,192,108814,1,0,0:0:0:0:
109,192,108899,1,0,0:0:0:0:
256,192,108985,1,0,0:0:0:0:
402,192,108985,1,0,0:0:0:0:
109,192,109071,1,0,0:0:0:0:
182,192,109071,1,0,0:0:0:0:
329,192,109157,1,0,0:0:0:0:
475,192,109157,1,0,0:0:0:0:
182,192,109242,1,0,0:0:0:0:
256,192,109242,1,0,0:0:0:0:
402,192,109328,1,0,0:0:0:0:
109,192,109328,1,0,0:0:0:0:
256,192,109414,1,0,0:0:0:0:
475,192,109499,128,0,109671:0:0:0:0:
182,192,109499,1,0,0:0:0:0:
329,192,109499,1,0,0:0:0:0:
402,192,109499,1,0,0:0:0:0:
36,192,109671,128,0,109757:0:0:0:0:
109,192,109671,1,0,0:0:0:0:
475,192,109757,128,0,109842:0:0:0:0:
402,192,109757,1,0,0:0:0:0:
36,192,109842,128,0,109928:0:0:0:0:
182,192,109842,1,0,0:0:0:0:
329,192,109928,1,0,0:0:0:0:
475,192,109928,128,0,110014:0:0:0:0:
36,192,110014,128,0,110099:0:0:0:0:
256,192,110014,1,0,0:0:0:0:
475,192,110099,128,0,110271:0:0:0:0:
109,192,110185,128,0,110357:0:0:0:0:
182,192,110185,1,0,0:0:0:0:
36,192,110185,1,0,0:0:0:0:
402,192,110185,1,0,0:0:0:0:
402,192,110357,128,0,110442:0:0:0:0:
256,192,110357,1,0,0:0:0:0:
109,192,110442,128,0,110528:0:0:0:0:
182,192,110442,1,0,0:0:0:0:
402,192,110528,128,0,110614:0:0:0:0:
329,192,110528,1,0,0:0:0:0:
109,192,110614,128,0,110785:0:0:0:0:
36,192,110614,1,0,0:0:0:0:
475,192,110699,1,0,0:0:0:0:
256,192,110699,1,0,0:0:0:0:
402,192,110699,128,0,110871:0:0:0:0:
36,192,110871,128,0,111299:0:0:0:0:
182,192,110871,128,0,111128:0:0:0:0:
475,192,110871,128,0,110957:0:0:0:0:
256,192,110871,1,0,0:0:0:0:
109,192,110871,1,0,0:0:0:0:
329,192,110957,128,0,111042:0:0:0:0:
109,192,111042,1,0,0:0:0:0:
329,192,111128,1,0,0:0:0:0:
109,192,111214,128,0,111642:0:0:0:0:
402,192,111214,128,0,111814:0:0:0:0:
475,192,111214,1,0,0:0:0:0:
182,192,111214,1,0,0:0:0:0:
256,192,111214,1,0,0:0:0:0:
36,192,111385,1,0,0:0:0:0:
256,192,111385,1,0,0:0:0:0:
329,192,111385,128,0,111471:0:0:0:0:
182,192,111471,128,0,111557:0:0:0:0:
36,192,111557,128,0,111985:0:0:0:0:
329,192,111557,1,0,0:0:0:0:
475,192,111642,1,0,0:0:0:0:
109,192,111728,1,0,0:0:0:0:
182,192,111728,1,0,0:0:0:0:
256,192,111728,128,0,112157:0:0:0:0:
475,192,111899,1,0,0:0:0:0:
329,192,111899,1,0,0:0:0:0:
109,192,111899,128,0,112328:0:0:0:0:
402,192,111899,1,0,0:0:0:0:
36,192,112071,1,0,0:0:0:0:
402,192,112071,128,0,112157:0:0:0:0:
475,192,112242,128,0,112671:0:0:0:0:
36,192,112242,128,0,112328:0:0:0:0:
256,192,112242,1,0,0:0:0:0:
182,192,112242,128,0,112671:0:0:0:0:
402,192,112242,1,0,0:0:0:0:
329,192,112328,128,0,112414:0:0:0:0:
109,192,112414,1,0,0:0:0:0:
256,192,112499,128,0,112671:0:0:0:0:
402,192,112585,128,0,113014:0:0:0:0:
36,192,112585,1,0,0:0:0:0:
329,192,112585,1,0,0:0:0:0:
109,192,112585,1,0,0:0:0:0:
475,192,112757,1,0,0:0:0:0:
36,192,112757,128,0,112928:0:0:0:0:
182,192,112757,1,0,0:0:0:0:
256,192,112757,128,0,112842:0:0:0:0:
109,192,112842,1,0,0:0:0:0:
329,192,112842,128,0,113014:0:0:0:0:
475,192,112928,128,0,113357:0:0:0:0:
182,192,112928,128,0,113014:0:0:0:0:
256,192,112928,1,0,0:0:0:0:
109,192,113014,1,0,0:0:0:0:
36,192,113014,128,0,113099:0:0:0:0:
402,192,113099,1,0,0:0:0:0:
256,192,113099,128,0,113185:0:0:0:0:
182,192,113099,1,0,0:0:0:0:
109,192,113185,128,0,113442:0:0:0:0:
36,192,113185,1,0,0:0:0:0:
402,192,113271,128,0,113699:0:0:0:0:
256,192,113271,1,0,0:0:0:0:
329,192,113271,1,0,0:0:0:0:
182,192,113271,128,0,113357:0:0:0:0:
36,192,113357,128,0,113442:0:0:0:0:
475,192,113442,1,0,0:0:0:0:
256,192,113442,128,0,113528:0:0:0:0:
109,192,113528,1,0,0:0:0:0:
36,192,113614,128,0,114042:0:0:0:0:
329,192,113614,128,0,113699:0:0:0:0:
256,192,113614,1,0,0:0:0:0:
475,192,113614,128,0,113699:0:0:0:0:
182,192,113699,128,0,113785:0:0:0:0:
475,192,113785,1,0,0:0:0:0:
329,192,113785,1,0,0:0:0:0:
256,192,113871,1,0,0:0:0:0:
402,192,113871,1,0,0:0:0:0:
109,192,113957,128,0,114385:0:0:0:0:
182,192,113957,1,0,0:0:0:0:
475,192,113957,1,0,0:0:0:0:
329,192,113957,1,0,0:0:0:0:
36,192,114128,1,0,0:0:0:0:
402,192,114128,128,0,114214:0:0:0:0:
329,192,114128,1,0,0:0:0:0:
256,192,114214,128,0,114299:0:0:0:0:
182,192,114214,1,0,0:0:0:0:
36,192,114299,128,0,114728:0:0:0:0:
475,192,114299,1,0,0:0:0:0:
329,192,114385,1,0,0:0:0:0:
109,192,114471,1,0,0:0:0:0:
256,192,114471,1,0,0:0:0:0:
182,192,114471,1,0,0:0:0:0:
402,192,114557,1,0,0:0:0:0:
475,192,114642,1,0,0:0:0:0:
109,192,114642,128,0,114728:0:0:0:0:
182,192,114642,128,0,115071:0:0:0:0:
329,192,114642,1,0,0:0:0:0:
256,192,114642,1,0,0:0:0:0:
36,192,114814,1,0,0:0:0:0:
402,192,114814,1,0,0:0:0:0:
329,192,114985,128,0,115414:0:0:0:0:
256,192,114985,128,0,115071:0:0:0:0:
475,192,114985,1,0,0:0:0:0:
109,192,114985,1,0,0:0:0:0:
475,192,115071,128,0,115242:0:0:0:0:
36,192,115157,1,0,0:0:0:0:
182,192,115157,1,0,0:0:0:0:
109,192,115242,1,0,0:0:0:0:
36,192,115242,128,0,115414:0:0:0:0:
182,192,115328,128,0,115757:0:0:0:0:
256,192,115328,128,0,115414:0:0:0:0:
475,192,115328,1,0,0:0:0:0:
402,192,115328,128,0,115414:0:0:0:0:
475,192,115499,1,0,0:0:0:0:
329,192,115499,1,0,0:0:0:0:
109,192,115499,128,0,115585:0:0:0:0:
36,192,115585,1,0,0:0:0:0:
402,192,115585,1,0,0:0:0:0:
475,192,115585,128,0,115757:0:0:0:0:
329,192,115671,128,0,116099:0:0:0:0:
256,192,115671,128,0,115757:0:0:0:0:
109,192,115671,1,0,0:0:0:0:
36,192,115757,128,0,115842:0:0:0:0:
402,192,115842,128,0,115928:0:0:0:0:
182,192,115842,1,0,0:0:0:0:
256,192,115842,1,0,0:0:0:0:
36,192,115928,1,0,0:0:0:0:
109,192,115928,128,0,116014:0:0:0:0:
256,192,116014,128,0,116099:0:0:0:0:
402,192,116014,1,0,0:0:0:0:
475,192,116014,128,0,116099:0:0:0:0:
182,192,116014,128,0,116357:0:0:0:0:
36,192,116099,128,0,116185:0:0:0:0:
402,192,116185,128,0,116271:0:0:0:0:
329,192,116185,1,0,0:0:0:0:
109,192,116271,1,0,0:0:0:0:
475,192,116357,128,0,116785:0:0:0:0:
256,192,116357,128,0,116442:0:0:0:0:
402,192,116357,1,0,0:0:0:0:
36,192,116357,1,0,0:0:0:0:
329,192,116357,128,0,116614:0:0:0:0:
109,192,116442,128,0,116528:0:0:0:0:
256,192,116528,1,0,0:0:0:0:
109,192,116614,1,0,0:0:0:0:
402,192,116699,128,0,117128:0:0:0:0:
256,192,116699,1,0,0:0:0:0:
329,192,116699,1,0,0:0:0:0:
182,192,116699,128,0,117299:0:0:0:0:
36,192,116699,1,0,0:0:0:0:
475,192,116871,1,0,0:0:0:0:
256,192,116871,128,0,116957:0:0:0:0:
109,192,116871,1,0,0:0:0:0:
36,192,116957,128,0,117042:0:0:0:0:
475,192,117042,128,0,117471:0:0:0:0:
329,192,117042,1,0,0:0:0:0:
256,192,117128,1,0,0:0:0:0:
402,192,117214,1,0,0:0:0:0:
36,192,117214,1,0,0:0:0:0:
109,192,117214,128,0,117642:0:0:0:0:
329,192,117214,128,0,117299:0:0:0:0:
402,192,117385,128,0,117814:0:0:0:0:
329,192,117385,1,0,0:0:0:0:
256,192,117385,1,0,0:0:0:0:
182,192,117385,1,0,0:0:0:0:
475,192,117557,1,0,0:0:0:0:
256,192,117557,128,0,117642:0:0:0:0:
475,192,117728,128,0,117814:0:0:0:0:
36,192,117728,128,0,118157:0:0:0:0:
256,192,117728,1,0,0:0:0:0:
109,192,117728,1,0,0:0:0:0:
329,192,117728,128,0,118157:0:0:0:0:
182,192,117814,128,0,117899:0:0:0:0:
402,192,117899,1,0,0:0:0:0:
256,192,117985,128,0,118157:0:0:0:0:
109,192,118071,128,0,118499:0:0:0:0:
182,192,118071,1,0,0:0:0:0:
402,192,118071,1,0,0:0:0:0:
475,192,118071,1,0,0:0:0:0:
36,192,118242,1,0,0:0:0:0:
182,192,118242,128,0,118414:0:0:0:0:
329,192,118242,1,0,0:0:0:0:
402,192,118242,128,0,118328:0:0:0:0:
475,192,118328,128,0,118499:0:0:0:0:
256,192,118328,128,0,118414:0:0:0:0:
36,192,118414,128,0,118842:0:0:0:0:
402,192,118414,1,0,0:0:0:0:
329,192,118414,128,0,118671:0:0:0:0:
256,192,118499,1,0,0:0:0:0:
182,192,118499,128,0,118585:0:0:0:0:
109,192,118585,1,0,0:0:0:0:
402,192,118585,128,0,118671:0:0:0:0:
475,192,118585,1,0,0:0:0:0:
256,192,118671,128,0,118928:0:0:0:0:
182,192,118671,1,0,0:0:0:0:
109,192,118757,128,0,119185:0:0:0:0:
402,192,118757,128,0,119014:0:0:0:0:
475,192,118757,128,0,118842:0:0:0:0:
329,192,118757,1,0,0:0:0:0:
182,192,118842,128,0,118928:0:0:0:0:
36,192,118928,1,0,0:0:0:0:
475,192,118928,1,0,0:0:0:0:
329,192,119014,1,0,0:0:0:0:
475,192,119099,128,0,119528:0:0:0:0:
256,192,119099,1,0,0:0:0:0:
182,192,119099,128,0,119185:0:0:0:0:
36,192,119099,128,0,119185:0:0:0:0:
329,192,119185,128,0,119271:0:0:0:0:
182,192,119271,1,0,0:0:0:0:
36,192,119271,1,0,0:0:0:0:
256,192,119357,1,0,0:0:0:0:
109,192,119357,1,0,0:0:0:0:
36,192,119442,1,0,0:0:0:0:
402,192,119442,128,0,119871:0:0:0:0:
329,192,119442,1,0,0:0:0:0:
182,192,119442,1,0,0:0:0:0:
475,192,119614,1,0,0:0:0:0:
109,192,119614,128,0,119699:0:0:0:0:
182,192,119614,1,0,0:0:0:0:
256,192,119699,128,0,119785:0:0:0:0:
329,192,119699,1,0,0:0:0:0:
475,192,119785,128,0,120214:0:0:0:0:
36,192,119785,1,0,0:0:0:0:
182,192,119871,1,0,0:0:0:0:
402,192,119957,1,0,0:0:0:0:
256,192,119957,1,0,0:0:0:0:
329,192,119957,1,0,0:0:0:0:
109,192,120042,1,0,0:0:0:0:
402,192,120128,128,0,120214:0:0:0:0:
329,192,120128,128,0,120557:0:0:0:0:
36,192,120128,1,0,0:0:0:0:
256,192,120128,1,0,0:0:0:0:
182,192,120128,1,0,0:0:0:0:
475,192,120299,1,0,0:0:0:0:
109,192,120299,1,0,0:0:0:0:
182,192,120471,128,0,120899:0:0:0:0:
256,192,120471,128,0,120557:0:0:0:0:
36,192,120471,1,0,0:0:0:0:
402,192,120471,1,0,0:0:0:0:
36,192,120557,128,0,120728:0:0:0:0:
329,192,120642,1,0,0:0:0:0:
475,192,120642,1,0,0:0:0:0:
475,192,120728,128,0,120899:0:0:0:0:
402,192,120728,1,0,0:0:0:0:
329,192,120814,128,0,121242:0:0:0:0:
256,192,120814,128,0,120899:0:0:0:0:
36,192,120814,1,0,0:0:0:0:
109,192,120814,128,0,120899:0:0:0:0:
36,192,120985,1,0,0:0:0:0:
182,192,120985,1,0,0:0:0:0:
402,192,120985,128,0,121071:0:0:0:0:
109,192,121071,1,0,0:0:0:0:
36,192,121071,128,0,121242:0:0:0:0:
475,192,121071,1,0,0:0:0:0:
182,192,121157,128,0,121585:0:0:0:0:
256,192,121157,128,0,121242:0:0:0:0:
402,192,121157,1,0,0:0:0:0:
475,192,121242,128,0,121328:0:0:0:0:
109,192,121328,128,0,121414:0:0:0:0:
329,192,121328,1,0,0:0:0:0:
256,192,121328,1,0,0:0:0:0:
402,192,121414,128,0,121499:0:0:0:0:
475,192,121414,1,0,0:0:0:0:
256,192,121499,128,0,121585:0:0:0:0:
109,192,121499,1,0,0:0:0:0:
36,192,121499,128,0,121585:0:0:0:0:
329,192,121499,128,0,121842:0:0:0:0:
475,192,121585,128,0,121671:0:0:0:0:
182,192,121671,1,0,0:0:0:0:
109,192,121671,128,0,121757:0:0:0:0:
402,192,121757,1,0,0:0:0:0:
475,192,121842,128,0,122271:0:0:0:0:
109,192,121842,1,0,0:0:0:0:
36,192,121842,128,0,121928:0:0:0:0:
256,192,121842,128,0,122099:0:0:0:0:
182,192,121928,128,0,122014:0:0:0:0:
329,192,122014,1,0,0:0:0:0:
182,192,122099,1,0,0:0:0:0:
402,192,122185,128,0,122614:0:0:0:0:
109,192,122185,128,0,122785:0:0:0:0:
329,192,122185,1,0,0:0:0:0:
256,192,122185,1,0,0:0:0:0:
36,192,122185,1,0,0:0:0:0:
475,192,122357,1,0,0:0:0:0:
256,192,122357,1,0,0:0:0:0:
182,192,122357,128,0,122442:0:0:0:0:
329,192,122442,128,0,122528:0:0:0:0:
36,192,122442,1,0,0:0:0:0:
475,192,122528,128,0,122957:0:0:0:0:
182,192,122528,1,0,0:0:0:0:
36,192,122614,128,0,122785:0:0:0:0:
329,192,122614,1,0,0:0:0:0:
402,192,122699,1,0,0:0:0:0:
256,192,122699,128,0,123128:0:0:0:0:
182,192,122699,1,0,0:0:0:0:
36,192,122871,1,0,0:0:0:0:
402,192,122871,128,0,123299:0:0:0:0:
109,192,122871,1,0,0:0:0:0:
329,192,122871,1,0,0:0:0:0:
475,192,123042,1,0,0:0:0:0:
109,192,123042,128,0,123128:0:0:0:0:
36,192,123214,128,0,123642:0:0:0:0:
475,192,123214,128,0,123299:0:0:0:0:
109,192,123214,1,0,0:0:0:0:
256,192,123214,1,0,0:0:0:0:
329,192,123257,128,0,123642:0:0:0:0:
182,192,123299,128,0,123385:0:0:0:0:
402,192,123385,1,0,0:0:0:0:
256,192,123471,128,0,123642:0:0:0:0:
109,192,123557,128,0,123985:0:0:0:0:
475,192,123557,1,0,0:0:0:0:
182,192,123557,1,0,0:0:0:0:
402,192,123557,1,0,0:0:0:0:
36,192,123728,1,0,0:0:0:0:
475,192,123728,128,0,123899:0:0:0:0:
329,192,123728,1,0,0:0:0:0:
256,192,123728,128,0,123814:0:0:0:0:
402,192,123814,1,0,0:0:0:0:
182,192,123814,128,0,123985:0:0:0:0:
36,192,123899,128,0,124328:0:0:0:0:
329,192,123899,128,0,123985:0:0:0:0:
256,192,123899,1,0,0:0:0:0:
402,192,123985,1,0,0:0:0:0:
475,192,123985,128,0,124071:0:0:0:0:
109,192,124071,1,0,0:0:0:0:
256,192,124071,128,0,124157:0:0:0:0:
329,192,124071,1,0,0:0:0:0:
402,192,124157,128,0,124414:0:0:0:0:
475,192,124157,1,0,0:0:0:0:
109,192,124242,128,0,124671:0:0:0:0:
256,192,124242,1,0,0:0:0:0:
182,192,124242,1,0,0:0:0:0:
329,192,124242,128,0,124328:0:0:0:0:
475,192,124328,128,0,124414:0:0:0:0:
36,192,124414,1,0,0:0:0:0:
256,192,124414,128,0,124499:0:0:0:0:
402,192,124499,1,0,0:0:0:0:
475,192,124585,128,0,125014:0:0:0:0:
182,192,124585,128,0,124671:0:0:0:0:
256,192,124585,1,0,0:0:0:0:
36,192,124585,128,0,124671:0:0:0:0:
329,192,124671,128,0,124757:0:0:0:0:
109,192,124757,1,0,0:0:0:0:
256,192,124757,1,0,0:0:0:0:
36,192,124842,1,0,0:0:0:0:
182,192,124842,1,0,0:0:0:0:
402,192,124928,128,0,125357:0:0:0:0:
329,192,124928,1,0,0:0:0:0:
109,192,124928,1,0,0:0:0:0:
256,192,124928,1,0,0:0:0:0:
475,192,125099,1,0,0:0:0:0:
109,192,125099,128,0,125185:0:0:0:0:
36,192,125099,1,0,0:0:0:0:
256,192,125185,128,0,125271:0:0:0:0:
329,192,125185,1,0,0:0:0:0:
475,192,125271,128,0,125699:0:0:0:0:
109,192,125271,1,0,0:0:0:0:
256,192,125357,1,0,0:0:0:0:
329,192,125442,1,0,0:0:0:0:
402,192,125442,1,0,0:0:0:0:
36,192,125442,1,0,0:0:0:0:
182,192,125528,1,0,0:0:0:0:
36,192,125614,1,0,0:0:0:0:
402,192,125614,128,0,125699:0:0:0:0:
329,192,125614,128,0,126042:0:0:0:0:
256,192,125614,1,0,0:0:0:0:
109,192,125614,1,0,0:0:0:0:
475,192,125785,1,0,0:0:0:0:
109,192,125785,1,0,0:0:0:0:
182,192,125957,128,0,126385:0:0:0:0:
256,192,125957,128,0,126042:0:0:0:0:
36,192,125957,1,0,0:0:0:0:
402,192,125957,1,0,0:0:0:0:
36,192,126042,128,0,126214:0:0:0:0:
329,192,126128,1,0,0:0:0:0:
475,192,126128,1,0,0:0:0:0:
475,192,126214,128,0,126385:0:0:0:0:
402,192,126214,1,0,0:0:0:0:
329,192,126299,128,0,126728:0:0:0:0:
256,192,126299,128,0,126385:0:0:0:0:
36,192,126299,1,0,0:0:0:0:
109,192,126299,128,0,126385:0:0:0:0:
36,192,126471,1,0,0:0:0:0:
182,192,126471,1,0,0:0:0:0:
402,192,126471,128,0,126557:0:0:0:0:
109,192,126557,1,0,0:0:0:0:
36,192,126557,128,0,126728:0:0:0:0:
475,192,126557,1,0,0:0:0:0:
182,192,126642,128,0,127071:0:0:0:0:
256,192,126642,128,0,126728:0:0:0:0:
402,192,126642,1,0,0:0:0:0:
475,192,126728,128,0,126814:0:0:0:0:
109,192,126814,128,0,126899:0:0:0:0:
329,192,126814,1,0,0:0:0:0:
256,192,126814,1,0,0:0:0:0:
475,192,126899,1,0,0:0:0:0:
402,192,126899,128,0,126985:0:0:0:0:
256,192,126985,128,0,127071:0:0:0:0:
109,192,126985,1,0,0:0:0:0:
36,192,126985,128,0,127071:0:0:0:0:
329,192,126985,128,0,127371:0:0:0:0:
475,192,127071,128,0,127157:0:0:0:0:
109,192,127157,128,0,127242:0:0:0:0:
182,192,127157,1,0,0:0:0:0:
402,192,127242,1,0,0:0:0:0:
36,192,127328,128,0,127757:0:0:0:0:
256,192,127328,128,0,127414:0:0:0:0:
109,192,127328,1,0,0:0:0:0:
475,192,127328,1,0,0:0:0:0:
182,192,127371,128,0,127585:0:0:0:0:
402,192,127414,128,0,127499:0:0:0:0:
256,192,127499,1,0,0:0:0:0:
402,192,127585,1,0,0:0:0:0:
109,192,127671,128,0,128099:0:0:0:0:
256,192,127671,1,0,0:0:0:0:
182,192,127671,1,0,0:0:0:0:
329,192,127671,128,0,128271:0:0:0:0:
475,192,127671,1,0,0:0:0:0:
36,192,127842,1,0,0:0:0:0:
256,192,127842,128,0,127928:0:0:0:0:
402,192,127842,1,0,0:0:0:0:
475,192,127928,128,0,128014:0:0:0:0:
36,192,128014,128,0,128442:0:0:0:0:
182,192,128014,1,0,0:0:0:0:
256,192,128099,1,0,0:0:0:0:
109,192,128185,1,0,0:0:0:0:
475,192,128185,1,0,0:0:0:0:
402,192,128185,128,0,128614:0:0:0:0:
182,192,128185,128,0,128271:0:0:0:0:
109,192,128357,128,0,128785:0:0:0:0:
182,192,128357,1,0,0:0:0:0:
256,192,128357,1,0,0:0:0:0:
329,192,128357,1,0,0:0:0:0:
36,192,128528,1,0,0:0:0:0:
256,192,128528,128,0,128614:0:0:0:0:
36,192,128699,128,0,128785:0:0:0:0:
475,192,128699,128,0,129128:0:0:0:0:
256,192,128699,1,0,0:0:0:0:
402,192,128699,1,0,0:0:0:0:
182,192,128699,128,0,129128:0:0:0:0:
329,192,128785,128,0,128871:0:0:0:0:
109,192,128871,1,0,0:0:0:0:
256,192,128957,128,0,129128:0:0:0:0:
402,192,129042,128,0,129471:0:0:0:0:
329,192,129042,1,0,0:0:0:0:
109,192,129042,1,0,0:0:0:0:
36,192,129042,1,0,0:0:0:0:
475,192,129214,1,0,0:0:0:0:
329,192,129214,128,0,129385:0:0:0:0:
109,192,129214,128,0,129299:0:0:0:0:
182,192,129214,1,0,0:0:0:0:
36,192,129299,128,0,129471:0:0:0:0:
256,192,129299,128,0,129385:0:0:0:0:
475,192,129385,128,0,129814:0:0:0:0:
109,192,129385,1,0,0:0:0:0:
182,192,129385,128,0,129642:0:0:0:0:
256,192,129471,1,0,0:0:0:0:
329,192,129471,128,0,129557:0:0:0:0:
402,192,129557,1,0,0:0:0:0:
109,192,129557,128,0,129642:0:0:0:0:
36,192,129557,1,0,0:0:0:0:
329,192,129642,1,0,0:0:0:0:
256,192,129642,128,0,129899:0:0:0:0:
402,192,129728,128,0,130157:0:0:0:0:
109,192,129728,128,0,129985:0:0:0:0:
36,192,129728,128,0,129814:0:0:0:0:
182,192,129728,1,0,0:0:0:0:
329,192,129814,128,0,129899:0:0:0:0:
475,192,129899,1,0,0:0:0:0:
36,192,129899,1,0,0:0:0:0:
182,192,129985,1,0,0:0:0:0:
36,192,130071,128,0,130499:0:0:0:0:
256,192,130071,1,0,0:0:0:0:
329,192,130071,128,0,130157:0:0:0:0:
475,192,130071,128,0,130157:0:0:0:0:
182,192,130157,128,0,130242:0:0:0:0:
402,192,130242,1,0,0:0:0:0:
256,192,130242,1,0,0:0:0:0:
329,192,130328,1,0,0:0:0:0:
475,192,130328,1,0,0:0:0:0:
109,192,130414,128,0,130842:0:0:0:0:
402,192,130414,1,0,0:0:0:0:
256,192,130414,1,0,0:0:0:0:
182,192,130414,1,0,0:0:0:0:
36,192,130585,1,0,0:0:0:0:
402,192,130585,128,0,130671:0:0:0:0:
475,192,130585,1,0,0:0:0:0:
256,192,130671,128,0,130757:0:0:0:0:
182,192,130671,1,0,0:0:0:0:
36,192,130757,128,0,131185:0:0:0:0:
402,192,130757,1,0,0:0:0:0:
256,192,130842,1,0,0:0:0:0:
109,192,130928,1,0,0:0:0:0:
182,192,130928,1,0,0:0:0:0:
475,192,130928,1,0,0:0:0:0:
329,192,131014,1,0,0:0:0:0:
475,192,131099,1,0,0:0:0:0:
256,192,131099,1,0,0:0:0:0:
182,192,131099,128,0,131528:0:0:0:0:
109,192,131099,128,0,131185:0:0:0:0:
402,192,131099,1,0,0:0:0:0:
36,192,131271,1,0,0:0:0:0:
329,192,131271,1,0,0:0:0:0:
475,192,131442,128,0,131785:0:0:0:0:
36,192,131442,128,0,131528:0:0:0:0:
109,192,131442,1,0,0:0:0:0:
402,192,131442,1,0,0:0:0:0:
256,192,131528,1,0,0:0:0:0:
329,192,131571,1,0,0:0:0:0:
402,192,131614,1,0,0:0:0:0:
109,192,131614,1,0,0:0:0:0:
36,192,131614,1,0,0:0:0:0:
182,192,131699,1,0,0:0:0:0:
256,192,131699,1,0,0:0:0:0:
36,192,131785,128,0,132128:0:0:0:0:
402,192,131785,1,0,0:0:0:0:
109,192,131785,1,0,0:0:0:0:
329,192,131785,1,0,0:0:0:0:
475,192,131957,1,0,0:0:0:0:
182,192,131957,1,0,0:0:0:0:
256,192,131957,1,0,0:0:0:0:
329,192,132042,1,0,0:0:0:0:
109,192,132042,1,0,0:0:0:0:
475,192,132128,128,0,132471:0:0:0:0:
182,192,132214,1,0,0:0:0:0:
402,192,132214,1,0,0:0:0:0:
36,192,132299,1,0,0:0:0:0:
329,192,132299,1,0,0:0:0:0:
256,192,132299,1,0,0:0:0:0:
36,192,132471,128,0,132642:0:0:0:0:
256,192,132471,1,0,0:0:0:0:
402,192,132471,1,0,0:0:0:0:
109,192,132471,1,0,0:0:0:0:
329,192,132642,1,0,0:0:0:0:
475,192,132642,1,0,0:0:0:0:
182,192,132685,1,0,0:0:0:0:
109,192,132728,1,0,0:0:0:0:
36,192,132814,128,0,132985:0:0:0:0:
256,192,132814,1,0,0:0:0:0:
329,192,132814,128,0,132985:0:0:0:0:
402,192,132814,128,0,133157:0:0:0:0:
475,192,132814,128,0,133328:0:0:0:0:
109,192,132899,128,0,133071:0:0:0:0:
182,192,132985,128,0,133157:0:0:0:0:
256,192,133071,128,0,133242:0:0:0:0:
36,192,133157,128,0,133242:0:0:0:0:
329,192,133157,1,0,0:0:0:0:
182,192,133242,128,0,133328:0:0:0:0:
109,192,133328,128,0,133414:0:0:0:0:
402,192,133328,1,0,0:0:0:0:
182,192,133414,128,0,133499:0:0:0:0:
329,192,133499,1,0,0:0:0:0:
402,192,133499,1,0,0:0:0:0:
475,192,133499,1,0,0:0:0:0:
36,192,133499,1,0,0:0:0:0:
256,192,133585,1,0,0:0:0:0:
36,192,133671,1,0,0:0:0:0:
109,192,133671,1,0,0:0:0:0:
475,192,133671,1,0,0:0:0:0:
256,192,133757,1,0,0:0:0:0:
182,192,133842,1,0,0:0:0:0:
109,192,133842,1,0,0:0:0:0:
402,192,133842,1,0,0:0:0:0:
329,192,133928,1,0,0:0:0:0:
329,192,134014,1,0,0:0:0:0:
402,192,134099,1,0,0:0:0:0:
182,192,134099,1,0,0:0:0:0:
475,192,134185,128,0,134357:0:0:0:0:
256,192,134185,128,0,134528:0:0:0:0:
36,192,134185,128,0,134871:0:0:0:0:
402,192,134271,128,0,134442:0:0:0:0:
329,192,134357,128,0,134528:0:0:0:0:
109,192,134357,1,0,0:0:0:0:
182,192,134442,128,0,134614:0:0:0:0:
402,192,134528,128,0,134614:0:0:0:0:
475,192,134528,1,0,0:0:0:0:
256,192,134614,128,0,134699:0:0:0:0:
329,192,134699,128,0,134785:0:0:0:0:
475,192,134699,1,0,0:0:0:0:
182,192,134699,1,0,0:0:0:0:
109,192,134785,128,0,134871:0:0:0:0:
256,192,134871,128,0,135471:0:0:0:0:
329,192,134871,1,0,0:0:0:0:
402,192,134871,1,0,0:0:0:0:
475,192,134871,1,0,0:0:0:0:
182,192,134871,1,0,0:0:0:0:
36,192,134957,1,0,0:0:0:0:
182,192,135042,1,0,0:0:0:0:
329,192,135128,1,0,0:0:0:0:
109,192,135214,1,0,0:0:0:0:
475,192,135214,1,0,0:0:0:0:
402,192,135214,1,0,0:0:0:0:
36,192,135299,1,0,0:0:0:0:
36,192,135385,1,0,0:0:0:0:
109,192,135471,1,0,0:0:0:0:
402,192,135471,1,0,0:0:0:0:
329,192,135557,128,0,136071:0:0:0:0:
182,192,135557,128,0,135728:0:0:0:0:
256,192,135557,1,0,0:0:0:0:
475,192,135557,128,0,135814:0:0:0:0:
109,192,135642,128,0,135814:0:0:0:0:
36,192,135728,128,0,135899:0:0:0:0:
402,192,135728,1,0,0:0:0:0:
256,192,135814,128,0,135985:0:0:0:0:
109,192,135899,128,0,135985:0:0:0:0:
475,192,135899,1,0,0:0:0:0:
36,192,135985,128,0,136071:0:0:0:0:
256,192,136071,128,0,136157:0:0:0:0:
402,192,136071,1,0,0:0:0:0:
182,192,136157,128,0,136242:0:0:0:0:
329,192,136242,1,0,0:0:0:0:
475,192,136242,1,0,0:0:0:0:
36,192,136242,1,0,0:0:0:0:
109,192,136242,1,0,0:0:0:0:
256,192,136328,1,0,0:0:0:0:
182,192,136414,1,0,0:0:0:0:
36,192,136414,1,0,0:0:0:0:
475,192,136414,1,0,0:0:0:0:
256,192,136499,1,0,0:0:0:0:
475,192,136585,1,0,0:0:0:0:
109,192,136585,1,0,0:0:0:0:
402,192,136585,1,0,0:0:0:0:
182,192,136671,1,0,0:0:0:0:
182,192,136757,1,0,0:0:0:0:
109,192,136842,1,0,0:0:0:0:
329,192,136842,1,0,0:0:0:0:
256,192,136928,128,0,137299:0:0:0:0:
475,192,136928,128,0,137014:0:0:0:0:
182,192,136928,1,0,0:0:0:0:
402,192,137014,128,0,137099:0:0:0:0:
329,192,137099,128,0,137185:0:0:0:0:
109,192,137099,1,0,0:0:0:0:
36,192,137099,1,0,0:0:0:0:
475,192,137185,1,0,0:0:0:0:
329,192,137271,128,0,137328:0:0:0:0:
36,192,137271,128,0,137442:0:0:0:0:
402,192,137299,128,0,137357:0:0:0:0:
475,192,137328,128,0,137957:0:0:0:0:
109,192,137357,128,0,137528:0:0:0:0:
182,192,137442,128,0,137614:0:0:0:0:
329,192,137442,1,0,0:0:0:0:
256,192,137442,1,0,0:0:0:0:
402,192,137528,1,0,0:0:0:0:
109,192,137614,128,0,137699:0:0:0:0:
36,192,137614,1,0,0:0:0:0:
256,192,137642,1,0,0:0:0:0:
329,192,137671,1,0,0:0:0:0:
402,192,137699,128,0,137957:0:0:0:0:
182,192,137699,128,0,137785:0:0:0:0:
256,192,137785,128,0,137871:0:0:0:0:
182,192,137871,128,0,137957:0:0:0:0:
36,192,137957,128,0,138299:0:0:0:0:
329,192,137957,1,0,0:0:0:0:
109,192,137957,128,0,138042:0:0:0:0:
256,192,138042,1,0,0:0:0:0:
256,192,138128,1,0,0:0:0:0:
329,192,138214,1,0,0:0:0:0:
402,192,138214,1,0,0:0:0:0:
256,192,138299,128,0,138642:0:0:0:0:
475,192,138299,128,0,138814:0:0:0:0:
182,192,138299,1,0,0:0:0:0:
109,192,138299,128,0,138471:0:0:0:0:
402,192,138385,128,0,138557:0:0:0:0:
182,192,138471,128,0,138642:0:0:0:0:
36,192,138471,1,0,0:0:0:0:
329,192,138557,128,0,138728:0:0:0:0:
109,192,138642,128,0,138728:0:0:0:0:
402,192,138642,1,0,0:0:0:0:
256,192,138728,128,0,138814:0:0:0:0:
36,192,138814,128,0,138899:0:0:0:0:
329,192,138814,1,0,0:0:0:0:
182,192,138899,128,0,138985:0:0:0:0:
475,192,138985,1,0,0:0:0:0:
256,192,138985,1,0,0:0:0:0:
402,192,138985,1,0,0:0:0:0:
36,192,138985,1,0,0:0:0:0:
109,192,139071,1,0,0:0:0:0:
182,192,139157,1,0,0:0:0:0:
329,192,139157,1,0,0:0:0:0:
475,192,139157,1,0,0:0:0:0:
109,192,139242,1,0,0:0:0:0:
256,192,139328,1,0,0:0:0:0:
329,192,139328,1,0,0:0:0:0:
402,192,139328,1,0,0:0:0:0:
36,192,139414,1,0,0:0:0:0:
36,192,139499,1,0,0:0:0:0:
256,192,139585,1,0,0:0:0:0:
402,192,139585,1,0,0:0:0:0:
182,192,139671,128,0,140014:0:0:0:0:
475,192,139671,128,0,139842:0:0:0:0:
36,192,139671,128,0,140357:0:0:0:0:
402,192,139757,128,0,139928:0:0:0:0:
329,192,139842,128,0,140014:0:0:0:0:
256,192,139842,1,0,0:0:0:0:
109,192,139928,128,0,140099:0:0:0:0:
402,192,140014,128,0,140099:0:0:0:0:
475,192,140014,1,0,0:0:0:0:
256,192,140057,1,0,0:0:0:0:
182,192,140099,128,0,140185:0:0:0:0:
329,192,140142,128,0,140228:0:0:0:0:
475,192,140185,128,0,140271:0:0:0:0:
109,192,140185,1,0,0:0:0:0:
256,192,140271,128,0,140357:0:0:0:0:
402,192,140314,1,0,0:0:0:0:
182,192,140357,1,0,0:0:0:0:
109,192,140357,1,0,0:0:0:0:
475,192,140357,1,0,0:0:0:0:
329,192,140357,128,0,140699:0:0:0:0:
256,192,140528,1,0,0:0:0:0:
36,192,140528,1,0,0:0:0:0:
182,192,140614,1,0,0:0:0:0:
475,192,140699,1,0,0:0:0:0:
109,192,140699,128,0,140785:0:0:0:0:
256,192,140742,1,0,0:0:0:0:
329,192,140785,128,0,140871:0:0:0:0:
182,192,140828,128,0,140914:0:0:0:0:
36,192,140871,128,0,140957:0:0:0:0:
475,192,140871,1,0,0:0:0:0:
402,192,140914,1,0,0:0:0:0:
256,192,140957,128,0,141042:0:0:0:0:
109,192,140999,1,0,0:0:0:0:
36,192,141042,128,0,141214:0:0:0:0:
402,192,141042,128,0,141557:0:0:0:0:
329,192,141042,1,0,0:0:0:0:
475,192,141042,128,0,141128:0:0:0:0:
182,192,141128,128,0,141299:0:0:0:0:
329,192,141214,128,0,141385:0:0:0:0:
475,192,141299,128,0,141471:0:0:0:0:
256,192,141385,128,0,141471:0:0:0:0:
36,192,141385,1,0,0:0:0:0:
182,192,141471,128,0,141557:0:0:0:0:
329,192,141557,128,0,141642:0:0:0:0:
109,192,141557,1,0,0:0:0:0:
256,192,141642,128,0,141728:0:0:0:0:
182,192,141728,1,0,0:0:0:0:
109,192,141728,1,0,0:0:0:0:
36,192,141728,1,0,0:0:0:0:
475,192,141728,1,0,0:0:0:0:
402,192,141814,1,0,0:0:0:0:
329,192,141899,1,0,0:0:0:0:
256,192,141899,1,0,0:0:0:0:
36,192,141899,1,0,0:0:0:0:
402,192,141985,1,0,0:0:0:0:
329,192,142071,128,0,142271:0:0:0:0:
109,192,142071,1,0,0:0:0:0:
182,192,142071,1,0,0:0:0:0:
475,192,142157,1,0,0:0:0:0:
256,192,142242,128,0,142299:0:0:0:0:
475,192,142242,1,0,0:0:0:0:
182,192,142271,128,0,142414:0:0:0:0:
109,192,142414,1,0,0:0:0:0:
36,192,142414,128,0,143099:0:0:0:0:
329,192,142414,128,0,142585:0:0:0:0:
402,192,142499,128,0,142671:0:0:0:0:
182,192,142585,1,0,0:0:0:0:
475,192,142585,128,0,142757:0:0:0:0:
256,192,142585,1,0,0:0:0:0:
329,192,142671,1,0,0:0:0:0:
109,192,142757,128,0,143099:0:0:0:0:
256,192,142757,128,0,142842:0:0:0:0:
329,192,142842,128,0,142928:0:0:0:0:
402,192,142928,128,0,143014:0:0:0:0:
182,192,142928,1,0,0:0:0:0:
475,192,142928,1,0,0:0:0:0:
256,192,143014,1,0,0:0:0:0:
402,192,143099,128,0,143442:0:0:0:0:
329,192,143099,1,0,0:0:0:0:
182,192,143099,128,0,143185:0:0:0:0:
475,192,143099,128,0,143957:0:0:0:0:
109,192,143185,128,0,143271:0:0:0:0:
182,192,143271,128,0,143357:0:0:0:0:
329,192,143357,128,0,143442:0:0:0:0:
256,192,143442,128,0,143699:0:0:0:0:
109,192,143442,1,0,0:0:0:0:
36,192,143442,1,0,0:0:0:0:
402,192,143528,1,0,0:0:0:0:
402,192,143614,1,0,0:0:0:0:
109,192,143699,1,0,0:0:0:0:
329,192,143699,1,0,0:0:0:0:
36,192,143785,128,0,144299:0:0:0:0:
182,192,143785,1,0,0:0:0:0:
256,192,143785,128,0,143871:0:0:0:0:
402,192,143871,128,0,144042:0:0:0:0:
329,192,143957,128,0,144128:0:0:0:0:
109,192,143957,128,0,144042:0:0:0:0:
256,192,144042,128,0,144214:0:0:0:0:
475,192,144128,128,0,144214:0:0:0:0:
182,192,144128,1,0,0:0:0:0:
329,192,144214,128,0,144299:0:0:0:0:
402,192,144299,128,0,144385:0:0:0:0:
109,192,144299,1,0,0:0:0:0:
329,192,144385,128,0,144471:0:0:0:0:
109,192,144471,1,0,0:0:0:0:
36,192,144471,1,0,0:0:0:0:
182,192,144471,1,0,0:0:0:0:
475,192,144471,1,0,0:0:0:0:
256,192,144557,1,0,0:0:0:0:
475,192,144642,1,0,0:0:0:0:
402,192,144642,1,0,0:0:0:0:
36,192,144642,1,0,0:0:0:0:
256,192,144728,1,0,0:0:0:0:
329,192,144814,1,0,0:0:0:0:
402,192,144814,1,0,0:0:0:0:
109,192,144814,1,0,0:0:0:0:
182,192,144899,1,0,0:0:0:0:
182,192,144985,1,0,0:0:0:0:
109,192,145071,1,0,0:0:0:0:
329,192,145071,1,0,0:0:0:0:
36,192,145157,128,0,145328:0:0:0:0:
256,192,145157,128,0,145499:0:0:0:0:
475,192,145157,128,0,145842:0:0:0:0:
109,192,145242,128,0,145414:0:0:0:0:
182,192,145328,128,0,145499:0:0:0:0:
402,192,145328,1,0,0:0:0:0:
329,192,145414,128,0,145585:0:0:0:0:
109,192,145499,128,0,145585:0:0:0:0:
36,192,145499,1,0,0:0:0:0:
256,192,145585,128,0,145671:0:0:0:0:
182,192,145671,128,0,145757:0:0:0:0:
36,192,145671,1,0,0:0:0:0:
329,192,145671,1,0,0:0:0:0:
402,192,145757,128,0,145842:0:0:0:0:
256,192,145842,128,0,146442:0:0:0:0:
182,192,145842,1,0,0:0:0:0:
109,192,145842,1,0,0:0:0:0:
36,192,145842,1,0,0:0:0:0:
329,192,145842,1,0,0:0:0:0:
475,192,145928,1,0,0:0:0:0:
329,192,146014,1,0,0:0:0:0:
182,192,146099,1,0,0:0:0:0:
402,192,146185,1,0,0:0:0:0:
36,192,146185,1,0,0:0:0:0:
109,192,146185,1,0,0:0:0:0:
475,192,146271,1,0,0:0:0:0:
475,192,146357,1,0,0:0:0:0:
402,192,146442,1,0,0:0:0:0:
109,192,146442,1,0,0:0:0:0:
182,192,146528,128,0,147042:0:0:0:0:
329,192,146528,128,0,146699:0:0:0:0:
256,192,146528,1,0,0:0:0:0:
36,192,146528,128,0,146785:0:0:0:0:
402,192,146614,128,0,146785:0:0:0:0:
475,192,146699,128,0,146871:0:0:0:0:
109,192,146699,1,0,0:0:0:0:
256,192,146785,128,0,146957:0:0:0:0:
402,192,146871,128,0,146957:0:0:0:0:
36,192,146871,1,0,0:0:0:0:
475,192,146957,128,0,147042:0:0:0:0:
256,192,147042,128,0,147128:0:0:0:0:
109,192,147042,1,0,0:0:0:0:
329,192,147128,128,0,147214:0:0:0:0:
182,192,147214,1,0,0:0:0:0:
36,192,147214,1,0,0:0:0:0:
475,192,147214,1,0,0:0:0:0:
402,192,147214,1,0,0:0:0:0:
256,192,147299,1,0,0:0:0:0:
329,192,147385,1,0,0:0:0:0:
475,192,147385,1,0,0:0:0:0:
36,192,147385,1,0,0:0:0:0:
256,192,147471,1,0,0:0:0:0:
36,192,147557,1,0,0:0:0:0:
402,192,147557,1,0,0:0:0:0:
109,192,147557,1,0,0:0:0:0:
329,192,147642,1,0,0:0:0:0:
329,192,147728,1,0,0:0:0:0:
402,192,147814,1,0,0:0:0:0:
182,192,147814,1,0,0:0:0:0:
36,192,147899,128,0,147985:0:0:0:0:
256,192,147899,128,0,148242:0:0:0:0:
475,192,147899,1,0,0:0:0:0:
109,192,147985,128,0,148071:0:0:0:0:
182,192,148071,128,0,148157:0:0:0:0:
402,192,148071,1,0,0:0:0:0:
329,192,148071,1,0,0:0:0:0:
109,192,148157,1,0,0:0:0:0:
475,192,148242,128,0,148414:0:0:0:0:
36,192,148242,128,0,148928:0:0:0:0:
329,192,148242,1,0,0:0:0:0:
402,192,148328,128,0,148499:0:0:0:0:
329,192,148414,128,0,148585:0:0:0:0:
109,192,148414,1,0,0:0:0:0:
182,192,148414,1,0,0:0:0:0:
256,192,148499,1,0,0:0:0:0:
402,192,148585,128,0,148671:0:0:0:0:
475,192,148585,1,0,0:0:0:0:
109,192,148585,128,0,148928:0:0:0:0:
182,192,148585,1,0,0:0:0:0:
329,192,148671,128,0,148757:0:0:0:0:
256,192,148757,128,0,148842:0:0:0:0:
329,192,148842,128,0,148928:0:0:0:0:
475,192,148928,128,0,149271:0:0:0:0:
182,192,148928,1,0,0:0:0:0:
402,192,148928,128,0,149014:0:0:0:0:
256,192,149014,1,0,0:0:0:0:
256,192,149099,1,0,0:0:0:0:
182,192,149185,1,0,0:0:0:0:
109,192,149185,1,0,0:0:0:0:
256,192,149271,128,0,149614:0:0:0:0:
36,192,149271,128,0,149785:0:0:0:0:
329,192,149271,1,0,0:0:0:0:
402,192,149271,128,0,149442:0:0:0:0:
109,192,149357,128,0,149528:0:0:0:0:
329,192,149442,128,0,149614:0:0:0:0:
475,192,149442,1,0,0:0:0:0:
182,192,149528,128,0,149699:0:0:0:0:
402,192,149614,128,0,149699:0:0:0:0:
109,192,149614,1,0,0:0:0:0:
256,192,149699,128,0,149785:0:0:0:0:
475,192,149785,128,0,149871:0:0:0:0:
182,192,149785,1,0,0:0:0:0:
329,192,149871,128,0,149957:0:0:0:0:
36,192,149957,1,0,0:0:0:0:
256,192,149957,1,0,0:0:0:0:
109,192,149957,1,0,0:0:0:0:
475,192,149957,1,0,0:0:0:0:
402,192,150042,1,0,0:0:0:0:
329,192,150128,1,0,0:0:0:0:
182,192,150128,1,0,0:0:0:0:
36,192,150128,1,0,0:0:0:0:
402,192,150214,1,0,0:0:0:0:
256,192,150299,1,0,0:0:0:0:
182,192,150299,1,0,0:0:0:0:
109,192,150299,1,0,0:0:0:0:
475,192,150385,1,0,0:0:0:0:
475,192,150471,1,0,0:0:0:0:
256,192,150557,1,0,0:0:0:0:
109,192,150557,1,0,0:0:0:0:
329,192,150642,128,0,150985:0:0:0:0:
36,192,150642,128,0,150814:0:0:0:0:
475,192,150642,128,0,151328:0:0:0:0:
109,192,150728,128,0,150899:0:0:0:0:
182,192,150814,128,0,150985:0:0:0:0:
256,192,150814,1,0,0:0:0:0:
402,192,150899,128,0,151071:0:0:0:0:
109,192,150985,128,0,151071:0:0:0:0:
36,192,150985,1,0,0:0:0:0:
256,192,151028,1,0,0:0:0:0:
329,192,151071,128,0,151157:0:0:0:0:
182,192,151114,128,0,151199:0:0:0:0:
36,192,151157,128,0,151242:0:0:0:0:
402,192,151157,1,0,0:0:0:0:
256,192,151242,128,0,151328:0:0:0:0:
109,192,151285,1,0,0:0:0:0:
329,192,151328,1,0,0:0:0:0:
402,192,151328,1,0,0:0:0:0:
36,192,151328,1,0,0:0:0:0:
182,192,151328,128,0,151671:0:0:0:0:
109,192,151414,1,0,0:0:0:0:
256,192,151499,1,0,0:0:0:0:
475,192,151499,1,0,0:0:0:0:
329,192,151585,1,0,0:0:0:0:
36,192,151671,1,0,0:0:0:0:
402,192,151671,128,0,151757:0:0:0:0:
256,192,151714,1,0,0:0:0:0:
182,192,151757,128,0,151842:0:0:0:0:
329,192,151799,128,0,151885:0:0:0:0:
475,192,151842,128,0,151928:0:0:0:0:
36,192,151842,1,0,0:0:0:0:
109,192,151885,1,0,0:0:0:0:
256,192,151928,128,0,152014:0:0:0:0:
402,192,151971,1,0,0:0:0:0:
475,192,152014,128,0,152185:0:0:0:0:
109,192,152014,128,0,152528:0:0:0:0:
182,192,152014,1,0,0:0:0:0:
36,192,152014,128,0,152099:0:0:0:0:
329,192,152099,128,0,152271:0:0:0:0:
182,192,152185,128,0,152357:0:0:0:0:
36,192,152271,128,0,152442:0:0:0:0:
256,192,152357,128,0,152442:0:0:0:0:
475,192,152357,1,0,0:0:0:0:
329,192,152442,128,0,152528:0:0:0:0:
182,192,152528,128,0,152614:0:0:0:0:
402,192,152528,1,0,0:0:0:0:
256,192,152614,128,0,152699:0:0:0:0:
329,192,152699,1,0,0:0:0:0:
402,192,152699,1,0,0:0:0:0:
475,192,152699,1,0,0:0:0:0:
36,192,152699,1,0,0:0:0:0:
109,192,152785,1,0,0:0:0:0:
182,192,152871,1,0,0:0:0:0:
256,192,152871,1,0,0:0:0:0:
475,192,152871,1,0,0:0:0:0:
109,192,152957,1,0,0:0:0:0:
256,192,153042,1,0,0:0:0:0:
402,192,153042,1,0,0:0:0:0:
475,192,153042,1,0,0:0:0:0:
36,192,153128,1,0,0:0:0:0:
36,192,153214,1,0,0:0:0:0:
182,192,153299,1,0,0:0:0:0:
402,192,153299,1,0,0:0:0:0:
256,192,153385,128,0,154671:0:0:0:0:
36,192,153385,128,0,154071:0:0:0:0:
329,192,153385,128,0,153728:0:0:0:0:
109,192,153728,128,0,154414:0:0:0:0:
402,192,153728,128,0,154414:0:0:0:0:
475,192,154071,128,0,154671:0:0:0:0:
182,192,154071,1,0,0:0:0:0:
329,192,154071,1,0,0:0:0:0:
182,192,154414,128,0,154671:0:0:0:0:
402,192,154757,128,0,154928:0:0:0:0:
475,192,154757,128,0,154799:0:0:0:0:
182,192,154757,1,0,0:0:0:0:
109,192,154757,128,0,155185:0:0:0:0:
36,192,154757,1,0,0:0:0:0:
256,192,154799,1,0,0:0:0:0:
329,192,154842,128,0,154971:0:0:0:0:
256,192,154928,128,0,155014:0:0:0:0:
475,192,154928,1,0,0:0:0:0:
402,192,155014,1,0,0:0:0:0:
182,192,155014,128,0,155185:0:0:0:0:
329,192,155099,1,0,0:0:0:0:
256,192,155099,1,0,0:0:0:0:
475,192,155099,128,0,155699:0:0:0:0:
36,192,155099,1,0,0:0:0:0:
182,192,155271,128,0,155442:0:0:0:0:
402,192,155271,1,0,0:0:0:0:
109,192,155271,128,0,155314:0:0:0:0:
36,192,155271,128,0,155871:0:0:0:0:
329,192,155314,1,0,0:0:0:0:
256,192,155357,128,0,155485:0:0:0:0:
329,192,155442,128,0,155528:0:0:0:0:
109,192,155442,1,0,0:0:0:0:
182,192,155528,1,0,0:0:0:0:
402,192,155528,128,0,155699:0:0:0:0:
256,192,155614,1,0,0:0:0:0:
329,192,155614,1,0,0:0:0:0:
109,192,155699,128,0,155871:0:0:0:0:
182,192,155785,1,0,0:0:0:0:
402,192,155785,1,0,0:0:0:0:
475,192,155785,1,0,0:0:0:0:
256,192,155785,1,0,0:0:0:0:
329,192,155871,1,0,0:0:0:0:
109,192,155957,1,0,0:0:0:0:
402,192,155957,1,0,0:0:0:0:
256,192,155957,1,0,0:0:0:0:
402,192,156128,128,0,156171:0:0:0:0:
329,192,156128,128,0,156214:0:0:0:0:
475,192,156128,128,0,156642:0:0:0:0:
256,192,156171,128,0,156428:0:0:0:0:
182,192,156214,128,0,156257:0:0:0:0:
109,192,156214,128,0,156299:0:0:0:0:
36,192,156257,128,0,156514:0:0:0:0:
402,192,156299,1,0,0:0:0:0:
182,192,156385,1,0,0:0:0:0:
329,192,156385,128,0,156471:0:0:0:0:
109,192,156471,128,0,156557:0:0:0:0:
402,192,156471,128,0,156685:0:0:0:0:
182,192,156514,128,0,156771:0:0:0:0:
256,192,156557,1,0,0:0:0:0:
36,192,156642,1,0,0:0:0:0:
329,192,156642,128,0,156728:0:0:0:0:
256,192,156685,128,0,156814:0:0:0:0:
109,192,156728,128,0,156942:0:0:0:0:
402,192,156814,128,0,156899:0:0:0:0:
329,192,156814,128,0,156857:0:0:0:0:
36,192,156814,128,0,157328:0:0:0:0:
475,192,156857,128,0,157071:0:0:0:0:
182,192,156899,128,0,156985:0:0:0:0:
256,192,156942,128,0,157157:0:0:0:0:
402,192,156985,128,0,157242:0:0:0:0:
329,192,157028,128,0,157071:0:0:0:0:
182,192,157071,128,0,157328:0:0:0:0:
109,192,157114,128,0,157157:0:0:0:0:
475,192,157157,128,0,157199:0:0:0:0:
329,192,157157,128,0,157328:0:0:0:0:
256,192,157242,1,0,0:0:0:0:
402,192,157328,1,0,0:0:0:0:
109,192,157328,1,0,0:0:0:0:
475,192,157328,1,0,0:0:0:0:
402,192,157499,128,0,157671:0:0:0:0:
36,192,157499,128,0,157542:0:0:0:0:
182,192,157499,1,0,0:0:0:0:
109,192,157499,128,0,157928:0:0:0:0:
475,192,157499,1,0,0:0:0:0:
256,192,157542,1,0,0:0:0:0:
329,192,157585,128,0,157714:0:0:0:0:
256,192,157671,128,0,157757:0:0:0:0:
36,192,157671,1,0,0:0:0:0:
402,192,157757,1,0,0:0:0:0:
182,192,157757,128,0,157928:0:0:0:0:
329,192,157842,1,0,0:0:0:0:
256,192,157842,1,0,0:0:0:0:
36,192,157842,128,0,158442:0:0:0:0:
475,192,157842,1,0,0:0:0:0:
329,192,158014,128,0,158185:0:0:0:0:
109,192,158014,1,0,0:0:0:0:
475,192,158014,128,0,158057:0:0:0:0:
402,192,158014,128,0,158614:0:0:0:0:
182,192,158057,1,0,0:0:0:0:
256,192,158099,128,0,158228:0:0:0:0:
182,192,158185,128,0,158271:0:0:0:0:
475,192,158185,1,0,0:0:0:0:
329,192,158271,1,0,0:0:0:0:
109,192,158271,128,0,158442:0:0:0:0:
256,192,158357,1,0,0:0:0:0:
182,192,158357,1,0,0:0:0:0:
475,192,158442,128,0,158614:0:0:0:0:
329,192,158528,1,0,0:0:0:0:
109,192,158528,1,0,0:0:0:0:
36,192,158528,1,0,0:0:0:0:
256,192,158528,1,0,0:0:0:0:
182,192,158614,1,0,0:0:0:0:
402,192,158699,1,0,0:0:0:0:
109,192,158699,1,0,0:0:0:0:
256,192,158699,1,0,0:0:0:0:
109,192,158871,1,0,0:0:0:0:
36,192,158871,1,0,0:0:0:0:
402,192,158871,128,0,158957:0:0:0:0:
475,192,158871,128,0,158914:0:0:0:0:
329,192,158914,128,0,159128:0:0:0:0:
182,192,158957,128,0,159042:0:0:0:0:
256,192,158957,128,0,158999:0:0:0:0:
109,192,158999,128,0,159214:0:0:0:0:
402,192,159042,128,0,159214:0:0:0:0:
36,192,159042,128,0,159128:0:0:0:0:
475,192,159128,128,0,159342:0:0:0:0:
182,192,159128,128,0,159299:0:0:0:0:
329,192,159214,1,0,0:0:0:0:
36,192,159214,128,0,159557:0:0:0:0:
256,192,159214,128,0,159428:0:0:0:0:
109,192,159299,1,0,0:0:0:0:
402,192,159299,128,0,159385:0:0:0:0:
329,192,159342,128,0,159599:0:0:0:0:
182,192,159385,128,0,159471:0:0:0:0:
109,192,159471,128,0,159685:0:0:0:0:
475,192,159471,1,0,0:0:0:0:
256,192,159557,1,0,0:0:0:0:
402,192,159557,128,0,159642:0:0:0:0:
475,192,159642,128,0,159985:0:0:0:0:
36,192,159642,1,0,0:0:0:0:
182,192,159642,128,0,159728:0:0:0:0:
256,192,159728,128,0,160071:0:0:0:0:
402,192,159728,128,0,159771:0:0:0:0:
329,192,159728,128,0,159814:0:0:0:0:
109,192,159814,128,0,159899:0:0:0:0:
182,192,159814,128,0,159857:0:0:0:0:
36,192,159899,1,0,0:0:0:0:
402,192,159899,128,0,159985:0:0:0:0:
329,192,159942,128,0,159985:0:0:0:0:
182,192,159985,128,0,160071:0:0:0:0:
109,192,160028,128,0,160071:0:0:0:0:
36,192,160071,1,0,0:0:0:0:
475,192,160071,1,0,0:0:0:0:
402,192,160071,1,0,0:0:0:0:
36,192,160242,128,0,160585:0:0:0:0:
475,192,160242,128,0,160414:0:0:0:0:
256,192,160242,1,0,0:0:0:0:
109,192,160242,128,0,160285:0:0:0:0:
329,192,160285,1,0,0:0:0:0:
182,192,160328,128,0,160414:0:0:0:0:
402,192,160328,128,0,160671:0:0:0:0:
329,192,160414,128,0,160499:0:0:0:0:
182,192,160499,1,0,0:0:0:0:
109,192,160499,128,0,160757:0:0:0:0:
329,192,160585,1,0,0:0:0:0:
256,192,160585,128,0,160671:0:0:0:0:
475,192,160585,128,0,160671:0:0:0:0:
36,192,160671,128,0,160928:0:0:0:0:
475,192,160757,128,0,161099:0:0:0:0:
182,192,160757,1,0,0:0:0:0:
402,192,160757,128,0,160799:0:0:0:0:
256,192,160799,1,0,0:0:0:0:
329,192,160842,128,0,160928:0:0:0:0:
109,192,160842,128,0,161185:0:0:0:0:
182,192,160928,128,0,161014:0:0:0:0:
329,192,161014,1,0,0:0:0:0:
402,192,161014,128,0,161099:0:0:0:0:
256,192,161099,128,0,161357:0:0:0:0:
182,192,161099,1,0,0:0:0:0:
36,192,161099,128,0,161185:0:0:0:0:
402,192,161185,128,0,161442:0:0:0:0:
475,192,161185,1,0,0:0:0:0:
329,192,161271,1,0,0:0:0:0:
182,192,161271,128,0,161357:0:0:0:0:
109,192,161271,1,0,0:0:0:0:
36,192,161271,128,0,161442:0:0:0:0:
475,192,161357,128,0,161442:0:0:0:0:
182,192,161442,1,0,0:0:0:0:
256,192,161442,1,0,0:0:0:0:
329,192,161442,1,0,0:0:0:0:
109,192,161614,128,0,161657:0:0:0:0:
182,192,161614,128,0,161699:0:0:0:0:
36,192,161614,128,0,162128:0:0:0:0:
256,192,161657,128,0,161914:0:0:0:0:
329,192,161699,128,0,161742:0:0:0:0:
402,192,161699,128,0,161785:0:0:0:0:
475,192,161742,128,0,161999:0:0:0:0:
109,192,161785,1,0,0:0:0:0:
329,192,161871,1,0,0:0:0:0:
182,192,161871,128,0,161957:0:0:0:0:
402,192,161957,128,0,162042:0:0:0:0:
109,192,161957,128,0,162171:0:0:0:0:
329,192,161999,128,0,162257:0:0:0:0:
256,192,162042,1,0,0:0:0:0:
475,192,162128,1,0,0:0:0:0:
182,192,162128,128,0,162214:0:0:0:0:
256,192,162171,128,0,162299:0:0:0:0:
402,192,162214,128,0,162428:0:0:0:0:
109,192,162299,128,0,162385:0:0:0:0:
182,192,162299,128,0,162342:0:0:0:0:
475,192,162299,128,0,162814:0:0:0:0:
36,192,162342,128,0,162557:0:0:0:0:
329,192,162385,128,0,162471:0:0:0:0:
256,192,162428,128,0,162642:0:0:0:0:
109,192,162471,128,0,162728:0:0:0:0:
182,192,162514,128,0,162557:0:0:0:0:
329,192,162557,128,0,162814:0:0:0:0:
402,192,162599,128,0,162642:0:0:0:0:
36,192,162642,128,0,162685:0:0:0:0:
182,192,162642,128,0,162814:0:0:0:0:
256,192,162728,1,0,0:0:0:0:
109,192,162814,1,0,0:0:0:0:
402,192,162814,1,0,0:0:0:0:
36,192,162814,1,0,0:0:0:0:
402,192,162985,128,0,163328:0:0:0:0:
182,192,162985,1,0,0:0:0:0:
256,192,162985,128,0,163028:0:0:0:0:
475,192,162985,1,0,0:0:0:0:
109,192,163028,1,0,0:0:0:0:
329,192,163071,128,0,163157:0:0:0:0:
36,192,163071,128,0,163414:0:0:0:0:
182,192,163157,128,0,163242:0:0:0:0:
329,192,163242,1,0,0:0:0:0:
475,192,163242,128,0,163499:0:0:0:0:
182,192,163328,1,0,0:0:0:0:
256,192,163328,128,0,163414:0:0:0:0:
109,192,163328,128,0,163414:0:0:0:0:
402,192,163414,128,0,163671:0:0:0:0:
109,192,163499,128,0,163842:0:0:0:0:
329,192,163499,1,0,0:0:0:0:
36,192,163499,128,0,163542:0:0:0:0:
256,192,163542,1,0,0:0:0:0:
182,192,163585,128,0,163671:0:0:0:0:
475,192,163585,128,0,163928:0:0:0:0:
329,192,163671,128,0,163757:0:0:0:0:
182,192,163757,1,0,0:0:0:0:
36,192,163757,128,0,163842:0:0:0:0:
329,192,163842,1,0,0:0:0:0:
402,192,163842,128,0,163928:0:0:0:0:
256,192,163842,128,0,164099:0:0:0:0:
109,192,163928,1,0,0:0:0:0:
36,192,163928,128,0,164185:0:0:0:0:
182,192,164014,1,0,0:0:0:0:
329,192,164014,128,0,164099:0:0:0:0:
402,192,164014,128,0,164185:0:0:0:0:
475,192,164014,1,0,0:0:0:0:
109,192,164099,128,0,164185:0:0:0:0:
256,192,164185,1,0,0:0:0:0:
182,192,164185,1,0,0:0:0:0:
329,192,164185,1,0,0:0:0:0:
402,192,164357,1,0,0:0:0:0:
475,192,164357,1,0,0:0:0:0:
109,192,164357,128,0,164442:0:0:0:0:
36,192,164357,128,0,164399:0:0:0:0:
182,192,164399,128,0,164614:0:0:0:0:
329,192,164442,128,0,164528:0:0:0:0:
256,192,164442,128,0,164485:0:0:0:0:
402,192,164485,128,0,164699:0:0:0:0:
109,192,164528,128,0,164699:0:0:0:0:
475,192,164528,128,0,164614:0:0:0:0:
36,192,164614,128,0,164828:0:0:0:0:
329,192,164614,128,0,164785:0:0:0:0:
182,192,164699,1,0,0:0:0:0:
475,192,164699,128,0,165042:0:0:0:0:
256,192,164699,128,0,164914:0:0:0:0:
402,192,164785,1,0,0:0:0:0:
109,192,164785,128,0,164871:0:0:0:0:
182,192,164828,128,0,165085:0:0:0:0:
329,192,164871,128,0,164957:0:0:0:0:
402,192,164957,128,0,165171:0:0:0:0:
36,192,164957,1,0,0:0:0:0:
256,192,165042,1,0,0:0:0:0:
109,192,165042,128,0,165128:0:0:0:0:
36,192,165085,128,0,165214:0:0:0:0:
475,192,165128,1,0,0:0:0:0:
329,192,165128,128,0,165214:0:0:0:0:
256,192,165171,128,0,165557:0:0:0:0:
182,192,165214,128,0,165299:0:0:0:0:
109,192,165214,128,0,165257:0:0:0:0:
329,192,165299,128,0,165385:0:0:0:0:
402,192,165299,128,0,165342:0:0:0:0:
36,192,165299,1,0,0:0:0:0:
182,192,165385,128,0,165471:0:0:0:0:
475,192,165385,1,0,0:0:0:0:
109,192,165428,128,0,165471:0:0:0:0:
329,192,165471,128,0,165557:0:0:0:0:
36,192,165471,1,0,0:0:0:0:
402,192,165514,128,0,165557:0:0:0:0:
475,192,165557,1,0,0:0:0:0:
109,192,165557,1,0,0:0:0:0:
182,192,165557,1,0,0:0:0:0:
109,192,165728,128,0,165899:0:0:0:0:
36,192,165728,128,0,165771:0:0:0:0:
329,192,165728,1,0,0:0:0:0:
402,192,165728,128,0,166157:0:0:0:0:
475,192,165728,1,0,0:0:0:0:
256,192,165771,1,0,0:0:0:0:
182,192,165814,128,0,165942:0:0:0:0:
256,192,165899,128,0,165985:0:0:0:0:
36,192,165899,1,0,0:0:0:0:
109,192,165985,1,0,0:0:0:0:
329,192,165985,128,0,166157:0:0:0:0:
182,192,166071,1,0,0:0:0:0:
256,192,166071,1,0,0:0:0:0:
36,192,166071,128,0,166671:0:0:0:0:
475,192,166071,1,0,0:0:0:0:
329,192,166242,128,0,166414:0:0:0:0:
109,192,166242,1,0,0:0:0:0:
402,192,166242,128,0,166285:0:0:0:0:
475,192,166242,128,0,166842:0:0:0:0:
182,192,166285,1,0,0:0:0:0:
256,192,166328,128,0,166457:0:0:0:0:
182,192,166414,128,0,166499:0:0:0:0:
402,192,166414,1,0,0:0:0:0:
329,192,166499,1,0,0:0:0:0:
109,192,166499,128,0,166671:0:0:0:0:
256,192,166585,1,0,0:0:0:0:
182,192,166585,1,0,0:0:0:0:
402,192,166671,128,0,166842:0:0:0:0:
329,192,166757,1,0,0:0:0:0:
109,192,166757,1,0,0:0:0:0:
36,192,166757,1,0,0:0:0:0:
256,192,166757,1,0,0:0:0:0:
182,192,166842,1,0,0:0:0:0:
402,192,166928,1,0,0:0:0:0:
109,192,166928,1,0,0:0:0:0:
256,192,166928,1,0,0:0:0:0:
109,192,167099,128,0,167142:0:0:0:0:
182,192,167099,128,0,167185:0:0:0:0:
36,192,167099,128,0,167614:0:0:0:0:
256,192,167142,128,0,167399:0:0:0:0:
329,192,167185,128,0,167228:0:0:0:0:
402,192,167185,128,0,167271:0:0:0:0:
475,192,167228,128,0,167485:0:0:0:0:
109,192,167271,1,0,0:0:0:0:
329,192,167357,1,0,0:0:0:0:
182,192,167357,128,0,167442:0:0:0:0:
402,192,167442,128,0,167528:0:0:0:0:
109,192,167442,128,0,167657:0:0:0:0:
329,192,167485,128,0,167742:0:0:0:0:
256,192,167528,1,0,0:0:0:0:
475,192,167614,1,0,0:0:0:0:
182,192,167614,128,0,167699:0:0:0:0:
256,192,167657,128,0,167785:0:0:0:0:
402,192,167699,128,0,167914:0:0:0:0:
109,192,167785,128,0,167871:0:0:0:0:
182,192,167785,128,0,167828:0:0:0:0:
475,192,167785,128,0,168299:0:0:0:0:
36,192,167828,128,0,168042:0:0:0:0:
329,192,167871,128,0,167957:0:0:0:0:
256,192,167914,128,0,168128:0:0:0:0:
109,192,167957,128,0,168214:0:0:0:0:
182,192,167999,128,0,168042:0:0:0:0:
329,192,168042,128,0,168299:0:0:0:0:
402,192,168085,128,0,168128:0:0:0:0:
36,192,168128,128,0,168171:0:0:0:0:
182,192,168128,128,0,168299:0:0:0:0:
256,192,168214,1,0,0:0:0:0:
109,192,168299,1,0,0:0:0:0:
402,192,168299,1,0,0:0:0:0:
36,192,168299,1,0,0:0:0:0:
109,192,168471,128,0,168642:0:0:0:0:
475,192,168471,128,0,168514:0:0:0:0:
329,192,168471,1,0,0:0:0:0:
402,192,168471,128,0,168899:0:0:0:0:
36,192,168471,1,0,0:0:0:0:
256,192,168514,1,0,0:0:0:0:
182,192,168557,128,0,168685:0:0:0:0:
256,192,168642,128,0,168728:0:0:0:0:
475,192,168642,1,0,0:0:0:0:
109,192,168728,1,0,0:0:0:0:
329,192,168728,128,0,168899:0:0:0:0:
182,192,168814,1,0,0:0:0:0:
256,192,168814,1,0,0:0:0:0:
475,192,168814,128,0,169414:0:0:0:0:
36,192,168814,1,0,0:0:0:0:
182,192,168985,128,0,169157:0:0:0:0:
402,192,168985,1,0,0:0:0:0:
36,192,168985,128,0,169028:0:0:0:0:
109,192,168985,128,0,169585:0:0:0:0:
329,192,169028,1,0,0:0:0:0:
256,192,169071,128,0,169199:0:0:0:0:
329,192,169157,128,0,169242:0:0:0:0:
36,192,169157,1,0,0:0:0:0:
182,192,169242,1,0,0:0:0:0:
402,192,169242,128,0,169414:0:0:0:0:
256,192,169328,1,0,0:0:0:0:
329,192,169328,1,0,0:0:0:0:
36,192,169414,128,0,169585:0:0:0:0:
182,192,169499,1,0,0:0:0:0:
402,192,169499,1,0,0:0:0:0:
475,192,169499,1,0,0:0:0:0:
256,192,169499,1,0,0:0:0:0:
329,192,169585,1,0,0:0:0:0:
109,192,169671,1,0,0:0:0:0:
402,192,169671,1,0,0:0:0:0:
256,192,169671,1,0,0:0:0:0:
402,192,169842,1,0,0:0:0:0:
475,192,169842,1,0,0:0:0:0:
109,192,169842,128,0,169928:0:0:0:0:
36,192,169842,128,0,169885:0:0:0:0:
182,192,169885,128,0,170099:0:0:0:0:
329,192,169928,128,0,170014:0:0:0:0:
256,192,169928,128,0,169971:0:0:0:0:
402,192,169971,128,0,170185:0:0:0:0:
109,192,170014,128,0,170185:0:0:0:0:
475,192,170014,128,0,170099:0:0:0:0:
36,192,170099,128,0,170314:0:0:0:0:
329,192,170099,128,0,170271:0:0:0:0:
182,192,170185,1,0,0:0:0:0:
475,192,170185,128,0,170528:0:0:0:0:
256,192,170185,128,0,170399:0:0:0:0:
402,192,170271,1,0,0:0:0:0:
109,192,170271,128,0,170357:0:0:0:0:
182,192,170314,128,0,170571:0:0:0:0:
329,192,170357,128,0,170442:0:0:0:0:
402,192,170442,128,0,170657:0:0:0:0:
36,192,170442,1,0,0:0:0:0:
256,192,170528,1,0,0:0:0:0:
109,192,170528,128,0,170614:0:0:0:0:
36,192,170614,128,0,170957:0:0:0:0:
475,192,170614,1,0,0:0:0:0:
329,192,170614,128,0,170699:0:0:0:0:
256,192,170699,128,0,171042:0:0:0:0:
109,192,170699,128,0,170742:0:0:0:0:
182,192,170699,128,0,170785:0:0:0:0:
402,192,170785,128,0,170871:0:0:0:0:
329,192,170785,128,0,170828:0:0:0:0:
475,192,170871,1,0,0:0:0:0:
109,192,170871,128,0,170957:0:0:0:0:
182,192,170914,128,0,170957:0:0:0:0:
329,192,170957,128,0,171042:0:0:0:0:
402,192,170999,128,0,171042:0:0:0:0:
475,192,171042,1,0,0:0:0:0:
36,192,171042,1,0,0:0:0:0:
109,192,171042,1,0,0:0:0:0:
475,192,171214,128,0,171557:0:0:0:0:
36,192,171214,128,0,171385:0:0:0:0:
256,192,171214,1,0,0:0:0:0:
402,192,171214,128,0,171257:0:0:0:0:
182,192,171257,1,0,0:0:0:0:
329,192,171299,128,0,171385:0:0:0:0:
109,192,171299,128,0,171642:0:0:0:0:
182,192,171385,128,0,171471:0:0:0:0:
329,192,171471,1,0,0:0:0:0:
402,192,171471,128,0,171728:0:0:0:0:
182,192,171557,1,0,0:0:0:0:
256,192,171557,128,0,171642:0:0:0:0:
36,192,171557,128,0,171642:0:0:0:0:
475,192,171642,128,0,171899:0:0:0:0:
36,192,171728,128,0,172071:0:0:0:0:
329,192,171728,1,0,0:0:0:0:
109,192,171728,128,0,171771:0:0:0:0:
256,192,171771,128,0,171899:0:0:0:0:
402,192,171814,128,0,172157:0:0:0:0:
182,192,171814,128,0,171857:0:0:0:0:
329,192,171899,128,0,171985:0:0:0:0:
182,192,171985,1,0,0:0:0:0:
109,192,171985,128,0,172071:0:0:0:0:
256,192,172071,128,0,172328:0:0:0:0:
329,192,172071,1,0,0:0:0:0:
475,192,172071,128,0,172157:0:0:0:0:
109,192,172157,128,0,172414:0:0:0:0:
36,192,172157,1,0,0:0:0:0:
182,192,172242,1,0,0:0:0:0:
329,192,172242,128,0,172328:0:0:0:0:
402,192,172242,1,0,0:0:0:0:
475,192,172242,128,0,172414:0:0:0:0:
36,192,172328,128,0,172414:0:0:0:0:
329,192,172414,1,0,0:0:0:0:
256,192,172414,1,0,0:0:0:0:
182,192,172414,1,0,0:0:0:0:
402,192,172585,128,0,172628:0:0:0:0:
329,192,172585,128,0,172671:0:0:0:0:
475,192,172585,128,0,173099:0:0:0:0:
256,192,172628,128,0,172885:0:0:0:0:
182,192,172671,128,0,172714:0:0:0:0:
109,192,172671,128,0,172757:0:0:0:0:
36,192,172714,128,0,172971:0:0:0:0:
402,192,172757,1,0,0:0:0:0:
182,192,172842,1,0,0:0:0:0:
329,192,172842,128,0,172928:0:0:0:0:
109,192,172928,128,0,173014:0:0:0:0:
402,192,172928,128,0,173142:0:0:0:0:
182,192,172971,128,0,173228:0:0:0:0:
256,192,173014,1,0,0:0:0:0:
36,192,173099,1,0,0:0:0:0:
329,192,173099,128,0,173185:0:0:0:0:
256,192,173142,128,0,173271:0:0:0:0:
109,192,173185,128,0,173399:0:0:0:0:
402,192,173271,128,0,173357:0:0:0:0:
329,192,173271,128,0,173314:0:0:0:0:
36,192,173271,128,0,173785:0:0:0:0:
475,192,173314,128,0,173528:0:0:0:0:
182,192,173357,128,0,173442:0:0:0:0:
256,192,173399,128,0,173614:0:0:0:0:
402,192,173442,128,0,173699:0:0:0:0:
329,192,173485,128,0,173528:0:0:0:0:
182,192,173528,128,0,173785:0:0:0:0:
109,192,173571,128,0,173614:0:0:0:0:
475,192,173614,128,0,173657:0:0:0:0:
329,192,173614,128,0,173785:0:0:0:0:
256,192,173699,1,0,0:0:0:0:
402,192,173785,1,0,0:0:0:0:
109,192,173785,1,0,0:0:0:0:
475,192,173785,1,0,0:0:0:0:
475,192,173957,128,0,175328:0:0:0:0:
36,192,173957,128,0,175328:0:0:0:0:
402,192,173957,1,0,0:0:0:0:
182,192,173957,128,0,174128:0:0:0:0:
109,192,173957,128,0,173999:0:0:0:0:
329,192,173999,1,0,0:0:0:0:
256,192,174042,128,0,174171:0:0:0:0:
329,192,174128,128,0,174214:0:0:0:0:
109,192,174128,1,0,0:0:0:0:
402,192,174214,1,0,0:0:0:0:
109,192,174299,1,0,0:0:0:0:
256,192,174299,1,0,0:0:0:0:
182,192,174299,1,0,0:0:0:0:
402,192,174471,128,0,174514:0:0:0:0:
109,192,174471,1,0,0:0:0:0:
329,192,174471,128,0,174642:0:0:0:0:
182,192,174514,1,0,0:0:0:0:
256,192,174557,128,0,174685:0:0:0:0:
402,192,174642,1,0,0:0:0:0:
182,192,174642,128,0,174728:0:0:0:0:
109,192,174728,1,0,0:0:0:0:
256,192,174814,1,0,0:0:0:0:
402,192,174814,1,0,0:0:0:0:
109,192,174899,1,0,0:0:0:0:
329,192,174985,1,0,0:0:0:0:
256,192,174985,1,0,0:0:0:0:
402,192,174985,1,0,0:0:0:0:
182,192,175071,1,0,0:0:0:0:
329,192,175157,1,0,0:0:0:0:
182,192,175242,1,0,0:0:0:0:
402,192,175328,128,0,175499:0:0:0:0:
256,192,175328,128,0,175928:0:0:0:0:
109,192,175328,1,0,0:0:0:0:
109,192,175499,128,0,175585:0:0:0:0:
329,192,175499,1,0,0:0:0:0:
402,192,175585,128,0,175671:0:0:0:0:
182,192,175585,1,0,0:0:0:0:
109,192,175671,128,0,175757:0:0:0:0:
475,192,175671,1,0,0:0:0:0:
402,192,175757,128,0,175928:0:0:0:0:
36,192,175757,1,0,0:0:0:0:
109,192,175842,128,0,176014:0:0:0:0:
329,192,175842,1,0,0:0:0:0:
182,192,175928,1,0,0:0:0:0:
402,192,176014,128,0,176185:0:0:0:0:
256,192,176014,1,0,0:0:0:0:
475,192,176014,1,0,0:0:0:0:
109,192,176185,128,0,176357:0:0:0:0:
182,192,176185,1,0,0:0:0:0:
402,192,176271,128,0,176357:0:0:0:0:
329,192,176271,1,0,0:0:0:0:
256,192,176357,1,0,0:0:0:0:
475,192,176357,1,0,0:0:0:0:
36,192,176357,1,0,0:0:0:0:
182,192,176357,1,0,0:0:0:0:
475,192,176699,128,0,176957:0:0:0:0:
329,192,176699,128,0,176742:0:0:0:0:
402,192,176699,1,0,0:0:0:0:
256,192,176721,128,0,176785:0:0:0:0:
182,192,176742,128,0,176871:0:0:0:0:
109,192,176764,128,0,177042:0:0:0:0:
36,192,176785,128,0,176957:0:0:0:0:
329,192,176871,128,0,176914:0:0:0:0:
402,192,176871,1,0,0:0:0:0:
256,192,176957,128,0,177042:0:0:0:0:
182,192,176957,1,0,0:0:0:0:
402,192,176957,128,0,177235:0:0:0:0:
329,192,177042,1,0,0:0:0:0:
475,192,177042,128,0,177214:0:0:0:0:
36,192,177042,128,0,177299:0:0:0:0:
182,192,177085,128,0,177128:0:0:0:0:
109,192,177128,1,0,0:0:0:0:
329,192,177128,128,0,177257:0:0:0:0:
256,192,177214,128,0,177278:0:0:0:0:
182,192,177257,128,0,177299:0:0:0:0:
109,192,177299,1,0,0:0:0:0:
256,192,177385,128,0,177899:0:0:0:0:
329,192,177385,128,0,177428:0:0:0:0:
182,192,177385,1,0,0:0:0:0:
402,192,177407,128,0,177449:0:0:0:0:
475,192,177428,128,0,177557:0:0:0:0:
36,192,177471,1,0,0:0:0:0:
109,192,177492,128,0,177621:0:0:0:0:
182,192,177514,128,0,177599:0:0:0:0:
402,192,177557,1,0,0:0:0:0:
329,192,177557,1,0,0:0:0:0:
36,192,177599,128,0,177642:0:0:0:0:
475,192,177642,128,0,177685:0:0:0:0:
402,192,177664,128,0,177814:0:0:0:0:
329,192,177685,128,0,177792:0:0:0:0:
182,192,177728,1,0,0:0:0:0:
109,192,177728,1,0,0:0:0:0:
36,192,177728,128,0,177857:0:0:0:0:
475,192,177814,1,0,0:0:0:0:
109,192,177835,128,0,177878:0:0:0:0:
182,192,177857,128,0,177899:0:0:0:0:
329,192,177899,1,0,0:0:0:0:
402,192,177985,1,0,0:0:0:0:
109,192,177985,1,0,0:0:0:0:
256,192,178071,128,0,178114:0:0:0:0:
182,192,178071,1,0,0:0:0:0:
329,192,178092,128,0,178178:0:0:0:0:
402,192,178114,128,0,178242:0:0:0:0:
475,192,178135,128,0,178607:0:0:0:0:
36,192,178157,1,0,0:0:0:0:
109,192,178157,128,0,178199:0:0:0:0:
182,192,178178,128,0,178328:0:0:0:0:
256,192,178242,128,0,178285:0:0:0:0:
109,192,178285,128,0,178435:0:0:0:0:
36,192,178328,128,0,178778:0:0:0:0:
329,192,178328,128,0,178392:0:0:0:0:
402,192,178328,1,0,0:0:0:0:
256,192,178371,128,0,178542:0:0:0:0:
182,192,178414,128,0,178457:0:0:0:0:
329,192,178457,128,0,178499:0:0:0:0:
402,192,178478,128,0,178628:0:0:0:0:
182,192,178521,128,0,178585:0:0:0:0:
109,192,178585,1,0,0:0:0:0:
329,192,178585,128,0,178735:0:0:0:0:
256,192,178628,128,0,178671:0:0:0:0:
109,192,178671,128,0,178799:0:0:0:0:
402,192,178714,128,0,178757:0:0:0:0:
182,192,178735,128,0,178821:0:0:0:0:
475,192,178757,1,0,0:0:0:0:
256,192,178799,128,0,178842:0:0:0:0:
329,192,178842,1,0,0:0:0:0:
36,192,178842,1,0,0:0:0:0:
402,192,178854,1,0,0:0:0:0:
182,192,178928,1,0,0:0:0:0:
475,192,178928,1,0,0:0:0:0:
256,192,178952,1,0,0:0:0:0:
36,192,179014,1,0,0:0:0:0:
109,192,179050,1,0,0:0:0:0:
329,192,179099,128,0,179142:0:0:0:0:
256,192,179099,1,0,0:0:0:0:
402,192,179121,128,0,179185:0:0:0:0:
182,192,179142,128,0,179185:0:0:0:0:
475,192,179142,128,0,179271:0:0:0:0:
109,192,179164,128,0,179228:0:0:0:0:
36,192,179185,128,0,179314:0:0:0:0:
402,192,179228,128,0,179292:0:0:0:0:
109,192,179271,128,0,179335:0:0:0:0:
329,192,179271,128,0,179314:0:0:0:0:
182,192,179314,128,0,179357:0:0:0:0:
256,192,179357,1,0,0:0:0:0:
475,192,179357,1,0,0:0:0:0:
109,192,179442,128,0,179699:0:0:0:0:
182,192,179442,128,0,179485:0:0:0:0:
36,192,179442,1,0,0:0:0:0:
256,192,179464,128,0,179528:0:0:0:0:
329,192,179485,128,0,179614:0:0:0:0:
402,192,179507,128,0,179699:0:0:0:0:
475,192,179528,128,0,179785:0:0:0:0:
182,192,179614,128,0,179657:0:0:0:0:
36,192,179614,1,0,0:0:0:0:
256,192,179699,128,0,179785:0:0:0:0:
329,192,179699,1,0,0:0:0:0:
36,192,179699,128,0,179957:0:0:0:0:
182,192,179785,1,0,0:0:0:0:
109,192,179785,128,0,179978:0:0:0:0:
402,192,179785,128,0,180042:0:0:0:0:
329,192,179828,128,0,179871:0:0:0:0:
182,192,179871,128,0,179999:0:0:0:0:
475,192,179871,1,0,0:0:0:0:
256,192,179957,128,0,180021:0:0:0:0:
329,192,179999,128,0,180042:0:0:0:0:
475,192,180042,1,0,0:0:0:0:
475,192,180128,128,0,180171:0:0:0:0:
109,192,180128,1,0,0:0:0:0:
36,192,180128,1,0,0:0:0:0:
402,192,180149,128,0,180192:0:0:0:0:
329,192,180171,128,0,180299:0:0:0:0:
256,192,180192,128,0,180578:0:0:0:0:
182,192,180214,1,0,0:0:0:0:
109,192,180235,128,0,180364:0:0:0:0:
36,192,180257,128,0,180342:0:0:0:0:
402,192,180299,1,0,0:0:0:0:
475,192,180299,1,0,0:0:0:0:
182,192,180342,128,0,180385:0:0:0:0:
329,192,180385,128,0,180428:0:0:0:0:
402,192,180407,128,0,180557:0:0:0:0:
475,192,180428,128,0,180535:0:0:0:0:
36,192,180471,1,0,0:0:0:0:
109,192,180471,1,0,0:0:0:0:
182,192,180471,128,0,180599:0:0:0:0:
329,192,180557,1,0,0:0:0:0:
109,192,180578,128,0,180621:0:0:0:0:
36,192,180599,128,0,180642:0:0:0:0:
402,192,180642,1,0,0:0:0:0:
475,192,180642,1,0,0:0:0:0:
182,192,180728,1,0,0:0:0:0:
256,192,180728,1,0,0:0:0:0:
256,192,180814,128,0,180871:0:0:0:0:
109,192,180814,128,0,180871:0:0:0:0:
329,192,180842,128,0,180928:0:0:0:0:
402,192,180871,128,0,181014:0:0:0:0:
475,192,180899,128,0,181099:0:0:0:0:
182,192,180899,1,0,0:0:0:0:
109,192,180928,1,0,0:0:0:0:
329,192,180985,1,0,0:0:0:0:
36,192,180985,128,0,181042:0:0:0:0:
256,192,181014,128,0,181071:0:0:0:0:
182,192,181042,128,0,181271:0:0:0:0:
402,192,181071,1,0,0:0:0:0:
36,192,181099,1,0,0:0:0:0:
109,192,181128,1,0,0:0:0:0:
402,192,181157,128,0,181214:0:0:0:0:
475,192,181157,1,0,0:0:0:0:
329,192,181185,128,0,181242:0:0:0:0:
256,192,181214,128,0,181357:0:0:0:0:
109,192,181242,128,0,181299:0:0:0:0:
36,192,181271,128,0,181499:0:0:0:0:
329,192,181328,128,0,181385:0:0:0:0:
402,192,181357,128,0,181414:0:0:0:0:
475,192,181414,1,0,0:0:0:0:
109,192,181414,128,0,181499:0:0:0:0:
256,192,181499,128,0,181542:0:0:0:0:
182,192,181499,1,0,0:0:0:0:
329,192,181521,128,0,181607:0:0:0:0:
402,192,181542,128,0,181671:0:0:0:0:
475,192,181564,128,0,181885:0:0:0:0:
36,192,181585,128,0,181628:0:0:0:0:
109,192,181585,1,0,0:0:0:0:
182,192,181671,128,0,181714:0:0:0:0:
256,192,181671,1,0,0:0:0:0:
109,192,181692,128,0,181842:0:0:0:0:
36,192,181714,128,0,182035:0:0:0:0:
402,192,181757,128,0,181907:0:0:0:0:
329,192,181757,1,0,0:0:0:0:
182,192,181842,1,0,0:0:0:0:
329,192,181885,128,0,181928:0:0:0:0:
109,192,181928,128,0,182057:0:0:0:0:
256,192,181928,1,0,0:0:0:0:
475,192,181971,128,0,182014:0:0:0:0:
182,192,181992,128,0,182078:0:0:0:0:
402,192,182014,1,0,0:0:0:0:
256,192,182057,128,0,182099:0:0:0:0:
329,192,182099,1,0,0:0:0:0:
475,192,182099,1,0,0:0:0:0:
36,192,182185,128,0,182442:0:0:0:0:
329,192,182185,128,0,182228:0:0:0:0:
109,192,182185,1,0,0:0:0:0:
402,192,182185,1,0,0:0:0:0:
256,192,182207,128,0,182271:0:0:0:0:
182,192,182228,128,0,182357:0:0:0:0:
475,192,182271,128,0,182442:0:0:0:0:
402,192,182314,128,0,182528:0:0:0:0:
329,192,182357,128,0,182399:0:0:0:0:
109,192,182357,1,0,0:0:0:0:
256,192,182442,128,0,182528:0:0:0:0:
182,192,182442,1,0,0:0:0:0:
109,192,182442,128,0,182657:0:0:0:0:
329,192,182528,1,0,0:0:0:0:
36,192,182528,128,0,182699:0:0:0:0:
475,192,182528,128,0,182785:0:0:0:0:
182,192,182571,128,0,182614:0:0:0:0:
329,192,182614,128,0,182742:0:0:0:0:
402,192,182614,1,0,0:0:0:0:
256,192,182699,128,0,182764:0:0:0:0:
182,192,182742,128,0,182785:0:0:0:0:
402,192,182785,1,0,0:0:0:0:
109,192,182785,1,0,0:0:0:0:
256,192,182871,128,0,183385:0:0:0:0:
182,192,182871,128,0,182914:0:0:0:0:
329,192,182871,1,0,0:0:0:0:
109,192,182892,128,0,182935:0:0:0:0:
36,192,182914,128,0,183042:0:0:0:0:
475,192,182957,1,0,0:0:0:0:
402,192,182978,128,0,183107:0:0:0:0:
329,192,182999,128,0,183085:0:0:0:0:
109,192,183042,1,0,0:0:0:0:
182,192,183042,1,0,0:0:0:0:
475,192,183085,128,0,183128:0:0:0:0:
36,192,183128,128,0,183171:0:0:0:0:
109,192,183149,128,0,183299:0:0:0:0:
182,192,183171,128,0,183278:0:0:0:0:
329,192,183214,1,0,0:0:0:0:
402,192,183214,1,0,0:0:0:0:
475,192,183214,128,0,183342:0:0:0:0:
36,192,183299,1,0,0:0:0:0:
402,192,183321,128,0,183364:0:0:0:0:
329,192,183342,128,0,183385:0:0:0:0:
182,192,183385,1,0,0:0:0:0:
109,192,183471,1,0,0:0:0:0:
402,192,183471,1,0,0:0:0:0:
256,192,183557,128,0,183599:0:0:0:0:
329,192,183557,1,0,0:0:0:0:
182,192,183578,128,0,183664:0:0:0:0:
109,192,183599,128,0,183728:0:0:0:0:
36,192,183621,128,0,184092:0:0:0:0:
475,192,183642,1,0,0:0:0:0:
402,192,183642,128,0,183685:0:0:0:0:
329,192,183664,128,0,183814:0:0:0:0:
256,192,183728,128,0,183771:0:0:0:0:
402,192,183771,128,0,183921:0:0:0:0:
475,192,183814,128,0,184264:0:0:0:0:
182,192,183814,128,0,183878:0:0:0:0:
109,192,183814,1,0,0:0:0:0:
256,192,183857,128,0,184028:0:0:0:0:
329,192,183899,128,0,183942:0:0:0:0:
182,192,183942,128,0,183985:0:0:0:0:
109,192,183964,128,0,184114:0:0:0:0:
329,192,184007,128,0,184071:0:0:0:0:
402,192,184071,1,0,0:0:0:0:
182,192,184071,128,0,184221:0:0:0:0:
256,192,184114,128,0,184157:0:0:0:0:
402,192,184157,128,0,184285:0:0:0:0:
109,192,184199,128,0,184242:0:0:0:0:
329,192,184221,128,0,184307:0:0:0:0:
36,192,184242,1,0,0:0:0:0:
256,192,184285,128,0,184328:0:0:0:0:
182,192,184328,1,0,0:0:0:0:
475,192,184328,1,0,0:0:0:0:
109,192,184340,1,0,0:0:0:0:
329,192,184414,1,0,0:0:0:0:
36,192,184414,1,0,0:0:0:0:
256,192,184438,1,0,0:0:0:0:
475,192,184499,1,0,0:0:0:0:
402,192,184536,1,0,0:0:0:0:
182,192,184585,128,0,184628:0:0:0:0:
256,192,184585,1,0,0:0:0:0:
109,192,184607,128,0,184671:0:0:0:0:
329,192,184628,128,0,184671:0:0:0:0:
36,192,184628,128,0,184757:0:0:0:0:
402,192,184649,128,0,184714:0:0:0:0:
475,192,184671,128,0,184799:0:0:0:0:
109,192,184714,128,0,184778:0:0:0:0:
402,192,184757,128,0,184821:0:0:0:0:
182,192,184757,128,0,184799:0:0:0:0:
329,192,184799,128,0,184842:0:0:0:0:
256,192,184842,1,0,0:0:0:0:
36,192,184842,1,0,0:0:0:0:
402,192,184928,128,0,185185:0:0:0:0:
182,192,184928,128,0,184971:0:0:0:0:
475,192,184928,1,0,0:0:0:0:
109,192,184928,1,0,0:0:0:0:
256,192,184949,128,0,185014:0:0:0:0:
329,192,184971,128,0,185099:0:0:0:0:
36,192,185014,128,0,185271:0:0:0:0:
109,192,185057,128,0,185185:0:0:0:0:
182,192,185099,128,0,185142:0:0:0:0:
475,192,185099,1,0,0:0:0:0:
256,192,185185,128,0,185271:0:0:0:0:
329,192,185185,1,0,0:0:0:0:
475,192,185185,128,0,185442:0:0:0:0:
182,192,185271,1,0,0:0:0:0:
109,192,185271,128,0,185528:0:0:0:0:
402,192,185271,128,0,185399:0:0:0:0:
329,192,185314,128,0,185357:0:0:0:0:
36,192,185357,1,0,0:0:0:0:
182,192,185357,128,0,185485:0:0:0:0:
256,192,185442,128,0,185507:0:0:0:0:
329,192,185485,128,0,185528:0:0:0:0:
36,192,185528,1,0,0:0:0:0:
402,192,185528,1,0,0:0:0:0:
36,192,185614,128,0,185657:0:0:0:0:
475,192,185614,1,0,0:0:0:0:
109,192,185635,128,0,185678:0:0:0:0:
182,192,185657,128,0,185785:0:0:0:0:
256,192,185678,128,0,186064:0:0:0:0:
329,192,185699,1,0,0:0:0:0:
402,192,185721,128,0,185849:0:0:0:0:
475,192,185742,128,0,185828:0:0:0:0:
109,192,185785,1,0,0:0:0:0:
36,192,185785,1,0,0:0:0:0:
329,192,185828,128,0,185871:0:0:0:0:
182,192,185871,128,0,185914:0:0:0:0:
109,192,185892,128,0,186042:0:0:0:0:
36,192,185914,128,0,186021:0:0:0:0:
475,192,185957,1,0,0:0:0:0:
402,192,185957,1,0,0:0:0:0:
329,192,185957,128,0,186085:0:0:0:0:
182,192,186042,1,0,0:0:0:0:
402,192,186064,128,0,186107:0:0:0:0:
475,192,186085,128,0,186128:0:0:0:0:
36,192,186128,1,0,0:0:0:0:
109,192,186128,1,0,0:0:0:0:
256,192,186214,1,0,0:0:0:0:
329,192,186214,1,0,0:0:0:0:
109,192,186299,1,0,0:0:0:0:
402,192,186299,1,0,0:0:0:0:
182,192,186299,128,0,186342:0:0:0:0:
475,192,186299,128,0,186599:0:0:0:0:
36,192,186299,128,0,186899:0:0:0:0:
256,192,186342,128,0,186428:0:0:0:0:
329,192,186385,128,0,186514:0:0:0:0:
402,192,186428,128,0,186642:0:0:0:0:
109,192,186471,128,0,186557:0:0:0:0:
182,192,186471,128,0,186514:0:0:0:0:
256,192,186557,1,0,0:0:0:0:
109,192,186642,1,0,0:0:0:0:
329,192,186642,128,0,186685:0:0:0:0:
256,192,186685,128,0,186771:0:0:0:0:
182,192,186728,128,0,186814:0:0:0:0:
402,192,186728,128,0,186771:0:0:0:0:
475,192,186728,128,0,186814:0:0:0:0:
109,192,186814,128,0,186942:0:0:0:0:
329,192,186814,128,0,186857:0:0:0:0:
402,192,186857,128,0,186985:0:0:0:0:
475,192,186899,128,0,187242:0:0:0:0:
256,192,186899,1,0,0:0:0:0:
182,192,186942,128,0,186985:0:0:0:0:
329,192,186985,128,0,187071:0:0:0:0:
36,192,186985,128,0,187071:0:0:0:0:
256,192,187028,128,0,187114:0:0:0:0:
109,192,187028,128,0,187071:0:0:0:0:
402,192,187071,1,0,0:0:0:0:
182,192,187114,128,0,187157:0:0:0:0:
109,192,187157,128,0,187371:0:0:0:0:
329,192,187157,1,0,0:0:0:0:
36,192,187199,128,0,187328:0:0:0:0:
256,192,187242,1,0,0:0:0:0:
402,192,187242,128,0,187328:0:0:0:0:
329,192,187285,128,0,187328:0:0:0:0:
182,192,187285,128,0,187414:0:0:0:0:
475,192,187328,1,0,0:0:0:0:
256,192,187371,128,0,187457:0:0:0:0:
36,192,187414,1,0,0:0:0:0:
402,192,187414,1,0,0:0:0:0:
329,192,187457,1,0,0:0:0:0:
182,192,187499,1,0,0:0:0:0:
475,192,187499,1,0,0:0:0:0:
109,192,187542,1,0,0:0:0:0:
329,192,187585,1,0,0:0:0:0:
256,192,187628,1,0,0:0:0:0:
475,192,187671,128,0,187928:0:0:0:0:
402,192,187671,128,0,187842:0:0:0:0:
182,192,187671,128,0,187714:0:0:0:0:
36,192,187671,128,0,187799:0:0:0:0:
109,192,187671,128,0,187757:0:0:0:0:
329,192,187714,128,0,187757:0:0:0:0:
256,192,187757,128,0,187842:0:0:0:0:
182,192,187799,128,0,187928:0:0:0:0:
109,192,187842,128,0,188014:0:0:0:0:
329,192,187842,1,0,0:0:0:0:
36,192,187885,128,0,187928:0:0:0:0:
256,192,187928,1,0,0:0:0:0:
329,192,187928,128,0,188099:0:0:0:0:
402,192,187928,128,0,188014:0:0:0:0:
256,192,188014,128,0,188185:0:0:0:0:
36,192,188014,1,0,0:0:0:0:
475,192,188014,128,0,188399:0:0:0:0:
182,192,188057,128,0,188099:0:0:0:0:
402,192,188099,128,0,188314:0:0:0:0:
109,192,188099,128,0,188142:0:0:0:0:
36,192,188142,128,0,188314:0:0:0:0:
182,192,188185,1,0,0:0:0:0:
329,192,188185,128,0,188314:0:0:0:0:
256,192,188271,128,0,188657:0:0:0:0:
109,192,188271,128,0,188357:0:0:0:0:
182,192,188271,128,0,188399:0:0:0:0:
402,192,188357,128,0,188442:0:0:0:0:
329,192,188357,128,0,188485:0:0:0:0:
36,192,188357,1,0,0:0:0:0:
182,192,188442,128,0,188571:0:0:0:0:
475,192,188442,1,0,0:0:0:0:
109,192,188485,128,0,188571:0:0:0:0:
36,192,188528,128,0,188849:0:0:0:0:
329,192,188528,128,0,188657:0:0:0:0:
402,192,188571,128,0,188657:0:0:0:0:
109,192,188614,128,0,188742:0:0:0:0:
182,192,188614,128,0,188699:0:0:0:0:
475,192,188614,128,0,188978:0:0:0:0:
329,192,188699,128,0,188742:0:0:0:0:
402,192,188699,128,0,188785:0:0:0:0:
256,192,188699,1,0,0:0:0:0:
109,192,188785,128,0,188871:0:0:0:0:
182,192,188807,128,0,188892:0:0:0:0:
256,192,188828,128,0,188914:0:0:0:0:
329,192,188849,128,0,188935:0:0:0:0:
402,192,188871,128,0,188957:0:0:0:0:
109,192,188957,1,0,0:0:0:0:
36,192,188957,128,0,189128:0:0:0:0:
182,192,188957,128,0,188999:0:0:0:0:
475,192,189042,128,0,189085:0:0:0:0:
109,192,189042,128,0,189214:0:0:0:0:
256,192,189042,1,0,0:0:0:0:
402,192,189064,128,0,189128:0:0:0:0:
329,192,189085,128,0,189214:0:0:0:0:
182,192,189128,128,0,189299:0:0:0:0:
36,192,189214,128,0,189257:0:0:0:0:
256,192,189214,128,0,189385:0:0:0:0:
402,192,189214,1,0,0:0:0:0:
329,192,189299,128,0,189471:0:0:0:0:
475,192,189299,128,0,189342:0:0:0:0:
109,192,189299,1,0,0:0:0:0:
402,192,189385,128,0,189557:0:0:0:0:
182,192,189385,128,0,189428:0:0:0:0:
109,192,189407,128,0,189471:0:0:0:0:
36,192,189428,128,0,189642:0:0:0:0:
475,192,189471,128,0,189964:0:0:0:0:
256,192,189471,1,0,0:0:0:0:
329,192,189557,128,0,189599:0:0:0:0:
182,192,189557,128,0,189814:0:0:0:0:
109,192,189557,128,0,189642:0:0:0:0:
256,192,189642,128,0,189728:0:0:0:0:
402,192,189642,128,0,189685:0:0:0:0:
329,192,189728,1,0,0:0:0:0:
109,192,189728,128,0,189899:0:0:0:0:
36,192,189728,128,0,189814:0:0:0:0:
402,192,189749,128,0,189985:0:0:0:0:
256,192,189814,1,0,0:0:0:0:
329,192,189835,128,0,190007:0:0:0:0:
182,192,189899,1,0,0:0:0:0:
36,192,189899,128,0,190264:0:0:0:0:
256,192,189921,128,0,190028:0:0:0:0:
109,192,189985,1,0,0:0:0:0:
182,192,190007,128,0,190049:0:0:0:0:
329,192,190071,128,0,190114:0:0:0:0:
402,192,190092,128,0,190178:0:0:0:0:
475,192,190114,128,0,190242:0:0:0:0:
256,192,190114,1,0,0:0:0:0:
182,192,190135,1,0,0:0:0:0:
109,192,190157,128,0,190285:0:0:0:0:
182,192,190221,128,0,190307:0:0:0:0:
402,192,190242,1,0,0:0:0:0:
329,192,190264,1,0,0:0:0:0:
256,192,190285,128,0,190328:0:0:0:0:
36,192,190414,128,0,190671:0:0:0:0:
109,192,190414,128,0,190585:0:0:0:0:
329,192,190414,128,0,190457:0:0:0:0:
475,192,190414,128,0,190542:0:0:0:0:
402,192,190414,128,0,190499:0:0:0:0:
182,192,190457,128,0,190499:0:0:0:0:
256,192,190499,128,0,190585:0:0:0:0:
329,192,190542,128,0,190671:0:0:0:0:
402,192,190585,128,0,190757:0:0:0:0:
182,192,190585,1,0,0:0:0:0:
475,192,190628,128,0,190671:0:0:0:0:
256,192,190671,1,0,0:0:0:0:
182,192,190671,128,0,190842:0:0:0:0:
109,192,190671,128,0,190757:0:0:0:0:
256,192,190757,128,0,190928:0:0:0:0:
475,192,190757,1,0,0:0:0:0:
36,192,190757,128,0,191142:0:0:0:0:
329,192,190799,128,0,190842:0:0:0:0:
109,192,190842,128,0,191057:0:0:0:0:
402,192,190842,128,0,190885:0:0:0:0:
475,192,190885,128,0,191057:0:0:0:0:
329,192,190928,1,0,0:0:0:0:
182,192,190928,128,0,191057:0:0:0:0:
256,192,191014,128,0,191399:0:0:0:0:
402,192,191014,128,0,191099:0:0:0:0:
329,192,191014,128,0,191142:0:0:0:0:
109,192,191099,128,0,191185:0:0:0:0:
182,192,191099,128,0,191228:0:0:0:0:
475,192,191099,1,0,0:0:0:0:
329,192,191185,128,0,191314:0:0:0:0:
36,192,191185,1,0,0:0:0:0:
402,192,191228,128,0,191314:0:0:0:0:
475,192,191271,128,0,191592:0:0:0:0:
182,192,191271,128,0,191399:0:0:0:0:
109,192,191314,128,0,191399:0:0:0:0:
402,192,191357,128,0,191485:0:0:0:0:
329,192,191357,128,0,191442:0:0:0:0:
36,192,191357,128,0,191721:0:0:0:0:
182,192,191442,128,0,191485:0:0:0:0:
109,192,191442,128,0,191528:0:0:0:0:
256,192,191442,1,0,0:0:0:0:
402,192,191528,128,0,191614:0:0:0:0:
329,192,191549,128,0,191635:0:0:0:0:
256,192,191571,128,0,191657:0:0:0:0:
182,192,191592,128,0,191678:0:0:0:0:
109,192,191614,128,0,191699:0:0:0:0:
475,192,191699,128,0,191871:0:0:0:0:
402,192,191699,1,0,0:0:0:0:
329,192,191699,128,0,191742:0:0:0:0:
182,192,191785,128,0,191828:0:0:0:0:
402,192,191785,128,0,191957:0:0:0:0:
109,192,191807,128,0,191914:0:0:0:0:
36,192,191828,128,0,191999:0:0:0:0:
256,192,191828,1,0,0:0:0:0:
329,192,191871,128,0,192128:0:0:0:0:
182,192,191914,1,0,0:0:0:0:
256,192,191957,128,0,192042:0:0:0:0:
475,192,191957,128,0,191999:0:0:0:0:
109,192,191999,1,0,0:0:0:0:
182,192,192042,128,0,192299:0:0:0:0:
402,192,192042,1,0,0:0:0:0:
36,192,192085,1,0,0:0:0:0:
475,192,192128,128,0,192214:0:0:0:0:
109,192,192128,128,0,192214:0:0:0:0:
256,192,192128,1,0,0:0:0:0:
402,192,192171,128,0,192385:0:0:0:0:
36,192,192214,128,0,192471:0:0:0:0:
329,192,192214,128,0,192257:0:0:0:0:
256,192,192299,128,0,192557:0:0:0:0:
109,192,192299,1,0,0:0:0:0:
475,192,192299,128,0,192342:0:0:0:0:
329,192,192342,128,0,192471:0:0:0:0:
182,192,192385,128,0,192428:0:0:0:0:
109,192,192471,128,0,192771:0:0:0:0:
402,192,192471,1,0,0:0:0:0:
475,192,192514,128,0,192685:0:0:0:0:
182,192,192514,128,0,192642:0:0:0:0:
329,192,192557,1,0,0:0:0:0:
36,192,192557,128,0,192599:0:0:0:0:
402,192,192599,128,0,192707:0:0:0:0:
256,192,192642,1,0,0:0:0:0:
329,192,192685,128,0,192728:0:0:0:0:
36,192,192685,128,0,192857:0:0:0:0:
182,192,192728,1,0,0:0:0:0:
475,192,192814,128,0,192857:0:0:0:0:
402,192,192835,128,0,192921:0:0:0:0:
109,192,192857,1,0,0:0:0:0:
329,192,192857,128,0,192985:0:0:0:0:
182,192,192878,1,0,0:0:0:0:
256,192,192899,128,0,193028:0:0:0:0:
182,192,192964,128,0,193049:0:0:0:0:
402,192,192985,1,0,0:0:0:0:
475,192,193007,1,0,0:0:0:0:
109,192,193028,128,0,193071:0:0:0:0:
329,192,193071,1,0,0:0:0:0:
36,192,193071,1,0,0:0:0:0:
475,192,193157,128,0,193414:0:0:0:0:
36,192,193157,128,0,193328:0:0:0:0:
256,192,193157,128,0,193199:0:0:0:0:
402,192,193157,128,0,193285:0:0:0:0:
329,192,193157,128,0,193242:0:0:0:0:
109,192,193199,128,0,193242:0:0:0:0:
182,192,193242,128,0,193328:0:0:0:0:
256,192,193285,128,0,193414:0:0:0:0:
329,192,193328,128,0,193499:0:0:0:0:
109,192,193328,1,0,0:0:0:0:
402,192,193371,128,0,193414:0:0:0:0:
182,192,193414,1,0,0:0:0:0:
109,192,193414,128,0,193585:0:0:0:0:
36,192,193414,128,0,193499:0:0:0:0:
182,192,193499,128,0,193671:0:0:0:0:
402,192,193499,1,0,0:0:0:0:
475,192,193499,128,0,193799:0:0:0:0:
256,192,193542,128,0,193585:0:0:0:0:
36,192,193585,128,0,193799:0:0:0:0:
329,192,193585,128,0,193628:0:0:0:0:
402,192,193628,128,0,193842:0:0:0:0:
256,192,193671,1,0,0:0:0:0:
109,192,193671,128,0,193799:0:0:0:0:
329,192,193757,128,0,193885:0:0:0:0:
256,192,193757,128,0,194142:0:0:0:0:
182,192,193757,128,0,193885:0:0:0:0:
109,192,193842,128,0,193928:0:0:0:0:
36,192,193842,128,0,193971:0:0:0:0:
475,192,193842,1,0,0:0:0:0:
329,192,193928,128,0,194057:0:0:0:0:
182,192,193928,1,0,0:0:0:0:
402,192,193971,128,0,194057:0:0:0:0:
475,192,194014,128,0,194335:0:0:0:0:
36,192,194014,128,0,194142:0:0:0:0:
109,192,194057,128,0,194142:0:0:0:0:
402,192,194099,128,0,194228:0:0:0:0:
329,192,194099,128,0,194185:0:0:0:0:
182,192,194099,128,0,194442:0:0:0:0:
256,192,194185,1,0,0:0:0:0:
36,192,194185,128,0,194228:0:0:0:0:
109,192,194185,128,0,194271:0:0:0:0:
402,192,194271,128,0,194357:0:0:0:0:
329,192,194292,128,0,194378:0:0:0:0:
256,192,194314,128,0,194399:0:0:0:0:
109,192,194357,128,0,194442:0:0:0:0:
36,192,194399,128,0,194442:0:0:0:0:
402,192,194442,1,0,0:0:0:0:
475,192,194442,128,0,194614:0:0:0:0:
329,192,194442,128,0,194485:0:0:0:0:
36,192,194528,128,0,194571:0:0:0:0:
402,192,194528,128,0,194699:0:0:0:0:
256,192,194528,1,0,0:0:0:0:
109,192,194549,128,0,194614:0:0:0:0:
182,192,194571,128,0,194699:0:0:0:0:
329,192,194614,128,0,194785:0:0:0:0:
475,192,194699,128,0,194742:0:0:0:0:
256,192,194699,128,0,194871:0:0:0:0:
109,192,194699,1,0,0:0:0:0:
182,192,194785,128,0,194957:0:0:0:0:
36,192,194785,128,0,194828:0:0:0:0:
402,192,194785,1,0,0:0:0:0:
109,192,194871,128,0,195042:0:0:0:0:
329,192,194871,128,0,194914:0:0:0:0:
402,192,194892,128,0,194957:0:0:0:0:
475,192,194914,128,0,195128:0:0:0:0:
36,192,194957,128,0,195449:0:0:0:0:
256,192,194957,1,0,0:0:0:0:
182,192,195042,128,0,195085:0:0:0:0:
329,192,195042,128,0,195299:0:0:0:0:
402,192,195042,128,0,195128:0:0:0:0:
256,192,195128,128,0,195214:0:0:0:0:
109,192,195128,128,0,195171:0:0:0:0:
182,192,195214,1,0,0:0:0:0:
402,192,195214,128,0,195385:0:0:0:0:
475,192,195214,128,0,195299:0:0:0:0:
109,192,195235,128,0,195471:0:0:0:0:
256,192,195299,1,0,0:0:0:0:
182,192,195321,128,0,195492:0:0:0:0:
329,192,195385,1,0,0:0:0:0:
475,192,195385,128,0,195749:0:0:0:0:
256,192,195407,128,0,195514:0:0:0:0:
402,192,195471,1,0,0:0:0:0:
329,192,195492,128,0,195535:0:0:0:0:
182,192,195557,128,0,195599:0:0:0:0:
109,192,195578,128,0,195664:0:0:0:0:
36,192,195599,128,0,195728:0:0:0:0:
256,192,195599,1,0,0:0:0:0:
329,192,195621,1,0,0:0:0:0:
402,192,195642,128,0,195771:0:0:0:0:
329,192,195707,128,0,195792:0:0:0:0:
109,192,195728,1,0,0:0:0:0:
182,192,195749,1,0,0:0:0:0:
256,192,195771,128,0,195814:0:0:0:0:
36,192,195899,128,0,196157:0:0:0:0:
475,192,195899,128,0,196071:0:0:0:0:
256,192,195899,128,0,195942:0:0:0:0:
109,192,195899,128,0,196028:0:0:0:0:
182,192,195899,128,0,195985:0:0:0:0:
402,192,195942,128,0,195985:0:0:0:0:
329,192,195985,128,0,196071:0:0:0:0:
256,192,196028,128,0,196157:0:0:0:0:
182,192,196071,128,0,196242:0:0:0:0:
402,192,196071,1,0,0:0:0:0:
109,192,196114,128,0,196157:0:0:0:0:
329,192,196157,1,0,0:0:0:0:
402,192,196157,128,0,196328:0:0:0:0:
475,192,196157,128,0,196242:0:0:0:0:
329,192,196242,128,0,196414:0:0:0:0:
109,192,196242,1,0,0:0:0:0:
36,192,196242,128,0,196542:0:0:0:0:
256,192,196285,128,0,196328:0:0:0:0:
475,192,196328,128,0,196542:0:0:0:0:
182,192,196328,128,0,196371:0:0:0:0:
109,192,196371,128,0,196585:0:0:0:0:
256,192,196414,1,0,0:0:0:0:
402,192,196414,128,0,196542:0:0:0:0:
182,192,196499,128,0,196628:0:0:0:0:
256,192,196499,128,0,196885:0:0:0:0:
329,192,196499,128,0,196628:0:0:0:0:
402,192,196585,128,0,196671:0:0:0:0:
475,192,196585,128,0,196714:0:0:0:0:
36,192,196585,1,0,0:0:0:0:
182,192,196671,128,0,196799:0:0:0:0:
329,192,196671,1,0,0:0:0:0:
109,192,196714,128,0,196799:0:0:0:0:
36,192,196757,128,0,197078:0:0:0:0:
475,192,196757,128,0,196885:0:0:0:0:
402,192,196799,128,0,196885:0:0:0:0:
109,192,196842,128,0,196971:0:0:0:0:
182,192,196842,128,0,196928:0:0:0:0:
329,192,196842,128,0,197185:0:0:0:0:
256,192,196928,1,0,0:0:0:0:
475,192,196928,128,0,196971:0:0:0:0:
402,192,196928,128,0,197014:0:0:0:0:
109,192,197014,128,0,197099:0:0:0:0:
182,192,197035,128,0,197121:0:0:0:0:
256,192,197057,128,0,197142:0:0:0:0:
402,192,197099,128,0,197185:0:0:0:0:
475,192,197142,128,0,197185:0:0:0:0:
182,192,197185,1,0,0:0:0:0:
36,192,197185,1,0,0:0:0:0:
109,192,197271,128,0,197357:0:0:0:0:
475,192,197271,128,0,197357:0:0:0:0:
402,192,197271,1,0,0:0:0:0:
329,192,197357,1,0,0:0:0:0:
256,192,197399,1,0,0:0:0:0:
182,192,197442,128,0,197528:0:0:0:0:
475,192,197442,1,0,0:0:0:0:
402,192,197528,128,0,197614:0:0:0:0:
36,192,197528,1,0,0:0:0:0:
109,192,197614,128,0,197785:0:0:0:0:
256,192,197699,1,0,0:0:0:0:
329,192,197785,128,0,197871:0:0:0:0:
475,192,197785,1,0,0:0:0:0:
182,192,197871,128,0,197957:0:0:0:0:
36,192,197871,1,0,0:0:0:0:
402,192,197957,1,0,0:0:0:0:
109,192,198042,128,0,198128:0:0:0:0:
256,192,198042,1,0,0:0:0:0:
402,192,198128,128,0,198214:0:0:0:0:
329,192,198128,1,0,0:0:0:0:
182,192,198214,1,0,0:0:0:0:
475,192,198299,128,0,198557:0:0:0:0:
329,192,198299,1,0,0:0:0:0:
36,192,198299,1,0,0:0:0:0:
182,192,198385,1,0,0:0:0:0:
402,192,198471,128,0,198557:0:0:0:0:
256,192,198514,128,0,198557:0:0:0:0:
109,192,198557,1,0,0:0:0:0:
182,192,198642,128,0,198814:0:0:0:0:
36,192,198642,1,0,0:0:0:0:
329,192,198642,1,0,0:0:0:0:
402,192,198642,1,0,0:0:0:0:
475,192,198642,1,0,0:0:0:0:
256,192,198642,1,0,0:0:0:0:
109,192,198814,128,0,198985:0:0:0:0:
402,192,198814,1,0,0:0:0:0:
182,192,198985,128,0,199114:0:0:0:0:
256,192,198985,1,0,0:0:0:0:
36,192,198985,1,0,0:0:0:0:
402,192,198985,1,0,0:0:0:0:
475,192,198985,1,0,0:0:0:0:
329,192,198985,1,0,0:0:0:0:
329,192,199114,128,0,199157:0:0:0:0:
402,192,199157,128,0,199328:0:0:0:0:
36,192,199157,1,0,0:0:0:0:
109,192,199242,1,0,0:0:0:0:
182,192,199328,1,0,0:0:0:0:
329,192,199414,1,0,0:0:0:0:
109,192,199499,1,0,0:0:0:0:
36,192,199499,1,0,0:0:0:0:
475,192,199499,128,0,199757:0:0:0:0:
256,192,199499,128,0,199757:0:0:0:0:
182,192,199671,1,0,0:0:0:0:
109,192,199671,1,0,0:0:0:0:
36,192,199671,1,0,0:0:0:0:
329,192,199671,1,0,0:0:0:0:
402,192,199671,1,0,0:0:0:0:
182,192,199842,128,0,200185:0:0:0:0:
329,192,199842,1,0,0:0:0:0:
36,192,200014,128,0,200185:0:0:0:0:
256,192,200014,1,0,0:0:0:0:
402,192,200014,1,0,0:0:0:0:
475,192,200014,1,0,0:0:0:0:
402,192,200185,1,0,0:0:0:0:
402,192,200357,1,0,0:0:0:0:
182,192,200357,1,0,0:0:0:0:
109,192,200357,1,0,0:0:0:0:
36,192,200357,1,0,0:0:0:0:
475,192,200357,1,0,0:0:0:0:
329,192,200357,128,0,200699:0:0:0:0:
36,192,200528,1,0,0:0:0:0:
182,192,200614,1,0,0:0:0:0:
256,192,200699,1,0,0:0:0:0:
475,192,200699,128,0,200871:0:0:0:0:
402,192,200785,1,0,0:0:0:0:
109,192,200871,1,0,0:0:0:0:
36,192,200871,1,0,0:0:0:0:
329,192,200871,1,0,0:0:0:0:
182,192,200871,128,0,201299:0:0:0:0:
256,192,201042,1,0,0:0:0:0:
109,192,201042,1,0,0:0:0:0:
402,192,201042,1,0,0:0:0:0:
475,192,201042,1,0,0:0:0:0:
36,192,201042,1,0,0:0:0:0:
329,192,201042,128,0,201299:0:0:0:0:
475,192,201214,128,0,201299:0:0:0:0:
36,192,201385,128,0,201557:0:0:0:0:
402,192,201385,1,0,0:0:0:0:
109,192,201385,1,0,0:0:0:0:
256,192,201385,128,0,201899:0:0:0:0:
182,192,201385,1,0,0:0:0:0:
475,192,201557,1,0,0:0:0:0:
475,192,201728,1,0,0:0:0:0:
182,192,201728,1,0,0:0:0:0:
109,192,201728,1,0,0:0:0:0:
36,192,201728,1,0,0:0:0:0:
402,192,201728,1,0,0:0:0:0:
36,192,201899,1,0,0:0:0:0:
329,192,201985,1,0,0:0:0:0:
182,192,202071,128,0,202157:0:0:0:0:
402,192,202071,1,0,0:0:0:0:
475,192,202157,1,0,0:0:0:0:
402,192,202242,128,0,202328:0:0:0:0:
256,192,202242,1,0,0:0:0:0:
36,192,202242,1,0,0:0:0:0:
182,192,202242,1,0,0:0:0:0:
256,192,202414,128,0,202499:0:0:0:0:
109,192,202414,1,0,0:0:0:0:
36,192,202414,1,0,0:0:0:0:
329,192,202414,1,0,0:0:0:0:
402,192,202414,1,0,0:0:0:0:
475,192,202414,1,0,0:0:0:0:
182,192,202499,128,0,202585:0:0:0:0:
109,192,202585,128,0,202671:0:0:0:0:
329,192,202585,1,0,0:0:0:0:
182,192,202671,128,0,202757:0:0:0:0:
402,192,202757,128,0,203014:0:0:0:0:
329,192,202757,1,0,0:0:0:0:
256,192,202757,1,0,0:0:0:0:
36,192,202757,1,0,0:0:0:0:
475,192,202757,1,0,0:0:0:0:
36,192,202928,1,0,0:0:0:0:
402,192,203099,128,0,203271:0:0:0:0:
256,192,203099,1,0,0:0:0:0:
182,192,203099,1,0,0:0:0:0:
109,192,203099,1,0,0:0:0:0:
36,192,203099,1,0,0:0:0:0:
475,192,203099,1,0,0:0:0:0:
109,192,203271,1,0,0:0:0:0:
182,192,203357,1,0,0:0:0:0:
475,192,203442,128,0,203528:0:0:0:0:
256,192,203442,1,0,0:0:0:0:
109,192,203528,1,0,0:0:0:0:
256,192,203614,1,0,0:0:0:0:
36,192,203614,1,0,0:0:0:0:
475,192,203614,1,0,0:0:0:0:
329,192,203657,128,0,203871:0:0:0:0:
182,192,203785,1,0,0:0:0:0:
109,192,203785,1,0,0:0:0:0:
36,192,203785,1,0,0:0:0:0:
475,192,203785,1,0,0:0:0:0:
402,192,203785,1,0,0:0:0:0:
182,192,203957,1,0,0:0:0:0:
256,192,204128,128,0,204299:0:0:0:0:
475,192,204128,1,0,0:0:0:0:
402,192,204128,1,0,0:0:0:0:
36,192,204128,1,0,0:0:0:0:
329,192,204128,1,0,0:0:0:0:
109,192,204299,1,0,0:0:0:0:
182,192,204471,1,0,0:0:0:0:
329,192,204471,1,0,0:0:0:0:
402,192,204471,1,0,0:0:0:0:
475,192,204471,1,0,0:0:0:0:
256,192,204471,1,0,0:0:0:0:
109,192,204642,1,0,0:0:0:0:
256,192,204728,1,0,0:0:0:0:
329,192,204814,1,0,0:0:0:0:
36,192,204814,128,0,204899:0:0:0:0:
475,192,204899,1,0,0:0:0:0:
329,192,204985,1,0,0:0:0:0:
36,192,204985,1,0,0:0:0:0:
109,192,204985,1,0,0:0:0:0:
182,192,205028,128,0,205157:0:0:0:0:
36,192,205157,1,0,0:0:0:0:
256,192,205157,1,0,0:0:0:0:
329,192,205157,1,0,0:0:0:0:
402,192,205157,1,0,0:0:0:0:
475,192,205157,1,0,0:0:0:0:
256,192,205328,1,0,0:0:0:0:
475,192,205499,128,0,206099:0:0:0:0:
109,192,205499,1,0,0:0:0:0:
36,192,205499,1,0,0:0:0:0:
182,192,205499,1,0,0:0:0:0:
402,192,205499,1,0,0:0:0:0:
329,192,205671,1,0,0:0:0:0:
109,192,205842,128,0,205928:0:0:0:0:
256,192,205842,1,0,0:0:0:0:
182,192,205842,1,0,0:0:0:0:
36,192,205842,1,0,0:0:0:0:
329,192,205842,1,0,0:0:0:0:
402,192,205842,1,0,0:0:0:0:
329,192,206014,128,0,206099:0:0:0:0:
182,192,206014,1,0,0:0:0:0:
36,192,206099,1,0,0:0:0:0:
329,192,206185,128,0,206357:0:0:0:0:
182,192,206185,1,0,0:0:0:0:
402,192,206271,1,0,0:0:0:0:
256,192,206357,128,0,206528:0:0:0:0:
475,192,206357,1,0,0:0:0:0:
182,192,206357,1,0,0:0:0:0:
109,192,206357,1,0,0:0:0:0:
36,192,206528,1,0,0:0:0:0:
329,192,206528,1,0,0:0:0:0:
402,192,206528,1,0,0:0:0:0:
475,192,206528,1,0,0:0:0:0:
109,192,206528,1,0,0:0:0:0:
182,192,206528,128,0,206957:0:0:0:0:
402,192,206699,1,0,0:0:0:0:
329,192,206871,128,0,207128:0:0:0:0:
475,192,206871,1,0,0:0:0:0:
256,192,206871,128,0,206957:0:0:0:0:
109,192,206871,1,0,0:0:0:0:
36,192,206871,1,0,0:0:0:0:
182,192,207042,1,0,0:0:0:0:
256,192,207214,1,0,0:0:0:0:
329,192,207214,1,0,0:0:0:0:
402,192,207214,1,0,0:0:0:0:
475,192,207214,1,0,0:0:0:0:
36,192,207214,128,0,207557:0:0:0:0:
109,192,207385,1,0,0:0:0:0:
182,192,207471,1,0,0:0:0:0:
475,192,207557,128,0,208157:0:0:0:0:
256,192,207557,1,0,0:0:0:0:
329,192,207642,1,0,0:0:0:0:
182,192,207728,1,0,0:0:0:0:
109,192,207728,1,0,0:0:0:0:
36,192,207728,1,0,0:0:0:0:
256,192,207899,128,0,208157:0:0:0:0:
36,192,207899,1,0,0:0:0:0:
109,192,207899,1,0,0:0:0:0:
329,192,207899,1,0,0:0:0:0:
182,192,207899,1,0,0:0:0:0:
402,192,207899,1,0,0:0:0:0:
109,192,208071,1,0,0:0:0:0:
36,192,208242,128,0,208299:0:0:0:0:
402,192,208242,1,0,0:0:0:0:
475,192,208242,128,0,208499:0:0:0:0:
182,192,208271,128,0,208328:0:0:0:0:
256,192,208299,128,0,208357:0:0:0:0:
329,192,208328,128,0,208757:0:0:0:0:
109,192,208414,1,0,0:0:0:0:
256,192,208585,1,0,0:0:0:0:
182,192,208585,1,0,0:0:0:0:
36,192,208585,1,0,0:0:0:0:
402,192,208585,1,0,0:0:0:0:
475,192,208585,1,0,0:0:0:0:
36,192,208757,1,0,0:0:0:0:
256,192,208842,1,0,0:0:0:0:
109,192,208928,128,0,209528:0:0:0:0:
402,192,208928,1,0,0:0:0:0:
182,192,209014,1,0,0:0:0:0:
475,192,209099,1,0,0:0:0:0:
329,192,209099,1,0,0:0:0:0:
402,192,209099,1,0,0:0:0:0:
402,192,209271,128,0,209528:0:0:0:0:
329,192,209271,1,0,0:0:0:0:
256,192,209271,1,0,0:0:0:0:
182,192,209271,1,0,0:0:0:0:
475,192,209271,1,0,0:0:0:0:
36,192,209271,1,0,0:0:0:0:
256,192,209442,1,0,0:0:0:0:
36,192,209614,1,0,0:0:0:0:
182,192,209614,128,0,209785:0:0:0:0:
402,192,209614,128,0,209699:0:0:0:0:
329,192,209614,128,0,209671:0:0:0:0:
109,192,209614,1,0,0:0:0:0:
475,192,209642,128,0,209871:0:0:0:0:
109,192,209785,128,0,209957:0:0:0:0:
256,192,209785,1,0,0:0:0:0:
182,192,209957,128,0,210085:0:0:0:0:
256,192,209957,1,0,0:0:0:0:
36,192,209957,1,0,0:0:0:0:
402,192,209957,1,0,0:0:0:0:
475,192,209957,1,0,0:0:0:0:
329,192,209957,1,0,0:0:0:0:
329,192,210085,128,0,210128:0:0:0:0:
402,192,210128,128,0,210299:0:0:0:0:
109,192,210128,1,0,0:0:0:0:
256,192,210214,1,0,0:0:0:0:
182,192,210299,1,0,0:0:0:0:
109,192,210385,1,0,0:0:0:0:
36,192,210471,1,0,0:0:0:0:
475,192,210471,128,0,210728:0:0:0:0:
256,192,210471,128,0,210728:0:0:0:0:
402,192,210471,1,0,0:0:0:0:
182,192,210642,1,0,0:0:0:0:
109,192,210642,1,0,0:0:0:0:
36,192,210642,1,0,0:0:0:0:
329,192,210642,1,0,0:0:0:0:
402,192,210642,1,0,0:0:0:0:
182,192,210814,128,0,211157:0:0:0:0:
329,192,210814,1,0,0:0:0:0:
256,192,210985,1,0,0:0:0:0:
402,192,210985,1,0,0:0:0:0:
475,192,210985,1,0,0:0:0:0:
36,192,210985,128,0,211328:0:0:0:0:
402,192,211157,1,0,0:0:0:0:
256,192,211328,1,0,0:0:0:0:
182,192,211328,1,0,0:0:0:0:
109,192,211328,1,0,0:0:0:0:
475,192,211328,1,0,0:0:0:0:
329,192,211328,1,0,0:0:0:0:
475,192,211499,1,0,0:0:0:0:
182,192,211585,1,0,0:0:0:0:
256,192,211671,128,0,212014:0:0:0:0:
402,192,211671,1,0,0:0:0:0:
109,192,211757,1,0,0:0:0:0:
329,192,211842,1,0,0:0:0:0:
475,192,211842,1,0,0:0:0:0:
36,192,211842,1,0,0:0:0:0:
182,192,212014,1,0,0:0:0:0:
109,192,212014,1,0,0:0:0:0:
36,192,212014,1,0,0:0:0:0:
475,192,212014,1,0,0:0:0:0:
402,192,212014,1,0,0:0:0:0:
182,192,212185,1,0,0:0:0:0:
329,192,212271,1,0,0:0:0:0:
256,192,212357,128,0,212414:0:0:0:0:
109,192,212357,1,0,0:0:0:0:
36,192,212357,1,0,0:0:0:0:
475,192,212357,128,0,212699:0:0:0:0:
329,192,212385,128,0,212442:0:0:0:0:
402,192,212414,128,0,212471:0:0:0:0:
109,192,212528,1,0,0:0:0:0:
109,192,212699,128,0,213042:0:0:0:0:
329,192,212699,1,0,0:0:0:0:
256,192,212699,1,0,0:0:0:0:
182,192,212699,1,0,0:0:0:0:
36,192,212699,1,0,0:0:0:0:
402,192,212699,1,0,0:0:0:0:
402,192,212871,1,0,0:0:0:0:
329,192,212957,1,0,0:0:0:0:
256,192,213042,1,0,0:0:0:0:
36,192,213128,1,0,0:0:0:0:
475,192,213214,1,0,0:0:0:0:
182,192,213214,128,0,213414:0:0:0:0:
402,192,213214,128,0,213499:0:0:0:0:
109,192,213385,1,0,0:0:0:0:
36,192,213385,1,0,0:0:0:0:
256,192,213385,128,0,213442:0:0:0:0:
329,192,213414,128,0,213471:0:0:0:0:
475,192,213442,128,0,213728:0:0:0:0:
109,192,213557,1,0,0:0:0:0:
329,192,213728,128,0,213814:0:0:0:0:
256,192,213728,1,0,0:0:0:0:
182,192,213728,1,0,0:0:0:0:
36,192,213728,128,0,214157:0:0:0:0:
109,192,213728,1,0,0:0:0:0:
182,192,213899,1,0,0:0:0:0:
475,192,214071,128,0,214157:0:0:0:0:
109,192,214071,1,0,0:0:0:0:
256,192,214071,1,0,0:0:0:0:
329,192,214071,1,0,0:0:0:0:
402,192,214071,1,0,0:0:0:0:
182,192,214071,1,0,0:0:0:0:
402,192,214242,128,0,214328:0:0:0:0:
256,192,214242,1,0,0:0:0:0:
109,192,214328,1,0,0:0:0:0:
256,192,214414,128,0,214499:0:0:0:0:
475,192,214414,1,0,0:0:0:0:
402,192,214499,1,0,0:0:0:0:
329,192,214585,1,0,0:0:0:0:
182,192,214585,1,0,0:0:0:0:
36,192,214585,1,0,0:0:0:0:
109,192,214585,128,0,215014:0:0:0:0:
36,192,214757,1,0,0:0:0:0:
256,192,214757,1,0,0:0:0:0:
329,192,214757,1,0,0:0:0:0:
402,192,214757,1,0,0:0:0:0:
475,192,214757,1,0,0:0:0:0:
402,192,214928,1,0,0:0:0:0:
256,192,215099,128,0,216299:0:0:0:0:
36,192,215099,1,0,0:0:0:0:
475,192,215099,1,0,0:0:0:0:
402,192,215099,1,0,0:0:0:0:
329,192,215099,1,0,0:0:0:0:
329,192,215271,1,0,0:0:0:0:
329,192,215442,1,0,0:0:0:0:
475,192,215442,1,0,0:0:0:0:
182,192,215442,1,0,0:0:0:0:
109,192,215442,1,0,0:0:0:0:
36,192,215442,1,0,0:0:0:0:
475,192,215614,1,0,0:0:0:0:
329,192,215699,1,0,0:0:0:0:
182,192,215785,1,0,0:0:0:0:
109,192,215871,1,0,0:0:0:0:
329,192,215957,1,0,0:0:0:0:
402,192,215957,1,0,0:0:0:0:
475,192,215957,1,0,0:0:0:0:
475,192,216128,128,0,216642:0:0:0:0:
402,192,216128,1,0,0:0:0:0:
182,192,216128,1,0,0:0:0:0:
109,192,216128,1,0,0:0:0:0:
36,192,216128,1,0,0:0:0:0:
36,192,216299,1,0,0:0:0:0:
109,192,216471,1,0,0:0:0:0:
402,192,216471,128,0,216985:0:0:0:0:
256,192,216471,1,0,0:0:0:0:
182,192,216471,1,0,0:0:0:0:
36,192,216471,1,0,0:0:0:0:
182,192,216642,128,0,217157:0:0:0:0:
329,192,216642,1,0,0:0:0:0:
256,192,216814,1,0,0:0:0:0:
329,192,216814,1,0,0:0:0:0:
109,192,216814,1,0,0:0:0:0:
475,192,216814,1,0,0:0:0:0:
36,192,216814,1,0,0:0:0:0:
109,192,216985,128,0,217499:0:0:0:0:
256,192,216985,1,0,0:0:0:0:
475,192,217071,1,0,0:0:0:0:
329,192,217157,128,0,217414:0:0:0:0:
36,192,217157,1,0,0:0:0:0:
256,192,217242,1,0,0:0:0:0:
36,192,217328,128,0,217928:0:0:0:0:
182,192,217328,1,0,0:0:0:0:
402,192,217328,1,0,0:0:0:0:
475,192,217328,128,0,217414:0:0:0:0:
182,192,217499,1,0,0:0:0:0:
475,192,217499,1,0,0:0:0:0:
256,192,217499,1,0,0:0:0:0:
329,192,217499,1,0,0:0:0:0:
402,192,217499,128,0,217585:0:0:0:0:
329,192,217671,1,0,0:0:0:0:
256,192,217842,128,0,217928:0:0:0:0:
329,192,217842,1,0,0:0:0:0:
402,192,217842,1,0,0:0:0:0:
109,192,217842,1,0,0:0:0:0:
182,192,217842,1,0,0:0:0:0:
475,192,217842,128,0,218271:0:0:0:0:
402,192,218014,128,0,218271:0:0:0:0:
182,192,218014,128,0,218099:0:0:0:0:
329,192,218185,1,0,0:0:0:0:
256,192,218185,1,0,0:0:0:0:
36,192,218185,128,0,218614:0:0:0:0:
182,192,218185,1,0,0:0:0:0:
109,192,218242,128,0,218528:0:0:0:0:
329,192,218357,1,0,0:0:0:0:
256,192,218442,1,0,0:0:0:0:
475,192,218528,1,0,0:0:0:0:
329,192,218528,128,0,218957:0:0:0:0:
182,192,218614,1,0,0:0:0:0:
475,192,218699,1,0,0:0:0:0:
402,192,218699,1,0,0:0:0:0:
36,192,218699,128,0,218785:0:0:0:0:
256,192,218871,1,0,0:0:0:0:
109,192,218871,1,0,0:0:0:0:
36,192,218871,1,0,0:0:0:0:
402,192,218871,1,0,0:0:0:0:
475,192,218871,1,0,0:0:0:0:
182,192,218871,128,0,219299:0:0:0:0:
109,192,219042,1,0,0:0:0:0:
329,192,219214,128,0,219299:0:0:0:0:
36,192,219214,1,0,0:0:0:0:
475,192,219214,1,0,0:0:0:0:
256,192,219214,128,0,219299:0:0:0:0:
109,192,219299,1,0,0:0:0:0:
402,192,219299,1,0,0:0:0:0:
329,192,219385,1,0,0:0:0:0:
182,192,219385,1,0,0:0:0:0:
256,192,219471,5,0,0:0:0:0:
402,192,219471,1,0,0:0:0:0:
36,192,219557,128,0,220157:0:0:0:0:
329,192,219557,1,0,0:0:0:0:
475,192,219557,1,0,0:0:0:0:
109,192,219557,1,0,0:0:0:0:
182,192,219557,1,0,0:0:0:0:
182,192,219642,1,0,0:0:0:0:
256,192,219728,1,0,0:0:0:0:
475,192,219728,1,0,0:0:0:0:
109,192,219814,1,0,0:0:0:0:
329,192,219814,1,0,0:0:0:0:
256,192,219899,128,0,220499:0:0:0:0:
475,192,219899,1,0,0:0:0:0:
182,192,219985,1,0,0:0:0:0:
329,192,220071,1,0,0:0:0:0:
109,192,220071,1,0,0:0:0:0:
402,192,220071,1,0,0:0:0:0:
329,192,220157,1,0,0:0:0:0:
475,192,220242,128,0,220499:0:0:0:0:
182,192,220242,1,0,0:0:0:0:
109,192,220242,1,0,0:0:0:0:
36,192,220242,1,0,0:0:0:0:
402,192,220242,1,0,0:0:0:0:
329,192,220328,128,0,220499:0:0:0:0:
182,192,220414,128,0,220499:0:0:0:0:
109,192,220499,1,0,0:0:0:0:
475,192,220585,5,0,0:0:0:0:
402,192,220585,1,0,0:0:0:0:
329,192,220585,128,0,220971:0:0:0:0:
256,192,220585,1,0,0:0:0:0:
182,192,220585,1,0,0:0:0:0:
36,192,220585,1,0,0:0:0:0:
109,192,220757,128,0,221871:0:0:0:0:
182,192,220928,128,0,221699:0:0:0:0:
329,192,221057,1,0,0:0:0:0:
402,192,221099,128,0,222214:0:0:0:0:
256,192,221442,128,0,222557:0:0:0:0:
475,192,221442,128,0,222728:0:0:0:0:
182,192,221785,128,0,222514:0:0:0:0:
329,192,221785,128,0,222214:0:0:0:0:
109,192,221957,128,0,222557:0:0:0:0:
36,192,221957,128,0,223242:0:0:0:0:
329,192,222299,128,0,224099:0:0:0:0:
402,192,222299,1,0,0:0:0:0:
256,192,222642,128,0,225128:0:0:0:0:
109,192,222642,128,0,223285:0:0:0:0:
182,192,222685,128,0,223328:0:0:0:0:
402,192,222814,128,0,223585:0:0:0:0:
475,192,222814,1,0,0:0:0:0:
36,192,223328,128,0,224614:0:0:0:0:
109,192,223371,128,0,224957:0:0:0:0:
182,192,223414,128,0,224614:0:0:0:0:
402,192,223671,1,0,0:0:0:0:
475,192,223671,128,0,226499:0:0:0:0:
329,192,224185,1,0,0:0:0:0:
402,192,224185,128,0,226457:0:0:0:0:
182,192,224699,1,0,0:0:0:0:
36,192,224699,128,0,225985:0:0:0:0:
329,192,224699,128,0,225471:0:0:0:0:
109,192,225042,1,0,0:0:0:0:
256,192,225214,1,0,0:0:0:0:
182,192,225385,128,0,228728:0:0:0:0:
109,192,225385,1,0,0:0:0:0:
329,192,225557,1,0,0:0:0:0:
36,192,226071,1,0,0:0:0:0:
329,192,226071,128,0,226499:0:0:0:0:
256,192,226071,128,0,227357:0:0:0:0:
109,192,226414,1,0,0:0:0:0:
329,192,226585,128,0,227357:0:0:0:0:
475,192,226585,128,0,227528:0:0:0:0:
402,192,226628,128,0,228771:0:0:0:0:
36,192,226928,128,0,227699:0:0:0:0:
329,192,227442,1,0,0:0:0:0:
256,192,227442,1,0,0:0:0:0:
475,192,227614,1,0,0:0:0:0:
475,192,227785,128,0,229757:0:0:0:0:
36,192,227785,1,0,0:0:0:0:
109,192,227785,128,0,228214:0:0:0:0:
329,192,227957,1,0,0:0:0:0:
329,192,228128,128,0,230185:0:0:0:0:
256,192,228299,128,0,228749:0:0:0:0:
109,192,228299,1,0,0:0:0:0:
182,192,228814,1,0,0:0:0:0:
36,192,228814,128,0,230099:0:0:0:0:
256,192,228835,1,0,0:0:0:0:
402,192,228857,1,0,0:0:0:0:
109,192,229157,128,0,230099:0:0:0:0:
256,192,229157,1,0,0:0:0:0:
256,192,229499,128,0,230157:0:0:0:0:
402,192,229499,1,0,0:0:0:0:
402,192,229842,128,0,231128:0:0:0:0:
475,192,229842,1,0,0:0:0:0:
36,192,230185,1,0,0:0:0:0:
475,192,230185,128,0,231128:0:0:0:0:
182,192,230214,128,0,231471:0:0:0:0:
256,192,230242,1,0,0:0:0:0:
329,192,230271,1,0,0:0:0:0:
109,192,230871,128,0,231642:0:0:0:0:
329,192,230871,1,0,0:0:0:0:
475,192,231214,1,0,0:0:0:0:
402,192,231214,1,0,0:0:0:0:
36,192,231557,128,0,233014:0:0:0:0:
329,192,231557,128,0,231942:0:0:0:0:
182,192,231557,1,0,0:0:0:0:
475,192,231557,128,0,232157:0:0:0:0:
109,192,231728,1,0,0:0:0:0:
182,192,231899,128,0,233528:0:0:0:0:
329,192,232028,1,0,0:0:0:0:
402,192,232071,128,0,232842:0:0:0:0:
475,192,232242,1,0,0:0:0:0:
256,192,232242,1,0,0:0:0:0:
256,192,232414,128,0,233485:0:0:0:0:
109,192,232414,1,0,0:0:0:0:
329,192,232757,1,0,0:0:0:0:
402,192,232928,1,0,0:0:0:0:
329,192,232928,128,0,233528:0:0:0:0:
475,192,232928,1,0,0:0:0:0:
36,192,233099,1,0,0:0:0:0:
475,192,233185,1,0,0:0:0:0:
109,192,233271,128,0,233871:0:0:0:0:
402,192,233271,128,0,233699:0:0:0:0:
36,192,233442,128,0,233614:0:0:0:0:
475,192,233528,128,0,233871:0:0:0:0:
329,192,233614,128,0,234242:0:0:0:0:
182,192,233614,128,0,233871:0:0:0:0:
256,192,233657,128,0,234214:0:0:0:0:
36,192,233699,128,0,234385:0:0:0:0:
402,192,233785,128,0,234271:0:0:0:0:
475,192,233957,128,0,235242:0:0:0:0:
109,192,233957,128,0,234214:0:0:0:0:
182,192,233957,128,0,235071:0:0:0:0:
256,192,234299,1,0,0:0:0:0:
109,192,234299,128,0,235028:0:0:0:0:
329,192,234328,1,0,0:0:0:0:
402,192,234357,1,0,0:0:0:0:
36,192,234471,128,0,235071:0:0:0:0:
256,192,234642,128,0,235585:0:0:0:0:
329,192,234642,128,0,235585:0:0:0:0:
402,192,234814,1,0,0:0:0:0:
36,192,235157,128,0,235585:0:0:0:0:
182,192,235157,128,0,235757:0:0:0:0:
109,192,235199,128,0,235928:0:0:0:0:
475,192,235328,1,0,0:0:0:0:
402,192,235499,128,0,237299:0:0:0:0:
36,192,235671,1,0,0:0:0:0:
329,192,235671,1,0,0:0:0:0:
256,192,235671,128,0,236099:0:0:0:0:
182,192,235842,1,0,0:0:0:0:
475,192,235842,1,0,0:0:0:0:
329,192,235928,1,0,0:0:0:0:
109,192,236014,1,0,0:0:0:0:
256,192,236185,1,0,0:0:0:0:
475,192,236185,1,0,0:0:0:0:
36,192,236357,128,0,238285:0:0:0:0:
182,192,236357,128,0,236957:0:0:0:0:
109,192,236357,1,0,0:0:0:0:
329,192,236528,128,0,237128:0:0:0:0:
182,192,237042,1,0,0:0:0:0:
256,192,237042,128,0,237471:0:0:0:0:
109,192,237042,128,0,238328:0:0:0:0:
475,192,237042,128,0,237942:0:0:0:0:
329,192,237214,1,0,0:0:0:0:
402,192,237385,1,0,0:0:0:0:
256,192,237557,1,0,0:0:0:0:
329,192,237728,128,0,239014:0:0:0:0:
402,192,237728,128,0,237985:0:0:0:0:
182,192,237899,128,0,238671:0:0:0:0:
256,192,237899,128,0,238499:0:0:0:0:
402,192,238071,128,0,238671:0:0:0:0:
475,192,238114,128,0,238499:0:0:0:0:
109,192,238414,128,0,238842:0:0:0:0:
36,192,238457,128,0,238585:0:0:0:0:
256,192,238585,128,0,238971:0:0:0:0:
475,192,238585,128,0,238842:0:0:0:0:
36,192,238671,128,0,239185:0:0:0:0:
182,192,238757,128,0,239014:0:0:0:0:
402,192,238757,128,0,239357:0:0:0:0:
109,192,238928,128,0,239185:0:0:0:0:
475,192,238928,128,0,239099:0:0:0:0:
182,192,239099,128,0,240042:0:0:0:0:
329,192,239099,128,0,239357:0:0:0:0:
256,192,239142,128,0,239699:0:0:0:0:
475,192,239185,128,0,239699:0:0:0:0:
36,192,239271,128,0,239699:0:0:0:0:
109,192,239271,1,0,0:0:0:0:
402,192,239442,128,0,239699:0:0:0:0:
329,192,239442,1,0,0:0:0:0:
36,192,239785,1,0,0:0:0:0:
109,192,239785,128,0,240385:0:0:0:0:
402,192,239785,1,0,0:0:0:0:
475,192,239785,1,0,0:0:0:0:
256,192,239785,1,0,0:0:0:0:
329,192,239957,128,0,240385:0:0:0:0:
402,192,239957,1,0,0:0:0:0:
182,192,240128,1,0,0:0:0:0:
256,192,240128,128,0,240728:0:0:0:0:
36,192,240128,1,0,0:0:0:0:
475,192,240299,128,0,240728:0:0:0:0:
402,192,240299,1,0,0:0:0:0:
329,192,240471,1,0,0:0:0:0:
402,192,240471,128,0,241071:0:0:0:0:
109,192,240471,1,0,0:0:0:0:
475,192,240814,1,0,0:0:0:0:
36,192,240814,128,0,241757:0:0:0:0:
182,192,240814,128,0,241071:0:0:0:0:
256,192,240814,1,0,0:0:0:0:
475,192,241157,128,0,242442:0:0:0:0:
402,192,241157,1,0,0:0:0:0:
182,192,241157,1,0,0:0:0:0:
329,192,241157,128,0,241585:0:0:0:0:
109,192,241157,1,0,0:0:0:0:
256,192,241328,1,0,0:0:0:0:
182,192,241328,1,0,0:0:0:0:
329,192,241671,1,0,0:0:0:0:
402,192,241671,1,0,0:0:0:0:
256,192,241842,128,0,242442:0:0:0:0:
36,192,241842,1,0,0:0:0:0:
329,192,241842,1,0,0:0:0:0:
182,192,241842,1,0,0:0:0:0:
109,192,242014,1,0,0:0:0:0:
182,192,242057,1,0,0:0:0:0:
329,192,242099,1,0,0:0:0:0:
109,192,242185,128,0,242442:0:0:0:0:
402,192,242185,1,0,0:0:0:0:
36,192,242185,1,0,0:0:0:0:
329,192,242357,1,0,0:0:0:0:
182,192,242442,1,0,0:0:0:0:
329,192,242528,128,0,242785:0:0:0:0:
36,192,242528,128,0,242957:0:0:0:0:
109,192,242528,128,0,242614:0:0:0:0:
402,192,242528,128,0,242614:0:0:0:0:
475,192,242528,128,0,242614:0:0:0:0:
256,192,242549,128,0,242764:0:0:0:0:
109,192,242699,1,0,0:0:0:0:
329,192,242871,128,0,242957:0:0:0:0:
109,192,242871,128,0,243299:0:0:0:0:
256,192,242871,1,0,0:0:0:0:
182,192,242871,1,0,0:0:0:0:
475,192,242871,1,0,0:0:0:0:
402,192,242892,128,0,242935:0:0:0:0:
36,192,243042,1,0,0:0:0:0:
475,192,243042,128,0,243299:0:0:0:0:
402,192,243064,128,0,243278:0:0:0:0:
256,192,243128,1,0,0:0:0:0:
36,192,243214,128,0,243642:0:0:0:0:
329,192,243214,1,0,0:0:0:0:
256,192,243299,1,0,0:0:0:0:
109,192,243385,1,0,0:0:0:0:
402,192,243385,128,0,243471:0:0:0:0:
182,192,243385,1,0,0:0:0:0:
475,192,243407,128,0,243449:0:0:0:0:
109,192,243557,128,0,243985:0:0:0:0:
402,192,243557,128,0,243642:0:0:0:0:
256,192,243557,1,0,0:0:0:0:
182,192,243557,1,0,0:0:0:0:
475,192,243557,1,0,0:0:0:0:
329,192,243578,128,0,243621:0:0:0:0:
36,192,243728,1,0,0:0:0:0:
256,192,243728,128,0,243985:0:0:0:0:
329,192,243749,128,0,243964:0:0:0:0:
36,192,243899,128,0,244328:0:0:0:0:
402,192,243899,1,0,0:0:0:0:
475,192,243899,1,0,0:0:0:0:
182,192,244071,1,0,0:0:0:0:
329,192,244071,128,0,244157:0:0:0:0:
256,192,244092,128,0,244135:0:0:0:0:
182,192,244242,128,0,244671:0:0:0:0:
329,192,244242,128,0,244328:0:0:0:0:
256,192,244242,1,0,0:0:0:0:
475,192,244242,1,0,0:0:0:0:
109,192,244242,1,0,0:0:0:0:
402,192,244264,128,0,244307:0:0:0:0:
36,192,244414,1,0,0:0:0:0:
475,192,244414,128,0,244671:0:0:0:0:
402,192,244435,128,0,244649:0:0:0:0:
329,192,244499,1,0,0:0:0:0:
36,192,244585,128,0,245014:0:0:0:0:
256,192,244585,1,0,0:0:0:0:
329,192,244671,1,0,0:0:0:0:
182,192,244757,1,0,0:0:0:0:
402,192,244757,128,0,244842:0:0:0:0:
109,192,244757,1,0,0:0:0:0:
475,192,244778,128,0,244821:0:0:0:0:
182,192,244928,128,0,245357:0:0:0:0:
402,192,244928,128,0,245014:0:0:0:0:
109,192,244928,1,0,0:0:0:0:
256,192,244928,1,0,0:0:0:0:
475,192,244928,1,0,0:0:0:0:
329,192,244949,128,0,244992:0:0:0:0:
36,192,245099,1,0,0:0:0:0:
256,192,245099,128,0,245185:0:0:0:0:
329,192,245121,128,0,245164:0:0:0:0:
36,192,245271,128,0,245699:0:0:0:0:
475,192,245271,128,0,245528:0:0:0:0:
256,192,245271,1,0,0:0:0:0:
402,192,245292,128,0,245507:0:0:0:0:
109,192,245442,1,0,0:0:0:0:
109,192,245614,128,0,246042:0:0:0:0:
329,192,245614,128,0,245699:0:0:0:0:
256,192,245614,1,0,0:0:0:0:
182,192,245614,1,0,0:0:0:0:
475,192,245614,1,0,0:0:0:0:
402,192,245635,128,0,245678:0:0:0:0:
36,192,245785,1,0,0:0:0:0:
329,192,245785,128,0,246042:0:0:0:0:
256,192,245807,128,0,246021:0:0:0:0:
475,192,245871,1,0,0:0:0:0:
36,192,245957,128,0,246385:0:0:0:0:
402,192,245957,1,0,0:0:0:0:
475,192,246042,1,0,0:0:0:0:
109,192,246128,1,0,0:0:0:0:
256,192,246128,128,0,246214:0:0:0:0:
182,192,246128,1,0,0:0:0:0:
329,192,246149,128,0,246192:0:0:0:0:
109,192,246299,128,0,246728:0:0:0:0:
402,192,246299,128,0,246385:0:0:0:0:
256,192,246299,1,0,0:0:0:0:
182,192,246299,1,0,0:0:0:0:
475,192,246299,1,0,0:0:0:0:
329,192,246321,128,0,246364:0:0:0:0:
36,192,246471,1,0,0:0:0:0:
402,192,246471,128,0,246728:0:0:0:0:
475,192,246492,128,0,246707:0:0:0:0:
36,192,246642,128,0,247071:0:0:0:0:
256,192,246642,1,0,0:0:0:0:
329,192,246642,1,0,0:0:0:0:
475,192,246814,1,0,0:0:0:0:
182,192,246814,128,0,246899:0:0:0:0:
109,192,246835,128,0,246878:0:0:0:0:
475,192,246985,128,0,247414:0:0:0:0:
182,192,246985,128,0,247071:0:0:0:0:
329,192,246985,1,0,0:0:0:0:
402,192,246985,1,0,0:0:0:0:
109,192,246985,1,0,0:0:0:0:
256,192,247007,128,0,247049:0:0:0:0:
36,192,247157,1,0,0:0:0:0:
329,192,247157,128,0,247414:0:0:0:0:
256,192,247178,128,0,247392:0:0:0:0:
109,192,247242,1,0,0:0:0:0:
36,192,247328,128,0,247757:0:0:0:0:
182,192,247328,1,0,0:0:0:0:
109,192,247414,1,0,0:0:0:0:
475,192,247499,1,0,0:0:0:0:
182,192,247499,128,0,247585:0:0:0:0:
402,192,247499,1,0,0:0:0:0:
256,192,247521,128,0,247564:0:0:0:0:
475,192,247671,128,0,247928:0:0:0:0:
329,192,247671,128,0,247757:0:0:0:0:
182,192,247671,1,0,0:0:0:0:
109,192,247671,1,0,0:0:0:0:
402,192,247671,1,0,0:0:0:0:
256,192,247692,128,0,247735:0:0:0:0:
36,192,247842,128,0,248099:0:0:0:0:
329,192,247842,128,0,247928:0:0:0:0:
402,192,247864,128,0,247907:0:0:0:0:
475,192,248014,128,0,248442:0:0:0:0:
256,192,248014,128,0,248271:0:0:0:0:
109,192,248014,1,0,0:0:0:0:
182,192,248035,128,0,248249:0:0:0:0:
402,192,248185,1,0,0:0:0:0:
109,192,248357,128,0,248442:0:0:0:0:
402,192,248357,128,0,248785:0:0:0:0:
256,192,248357,1,0,0:0:0:0:
329,192,248357,1,0,0:0:0:0:
36,192,248357,1,0,0:0:0:0:
182,192,248378,128,0,248421:0:0:0:0:
475,192,248528,1,0,0:0:0:0:
109,192,248528,128,0,248785:0:0:0:0:
36,192,248549,128,0,248764:0:0:0:0:
256,192,248614,1,0,0:0:0:0:
475,192,248699,128,0,249128:0:0:0:0:
182,192,248699,1,0,0:0:0:0:
256,192,248785,1,0,0:0:0:0:
402,192,248871,1,0,0:0:0:0:
36,192,248871,128,0,248957:0:0:0:0:
329,192,248871,1,0,0:0:0:0:
109,192,248892,128,0,248935:0:0:0:0:
402,192,249042,128,0,249471:0:0:0:0:
182,192,249042,128,0,249128:0:0:0:0:
256,192,249042,1,0,0:0:0:0:
329,192,249042,1,0,0:0:0:0:
36,192,249042,1,0,0:0:0:0:
109,192,249064,128,0,249107:0:0:0:0:
475,192,249214,1,0,0:0:0:0:
182,192,249214,128,0,249471:0:0:0:0:
256,192,249235,128,0,249449:0:0:0:0:
475,192,249385,128,0,249814:0:0:0:0:
109,192,249385,1,0,0:0:0:0:
36,192,249385,1,0,0:0:0:0:
329,192,249557,1,0,0:0:0:0:
256,192,249557,128,0,249642:0:0:0:0:
182,192,249578,128,0,249621:0:0:0:0:
329,192,249728,128,0,250157:0:0:0:0:
109,192,249728,128,0,249814:0:0:0:0:
256,192,249728,1,0,0:0:0:0:
36,192,249728,1,0,0:0:0:0:
402,192,249728,1,0,0:0:0:0:
182,192,249749,128,0,249792:0:0:0:0:
475,192,249899,1,0,0:0:0:0:
109,192,249899,128,0,250157:0:0:0:0:
36,192,249921,128,0,250135:0:0:0:0:
182,192,249985,1,0,0:0:0:0:
475,192,250071,128,0,250499:0:0:0:0:
256,192,250071,1,0,0:0:0:0:
182,192,250157,1,0,0:0:0:0:
329,192,250242,1,0,0:0:0:0:
36,192,250242,128,0,250328:0:0:0:0:
402,192,250242,1,0,0:0:0:0:
109,192,250264,128,0,250307:0:0:0:0:
329,192,250414,128,0,250842:0:0:0:0:
182,192,250414,128,0,250499:0:0:0:0:
402,192,250414,1,0,0:0:0:0:
256,192,250414,1,0,0:0:0:0:
36,192,250414,1,0,0:0:0:0:
109,192,250435,128,0,250478:0:0:0:0:
475,192,250585,1,0,0:0:0:0:
182,192,250585,128,0,250671:0:0:0:0:
256,192,250607,128,0,250649:0:0:0:0:
475,192,250757,128,0,251185:0:0:0:0:
109,192,250757,128,0,251014:0:0:0:0:
256,192,250757,1,0,0:0:0:0:
36,192,250778,128,0,250992:0:0:0:0:
402,192,250928,1,0,0:0:0:0:
402,192,251099,128,0,251528:0:0:0:0:
109,192,251099,128,0,251185:0:0:0:0:
256,192,251099,1,0,0:0:0:0:
329,192,251099,1,0,0:0:0:0:
36,192,251099,1,0,0:0:0:0:
182,192,251121,128,0,251164:0:0:0:0:
475,192,251271,1,0,0:0:0:0:
256,192,251271,128,0,251528:0:0:0:0:
182,192,251292,128,0,251507:0:0:0:0:
109,192,251357,1,0,0:0:0:0:
475,192,251442,128,0,251871:0:0:0:0:
36,192,251442,1,0,0:0:0:0:
109,192,251528,1,0,0:0:0:0:
402,192,251614,1,0,0:0:0:0:
182,192,251614,128,0,251699:0:0:0:0:
329,192,251614,1,0,0:0:0:0:
256,192,251635,128,0,251678:0:0:0:0:
402,192,251785,128,0,252214:0:0:0:0:
182,192,251785,128,0,251871:0:0:0:0:
256,192,251785,1,0,0:0:0:0:
329,192,251785,1,0,0:0:0:0:
36,192,251785,1,0,0:0:0:0:
109,192,251807,128,0,251849:0:0:0:0:
475,192,251957,1,0,0:0:0:0:
36,192,251957,128,0,252214:0:0:0:0:
109,192,251978,128,0,252192:0:0:0:0:
475,192,252128,128,0,252557:0:0:0:0:
182,192,252128,1,0,0:0:0:0:
256,192,252128,1,0,0:0:0:0:
36,192,252299,1,0,0:0:0:0:
402,192,252299,128,0,252385:0:0:0:0:
329,192,252321,128,0,252364:0:0:0:0:
36,192,252471,128,0,252899:0:0:0:0:
256,192,252471,128,0,252557:0:0:0:0:
182,192,252471,1,0,0:0:0:0:
109,192,252471,1,0,0:0:0:0:
402,192,252471,1,0,0:0:0:0:
329,192,252492,128,0,252535:0:0:0:0:
475,192,252642,1,0,0:0:0:0:
256,192,252642,128,0,252899:0:0:0:0:
182,192,252664,128,0,252878:0:0:0:0:
402,192,252728,1,0,0:0:0:0:
475,192,252814,128,0,253242:0:0:0:0:
329,192,252814,1,0,0:0:0:0:
402,192,252899,1,0,0:0:0:0:
36,192,252985,1,0,0:0:0:0:
256,192,252985,128,0,253071:0:0:0:0:
109,192,252985,1,0,0:0:0:0:
329,192,253007,128,0,253049:0:0:0:0:
36,192,253157,128,0,253414:0:0:0:0:
256,192,253157,128,0,253242:0:0:0:0:
329,192,253157,1,0,0:0:0:0:
402,192,253157,1,0,0:0:0:0:
109,192,253157,1,0,0:0:0:0:
182,192,253178,128,0,253221:0:0:0:0:
475,192,253328,128,0,253585:0:0:0:0:
109,192,253328,128,0,253414:0:0:0:0:
182,192,253349,128,0,253392:0:0:0:0:
256,192,253499,128,0,253585:0:0:0:0:
36,192,253499,128,0,253757:0:0:0:0:
109,192,253499,128,0,253585:0:0:0:0:
182,192,253499,128,0,253585:0:0:0:0:
329,192,253499,1,0,0:0:0:0:
329,192,253671,128,0,253928:0:0:0:0:
182,192,253671,1,0,0:0:0:0:
402,192,253671,128,0,253757:0:0:0:0:
475,192,253671,128,0,253757:0:0:0:0:
182,192,253842,128,0,253928:0:0:0:0:
109,192,253842,128,0,254099:0:0:0:0:
256,192,253842,128,0,253928:0:0:0:0:
36,192,253842,1,0,0:0:0:0:
402,192,253842,1,0,0:0:0:0:
475,192,253842,1,0,0:0:0:0:
256,192,254014,1,0,0:0:0:0:
402,192,254014,128,0,254271:0:0:0:0:
36,192,254014,128,0,254099:0:0:0:0:
475,192,254014,128,0,254099:0:0:0:0:
329,192,254185,128,0,254271:0:0:0:0:
256,192,254185,128,0,254271:0:0:0:0:
182,192,254185,128,0,254442:0:0:0:0:
36,192,254185,1,0,0:0:0:0:
329,192,254357,1,0,0:0:0:0:
475,192,254357,128,0,254614:0:0:0:0:
109,192,254357,128,0,254442:0:0:0:0:
36,192,254357,128,0,254442:0:0:0:0:
402,192,254357,1,0,0:0:0:0:
402,192,254528,128,0,254614:0:0:0:0:
329,192,254528,128,0,254614:0:0:0:0:
256,192,254528,128,0,254785:0:0:0:0:
109,192,254528,1,0,0:0:0:0:
182,192,254528,1,0,0:0:0:0:
36,192,254528,1,0,0:0:0:0:
402,192,254699,1,0,0:0:0:0:
182,192,254699,128,0,254785:0:0:0:0:
109,192,254699,128,0,254785:0:0:0:0:
36,192,254699,128,0,254957:0:0:0:0:
329,192,254871,128,0,255128:0:0:0:0:
109,192,254871,128,0,254957:0:0:0:0:
182,192,254871,128,0,254957:0:0:0:0:
256,192,254871,1,0,0:0:0:0:
475,192,254871,128,0,254957:0:0:0:0:
475,192,255042,128,0,255299:0:0:0:0:
402,192,255042,128,0,255128:0:0:0:0:
256,192,255042,128,0,255128:0:0:0:0:
109,192,255042,1,0,0:0:0:0:
256,192,255214,128,0,255471:0:0:0:0:
402,192,255214,1,0,0:0:0:0:
109,192,255214,128,0,255299:0:0:0:0:
36,192,255214,128,0,255299:0:0:0:0:
182,192,255214,1,0,0:0:0:0:
329,192,255214,1,0,0:0:0:0:
402,192,255385,128,0,255642:0:0:0:0:
329,192,255385,128,0,255471:0:0:0:0:
182,192,255385,128,0,255471:0:0:0:0:
36,192,255385,1,0,0:0:0:0:
182,192,255557,128,0,255814:0:0:0:0:
329,192,255557,1,0,0:0:0:0:
36,192,255557,128,0,255642:0:0:0:0:
475,192,255557,128,0,255642:0:0:0:0:
329,192,255728,128,0,255985:0:0:0:0:
256,192,255728,128,0,255814:0:0:0:0:
109,192,255728,128,0,255814:0:0:0:0:
475,192,255728,1,0,0:0:0:0:
402,192,255728,1,0,0:0:0:0:
109,192,255899,128,0,256157:0:0:0:0:
256,192,255899,1,0,0:0:0:0:
402,192,255899,128,0,255985:0:0:0:0:
475,192,255899,128,0,255985:0:0:0:0:
182,192,255899,1,0,0:0:0:0:
36,192,255899,1,0,0:0:0:0:
256,192,256071,128,0,256328:0:0:0:0:
182,192,256071,128,0,256157:0:0:0:0:
36,192,256071,128,0,256157:0:0:0:0:
402,192,256071,1,0,0:0:0:0:
36,192,256242,128,0,256499:0:0:0:0:
109,192,256242,128,0,256328:0:0:0:0:
182,192,256242,1,0,0:0:0:0:
475,192,256242,128,0,256328:0:0:0:0:
329,192,256242,128,0,256328:0:0:0:0:
475,192,256414,128,0,256671:0:0:0:0:
182,192,256414,128,0,256499:0:0:0:0:
402,192,256414,128,0,256499:0:0:0:0:
329,192,256414,1,0,0:0:0:0:
109,192,256585,128,0,256842:0:0:0:0:
36,192,256585,128,0,256671:0:0:0:0:
329,192,256585,128,0,256671:0:0:0:0:
256,192,256585,1,0,0:0:0:0:
182,192,256585,1,0,0:0:0:0:
402,192,256585,1,0,0:0:0:0:
36,192,256757,128,0,257014:0:0:0:0:
256,192,256757,128,0,256842:0:0:0:0:
475,192,256757,128,0,256842:0:0:0:0:
402,192,256757,1,0,0:0:0:0:
182,192,256928,128,0,257185:0:0:0:0:
109,192,256928,128,0,257014:0:0:0:0:
402,192,256928,128,0,257014:0:0:0:0:
329,192,256928,1,0,0:0:0:0:
109,192,257099,128,0,257357:0:0:0:0:
329,192,257099,128,0,257185:0:0:0:0:
36,192,257099,128,0,257185:0:0:0:0:
475,192,257099,1,0,0:0:0:0:
256,192,257099,1,0,0:0:0:0:
256,192,257271,128,0,257528:0:0:0:0:
182,192,257271,128,0,257357:0:0:0:0:
475,192,257271,128,0,257357:0:0:0:0:
402,192,257271,1,0,0:0:0:0:
36,192,257271,1,0,0:0:0:0:
329,192,257271,1,0,0:0:0:0:
182,192,257442,128,0,257699:0:0:0:0:
402,192,257442,128,0,257528:0:0:0:0:
109,192,257442,128,0,257528:0:0:0:0:
36,192,257442,1,0,0:0:0:0:
475,192,257614,128,0,257871:0:0:0:0:
329,192,257614,128,0,257699:0:0:0:0:
402,192,257614,128,0,257699:0:0:0:0:
256,192,257614,1,0,0:0:0:0:
36,192,257614,128,0,257699:0:0:0:0:
36,192,257785,128,0,258042:0:0:0:0:
182,192,257785,128,0,257871:0:0:0:0:
109,192,257785,128,0,257871:0:0:0:0:
329,192,257785,1,0,0:0:0:0:
402,192,257957,128,0,258214:0:0:0:0:
475,192,257957,128,0,258042:0:0:0:0:
256,192,257957,128,0,258042:0:0:0:0:
182,192,257957,1,0,0:0:0:0:
329,192,257957,1,0,0:0:0:0:
109,192,257957,1,0,0:0:0:0:
109,192,258128,128,0,258385:0:0:0:0:
36,192,258128,128,0,258214:0:0:0:0:
256,192,258128,128,0,258214:0:0:0:0:
475,192,258128,1,0,0:0:0:0:
329,192,258299,128,0,258557:0:0:0:0:
402,192,258299,128,0,258385:0:0:0:0:
475,192,258299,128,0,258385:0:0:0:0:
36,192,258299,1,0,0:0:0:0:
182,192,258471,128,0,258728:0:0:0:0:
109,192,258471,128,0,258557:0:0:0:0:
36,192,258471,128,0,258557:0:0:0:0:
256,192,258471,1,0,0:0:0:0:
402,192,258471,1,0,0:0:0:0:
256,192,258642,128,0,258899:0:0:0:0:
402,192,258642,128,0,258728:0:0:0:0:
36,192,258642,128,0,258728:0:0:0:0:
475,192,258642,1,0,0:0:0:0:
329,192,258642,1,0,0:0:0:0:
109,192,258642,1,0,0:0:0:0:
329,192,258814,128,0,259071:0:0:0:0:
109,192,258814,128,0,258899:0:0:0:0:
475,192,258814,128,0,258899:0:0:0:0:
182,192,258814,1,0,0:0:0:0:
475,192,258985,128,0,259242:0:0:0:0:
402,192,258985,128,0,259071:0:0:0:0:
36,192,258985,128,0,259071:0:0:0:0:
256,192,258985,1,0,0:0:0:0:
182,192,258985,128,0,259071:0:0:0:0:
182,192,259157,128,0,259414:0:0:0:0:
329,192,259157,1,0,0:0:0:0:
109,192,259157,128,0,259242:0:0:0:0:
36,192,259157,128,0,259242:0:0:0:0:
329,192,259328,128,0,259414:0:0:0:0:
402,192,259328,128,0,259585:0:0:0:0:
256,192,259328,128,0,259414:0:0:0:0:
475,192,259328,1,0,0:0:0:0:
109,192,259328,1,0,0:0:0:0:
36,192,259328,1,0,0:0:0:0:
256,192,259499,1,0,0:0:0:0:
109,192,259499,128,0,259757:0:0:0:0:
475,192,259499,128,0,259585:0:0:0:0:
36,192,259499,128,0,259585:0:0:0:0:
182,192,259671,128,0,259757:0:0:0:0:
256,192,259671,128,0,259757:0:0:0:0:
329,192,259671,128,0,259928:0:0:0:0:
475,192,259671,1,0,0:0:0:0:
182,192,259842,1,0,0:0:0:0:
36,192,259842,128,0,260099:0:0:0:0:
402,192,259842,128,0,259928:0:0:0:0:
475,192,259842,128,0,259928:0:0:0:0:
109,192,259842,1,0,0:0:0:0:
109,192,260014,128,0,260099:0:0:0:0:
182,192,260014,128,0,260099:0:0:0:0:
256,192,260014,128,0,260271:0:0:0:0:
402,192,260014,1,0,0:0:0:0:
329,192,260014,1,0,0:0:0:0:
475,192,260014,1,0,0:0:0:0:
109,192,260185,1,0,0:0:0:0:
329,192,260185,128,0,260271:0:0:0:0:
402,192,260185,128,0,260271:0:0:0:0:
475,192,260185,128,0,260442:0:0:0:0:
182,192,260357,128,0,260614:0:0:0:0:
402,192,260357,128,0,260442:0:0:0:0:
329,192,260357,128,0,260442:0:0:0:0:
256,192,260357,1,0,0:0:0:0:
36,192,260357,128,0,260442:0:0:0:0:
36,192,260528,128,0,260785:0:0:0:0:
109,192,260528,128,0,260614:0:0:0:0:
256,192,260528,128,0,260614:0:0:0:0:
402,192,260528,1,0,0:0:0:0:
256,192,260699,128,0,260957:0:0:0:0:
109,192,260699,1,0,0:0:0:0:
402,192,260699,128,0,260785:0:0:0:0:
475,192,260699,128,0,260785:0:0:0:0:
329,192,260699,1,0,0:0:0:0:
182,192,260699,1,0,0:0:0:0:
109,192,260871,128,0,261128:0:0:0:0:
182,192,260871,128,0,260957:0:0:0:0:
329,192,260871,128,0,260957:0:0:0:0:
475,192,260871,1,0,0:0:0:0:
329,192,261042,128,0,261299:0:0:0:0:
182,192,261042,1,0,0:0:0:0:
475,192,261042,128,0,261128:0:0:0:0:
36,192,261042,128,0,261128:0:0:0:0:
182,192,261214,128,0,261471:0:0:0:0:
256,192,261214,128,0,261299:0:0:0:0:
402,192,261214,128,0,261299:0:0:0:0:
36,192,261214,1,0,0:0:0:0:
109,192,261214,1,0,0:0:0:0:
402,192,261385,128,0,261642:0:0:0:0:
256,192,261385,1,0,0:0:0:0:
109,192,261385,128,0,261471:0:0:0:0:
36,192,261385,128,0,261471:0:0:0:0:
329,192,261385,1,0,0:0:0:0:
475,192,261385,1,0,0:0:0:0:
256,192,261557,128,0,261814:0:0:0:0:
329,192,261557,128,0,261642:0:0:0:0:
475,192,261557,128,0,261642:0:0:0:0:
109,192,261557,1,0,0:0:0:0:
475,192,261728,128,0,261985:0:0:0:0:
402,192,261728,128,0,261814:0:0:0:0:
329,192,261728,1,0,0:0:0:0:
36,192,261728,128,0,261814:0:0:0:0:
182,192,261728,128,0,261814:0:0:0:0:
36,192,261899,128,0,262157:0:0:0:0:
329,192,261899,128,0,261985:0:0:0:0:
109,192,261899,128,0,261985:0:0:0:0:
182,192,261899,1,0,0:0:0:0:
402,192,262071,128,0,262328:0:0:0:0:
475,192,262071,128,0,262157:0:0:0:0:
182,192,262071,128,0,262157:0:0:0:0:
256,192,262071,1,0,0:0:0:0:
329,192,262071,1,0,0:0:0:0:
109,192,262071,1,0,0:0:0:0:
475,192,262242,128,0,262499:0:0:0:0:
256,192,262242,128,0,262328:0:0:0:0:
36,192,262242,128,0,262328:0:0:0:0:
109,192,262242,1,0,0:0:0:0:
329,192,262414,128,0,262671:0:0:0:0:
402,192,262414,128,0,262499:0:0:0:0:
109,192,262414,128,0,262499:0:0:0:0:
182,192,262414,1,0,0:0:0:0:
402,192,262585,128,0,262842:0:0:0:0:
182,192,262585,128,0,262671:0:0:0:0:
475,192,262585,128,0,262671:0:0:0:0:
36,192,262585,1,0,0:0:0:0:
256,192,262585,1,0,0:0:0:0:
256,192,262757,128,0,263014:0:0:0:0:
329,192,262757,128,0,262842:0:0:0:0:
36,192,262757,128,0,262842:0:0:0:0:
109,192,262757,1,0,0:0:0:0:
475,192,262757,1,0,0:0:0:0:
182,192,262757,1,0,0:0:0:0:
329,192,262928,128,0,263185:0:0:0:0:
109,192,262928,128,0,263014:0:0:0:0:
402,192,262928,128,0,263014:0:0:0:0:
475,192,262928,1,0,0:0:0:0:
475,192,263099,128,0,263528:0:0:0:0:
36,192,263271,1,0,0:0:0:0:
182,192,263271,128,0,263785:0:0:0:0:
36,192,263442,128,0,263871:0:0:0:0:
256,192,263442,128,0,263785:0:0:0:0:
475,192,263614,1,0,0:0:0:0:
329,192,263614,128,0,263785:0:0:0:0:
475,192,263785,128,0,264214:0:0:0:0:
36,192,263957,1,0,0:0:0:0:
329,192,263957,128,0,264042:0:0:0:0:
256,192,264128,128,0,264214:0:0:0:0:
36,192,264128,128,0,264385:0:0:0:0:
475,192,264299,1,0,0:0:0:0:
182,192,264299,128,0,264385:0:0:0:0:
36,192,264471,1,0,0:0:0:0:
256,192,264471,128,0,264642:0:0:0:0:
329,192,264471,128,0,264514:0:0:0:0:
402,192,264471,128,0,264899:0:0:0:0:
475,192,264471,128,0,264514:0:0:0:0:
109,192,264514,1,0,0:0:0:0:
182,192,264557,128,0,264685:0:0:0:0:
109,192,264642,128,0,264728:0:0:0:0:
329,192,264642,1,0,0:0:0:0:
475,192,264642,1,0,0:0:0:0:
256,192,264728,1,0,0:0:0:0:
36,192,264728,128,0,264985:0:0:0:0:
329,192,264814,128,0,264899:0:0:0:0:
109,192,264814,1,0,0:0:0:0:
182,192,264814,1,0,0:0:0:0:
475,192,264814,128,0,264899:0:0:0:0:
256,192,264899,1,0,0:0:0:0:
182,192,264985,128,0,265157:0:0:0:0:
109,192,264985,128,0,265028:0:0:0:0:
402,192,264985,1,0,0:0:0:0:
475,192,264985,128,0,265414:0:0:0:0:
329,192,265028,1,0,0:0:0:0:
256,192,265071,128,0,265199:0:0:0:0:
109,192,265157,1,0,0:0:0:0:
329,192,265157,128,0,265242:0:0:0:0:
36,192,265157,128,0,265242:0:0:0:0:
402,192,265242,128,0,265414:0:0:0:0:
182,192,265242,1,0,0:0:0:0:
329,192,265328,1,0,0:0:0:0:
109,192,265328,128,0,265585:0:0:0:0:
36,192,265328,1,0,0:0:0:0:
256,192,265414,1,0,0:0:0:0:
182,192,265414,128,0,265499:0:0:0:0:
36,192,265499,128,0,265671:0:0:0:0:
475,192,265499,128,0,265671:0:0:0:0:
402,192,265499,128,0,265585:0:0:0:0:
329,192,265499,1,0,0:0:0:0:
256,192,265585,1,0,0:0:0:0:
402,192,265671,1,0,0:0:0:0:
109,192,265671,1,0,0:0:0:0:
182,192,265671,1,0,0:0:0:0:
329,192,265757,1,0,0:0:0:0:
109,192,265842,128,0,265885:0:0:0:0:
182,192,265842,128,0,265928:0:0:0:0:
36,192,265842,128,0,266099:0:0:0:0:
475,192,265842,1,0,0:0:0:0:
256,192,265885,128,0,266185:0:0:0:0:
329,192,265928,128,0,265971:0:0:0:0:
402,192,265928,128,0,266014:0:0:0:0:
475,192,265971,128,0,266228:0:0:0:0:
109,192,266014,1,0,0:0:0:0:
182,192,266099,128,0,266271:0:0:0:0:
329,192,266099,128,0,266142:0:0:0:0:
402,192,266185,128,0,266271:0:0:0:0:
109,192,266185,128,0,266399:0:0:0:0:
36,192,266185,128,0,266228:0:0:0:0:
329,192,266228,128,0,266485:0:0:0:0:
256,192,266271,1,0,0:0:0:0:
182,192,266357,128,0,266442:0:0:0:0:
36,192,266357,1,0,0:0:0:0:
475,192,266357,128,0,266399:0:0:0:0:
256,192,266399,128,0,266528:0:0:0:0:
402,192,266442,128,0,266657:0:0:0:0:
109,192,266528,128,0,266614:0:0:0:0:
182,192,266528,128,0,266571:0:0:0:0:
475,192,266528,128,0,266614:0:0:0:0:
36,192,266571,128,0,266785:0:0:0:0:
329,192,266614,128,0,266699:0:0:0:0:
256,192,266657,128,0,266871:0:0:0:0:
109,192,266699,128,0,266957:0:0:0:0:
475,192,266699,1,0,0:0:0:0:
182,192,266742,128,0,266785:0:0:0:0:
329,192,266785,128,0,267042:0:0:0:0:
402,192,266828,128,0,266871:0:0:0:0:
36,192,266871,128,0,266914:0:0:0:0:
182,192,266871,128,0,267042:0:0:0:0:
475,192,266871,128,0,267042:0:0:0:0:
256,192,266957,128,0,266999:0:0:0:0:
109,192,267042,1,0,0:0:0:0:
402,192,267042,1,0,0:0:0:0:
36,192,267042,1,0,0:0:0:0:
329,192,267128,1,0,0:0:0:0:
475,192,267214,1,0,0:0:0:0:
256,192,267214,128,0,267385:0:0:0:0:
182,192,267214,128,0,267257:0:0:0:0:
109,192,267214,128,0,267642:0:0:0:0:
36,192,267214,128,0,267257:0:0:0:0:
402,192,267257,1,0,0:0:0:0:
329,192,267299,128,0,267428:0:0:0:0:
402,192,267385,128,0,267471:0:0:0:0:
182,192,267385,1,0,0:0:0:0:
36,192,267385,1,0,0:0:0:0:
256,192,267471,1,0,0:0:0:0:
475,192,267471,128,0,267728:0:0:0:0:
182,192,267557,128,0,267642:0:0:0:0:
402,192,267557,1,0,0:0:0:0:
329,192,267557,1,0,0:0:0:0:
36,192,267557,128,0,267642:0:0:0:0:
256,192,267642,1,0,0:0:0:0:
329,192,267728,128,0,267899:0:0:0:0:
402,192,267728,128,0,267771:0:0:0:0:
109,192,267728,1,0,0:0:0:0:
36,192,267728,128,0,268157:0:0:0:0:
182,192,267771,1,0,0:0:0:0:
256,192,267814,128,0,267942:0:0:0:0:
402,192,267899,1,0,0:0:0:0:
182,192,267899,128,0,267985:0:0:0:0:
475,192,267899,128,0,267985:0:0:0:0:
109,192,267985,128,0,268157:0:0:0:0:
329,192,267985,1,0,0:0:0:0:
182,192,268071,1,0,0:0:0:0:
402,192,268071,128,0,268328:0:0:0:0:
475,192,268071,1,0,0:0:0:0:
256,192,268157,1,0,0:0:0:0:
329,192,268157,128,0,268242:0:0:0:0:
475,192,268242,128,0,268414:0:0:0:0:
36,192,268242,128,0,268414:0:0:0:0:
109,192,268242,128,0,268328:0:0:0:0:
182,192,268242,1,0,0:0:0:0:
329,192,268328,1,0,0:0:0:0:
109,192,268414,1,0,0:0:0:0:
402,192,268414,1,0,0:0:0:0:
182,192,268414,1,0,0:0:0:0:
256,192,268499,1,0,0:0:0:0:
475,192,268585,128,0,268628:0:0:0:0:
402,192,268585,128,0,268671:0:0:0:0:
36,192,268585,128,0,268842:0:0:0:0:
109,192,268585,1,0,0:0:0:0:
329,192,268628,128,0,268928:0:0:0:0:
256,192,268671,128,0,268714:0:0:0:0:
182,192,268671,128,0,268757:0:0:0:0:
475,192,268757,1,0,0:0:0:0:
109,192,268757,128,0,269014:0:0:0:0:
402,192,268842,128,0,269014:0:0:0:0:
256,192,268842,128,0,268885:0:0:0:0:
182,192,268928,128,0,269099:0:0:0:0:
475,192,268928,128,0,269142:0:0:0:0:
36,192,268928,128,0,268971:0:0:0:0:
329,192,269014,1,0,0:0:0:0:
256,192,269014,128,0,269185:0:0:0:0:
109,192,269099,1,0,0:0:0:0:
402,192,269099,128,0,269185:0:0:0:0:
36,192,269099,128,0,269271:0:0:0:0:
329,192,269142,128,0,269314:0:0:0:0:
182,192,269185,128,0,269271:0:0:0:0:
109,192,269228,128,0,269399:0:0:0:0:
402,192,269271,128,0,269357:0:0:0:0:
256,192,269271,1,0,0:0:0:0:
475,192,269314,128,0,269442:0:0:0:0:
182,192,269357,128,0,269442:0:0:0:0:
36,192,269357,128,0,269528:0:0:0:0:
256,192,269399,128,0,269528:0:0:0:0:
402,192,269442,128,0,269528:0:0:0:0:
329,192,269442,128,0,269485:0:0:0:0:
475,192,269528,128,0,269699:0:0:0:0:
182,192,269528,128,0,269614:0:0:0:0:
109,192,269528,128,0,269571:0:0:0:0:
402,192,269614,128,0,269699:0:0:0:0:
256,192,269614,128,0,269785:0:0:0:0:
36,192,269614,1,0,0:0:0:0:
329,192,269657,128,0,269699:0:0:0:0:
182,192,269699,128,0,269785:0:0:0:0:
109,192,269742,128,0,269785:0:0:0:0:
36,192,269785,1,0,0:0:0:0:
402,192,269785,1,0,0:0:0:0:
475,192,269785,1,0,0:0:0:0:
329,192,269871,1,0,0:0:0:0:
475,192,269957,128,0,270299:0:0:0:0:
36,192,269957,128,0,270042:0:0:0:0:
182,192,269957,1,0,0:0:0:0:
402,192,269957,128,0,269999:0:0:0:0:
256,192,269999,1,0,0:0:0:0:
329,192,270042,128,0,270128:0:0:0:0:
109,192,270042,128,0,270385:0:0:0:0:
182,192,270128,128,0,270214:0:0:0:0:
36,192,270128,1,0,0:0:0:0:
329,192,270214,1,0,0:0:0:0:
402,192,270214,128,0,270299:0:0:0:0:
182,192,270299,1,0,0:0:0:0:
256,192,270299,128,0,270385:0:0:0:0:
36,192,270299,128,0,270385:0:0:0:0:
475,192,270385,128,0,270557:0:0:0:0:
402,192,270385,1,0,0:0:0:0:
36,192,270471,128,0,270814:0:0:0:0:
109,192,270471,128,0,270514:0:0:0:0:
329,192,270471,1,0,0:0:0:0:
256,192,270514,128,0,270642:0:0:0:0:
402,192,270557,128,0,270899:0:0:0:0:
182,192,270557,128,0,270599:0:0:0:0:
329,192,270642,128,0,270728:0:0:0:0:
475,192,270642,1,0,0:0:0:0:
182,192,270728,1,0,0:0:0:0:
109,192,270728,128,0,270814:0:0:0:0:
256,192,270814,128,0,271071:0:0:0:0:
329,192,270814,1,0,0:0:0:0:
475,192,270814,128,0,270899:0:0:0:0:
36,192,270899,1,0,0:0:0:0:
109,192,270899,128,0,271242:0:0:0:0:
329,192,270985,128,0,271071:0:0:0:0:
402,192,270985,1,0,0:0:0:0:
475,192,270985,128,0,271242:0:0:0:0:
182,192,270985,1,0,0:0:0:0:
36,192,271071,128,0,271157:0:0:0:0:
329,192,271157,1,0,0:0:0:0:
402,192,271157,128,0,271242:0:0:0:0:
182,192,271157,128,0,271242:0:0:0:0:
256,192,271242,1,0,0:0:0:0:
402,192,271328,128,0,271371:0:0:0:0:
329,192,271328,128,0,271414:0:0:0:0:
475,192,271328,128,0,271585:0:0:0:0:
36,192,271328,1,0,0:0:0:0:
256,192,271371,128,0,271671:0:0:0:0:
182,192,271414,128,0,271457:0:0:0:0:
109,192,271414,128,0,271499:0:0:0:0:
36,192,271457,128,0,271714:0:0:0:0:
402,192,271499,1,0,0:0:0:0:
329,192,271585,128,0,271757:0:0:0:0:
182,192,271585,128,0,271628:0:0:0:0:
109,192,271671,128,0,271757:0:0:0:0:
402,192,271671,128,0,271885:0:0:0:0:
475,192,271671,128,0,271714:0:0:0:0:
182,192,271714,128,0,271971:0:0:0:0:
256,192,271757,1,0,0:0:0:0:
329,192,271842,128,0,271928:0:0:0:0:
475,192,271842,1,0,0:0:0:0:
36,192,271842,128,0,271885:0:0:0:0:
256,192,271885,128,0,272014:0:0:0:0:
109,192,271928,128,0,272142:0:0:0:0:
402,192,272014,128,0,272099:0:0:0:0:
329,192,272014,128,0,272057:0:0:0:0:
36,192,272014,128,0,272099:0:0:0:0:
475,192,272057,128,0,272271:0:0:0:0:
182,192,272099,128,0,272185:0:0:0:0:
256,192,272142,128,0,272357:0:0:0:0:
402,192,272185,128,0,272442:0:0:0:0:
36,192,272185,1,0,0:0:0:0:
329,192,272228,128,0,272271:0:0:0:0:
182,192,272271,128,0,272528:0:0:0:0:
109,192,272314,128,0,272357:0:0:0:0:
475,192,272357,128,0,272399:0:0:0:0:
329,192,272357,128,0,272528:0:0:0:0:
36,192,272357,128,0,272528:0:0:0:0:
256,192,272442,128,0,272485:0:0:0:0:
402,192,272528,1,0,0:0:0:0:
109,192,272528,1,0,0:0:0:0:
475,192,272528,1,0,0:0:0:0:
182,192,272614,1,0,0:0:0:0:
329,192,272699,1,0,0:0:0:0:
109,192,272699,128,0,273042:0:0:0:0:
36,192,272699,1,0,0:0:0:0:
256,192,272699,128,0,272742:0:0:0:0:
402,192,272742,1,0,0:0:0:0:
182,192,272785,128,0,272871:0:0:0:0:
475,192,272785,128,0,273128:0:0:0:0:
329,192,272871,128,0,272957:0:0:0:0:
256,192,272871,1,0,0:0:0:0:
182,192,272957,1,0,0:0:0:0:
36,192,272957,128,0,273042:0:0:0:0:
329,192,273042,1,0,0:0:0:0:
256,192,273042,128,0,273128:0:0:0:0:
402,192,273042,128,0,273128:0:0:0:0:
109,192,273128,128,0,273299:0:0:0:0:
36,192,273128,1,0,0:0:0:0:
256,192,273214,1,0,0:0:0:0:
402,192,273214,128,0,273557:0:0:0:0:
475,192,273214,128,0,273257:0:0:0:0:
182,192,273257,1,0,0:0:0:0:
329,192,273299,128,0,273385:0:0:0:0:
36,192,273299,128,0,273642:0:0:0:0:
182,192,273385,128,0,273471:0:0:0:0:
109,192,273385,1,0,0:0:0:0:
329,192,273471,1,0,0:0:0:0:
475,192,273471,128,0,273557:0:0:0:0:
182,192,273557,1,0,0:0:0:0:
109,192,273557,128,0,273642:0:0:0:0:
256,192,273557,128,0,273814:0:0:0:0:
402,192,273642,1,0,0:0:0:0:
475,192,273642,128,0,273899:0:0:0:0:
329,192,273728,1,0,0:0:0:0:
182,192,273728,128,0,273814:0:0:0:0:
36,192,273728,1,0,0:0:0:0:
109,192,273728,128,0,273985:0:0:0:0:
402,192,273814,128,0,273985:0:0:0:0:
36,192,273899,128,0,273985:0:0:0:0:
329,192,273899,128,0,273985:0:0:0:0:
182,192,273899,1,0,0:0:0:0:
256,192,273985,1,0,0:0:0:0:
36,192,274071,128,0,274114:0:0:0:0:
109,192,274071,128,0,274157:0:0:0:0:
475,192,274071,128,0,274328:0:0:0:0:
402,192,274071,1,0,0:0:0:0:
182,192,274114,128,0,274414:0:0:0:0:
256,192,274157,128,0,274199:0:0:0:0:
329,192,274157,128,0,274242:0:0:0:0:
402,192,274242,128,0,274499:0:0:0:0:
36,192,274242,1,0,0:0:0:0:
109,192,274328,128,0,274499:0:0:0:0:
256,192,274328,128,0,274371:0:0:0:0:
329,192,274414,128,0,274585:0:0:0:0:
36,192,274414,128,0,274628:0:0:0:0:
475,192,274414,128,0,274457:0:0:0:0:
182,192,274499,1,0,0:0:0:0:
256,192,274499,128,0,274671:0:0:0:0:
402,192,274585,1,0,0:0:0:0:
109,192,274585,128,0,274671:0:0:0:0:
475,192,274585,128,0,274757:0:0:0:0:
182,192,274628,128,0,274799:0:0:0:0:
329,192,274671,128,0,274757:0:0:0:0:
402,192,274714,128,0,274885:0:0:0:0:
109,192,274757,128,0,274842:0:0:0:0:
256,192,274757,1,0,0:0:0:0:
36,192,274799,128,0,274928:0:0:0:0:
329,192,274842,128,0,274928:0:0:0:0:
475,192,274842,128,0,275014:0:0:0:0:
256,192,274885,128,0,275271:0:0:0:0:
109,192,274928,128,0,274971:0:0:0:0:
182,192,274928,128,0,275014:0:0:0:0:
329,192,275014,128,0,275099:0:0:0:0:
402,192,275014,128,0,275057:0:0:0:0:
36,192,275014,1,0,0:0:0:0:
182,192,275099,128,0,275185:0:0:0:0:
475,192,275099,1,0,0:0:0:0:
109,192,275142,128,0,275185:0:0:0:0:
329,192,275185,128,0,275271:0:0:0:0:
36,192,275185,1,0,0:0:0:0:
402,192,275228,128,0,275271:0:0:0:0:
475,192,275271,1,0,0:0:0:0:
109,192,275271,1,0,0:0:0:0:
182,192,275271,1,0,0:0:0:0:
329,192,275357,1,0,0:0:0:0:
475,192,275442,1,0,0:0:0:0:
256,192,275442,128,0,275614:0:0:0:0:
182,192,275442,128,0,275485:0:0:0:0:
109,192,275442,128,0,275871:0:0:0:0:
36,192,275442,128,0,275485:0:0:0:0:
402,192,275485,1,0,0:0:0:0:
329,192,275528,128,0,275657:0:0:0:0:
402,192,275614,128,0,275699:0:0:0:0:
182,192,275614,1,0,0:0:0:0:
36,192,275614,1,0,0:0:0:0:
256,192,275699,1,0,0:0:0:0:
475,192,275699,128,0,275957:0:0:0:0:
182,192,275785,128,0,275871:0:0:0:0:
402,192,275785,1,0,0:0:0:0:
329,192,275785,1,0,0:0:0:0:
36,192,275785,128,0,275871:0:0:0:0:
256,192,275871,1,0,0:0:0:0:
329,192,275957,128,0,276128:0:0:0:0:
402,192,275957,128,0,275999:0:0:0:0:
109,192,275957,1,0,0:0:0:0:
36,192,275957,128,0,276385:0:0:0:0:
182,192,275999,1,0,0:0:0:0:
256,192,276042,128,0,276171:0:0:0:0:
402,192,276128,1,0,0:0:0:0:
182,192,276128,128,0,276214:0:0:0:0:
475,192,276128,128,0,276214:0:0:0:0:
109,192,276214,128,0,276385:0:0:0:0:
329,192,276214,1,0,0:0:0:0:
182,192,276299,1,0,0:0:0:0:
402,192,276299,128,0,276557:0:0:0:0:
475,192,276299,1,0,0:0:0:0:
256,192,276385,1,0,0:0:0:0:
329,192,276385,128,0,276471:0:0:0:0:
475,192,276471,128,0,276642:0:0:0:0:
36,192,276471,128,0,276642:0:0:0:0:
109,192,276471,128,0,276557:0:0:0:0:
182,192,276471,1,0,0:0:0:0:
256,192,276557,1,0,0:0:0:0:
109,192,276642,1,0,0:0:0:0:
402,192,276642,1,0,0:0:0:0:
329,192,276642,1,0,0:0:0:0:
182,192,276728,1,0,0:0:0:0:
402,192,276814,128,0,276857:0:0:0:0:
329,192,276814,128,0,276899:0:0:0:0:
475,192,276814,128,0,277071:0:0:0:0:
36,192,276814,1,0,0:0:0:0:
256,192,276857,128,0,277157:0:0:0:0:
182,192,276899,128,0,276942:0:0:0:0:
109,192,276899,128,0,276985:0:0:0:0:
36,192,276942,128,0,277199:0:0:0:0:
402,192,276985,1,0,0:0:0:0:
329,192,277071,128,0,277242:0:0:0:0:
182,192,277071,128,0,277114:0:0:0:0:
109,192,277157,128,0,277242:0:0:0:0:
402,192,277157,128,0,277371:0:0:0:0:
475,192,277157,128,0,277199:0:0:0:0:
182,192,277199,128,0,277457:0:0:0:0:
256,192,277242,1,0,0:0:0:0:
329,192,277328,128,0,277414:0:0:0:0:
475,192,277328,1,0,0:0:0:0:
36,192,277328,128,0,277371:0:0:0:0:
256,192,277371,128,0,277499:0:0:0:0:
109,192,277414,128,0,277628:0:0:0:0:
402,192,277499,128,0,277585:0:0:0:0:
329,192,277499,128,0,277542:0:0:0:0:
36,192,277499,128,0,277585:0:0:0:0:
475,192,277542,128,0,277757:0:0:0:0:
182,192,277585,128,0,277671:0:0:0:0:
256,192,277628,128,0,277842:0:0:0:0:
402,192,277671,128,0,277928:0:0:0:0:
36,192,277671,1,0,0:0:0:0:
329,192,277714,128,0,277757:0:0:0:0:
182,192,277757,128,0,278014:0:0:0:0:
109,192,277799,128,0,277842:0:0:0:0:
475,192,277842,128,0,277885:0:0:0:0:
329,192,277842,128,0,278014:0:0:0:0:
36,192,277842,128,0,278014:0:0:0:0:
256,192,277928,128,0,277971:0:0:0:0:
402,192,278014,1,0,0:0:0:0:
109,192,278014,1,0,0:0:0:0:
475,192,278014,1,0,0:0:0:0:
182,192,278099,1,0,0:0:0:0:
36,192,278185,1,0,0:0:0:0:
256,192,278185,128,0,278357:0:0:0:0:
329,192,278185,128,0,278228:0:0:0:0:
402,192,278185,128,0,278614:0:0:0:0:
475,192,278185,128,0,278228:0:0:0:0:
109,192,278228,1,0,0:0:0:0:
182,192,278271,128,0,278399:0:0:0:0:
109,192,278357,128,0,278442:0:0:0:0:
329,192,278357,1,0,0:0:0:0:
475,192,278357,1,0,0:0:0:0:
36,192,278442,128,0,278699:0:0:0:0:
256,192,278442,1,0,0:0:0:0:
329,192,278528,128,0,278614:0:0:0:0:
109,192,278528,1,0,0:0:0:0:
182,192,278528,1,0,0:0:0:0:
475,192,278528,128,0,278614:0:0:0:0:
256,192,278614,1,0,0:0:0:0:
182,192,278699,128,0,278871:0:0:0:0:
109,192,278699,128,0,278742:0:0:0:0:
402,192,278699,1,0,0:0:0:0:
475,192,278699,128,0,279128:0:0:0:0:
329,192,278742,1,0,0:0:0:0:
256,192,278785,128,0,278914:0:0:0:0:
109,192,278871,1,0,0:0:0:0:
329,192,278871,128,0,278957:0:0:0:0:
36,192,278871,128,0,278957:0:0:0:0:
402,192,278957,128,0,279128:0:0:0:0:
182,192,278957,1,0,0:0:0:0:
329,192,279042,1,0,0:0:0:0:
109,192,279042,128,0,279299:0:0:0:0:
36,192,279042,1,0,0:0:0:0:
256,192,279128,1,0,0:0:0:0:
182,192,279128,128,0,279214:0:0:0:0:
36,192,279214,128,0,279385:0:0:0:0:
475,192,279214,128,0,279385:0:0:0:0:
402,192,279214,128,0,279299:0:0:0:0:
329,192,279214,1,0,0:0:0:0:
182,192,279299,1,0,0:0:0:0:
402,192,279385,1,0,0:0:0:0:
109,192,279385,1,0,0:0:0:0:
329,192,279385,1,0,0:0:0:0:
256,192,279471,1,0,0:0:0:0:
36,192,279557,128,0,279599:0:0:0:0:
109,192,279557,128,0,279642:0:0:0:0:
475,192,279557,128,0,279814:0:0:0:0:
402,192,279557,1,0,0:0:0:0:
182,192,279599,128,0,279899:0:0:0:0:
256,192,279642,128,0,279685:0:0:0:0:
329,192,279642,128,0,279728:0:0:0:0:
36,192,279728,1,0,0:0:0:0:
402,192,279728,128,0,279985:0:0:0:0:
109,192,279814,128,0,279985:0:0:0:0:
256,192,279814,128,0,279857:0:0:0:0:
329,192,279899,128,0,280071:0:0:0:0:
36,192,279899,128,0,280114:0:0:0:0:
475,192,279899,128,0,279942:0:0:0:0:
182,192,279985,1,0,0:0:0:0:
256,192,279985,128,0,280157:0:0:0:0:
402,192,280071,1,0,0:0:0:0:
109,192,280071,128,0,280157:0:0:0:0:
475,192,280071,128,0,280242:0:0:0:0:
182,192,280114,128,0,280285:0:0:0:0:
329,192,280157,128,0,280242:0:0:0:0:
402,192,280199,128,0,280371:0:0:0:0:
109,192,280242,128,0,280328:0:0:0:0:
256,192,280242,1,0,0:0:0:0:
36,192,280285,128,0,280414:0:0:0:0:
329,192,280328,128,0,280414:0:0:0:0:
475,192,280328,128,0,280499:0:0:0:0:
256,192,280371,128,0,280499:0:0:0:0:
109,192,280414,128,0,280499:0:0:0:0:
182,192,280414,128,0,280457:0:0:0:0:
36,192,280499,128,0,280671:0:0:0:0:
329,192,280499,128,0,280585:0:0:0:0:
402,192,280499,128,0,280542:0:0:0:0:
109,192,280585,128,0,280671:0:0:0:0:
256,192,280585,128,0,280757:0:0:0:0:
475,192,280585,1,0,0:0:0:0:
182,192,280628,128,0,280671:0:0:0:0:
329,192,280671,128,0,280757:0:0:0:0:
402,192,280714,128,0,280757:0:0:0:0:
475,192,280757,1,0,0:0:0:0:
109,192,280757,1,0,0:0:0:0:
36,192,280757,1,0,0:0:0:0:
182,192,280842,1,0,0:0:0:0:
36,192,280928,128,0,281271:0:0:0:0:
475,192,280928,128,0,281014:0:0:0:0:
329,192,280928,1,0,0:0:0:0:
109,192,280928,128,0,280971:0:0:0:0:
256,192,280971,1,0,0:0:0:0:
182,192,281014,128,0,281099:0:0:0:0:
402,192,281014,128,0,281357:0:0:0:0:
329,192,281099,128,0,281185:0:0:0:0:
475,192,281099,1,0,0:0:0:0:
182,192,281185,1,0,0:0:0:0:
109,192,281185,128,0,281271:0:0:0:0:
329,192,281271,1,0,0:0:0:0:
256,192,281271,128,0,281357:0:0:0:0:
475,192,281271,128,0,281357:0:0:0:0:
36,192,281357,128,0,281528:0:0:0:0:
109,192,281357,1,0,0:0:0:0:
475,192,281442,128,0,281785:0:0:0:0:
402,192,281442,128,0,281485:0:0:0:0:
182,192,281442,1,0,0:0:0:0:
256,192,281485,1,0,0:0:0:0:
109,192,281528,128,0,281871:0:0:0:0:
329,192,281528,128,0,281614:0:0:0:0:
182,192,281614,128,0,281699:0:0:0:0:
36,192,281614,1,0,0:0:0:0:
329,192,281699,1,0,0:0:0:0:
402,192,281699,128,0,281785:0:0:0:0:
256,192,281785,128,0,282042:0:0:0:0:
182,192,281785,1,0,0:0:0:0:
36,192,281785,128,0,281871:0:0:0:0:
475,192,281871,1,0,0:0:0:0:
402,192,281871,128,0,282214:0:0:0:0:
182,192,281957,128,0,282042:0:0:0:0:
109,192,281957,1,0,0:0:0:0:
36,192,281957,128,0,282214:0:0:0:0:
329,192,281957,1,0,0:0:0:0:
475,192,282042,128,0,282128:0:0:0:0:
182,192,282128,1,0,0:0:0:0:
109,192,282128,128,0,282214:0:0:0:0:
329,192,282128,128,0,282214:0:0:0:0:
256,192,282214,1,0,0:0:0:0:
109,192,282299,128,0,282342:0:0:0:0:
182,192,282299,128,0,282385:0:0:0:0:
36,192,282299,128,0,282557:0:0:0:0:
475,192,282299,1,0,0:0:0:0:
256,192,282342,128,0,282642:0:0:0:0:
329,192,282385,128,0,282428:0:0:0:0:
402,192,282385,128,0,282471:0:0:0:0:
475,192,282428,128,0,282685:0:0:0:0:
109,192,282471,1,0,0:0:0:0:
182,192,282557,128,0,282728:0:0:0:0:
329,192,282557,128,0,282599:0:0:0:0:
402,192,282642,128,0,282728:0:0:0:0:
109,192,282642,128,0,282857:0:0:0:0:
36,192,282642,128,0,282685:0:0:0:0:
329,192,282685,128,0,282942:0:0:0:0:
256,192,282728,1,0,0:0:0:0:
182,192,282814,128,0,282899:0:0:0:0:
36,192,282814,1,0,0:0:0:0:
475,192,282814,128,0,282857:0:0:0:0:
256,192,282857,128,0,282985:0:0:0:0:
402,192,282899,128,0,283114:0:0:0:0:
109,192,282985,128,0,283071:0:0:0:0:
182,192,282985,128,0,283028:0:0:0:0:
475,192,282985,128,0,283071:0:0:0:0:
36,192,283028,128,0,283242:0:0:0:0:
329,192,283071,128,0,283157:0:0:0:0:
256,192,283114,128,0,283328:0:0:0:0:
109,192,283157,128,0,283414:0:0:0:0:
475,192,283157,1,0,0:0:0:0:
182,192,283199,128,0,283242:0:0:0:0:
329,192,283242,128,0,283499:0:0:0:0:
402,192,283285,128,0,283328:0:0:0:0:
36,192,283328,128,0,283371:0:0:0:0:
182,192,283328,128,0,283499:0:0:0:0:
475,192,283328,128,0,283499:0:0:0:0:
256,192,283414,128,0,283457:0:0:0:0:
109,192,283499,1,0,0:0:0:0:
402,192,283499,1,0,0:0:0:0:
36,192,283499,1,0,0:0:0:0:
256,192,283585,1,0,0:0:0:0:
36,192,283671,128,0,285042:0:0:0:0:
475,192,283671,128,0,285042:0:0:0:0:
109,192,283671,1,0,0:0:0:0:
329,192,283671,128,0,283842:0:0:0:0:
402,192,283671,128,0,283714:0:0:0:0:
182,192,283714,1,0,0:0:0:0:
256,192,283757,128,0,283885:0:0:0:0:
182,192,283842,128,0,283928:0:0:0:0:
402,192,283842,1,0,0:0:0:0:
109,192,283928,5,0,0:0:0:0:
402,192,284014,1,0,0:0:0:0:
256,192,284014,1,0,0:0:0:0:
329,192,284014,1,0,0:0:0:0:
109,192,284185,128,0,284228:0:0:0:0:
402,192,284185,1,0,0:0:0:0:
182,192,284185,128,0,284357:0:0:0:0:
329,192,284228,1,0,0:0:0:0:
256,192,284271,128,0,284399:0:0:0:0:
109,192,284357,1,0,0:0:0:0:
329,192,284357,128,0,284442:0:0:0:0:
402,192,284442,1,0,0:0:0:0:
256,192,284528,1,0,0:0:0:0:
109,192,284528,1,0,0:0:0:0:
402,192,284614,1,0,0:0:0:0:
182,192,284699,1,0,0:0:0:0:
256,192,284699,1,0,0:0:0:0:
109,192,284699,1,0,0:0:0:0:
329,192,284785,1,0,0:0:0:0:
182,192,284871,1,0,0:0:0:0:
329,192,284957,1,0,0:0:0:0:
109,192,285042,128,0,285214:0:0:0:0:
256,192,285042,128,0,285642:0:0:0:0:
402,192,285042,1,0,0:0:0:0:
402,192,285214,128,0,285299:0:0:0:0:
182,192,285214,1,0,0:0:0:0:
109,192,285299,128,0,285385:0:0:0:0:
329,192,285299,1,0,0:0:0:0:
402,192,285385,128,0,285471:0:0:0:0:
36,192,285385,1,0,0:0:0:0:
109,192,285471,128,0,285642:0:0:0:0:
475,192,285471,1,0,0:0:0:0:
402,192,285557,128,0,285814:0:0:0:0:
182,192,285557,1,0,0:0:0:0:
329,192,285642,1,0,0:0:0:0:
109,192,285728,128,0,285899:0:0:0:0:
256,192,285728,1,0,0:0:0:0:
36,192,285728,1,0,0:0:0:0:
402,192,285899,1,0,0:0:0:0:
329,192,286071,128,0,286157:0:0:0:0:
109,192,286157,128,0,286242:0:0:0:0:
475,192,286242,128,0,286328:0:0:0:0:
256,192,286328,128,0,286414:0:0:0:0:
475,192,286414,128,0,286757:0:0:0:0:
329,192,286414,1,0,0:0:0:0:
402,192,286414,1,0,0:0:0:0:
36,192,286414,1,0,0:0:0:0:
109,192,286442,1,0,0:0:0:0:
182,192,286471,1,0,0:0:0:0:
256,192,286499,1,0,0:0:0:0:
329,192,286528,1,0,0:0:0:0:
36,192,286557,1,0,0:0:0:0:
182,192,286585,1,0,0:0:0:0:
109,192,286671,1,0,0:0:0:0:
182,192,286671,1,0,0:0:0:0:
36,192,286757,1,0,0:0:0:0:
256,192,286757,1,0,0:0:0:0:
109,192,286757,1,0,0:0:0:0:
329,192,286767,1,0,0:0:0:0:
402,192,286785,1,0,0:0:0:0:
475,192,286814,1,0,0:0:0:0:
182,192,286842,1,0,0:0:0:0:
256,192,286871,1,0,0:0:0:0:
36,192,286928,1,0,0:0:0:0:
329,192,286928,1,0,0:0:0:0:
109,192,286949,1,0,0:0:0:0:
36,192,287014,1,0,0:0:0:0:
329,192,287014,1,0,0:0:0:0:
109,192,287035,1,0,0:0:0:0:
256,192,287099,1,0,0:0:0:0:
475,192,287099,1,0,0:0:0:0:
109,192,287185,1,0,0:0:0:0:
36,192,287199,1,0,0:0:0:0:
182,192,287271,1,0,0:0:0:0:
402,192,287271,1,0,0:0:0:0:
475,192,287271,1,0,0:0:0:0:
109,192,287285,1,0,0:0:0:0:
256,192,287357,1,0,0:0:0:0:
475,192,287357,1,0,0:0:0:0:
182,192,287371,1,0,0:0:0:0:
329,192,287442,1,0,0:0:0:0:
256,192,287442,1,0,0:0:0:0:
36,192,287442,1,0,0:0:0:0:
475,192,287442,1,0,0:0:0:0:
109,192,287471,1,0,0:0:0:0:
182,192,287499,1,0,0:0:0:0:
402,192,287528,1,0,0:0:0:0:
256,192,287557,1,0,0:0:0:0:
109,192,287585,1,0,0:0:0:0:
329,192,287614,1,0,0:0:0:0:
402,192,287642,1,0,0:0:0:0:
475,192,287671,1,0,0:0:0:0:
256,192,287699,1,0,0:0:0:0:
182,192,287699,1,0,0:0:0:0:
36,192,287785,1,0,0:0:0:0:
182,192,287785,1,0,0:0:0:0:
329,192,287785,1,0,0:0:0:0:
475,192,287807,1,0,0:0:0:0:
402,192,287828,1,0,0:0:0:0:
256,192,287849,1,0,0:0:0:0:
109,192,287871,1,0,0:0:0:0:
36,192,287892,1,0,0:0:0:0:
182,192,287914,1,0,0:0:0:0:
329,192,287935,1,0,0:0:0:0:
402,192,287957,1,0,0:0:0:0:
109,192,287985,1,0,0:0:0:0:
329,192,288014,1,0,0:0:0:0:
256,192,288042,1,0,0:0:0:0:
182,192,288071,1,0,0:0:0:0:
256,192,288128,1,0,0:0:0:0:
475,192,288128,1,0,0:0:0:0:
36,192,288128,1,0,0:0:0:0:
402,192,288139,1,0,0:0:0:0:
109,192,288157,1,0,0:0:0:0:
182,192,288185,1,0,0:0:0:0:
329,192,288214,1,0,0:0:0:0:
402,192,288242,1,0,0:0:0:0:
109,192,288299,1,0,0:0:0:0:
475,192,288299,1,0,0:0:0:0:
329,192,288321,1,0,0:0:0:0:
109,192,288385,1,0,0:0:0:0:
475,192,288385,1,0,0:0:0:0:
329,192,288407,1,0,0:0:0:0:
256,192,288471,1,0,0:0:0:0:
475,192,288499,1,0,0:0:0:0:
182,192,288514,1,0,0:0:0:0:
402,192,288528,1,0,0:0:0:0:
109,192,288557,1,0,0:0:0:0:
329,192,288557,1,0,0:0:0:0:
256,192,288585,1,0,0:0:0:0:
36,192,288599,1,0,0:0:0:0:
182,192,288614,1,0,0:0:0:0:
402,192,288642,1,0,0:0:0:0:
475,192,288657,1,0,0:0:0:0:
182,192,288728,1,0,0:0:0:0:
402,192,288728,1,0,0:0:0:0:
256,192,288742,1,0,0:0:0:0:
36,192,288814,1,0,0:0:0:0:
329,192,288814,1,0,0:0:0:0:
402,192,288814,1,0,0:0:0:0:
475,192,288814,1,0,0:0:0:0:
109,192,288842,1,0,0:0:0:0:
256,192,288871,1,0,0:0:0:0:
182,192,288899,1,0,0:0:0:0:
36,192,288928,1,0,0:0:0:0:
109,192,288957,1,0,0:0:0:0:
475,192,288985,1,0,0:0:0:0:
256,192,288985,1,0,0:0:0:0:
475,192,289071,1,0,0:0:0:0:
329,192,289071,1,0,0:0:0:0:
182,192,289157,1,0,0:0:0:0:
109,192,289157,1,0,0:0:0:0:
36,192,289157,1,0,0:0:0:0:
475,192,289157,1,0,0:0:0:0:
402,192,289185,1,0,0:0:0:0:
329,192,289214,1,0,0:0:0:0:
256,192,289242,1,0,0:0:0:0:
182,192,289285,1,0,0:0:0:0:
36,192,289328,1,0,0:0:0:0:
36,192,289414,1,0,0:0:0:0:
329,192,289414,1,0,0:0:0:0:
36,192,289499,1,0,0:0:0:0:
109,192,289499,1,0,0:0:0:0:
182,192,289499,1,0,0:0:0:0:
256,192,289510,1,0,0:0:0:0:
329,192,289521,1,0,0:0:0:0:
402,192,289542,1,0,0:0:0:0:
475,192,289564,1,0,0:0:0:0:
256,192,289585,1,0,0:0:0:0:
109,192,289671,1,0,0:0:0:0:
402,192,289671,1,0,0:0:0:0:
182,192,289692,1,0,0:0:0:0:
109,192,289757,1,0,0:0:0:0:
402,192,289757,1,0,0:0:0:0:
182,192,289778,1,0,0:0:0:0:
256,192,289842,1,0,0:0:0:0:
475,192,289842,1,0,0:0:0:0:
109,192,289928,1,0,0:0:0:0:
36,192,289942,1,0,0:0:0:0:
182,192,290014,1,0,0:0:0:0:
402,192,290014,1,0,0:0:0:0:
475,192,290014,1,0,0:0:0:0:
109,192,290028,1,0,0:0:0:0:
256,192,290099,1,0,0:0:0:0:
402,192,290099,1,0,0:0:0:0:
182,192,290114,1,0,0:0:0:0:
329,192,290185,1,0,0:0:0:0:
402,192,290185,1,0,0:0:0:0:
475,192,290185,1,0,0:0:0:0:
36,192,290185,1,0,0:0:0:0:
109,192,290214,1,0,0:0:0:0:
182,192,290242,1,0,0:0:0:0:
475,192,290271,1,0,0:0:0:0:
256,192,290299,1,0,0:0:0:0:
36,192,290328,1,0,0:0:0:0:
329,192,290357,1,0,0:0:0:0:
402,192,290385,1,0,0:0:0:0:
475,192,290414,1,0,0:0:0:0:
256,192,290442,1,0,0:0:0:0:
109,192,290442,1,0,0:0:0:0:
36,192,290528,1,0,0:0:0:0:
475,192,290528,1,0,0:0:0:0:
182,192,290528,1,0,0:0:0:0:
109,192,290528,1,0,0:0:0:0:
329,192,290542,1,0,0:0:0:0:
475,192,290614,1,0,0:0:0:0:
329,192,290628,1,0,0:0:0:0:
182,192,290699,1,0,0:0:0:0:
402,192,290714,1,0,0:0:0:0:
256,192,290757,1,0,0:0:0:0:
475,192,290771,1,0,0:0:0:0:
182,192,290814,1,0,0:0:0:0:
402,192,290828,1,0,0:0:0:0:
329,192,290871,1,0,0:0:0:0:
475,192,290871,1,0,0:0:0:0:
109,192,290871,1,0,0:0:0:0:
36,192,290871,1,0,0:0:0:0:
182,192,290914,1,0,0:0:0:0:
256,192,290957,1,0,0:0:0:0:
109,192,290999,1,0,0:0:0:0:
256,192,291042,1,0,0:0:0:0:
329,192,291042,1,0,0:0:0:0:
475,192,291128,1,0,0:0:0:0:
402,192,291128,1,0,0:0:0:0:
256,192,291214,1,0,0:0:0:0:
475,192,291242,1,0,0:0:0:0:
182,192,291257,1,0,0:0:0:0:
402,192,291271,1,0,0:0:0:0:
109,192,291299,1,0,0:0:0:0:
329,192,291299,1,0,0:0:0:0:
256,192,291328,1,0,0:0:0:0:
36,192,291342,1,0,0:0:0:0:
182,192,291357,1,0,0:0:0:0:
402,192,291385,1,0,0:0:0:0:
329,192,291399,1,0,0:0:0:0:
109,192,291471,1,0,0:0:0:0:
402,192,291471,1,0,0:0:0:0:
182,192,291485,1,0,0:0:0:0:
402,192,291557,1,0,0:0:0:0:
109,192,291557,1,0,0:0:0:0:
36,192,291557,128,0,291685:0:0:0:0:
475,192,291557,128,0,291685:0:0:0:0:
256,192,291585,1,0,0:0:0:0:
329,192,291614,1,0,0:0:0:0:
182,192,291642,1,0,0:0:0:0:
256,192,291685,1,0,0:0:0:0:
109,192,291728,128,0,291771:0:0:0:0:
402,192,291728,128,0,291771:0:0:0:0:
182,192,291814,128,0,291857:0:0:0:0:
329,192,291814,128,0,291857:0:0:0:0:
475,192,291899,1,0,0:0:0:0:
109,192,291899,1,0,0:0:0:0:
256,192,291899,1,0,0:0:0:0:
36,192,291899,1,0,0:0:0:0:
402,192,291928,1,0,0:0:0:0:
329,192,291957,1,0,0:0:0:0:
256,192,291985,1,0,0:0:0:0:
182,192,292014,1,0,0:0:0:0:
475,192,292042,1,0,0:0:0:0:
329,192,292071,1,0,0:0:0:0:
329,192,292157,1,0,0:0:0:0:
402,192,292157,1,0,0:0:0:0:
256,192,292242,1,0,0:0:0:0:
475,192,292242,1,0,0:0:0:0:
402,192,292242,1,0,0:0:0:0:
182,192,292253,1,0,0:0:0:0:
109,192,292271,1,0,0:0:0:0:
36,192,292299,1,0,0:0:0:0:
329,192,292328,1,0,0:0:0:0:
256,192,292357,1,0,0:0:0:0:
475,192,292414,1,0,0:0:0:0:
182,192,292414,1,0,0:0:0:0:
402,192,292435,1,0,0:0:0:0:
182,192,292499,1,0,0:0:0:0:
475,192,292499,1,0,0:0:0:0:
402,192,292521,1,0,0:0:0:0:
256,192,292585,1,0,0:0:0:0:
36,192,292585,1,0,0:0:0:0:
402,192,292671,1,0,0:0:0:0:
475,192,292685,1,0,0:0:0:0:
109,192,292757,1,0,0:0:0:0:
36,192,292757,1,0,0:0:0:0:
329,192,292757,1,0,0:0:0:0:
402,192,292771,1,0,0:0:0:0:
109,192,292842,1,0,0:0:0:0:
256,192,292842,1,0,0:0:0:0:
329,192,292857,1,0,0:0:0:0:
36,192,292928,1,0,0:0:0:0:
182,192,292928,1,0,0:0:0:0:
109,192,292928,1,0,0:0:0:0:
475,192,292928,1,0,0:0:0:0:
402,192,292957,1,0,0:0:0:0:
329,192,292985,1,0,0:0:0:0:
36,192,293014,1,0,0:0:0:0:
256,192,293042,1,0,0:0:0:0:
475,192,293071,1,0,0:0:0:0:
182,192,293099,1,0,0:0:0:0:
109,192,293128,1,0,0:0:0:0:
36,192,293157,1,0,0:0:0:0:
256,192,293185,1,0,0:0:0:0:
402,192,293185,1,0,0:0:0:0:
182,192,293271,1,0,0:0:0:0:
475,192,293271,1,0,0:0:0:0:
329,192,293271,1,0,0:0:0:0:
36,192,293292,1,0,0:0:0:0:
109,192,293314,1,0,0:0:0:0:
256,192,293335,1,0,0:0:0:0:
402,192,293357,1,0,0:0:0:0:
475,192,293378,1,0,0:0:0:0:
329,192,293399,1,0,0:0:0:0:
182,192,293421,1,0,0:0:0:0:
109,192,293442,1,0,0:0:0:0:
402,192,293471,1,0,0:0:0:0:
182,192,293499,1,0,0:0:0:0:
256,192,293528,1,0,0:0:0:0:
329,192,293557,1,0,0:0:0:0:
475,192,293614,1,0,0:0:0:0:
256,192,293614,1,0,0:0:0:0:
36,192,293614,1,0,0:0:0:0:
109,192,293624,1,0,0:0:0:0:
402,192,293642,1,0,0:0:0:0:
329,192,293671,1,0,0:0:0:0:
182,192,293699,1,0,0:0:0:0:
109,192,293728,1,0,0:0:0:0:
402,192,293785,1,0,0:0:0:0:
36,192,293785,1,0,0:0:0:0:
182,192,293807,1,0,0:0:0:0:
36,192,293871,1,0,0:0:0:0:
402,192,293871,1,0,0:0:0:0:
182,192,293892,1,0,0:0:0:0:
256,192,293957,1,0,0:0:0:0:
36,192,293985,1,0,0:0:0:0:
329,192,293999,1,0,0:0:0:0:
109,192,294014,1,0,0:0:0:0:
402,192,294042,1,0,0:0:0:0:
182,192,294042,1,0,0:0:0:0:
256,192,294071,1,0,0:0:0:0:
475,192,294085,1,0,0:0:0:0:
329,192,294099,1,0,0:0:0:0:
109,192,294128,1,0,0:0:0:0:
36,192,294142,1,0,0:0:0:0:
109,192,294214,1,0,0:0:0:0:
329,192,294214,1,0,0:0:0:0:
256,192,294228,1,0,0:0:0:0:
36,192,294299,1,0,0:0:0:0:
475,192,294299,1,0,0:0:0:0:
182,192,294299,1,0,0:0:0:0:
109,192,294299,1,0,0:0:0:0:
402,192,294328,1,0,0:0:0:0:
256,192,294357,1,0,0:0:0:0:
329,192,294385,1,0,0:0:0:0:
475,192,294414,1,0,0:0:0:0:
402,192,294442,1,0,0:0:0:0:
36,192,294471,1,0,0:0:0:0:
256,192,294471,1,0,0:0:0:0:
182,192,294557,1,0,0:0:0:0:
36,192,294557,1,0,0:0:0:0:
36,192,294642,1,0,0:0:0:0:
329,192,294642,1,0,0:0:0:0:
402,192,294642,1,0,0:0:0:0:
475,192,294642,1,0,0:0:0:0:
109,192,294671,1,0,0:0:0:0:
182,192,294699,1,0,0:0:0:0:
256,192,294728,1,0,0:0:0:0:
329,192,294771,1,0,0:0:0:0:
475,192,294814,1,0,0:0:0:0:
475,192,294899,1,0,0:0:0:0:
182,192,294899,1,0,0:0:0:0:
402,192,294985,1,0,0:0:0:0:
475,192,294985,1,0,0:0:0:0:
329,192,294985,1,0,0:0:0:0:
256,192,294996,1,0,0:0:0:0:
182,192,295007,1,0,0:0:0:0:
109,192,295028,1,0,0:0:0:0:
36,192,295049,1,0,0:0:0:0:
256,192,295071,1,0,0:0:0:0:
402,192,295157,1,0,0:0:0:0:
109,192,295157,1,0,0:0:0:0:
329,192,295178,1,0,0:0:0:0:
109,192,295242,1,0,0:0:0:0:
402,192,295242,1,0,0:0:0:0:
329,192,295264,1,0,0:0:0:0:
256,192,295328,1,0,0:0:0:0:
36,192,295328,1,0,0:0:0:0:
402,192,295414,1,0,0:0:0:0:
475,192,295428,1,0,0:0:0:0:
329,192,295499,1,0,0:0:0:0:
109,192,295499,1,0,0:0:0:0:
36,192,295499,1,0,0:0:0:0:
402,192,295514,1,0,0:0:0:0:
256,192,295585,1,0,0:0:0:0:
36,192,295585,1,0,0:0:0:0:
329,192,295599,1,0,0:0:0:0:
475,192,295671,1,0,0:0:0:0:
36,192,295671,1,0,0:0:0:0:
182,192,295671,1,0,0:0:0:0:
256,192,295671,1,0,0:0:0:0:
402,192,295699,1,0,0:0:0:0:
329,192,295728,1,0,0:0:0:0:
109,192,295757,1,0,0:0:0:0:
256,192,295785,1,0,0:0:0:0:
402,192,295814,1,0,0:0:0:0:
182,192,295842,1,0,0:0:0:0:
109,192,295871,1,0,0:0:0:0:
36,192,295899,1,0,0:0:0:0:
256,192,295928,1,0,0:0:0:0:
329,192,295928,1,0,0:0:0:0:
475,192,296014,1,0,0:0:0:0:
402,192,296014,1,0,0:0:0:0:
36,192,296014,1,0,0:0:0:0:
329,192,296014,1,0,0:0:0:0:
182,192,296028,1,0,0:0:0:0:
36,192,296099,1,0,0:0:0:0:
182,192,296114,1,0,0:0:0:0:
329,192,296185,1,0,0:0:0:0:
109,192,296199,1,0,0:0:0:0:
256,192,296242,1,0,0:0:0:0:
36,192,296257,1,0,0:0:0:0:
329,192,296299,1,0,0:0:0:0:
109,192,296314,1,0,0:0:0:0:
475,192,296357,1,0,0:0:0:0:
402,192,296357,1,0,0:0:0:0:
182,192,296357,1,0,0:0:0:0:
36,192,296357,1,0,0:0:0:0:
329,192,296399,1,0,0:0:0:0:
256,192,296442,1,0,0:0:0:0:
402,192,296485,1,0,0:0:0:0:
182,192,296528,1,0,0:0:0:0:
256,192,296528,1,0,0:0:0:0:
36,192,296614,1,0,0:0:0:0:
109,192,296614,1,0,0:0:0:0:
256,192,296699,1,0,0:0:0:0:
36,192,296728,1,0,0:0:0:0:
329,192,296742,1,0,0:0:0:0:
109,192,296757,1,0,0:0:0:0:
402,192,296785,1,0,0:0:0:0:
182,192,296785,1,0,0:0:0:0:
256,192,296814,1,0,0:0:0:0:
475,192,296828,1,0,0:0:0:0:
329,192,296842,1,0,0:0:0:0:
109,192,296871,1,0,0:0:0:0:
182,192,296885,1,0,0:0:0:0:
109,192,296957,1,0,0:0:0:0:
402,192,296957,1,0,0:0:0:0:
329,192,296971,1,0,0:0:0:0:
475,192,297042,1,0,0:0:0:0:
36,192,297042,1,0,0:0:0:0:
109,192,297042,1,0,0:0:0:0:
182,192,297042,128,0,297128:0:0:0:0:
256,192,297042,1,0,0:0:0:0:
402,192,297128,128,0,297214:0:0:0:0:
36,192,297214,128,0,297299:0:0:0:0:
256,192,297299,128,0,297385:0:0:0:0:
36,192,297385,128,0,297642:0:0:0:0:
475,192,297385,128,0,297557:0:0:0:0:
329,192,297385,128,0,297471:0:0:0:0:
402,192,297385,128,0,297428:0:0:0:0:
109,192,297385,1,0,0:0:0:0:
182,192,297428,1,0,0:0:0:0:
256,192,297471,128,0,297557:0:0:0:0:
182,192,297514,128,0,297599:0:0:0:0:
402,192,297557,128,0,297642:0:0:0:0:
329,192,297557,1,0,0:0:0:0:
109,192,297557,128,0,297814:0:0:0:0:
256,192,297642,1,0,0:0:0:0:
329,192,297642,128,0,297728:0:0:0:0:
475,192,297642,1,0,0:0:0:0:
182,192,297728,128,0,297814:0:0:0:0:
36,192,297728,128,0,297814:0:0:0:0:
475,192,297728,128,0,297792:0:0:0:0:
256,192,297728,128,0,297985:0:0:0:0:
402,192,297771,128,0,297835:0:0:0:0:
329,192,297814,128,0,297985:0:0:0:0:
109,192,297899,1,0,0:0:0:0:
36,192,297899,1,0,0:0:0:0:
402,192,297942,128,0,297985:0:0:0:0:
475,192,297985,1,0,0:0:0:0:
109,192,297985,128,0,298071:0:0:0:0:
36,192,297985,128,0,298371:0:0:0:0:
256,192,298071,128,0,298157:0:0:0:0:
329,192,298071,1,0,0:0:0:0:
402,192,298071,1,0,0:0:0:0:
182,192,298157,1,0,0:0:0:0:
109,192,298157,1,0,0:0:0:0:
475,192,298157,128,0,298221:0:0:0:0:
109,192,298242,128,0,298371:0:0:0:0:
182,192,298242,128,0,298371:0:0:0:0:
402,192,298242,128,0,298299:0:0:0:0:
256,192,298242,1,0,0:0:0:0:
329,192,298328,128,0,298371:0:0:0:0:
475,192,298328,1,0,0:0:0:0:
402,192,298414,1,0,0:0:0:0:
256,192,298414,128,0,298671:0:0:0:0:
36,192,298414,128,0,298528:0:0:0:0:
475,192,298414,128,0,298471:0:0:0:0:
109,192,298442,128,0,298557:0:0:0:0:
182,192,298471,128,0,298585:0:0:0:0:
329,192,298499,128,0,298614:0:0:0:0:
402,192,298528,128,0,298642:0:0:0:0:
475,192,298557,128,0,298671:0:0:0:0:
36,192,298585,1,0,0:0:0:0:
109,192,298671,1,0,0:0:0:0:
36,192,298757,1,0,0:0:0:0:
475,192,298757,128,0,298814:0:0:0:0:
256,192,298757,128,0,299057:0:0:0:0:
402,192,298785,128,0,298842:0:0:0:0:
109,192,298799,1,0,0:0:0:0:
329,192,298814,128,0,298928:0:0:0:0:
182,192,298842,128,0,298971:0:0:0:0:
109,192,298885,128,0,299014:0:0:0:0:
402,192,298928,1,0,0:0:0:0:
475,192,298928,128,0,299014:0:0:0:0:
36,192,298928,128,0,299228:0:0:0:0:
329,192,299014,1,0,0:0:0:0:
402,192,299014,128,0,299099:0:0:0:0:
182,192,299057,128,0,299099:0:0:0:0:
109,192,299099,128,0,299185:0:0:0:0:
329,192,299099,128,0,299185:0:0:0:0:
475,192,299099,128,0,299399:0:0:0:0:
256,192,299142,128,0,299228:0:0:0:0:
182,192,299185,128,0,299357:0:0:0:0:
329,192,299271,1,0,0:0:0:0:
402,192,299271,1,0,0:0:0:0:
109,192,299314,128,0,299357:0:0:0:0:
36,192,299357,1,0,0:0:0:0:
329,192,299357,128,0,299742:0:0:0:0:
402,192,299357,128,0,299399:0:0:0:0:
182,192,299442,128,0,299528:0:0:0:0:
36,192,299442,128,0,299485:0:0:0:0:
256,192,299442,128,0,299614:0:0:0:0:
402,192,299528,1,0,0:0:0:0:
475,192,299528,1,0,0:0:0:0:
109,192,299528,128,0,299571:0:0:0:0:
36,192,299571,128,0,299742:0:0:0:0:
475,192,299614,128,0,299742:0:0:0:0:
402,192,299614,128,0,299742:0:0:0:0:
182,192,299614,128,0,299657:0:0:0:0:
109,192,299657,128,0,299742:0:0:0:0:
256,192,299699,128,0,299742:0:0:0:0:
109,192,299785,1,0,0:0:0:0:
36,192,299785,128,0,300042:0:0:0:0:
182,192,299785,1,0,0:0:0:0:
475,192,299785,128,0,300042:0:0:0:0:
402,192,299814,128,0,299899:0:0:0:0:
329,192,299842,128,0,299928:0:0:0:0:
256,192,299871,128,0,299957:0:0:0:0:
182,192,299899,128,0,299985:0:0:0:0:
109,192,299928,128,0,300014:0:0:0:0:
402,192,299957,1,0,0:0:0:0:
256,192,300042,1,0,0:0:0:0:
182,192,300128,1,0,0:0:0:0:
109,192,300128,128,0,300385:0:0:0:0:
36,192,300128,128,0,300214:0:0:0:0:
402,192,300128,128,0,300257:0:0:0:0:
475,192,300128,128,0,300214:0:0:0:0:
256,192,300171,1,0,0:0:0:0:
329,192,300214,128,0,300299:0:0:0:0:
256,192,300257,128,0,300342:0:0:0:0:
475,192,300299,1,0,0:0:0:0:
36,192,300299,128,0,300385:0:0:0:0:
182,192,300299,128,0,300557:0:0:0:0:
402,192,300385,1,0,0:0:0:0:
475,192,300385,128,0,300471:0:0:0:0:
329,192,300385,1,0,0:0:0:0:
109,192,300471,128,0,300557:0:0:0:0:
256,192,300471,128,0,300728:0:0:0:0:
36,192,300471,128,0,300557:0:0:0:0:
329,192,300471,128,0,300535:0:0:0:0:
402,192,300514,128,0,300578:0:0:0:0:
475,192,300557,128,0,300728:0:0:0:0:
36,192,300642,1,0,0:0:0:0:
109,192,300642,1,0,0:0:0:0:
402,192,300685,128,0,300728:0:0:0:0:
329,192,300728,1,0,0:0:0:0:
109,192,300728,128,0,300814:0:0:0:0:
36,192,300728,128,0,301114:0:0:0:0:
256,192,300814,128,0,300899:0:0:0:0:
402,192,300814,1,0,0:0:0:0:
475,192,300814,1,0,0:0:0:0:
109,192,300899,1,0,0:0:0:0:
182,192,300899,1,0,0:0:0:0:
475,192,300899,128,0,300964:0:0:0:0:
109,192,300985,128,0,301114:0:0:0:0:
182,192,300985,128,0,301114:0:0:0:0:
329,192,300985,128,0,301042:0:0:0:0:
402,192,300985,1,0,0:0:0:0:
402,192,301071,128,0,301114:0:0:0:0:
256,192,301071,1,0,0:0:0:0:
475,192,301157,1,0,0:0:0:0:
329,192,301157,1,0,0:0:0:0:
36,192,301157,128,0,301299:0:0:0:0:
256,192,301157,128,0,301414:0:0:0:0:
182,192,301185,128,0,301242:0:0:0:0:
109,192,301214,128,0,301271:0:0:0:0:
475,192,301242,128,0,301385:0:0:0:0:
329,192,301271,128,0,301328:0:0:0:0:
402,192,301299,128,0,301357:0:0:0:0:
182,192,301328,1,0,0:0:0:0:
109,192,301414,1,0,0:0:0:0:
36,192,301499,128,0,301585:0:0:0:0:
475,192,301499,128,0,301649:0:0:0:0:
182,192,301499,1,0,0:0:0:0:
256,192,301510,128,0,301607:0:0:0:0:
329,192,301521,1,0,0:0:0:0:
182,192,301585,128,0,301649:0:0:0:0:
402,192,301585,128,0,301692:0:0:0:0:
109,192,301628,128,0,301692:0:0:0:0:
329,192,301628,128,0,301735:0:0:0:0:
256,192,301671,128,0,301821:0:0:0:0:
36,192,301671,128,0,301757:0:0:0:0:
475,192,301714,128,0,301778:0:0:0:0:
109,192,301757,1,0,0:0:0:0:
182,192,301757,1,0,0:0:0:0:
402,192,301757,128,0,301907:0:0:0:0:
329,192,301799,128,0,301864:0:0:0:0:
36,192,301842,128,0,301928:0:0:0:0:
109,192,301842,128,0,301928:0:0:0:0:
475,192,301842,128,0,302099:0:0:0:0:
182,192,301842,128,0,302164:0:0:0:0:
256,192,301885,128,0,301992:0:0:0:0:
329,192,301928,128,0,302035:0:0:0:0:
402,192,301971,128,0,302099:0:0:0:0:
109,192,302014,1,0,0:0:0:0:
36,192,302014,1,0,0:0:0:0:
256,192,302099,1,0,0:0:0:0:
109,192,302099,128,0,302164:0:0:0:0:
36,192,302099,128,0,302357:0:0:0:0:
402,192,302185,1,0,0:0:0:0:
329,192,302185,128,0,302242:0:0:0:0:
475,192,302185,128,0,302357:0:0:0:0:
256,192,302214,128,0,302442:0:0:0:0:
182,192,302242,128,0,302299:0:0:0:0:
109,192,302271,128,0,302328:0:0:0:0:
402,192,302314,128,0,302357:0:0:0:0:
329,192,302357,128,0,302442:0:0:0:0:
182,192,302399,128,0,302614:0:0:0:0:
402,192,302442,1,0,0:0:0:0:
36,192,302442,1,0,0:0:0:0:
475,192,302442,128,0,302528:0:0:0:0:
256,192,302528,128,0,302614:0:0:0:0:
329,192,302528,128,0,302614:0:0:0:0:
36,192,302528,128,0,302699:0:0:0:0:
109,192,302528,128,0,302828:0:0:0:0:
402,192,302571,128,0,302742:0:0:0:0:
475,192,302614,128,0,302742:0:0:0:0:
182,192,302699,1,0,0:0:0:0:
329,192,302699,128,0,302828:0:0:0:0:
182,192,302785,128,0,302828:0:0:0:0:
256,192,302785,128,0,302828:0:0:0:0:
36,192,302785,128,0,302828:0:0:0:0:
329,192,302871,1,0,0:0:0:0:
402,192,302871,128,0,303128:0:0:0:0:
475,192,302871,128,0,302957:0:0:0:0:
109,192,302871,128,0,302999:0:0:0:0:
36,192,302871,128,0,302957:0:0:0:0:
256,192,302914,1,0,0:0:0:0:
182,192,302957,128,0,303042:0:0:0:0:
256,192,302999,128,0,303085:0:0:0:0:
36,192,303042,1,0,0:0:0:0:
475,192,303042,128,0,303128:0:0:0:0:
329,192,303042,128,0,303299:0:0:0:0:
109,192,303128,1,0,0:0:0:0:
36,192,303128,128,0,303214:0:0:0:0:
182,192,303128,1,0,0:0:0:0:
402,192,303214,128,0,303299:0:0:0:0:
256,192,303214,128,0,303471:0:0:0:0:
475,192,303214,128,0,303299:0:0:0:0:
182,192,303214,128,0,303278:0:0:0:0:
109,192,303257,128,0,303321:0:0:0:0:
36,192,303299,128,0,303471:0:0:0:0:
475,192,303385,1,0,0:0:0:0:
402,192,303385,1,0,0:0:0:0:
109,192,303428,128,0,303471:0:0:0:0:
182,192,303471,1,0,0:0:0:0:
402,192,303471,128,0,303557:0:0:0:0:
475,192,303471,128,0,303857:0:0:0:0:
256,192,303557,128,0,303642:0:0:0:0:
109,192,303557,1,0,0:0:0:0:
36,192,303557,1,0,0:0:0:0:
402,192,303642,1,0,0:0:0:0:
329,192,303642,1,0,0:0:0:0:
36,192,303642,128,0,303707:0:0:0:0:
402,192,303728,128,0,303857:0:0:0:0:
329,192,303728,128,0,303857:0:0:0:0:
182,192,303728,128,0,303785:0:0:0:0:
109,192,303728,1,0,0:0:0:0:
109,192,303814,128,0,303857:0:0:0:0:
256,192,303814,1,0,0:0:0:0:
36,192,303899,1,0,0:0:0:0:
182,192,303899,1,0,0:0:0:0:
475,192,303899,128,0,304042:0:0:0:0:
256,192,303899,128,0,304157:0:0:0:0:
329,192,303928,128,0,303985:0:0:0:0:
402,192,303957,128,0,304014:0:0:0:0:
36,192,303985,128,0,304128:0:0:0:0:
182,192,304014,128,0,304071:0:0:0:0:
109,192,304042,128,0,304099:0:0:0:0:
329,192,304071,1,0,0:0:0:0:
402,192,304157,1,0,0:0:0:0:
475,192,304242,1,0,0:0:0:0:
36,192,304242,128,0,304299:0:0:0:0:
256,192,304242,128,0,304542:0:0:0:0:
109,192,304271,128,0,304328:0:0:0:0:
402,192,304285,1,0,0:0:0:0:
182,192,304299,128,0,304414:0:0:0:0:
329,192,304328,128,0,304457:0:0:0:0:
402,192,304371,128,0,304499:0:0:0:0:
109,192,304414,1,0,0:0:0:0:
36,192,304414,128,0,304499:0:0:0:0:
475,192,304414,128,0,304714:0:0:0:0:
182,192,304499,1,0,0:0:0:0:
109,192,304499,128,0,304585:0:0:0:0:
329,192,304542,128,0,304585:0:0:0:0:
402,192,304585,128,0,304671:0:0:0:0:
182,192,304585,128,0,304671:0:0:0:0:
36,192,304585,128,0,304885:0:0:0:0:
256,192,304628,128,0,304714:0:0:0:0:
329,192,304671,128,0,304842:0:0:0:0:
182,192,304757,1,0,0:0:0:0:
109,192,304757,1,0,0:0:0:0:
402,192,304799,128,0,304842:0:0:0:0:
475,192,304842,1,0,0:0:0:0:
182,192,304842,128,0,305228:0:0:0:0:
109,192,304842,128,0,304885:0:0:0:0:
329,192,304928,128,0,305014:0:0:0:0:
475,192,304928,128,0,304971:0:0:0:0:
256,192,304928,128,0,305099:0:0:0:0:
109,192,305014,1,0,0:0:0:0:
36,192,305014,1,0,0:0:0:0:
402,192,305014,128,0,305057:0:0:0:0:
475,192,305057,128,0,305228:0:0:0:0:
36,192,305099,128,0,305228:0:0:0:0:
109,192,305099,128,0,305228:0:0:0:0:
329,192,305099,128,0,305142:0:0:0:0:
402,192,305142,128,0,305228:0:0:0:0:
256,192,305185,128,0,305228:0:0:0:0:
402,192,305271,1,0,0:0:0:0:
475,192,305271,128,0,305528:0:0:0:0:
329,192,305271,1,0,0:0:0:0:
36,192,305271,128,0,305528:0:0:0:0:
109,192,305299,128,0,305385:0:0:0:0:
182,192,305328,128,0,305414:0:0:0:0:
256,192,305357,128,0,305442:0:0:0:0:
329,192,305385,128,0,305471:0:0:0:0:
402,192,305414,128,0,305499:0:0:0:0:
109,192,305442,1,0,0:0:0:0:
256,192,305528,1,0,0:0:0:0:
109,192,305614,128,0,305657:0:0:0:0:
402,192,305614,1,0,0:0:0:0:
182,192,305614,128,0,305699:0:0:0:0:
475,192,305614,128,0,305871:0:0:0:0:
36,192,305614,128,0,305785:0:0:0:0:
329,192,305657,1,0,0:0:0:0:
256,192,305699,128,0,305785:0:0:0:0:
329,192,305742,128,0,305828:0:0:0:0:
402,192,305785,128,0,306042:0:0:0:0:
182,192,305785,1,0,0:0:0:0:
109,192,305785,128,0,305871:0:0:0:0:
36,192,305871,1,0,0:0:0:0:
182,192,305871,128,0,305957:0:0:0:0:
256,192,305871,1,0,0:0:0:0:
36,192,305957,128,0,306021:0:0:0:0:
256,192,305957,128,0,306214:0:0:0:0:
329,192,305957,128,0,306042:0:0:0:0:
475,192,305957,128,0,306042:0:0:0:0:
109,192,305999,128,0,306064:0:0:0:0:
182,192,306042,128,0,306214:0:0:0:0:
475,192,306128,1,0,0:0:0:0:
402,192,306128,1,0,0:0:0:0:
109,192,306171,128,0,306214:0:0:0:0:
475,192,306214,128,0,306599:0:0:0:0:
402,192,306214,128,0,306299:0:0:0:0:
36,192,306214,1,0,0:0:0:0:
109,192,306299,1,0,0:0:0:0:
182,192,306299,1,0,0:0:0:0:
256,192,306299,128,0,306385:0:0:0:0:
36,192,306385,128,0,306449:0:0:0:0:
402,192,306385,1,0,0:0:0:0:
329,192,306385,1,0,0:0:0:0:
109,192,306471,128,0,306528:0:0:0:0:
329,192,306471,128,0,306599:0:0:0:0:
402,192,306471,128,0,306599:0:0:0:0:
256,192,306471,1,0,0:0:0:0:
182,192,306557,128,0,306599:0:0:0:0:
36,192,306557,1,0,0:0:0:0:
475,192,306642,128,0,306757:0:0:0:0:
36,192,306642,128,0,306699:0:0:0:0:
109,192,306642,1,0,0:0:0:0:
256,192,306642,128,0,306899:0:0:0:0:
402,192,306671,128,0,306785:0:0:0:0:
329,192,306699,128,0,306814:0:0:0:0:
182,192,306728,128,0,306842:0:0:0:0:
109,192,306757,128,0,306871:0:0:0:0:
36,192,306785,128,0,306899:0:0:0:0:
475,192,306814,1,0,0:0:0:0:
402,192,306899,1,0,0:0:0:0:
329,192,306985,1,0,0:0:0:0:
475,192,306985,128,0,307071:0:0:0:0:
36,192,306985,128,0,307135:0:0:0:0:
256,192,306996,128,0,307092:0:0:0:0:
182,192,307007,1,0,0:0:0:0:
329,192,307071,128,0,307135:0:0:0:0:
109,192,307071,128,0,307178:0:0:0:0:
402,192,307114,128,0,307178:0:0:0:0:
182,192,307114,128,0,307221:0:0:0:0:
256,192,307157,128,0,307307:0:0:0:0:
475,192,307157,128,0,307242:0:0:0:0:
36,192,307199,128,0,307264:0:0:0:0:
402,192,307242,1,0,0:0:0:0:
329,192,307242,1,0,0:0:0:0:
109,192,307242,128,0,307392:0:0:0:0:
182,192,307285,128,0,307349:0:0:0:0:
475,192,307328,128,0,307414:0:0:0:0:
402,192,307328,128,0,307414:0:0:0:0:
36,192,307328,128,0,307585:0:0:0:0:
329,192,307328,128,0,307649:0:0:0:0:
256,192,307371,128,0,307478:0:0:0:0:
182,192,307414,128,0,307521:0:0:0:0:
109,192,307457,128,0,307585:0:0:0:0:
402,192,307499,1,0,0:0:0:0:
475,192,307499,1,0,0:0:0:0:
256,192,307585,1,0,0:0:0:0:
402,192,307585,128,0,307649:0:0:0:0:
475,192,307585,128,0,307842:0:0:0:0:
109,192,307671,1,0,0:0:0:0:
182,192,307671,128,0,307728:0:0:0:0:
36,192,307671,128,0,307842:0:0:0:0:
256,192,307699,128,0,307928:0:0:0:0:
329,192,307728,128,0,307785:0:0:0:0:
402,192,307757,128,0,307814:0:0:0:0:
109,192,307799,128,0,307842:0:0:0:0:
182,192,307842,128,0,307928:0:0:0:0:
329,192,307885,128,0,308057:0:0:0:0:
475,192,307928,1,0,0:0:0:0:
36,192,307928,128,0,308014:0:0:0:0:
109,192,307928,128,0,308314:0:0:0:0:
475,192,308014,128,0,308057:0:0:0:0:
182,192,308014,1,0,0:0:0:0:
256,192,308014,1,0,0:0:0:0:
402,192,308014,128,0,308314:0:0:0:0:
182,192,308099,128,0,308314:0:0:0:0:
256,192,308185,128,0,308314:0:0:0:0:
475,192,308185,128,0,308314:0:0:0:0:
329,192,308271,128,0,308314:0:0:0:0:
475,192,308357,128,0,308699:0:0:0:0:
182,192,308357,128,0,308528:0:0:0:0:
402,192,308357,1,0,0:0:0:0:
36,192,308357,1,0,0:0:0:0:
109,192,308357,128,0,308442:0:0:0:0:
256,192,308399,128,0,308442:0:0:0:0:
329,192,308442,128,0,308485:0:0:0:0:
402,192,308485,128,0,308571:0:0:0:0:
109,192,308528,128,0,308614:0:0:0:0:
256,192,308528,1,0,0:0:0:0:
36,192,308528,128,0,308871:0:0:0:0:
329,192,308571,1,0,0:0:0:0:
182,192,308614,128,0,308657:0:0:0:0:
256,192,308657,128,0,308957:0:0:0:0:
109,192,308699,1,0,0:0:0:0:
329,192,308699,128,0,308785:0:0:0:0:
402,192,308699,128,0,308785:0:0:0:0:
182,192,308742,1,0,0:0:0:0:
475,192,308785,128,0,308871:0:0:0:0:
109,192,308828,128,0,309042:0:0:0:0:
402,192,308871,1,0,0:0:0:0:
329,192,308871,128,0,308957:0:0:0:0:
182,192,308871,128,0,308957:0:0:0:0:
402,192,308957,128,0,308999:0:0:0:0:
36,192,308957,128,0,309128:0:0:0:0:
475,192,308957,128,0,309042:0:0:0:0:
182,192,309042,128,0,309085:0:0:0:0:
256,192,309064,128,0,309149:0:0:0:0:
329,192,309085,128,0,309214:0:0:0:0:
402,192,309107,128,0,309278:0:0:0:0:
475,192,309128,128,0,309342:0:0:0:0:
109,192,309128,1,0,0:0:0:0:
182,192,309214,128,0,309257:0:0:0:0:
109,192,309235,128,0,309321:0:0:0:0:
36,192,309257,128,0,309385:0:0:0:0:
256,192,309299,1,0,0:0:0:0:
329,192,309342,128,0,309385:0:0:0:0:
475,192,309385,128,0,309514:0:0:0:0:
182,192,309385,128,0,309428:0:0:0:0:
36,192,309428,128,0,309642:0:0:0:0:
402,192,309449,128,0,309535:0:0:0:0:
256,192,309471,1,0,0:0:0:0:
109,192,309492,128,0,309664:0:0:0:0:
329,192,309514,128,0,309557:0:0:0:0:
182,192,309557,128,0,309685:0:0:0:0:
402,192,309599,1,0,0:0:0:0:
256,192,309621,128,0,309707:0:0:0:0:
475,192,309642,128,0,309814:0:0:0:0:
329,192,309685,128,0,309728:0:0:0:0:
36,192,309728,128,0,309771:0:0:0:0:
402,192,309728,128,0,309899:0:0:0:0:
109,192,309749,128,0,309814:0:0:0:0:
182,192,309771,128,0,309899:0:0:0:0:
329,192,309814,128,0,309985:0:0:0:0:
475,192,309899,128,0,309942:0:0:0:0:
109,192,309899,128,0,309942:0:0:0:0:
256,192,309899,128,0,310071:0:0:0:0:
182,192,309985,128,0,310157:0:0:0:0:
36,192,309985,128,0,310028:0:0:0:0:
402,192,309985,128,0,310028:0:0:0:0:
109,192,310071,128,0,310242:0:0:0:0:
329,192,310071,128,0,310114:0:0:0:0:
402,192,310092,128,0,310157:0:0:0:0:
475,192,310114,128,0,310328:0:0:0:0:
36,192,310157,128,0,310649:0:0:0:0:
256,192,310157,1,0,0:0:0:0:
182,192,310242,128,0,310285:0:0:0:0:
329,192,310242,128,0,310499:0:0:0:0:
402,192,310242,128,0,310328:0:0:0:0:
256,192,310328,128,0,310414:0:0:0:0:
109,192,310328,128,0,310371:0:0:0:0:
182,192,310414,1,0,0:0:0:0:
402,192,310414,128,0,310585:0:0:0:0:
475,192,310414,128,0,310499:0:0:0:0:
109,192,310435,128,0,310671:0:0:0:0:
256,192,310499,1,0,0:0:0:0:
182,192,310521,128,0,310692:0:0:0:0:
329,192,310585,1,0,0:0:0:0:
475,192,310585,128,0,310949:0:0:0:0:
256,192,310607,128,0,310714:0:0:0:0:
402,192,310671,1,0,0:0:0:0:
329,192,310692,128,0,310735:0:0:0:0:
182,192,310757,128,0,310799:0:0:0:0:
109,192,310778,128,0,310864:0:0:0:0:
36,192,310799,128,0,310928:0:0:0:0:
256,192,310799,1,0,0:0:0:0:
329,192,310821,1,0,0:0:0:0:
402,192,310842,128,0,310971:0:0:0:0:
329,192,310907,128,0,310992:0:0:0:0:
109,192,310928,1,0,0:0:0:0:
182,192,310949,1,0,0:0:0:0:
256,192,310971,128,0,311014:0:0:0:0:
36,192,311014,1,0,0:0:0:0:
36,192,311099,128,0,311442:0:0:0:0:
329,192,311099,128,0,311271:0:0:0:0:
109,192,311099,1,0,0:0:0:0:
402,192,311099,128,0,311185:0:0:0:0:
475,192,311099,1,0,0:0:0:0:
256,192,311142,128,0,311185:0:0:0:0:
182,192,311185,128,0,311228:0:0:0:0:
109,192,311228,128,0,311314:0:0:0:0:
402,192,311271,128,0,311357:0:0:0:0:
256,192,311271,1,0,0:0:0:0:
475,192,311271,128,0,311614:0:0:0:0:
182,192,311314,1,0,0:0:0:0:
329,192,311357,128,0,311399:0:0:0:0:
256,192,311399,128,0,311699:0:0:0:0:
402,192,311442,1,0,0:0:0:0:
182,192,311442,128,0,311528:0:0:0:0:
109,192,311442,128,0,311528:0:0:0:0:
329,192,311485,1,0,0:0:0:0:
36,192,311528,128,0,311614:0:0:0:0:
402,192,311571,128,0,311785:0:0:0:0:
109,192,311614,1,0,0:0:0:0:
182,192,311614,128,0,311699:0:0:0:0:
329,192,311614,128,0,311699:0:0:0:0:
109,192,311699,128,0,311742:0:0:0:0:
475,192,311699,128,0,311871:0:0:0:0:
36,192,311699,128,0,311785:0:0:0:0:
329,192,311785,128,0,311828:0:0:0:0:
256,192,311807,128,0,311892:0:0:0:0:
182,192,311828,128,0,311957:0:0:0:0:
109,192,311849,128,0,312021:0:0:0:0:
402,192,311871,1,0,0:0:0:0:
36,192,311871,128,0,312085:0:0:0:0:
329,192,311957,128,0,311999:0:0:0:0:
402,192,311978,128,0,312064:0:0:0:0:
475,192,311999,128,0,312128:0:0:0:0:
256,192,312042,1,0,0:0:0:0:
182,192,312085,128,0,312128:0:0:0:0:
329,192,312128,128,0,312171:0:0:0:0:
36,192,312128,128,0,312257:0:0:0:0:
475,192,312171,128,0,312364:0:0:0:0:
109,192,312192,128,0,312278:0:0:0:0:
256,192,312214,1,0,0:0:0:0:
402,192,312235,128,0,312385:0:0:0:0:
182,192,312257,128,0,312299:0:0:0:0:
329,192,312299,128,0,312407:0:0:0:0:
109,192,312342,1,0,0:0:0:0:
256,192,312364,128,0,312428:0:0:0:0:
36,192,312385,128,0,312557:0:0:0:0:
182,192,312428,128,0,312471:0:0:0:0:
329,192,312471,128,0,312514:0:0:0:0:
109,192,312471,128,0,312642:0:0:0:0:
402,192,312492,128,0,312599:0:0:0:0:
475,192,312514,128,0,312685:0:0:0:0:
256,192,312514,128,0,312557:0:0:0:0:
182,192,312557,128,0,312814:0:0:0:0:
329,192,312599,128,0,312642:0:0:0:0:
256,192,312642,128,0,312728:0:0:0:0:
36,192,312642,128,0,312728:0:0:0:0:
402,192,312685,128,0,312728:0:0:0:0:
329,192,312728,128,0,312985:0:0:0:0:
109,192,312728,128,0,312771:0:0:0:0:
475,192,312771,128,0,312814:0:0:0:0:
36,192,312814,128,0,312899:0:0:0:0:
402,192,312814,128,0,312899:0:0:0:0:
256,192,312814,128,0,312899:0:0:0:0:
109,192,312857,128,0,313071:0:0:0:0:
182,192,312899,128,0,312942:0:0:0:0:
475,192,312899,128,0,313157:0:0:0:0:
256,192,312985,128,0,313242:0:0:0:0:
36,192,312985,128,0,313114:0:0:0:0:
402,192,312985,128,0,313071:0:0:0:0:
182,192,313028,128,0,313157:0:0:0:0:
329,192,313071,128,0,313114:0:0:0:0:
402,192,313157,128,0,313478:0:0:0:0:
109,192,313157,128,0,313199:0:0:0:0:
36,192,313199,128,0,313371:0:0:0:0:
329,192,313199,128,0,313328:0:0:0:0:
475,192,313242,128,0,313285:0:0:0:0:
182,192,313242,128,0,313285:0:0:0:0:
109,192,313285,128,0,313392:0:0:0:0:
256,192,313328,128,0,313435:0:0:0:0:
182,192,313371,128,0,313414:0:0:0:0:
475,192,313371,128,0,313778:0:0:0:0:
329,192,313414,128,0,313457:0:0:0:0:
36,192,313499,128,0,313542:0:0:0:0:
109,192,313521,128,0,313607:0:0:0:0:
402,192,313542,1,0,0:0:0:0:
182,192,313542,128,0,313671:0:0:0:0:
329,192,313564,1,0,0:0:0:0:
256,192,313585,128,0,313714:0:0:0:0:
329,192,313649,128,0,313735:0:0:0:0:
109,192,313671,1,0,0:0:0:0:
36,192,313692,1,0,0:0:0:0:
402,192,313714,128,0,313757:0:0:0:0:
182,192,313757,1,0,0:0:0:0:
475,192,313842,1,0,0:0:0:0:
36,192,313842,128,0,313885:0:0:0:0:
182,192,313842,128,0,314099:0:0:0:0:
256,192,313842,128,0,313971:0:0:0:0:
109,192,313842,128,0,313928:0:0:0:0:
329,192,313885,128,0,313928:0:0:0:0:
402,192,313928,128,0,313971:0:0:0:0:
475,192,313971,128,0,314099:0:0:0:0:
329,192,314014,1,0,0:0:0:0:
36,192,314014,1,0,0:0:0:0:
109,192,314014,128,0,314142:0:0:0:0:
256,192,314099,128,0,314142:0:0:0:0:
36,192,314099,128,0,314442:0:0:0:0:
402,192,314099,1,0,0:0:0:0:
329,192,314142,128,0,314271:0:0:0:0:
182,192,314185,1,0,0:0:0:0:
402,192,314185,128,0,314271:0:0:0:0:
475,192,314185,128,0,314357:0:0:0:0:
109,192,314271,128,0,314357:0:0:0:0:
182,192,314314,128,0,314485:0:0:0:0:
402,192,314357,1,0,0:0:0:0:
329,192,314357,128,0,314485:0:0:0:0:
256,192,314357,128,0,314399:0:0:0:0:
402,192,314442,128,0,314571:0:0:0:0:
475,192,314442,128,0,314657:0:0:0:0:
109,192,314442,1,0,0:0:0:0:
256,192,314485,1,0,0:0:0:0:
36,192,314528,128,0,314571:0:0:0:0:
109,192,314549,128,0,314635:0:0:0:0:
329,192,314571,128,0,314614:0:0:0:0:
182,192,314571,128,0,314699:0:0:0:0:
256,192,314614,128,0,314957:0:0:0:0:
402,192,314657,128,0,314699:0:0:0:0:
36,192,314699,128,0,314742:0:0:0:0:
109,192,314742,1,0,0:0:0:0:
329,192,314757,1,0,0:0:0:0:
475,192,314785,128,0,314828:0:0:0:0:
182,192,314814,1,0,0:0:0:0:
402,192,314828,1,0,0:0:0:0:
109,192,314871,128,0,314914:0:0:0:0:
329,192,314871,128,0,314999:0:0:0:0:
402,192,314935,128,0,315021:0:0:0:0:
182,192,314957,128,0,314999:0:0:0:0:
36,192,314957,128,0,315128:0:0:0:0:
475,192,314999,128,0,315042:0:0:0:0:
109,192,315042,128,0,315171:0:0:0:0:
256,192,315042,128,0,315085:0:0:0:0:
475,192,315085,128,0,315214:0:0:0:0:
182,192,315128,128,0,315214:0:0:0:0:
402,192,315128,128,0,315299:0:0:0:0:
329,192,315171,128,0,315214:0:0:0:0:
36,192,315214,128,0,315385:0:0:0:0:
256,192,315214,128,0,315514:0:0:0:0:
109,192,315257,128,0,315299:0:0:0:0:
182,192,315299,1,0,0:0:0:0:
329,192,315299,128,0,315385:0:0:0:0:
475,192,315299,128,0,315471:0:0:0:0:
402,192,315385,1,0,0:0:0:0:
109,192,315385,128,0,315557:0:0:0:0:
182,192,315428,128,0,315471:0:0:0:0:
36,192,315471,128,0,315514:0:0:0:0:
329,192,315471,128,0,315557:0:0:0:0:
402,192,315471,128,0,315599:0:0:0:0:
475,192,315557,128,0,315728:0:0:0:0:
182,192,315557,128,0,315728:0:0:0:0:
256,192,315599,128,0,315642:0:0:0:0:
36,192,315599,1,0,0:0:0:0:
109,192,315642,128,0,315685:0:0:0:0:
329,192,315642,1,0,0:0:0:0:
402,192,315685,128,0,315728:0:0:0:0:
36,192,315728,128,0,315814:0:0:0:0:
256,192,315728,128,0,315899:0:0:0:0:
109,192,315771,1,0,0:0:0:0:
329,192,315771,128,0,315814:0:0:0:0:
182,192,315814,128,0,315857:0:0:0:0:
402,192,315814,1,0,0:0:0:0:
475,192,315814,128,0,315899:0:0:0:0:
329,192,315899,128,0,316071:0:0:0:0:
109,192,315899,128,0,315985:0:0:0:0:
36,192,315899,128,0,316071:0:0:0:0:
402,192,315942,128,0,315985:0:0:0:0:
475,192,315985,1,0,0:0:0:0:
256,192,315985,128,0,316157:0:0:0:0:
182,192,315985,1,0,0:0:0:0:
402,192,316071,128,0,316242:0:0:0:0:
182,192,316071,128,0,316242:0:0:0:0:
109,192,316071,1,0,0:0:0:0:
475,192,316114,128,0,316157:0:0:0:0:
329,192,316157,128,0,316199:0:0:0:0:
109,192,316157,128,0,316285:0:0:0:0:
36,192,316157,1,0,0:0:0:0:
475,192,316242,128,0,316499:0:0:0:0:
36,192,316242,128,0,316499:0:0:0:0:
256,192,316242,128,0,316371:0:0:0:0:
329,192,316285,128,0,316328:0:0:0:0:
402,192,316328,128,0,316414:0:0:0:0:
182,192,316328,128,0,316414:0:0:0:0:
109,192,316371,128,0,316499:0:0:0:0:
329,192,316414,128,0,316499:0:0:0:0:
256,192,316457,128,0,316499:0:0:0:0:
182,192,316499,1,0,0:0:0:0:
402,192,316499,1,0,0:0:0:0:
36,192,316585,1,0,0:0:0:0:
475,192,316585,128,0,316628:0:0:0:0:
329,192,316585,128,0,316842:0:0:0:0:
256,192,316585,128,0,316714:0:0:0:0:
402,192,316585,128,0,316671:0:0:0:0:
182,192,316628,128,0,316671:0:0:0:0:
109,192,316671,128,0,316714:0:0:0:0:
36,192,316714,128,0,316842:0:0:0:0:
182,192,316757,1,0,0:0:0:0:
475,192,316757,1,0,0:0:0:0:
402,192,316757,128,0,316885:0:0:0:0:
256,192,316842,128,0,316885:0:0:0:0:
475,192,316842,128,0,317185:0:0:0:0:
109,192,316842,1,0,0:0:0:0:
182,192,316885,128,0,317014:0:0:0:0:
329,192,316928,1,0,0:0:0:0:
109,192,316928,128,0,317014:0:0:0:0:
36,192,316928,128,0,317099:0:0:0:0:
402,192,317014,128,0,317099:0:0:0:0:
329,192,317057,128,0,317228:0:0:0:0:
109,192,317099,1,0,0:0:0:0:
182,192,317099,128,0,317228:0:0:0:0:
256,192,317099,128,0,317142:0:0:0:0:
109,192,317185,128,0,317314:0:0:0:0:
36,192,317185,128,0,317399:0:0:0:0:
402,192,317185,1,0,0:0:0:0:
256,192,317228,1,0,0:0:0:0:
475,192,317271,128,0,317314:0:0:0:0:
402,192,317292,128,0,317378:0:0:0:0:
182,192,317314,128,0,317357:0:0:0:0:
329,192,317314,128,0,317442:0:0:0:0:
256,192,317357,128,0,317699:0:0:0:0:
109,192,317399,128,0,317442:0:0:0:0:
475,192,317442,128,0,317485:0:0:0:0:
402,192,317485,1,0,0:0:0:0:
182,192,317499,1,0,0:0:0:0:
36,192,317528,128,0,317571:0:0:0:0:
329,192,317557,1,0,0:0:0:0:
109,192,317571,1,0,0:0:0:0:
402,192,317614,128,0,317657:0:0:0:0:
182,192,317614,128,0,317742:0:0:0:0:
109,192,317678,128,0,317764:0:0:0:0:
329,192,317699,128,0,317742:0:0:0:0:
475,192,317699,128,0,317871:0:0:0:0:
36,192,317742,128,0,317785:0:0:0:0:
402,192,317785,128,0,317914:0:0:0:0:
256,192,317785,128,0,317828:0:0:0:0:
36,192,317828,128,0,317957:0:0:0:0:
329,192,317871,128,0,317957:0:0:0:0:
109,192,317871,128,0,318042:0:0:0:0:
182,192,317914,128,0,317957:0:0:0:0:
475,192,317957,128,0,318128:0:0:0:0:
256,192,317957,128,0,318257:0:0:0:0:
402,192,317999,128,0,318042:0:0:0:0:
329,192,318042,1,0,0:0:0:0:
182,192,318042,128,0,318128:0:0:0:0:
36,192,318042,128,0,318214:0:0:0:0:
109,192,318128,1,0,0:0:0:0:
402,192,318128,128,0,318299:0:0:0:0:
329,192,318171,128,0,318214:0:0:0:0:
475,192,318214,128,0,318257:0:0:0:0:
182,192,318214,128,0,318299:0:0:0:0:
109,192,318214,128,0,318342:0:0:0:0:
329,192,318299,128,0,318471:0:0:0:0:
36,192,318299,128,0,318471:0:0:0:0:
256,192,318342,128,0,318385:0:0:0:0:
475,192,318342,1,0,0:0:0:0:
402,192,318385,128,0,318428:0:0:0:0:
182,192,318385,1,0,0:0:0:0:
109,192,318428,128,0,318471:0:0:0:0:
475,192,318471,128,0,318557:0:0:0:0:
256,192,318471,128,0,318642:0:0:0:0:
402,192,318514,1,0,0:0:0:0:
182,192,318514,128,0,318557:0:0:0:0:
329,192,318557,128,0,318599:0:0:0:0:
109,192,318557,1,0,0:0:0:0:
36,192,318557,128,0,318642:0:0:0:0:
182,192,318642,128,0,318814:0:0:0:0:
402,192,318642,128,0,318728:0:0:0:0:
475,192,318642,128,0,318685:0:0:0:0:
109,192,318685,128,0,318728:0:0:0:0:
329,192,318685,128,0,318814:0:0:0:0:
36,192,318728,1,0,0:0:0:0:
256,192,318728,128,0,318771:0:0:0:0:
109,192,318814,128,0,318942:0:0:0:0:
402,192,318814,128,0,318942:0:0:0:0:
36,192,318857,128,0,318899:0:0:0:0:
475,192,318857,128,0,318899:0:0:0:0:
182,192,318899,128,0,318964:0:0:0:0:
329,192,318899,128,0,318964:0:0:0:0:
256,192,318942,128,0,318985:0:0:0:0:
475,192,318985,1,0,0:0:0:0:
36,192,318985,1,0,0:0:0:0:
109,192,319007,1,0,0:0:0:0:
182,192,319028,1,0,0:0:0:0:
329,192,319049,1,0,0:0:0:0:
402,192,319092,1,0,0:0:0:0:
256,192,319114,1,0,0:0:0:0:
109,192,319135,1,0,0:0:0:0:
182,192,319178,1,0,0:0:0:0:
329,192,319199,1,0,0:0:0:0:
402,192,319221,1,0,0:0:0:0:
36,192,319242,1,0,0:0:0:0:
475,192,319242,1,0,0:0:0:0:
256,192,319328,128,0,319414:0:0:0:0:
36,192,319328,128,0,319457:0:0:0:0:
329,192,319328,128,0,319371:0:0:0:0:
109,192,319328,128,0,319628:0:0:0:0:
402,192,319328,128,0,319414:0:0:0:0:
182,192,319371,128,0,319457:0:0:0:0:
475,192,319371,128,0,319585:0:0:0:0:
329,192,319457,128,0,319499:0:0:0:0:
182,192,319499,128,0,319585:0:0:0:0:
36,192,319499,128,0,319542:0:0:0:0:
256,192,319542,128,0,319628:0:0:0:0:
402,192,319542,128,0,319628:0:0:0:0:
329,192,319585,128,0,319757:0:0:0:0:
36,192,319585,128,0,319714:0:0:0:0:
256,192,319671,128,0,319799:0:0:0:0:
109,192,319671,128,0,319757:0:0:0:0:
402,192,319671,128,0,319714:0:0:0:0:
475,192,319671,128,0,319757:0:0:0:0:
182,192,319714,128,0,319971:0:0:0:0:
109,192,319799,128,0,319885:0:0:0:0:
402,192,319799,128,0,319842:0:0:0:0:
36,192,319842,128,0,319885:0:0:0:0:
256,192,319842,128,0,319928:0:0:0:0:
329,192,319885,128,0,319971:0:0:0:0:
475,192,319885,128,0,319971:0:0:0:0:
36,192,319928,128,0,320014:0:0:0:0:
109,192,319928,128,0,320057:0:0:0:0:
402,192,319928,128,0,320099:0:0:0:0:
329,192,320014,128,0,320142:0:0:0:0:
182,192,320014,128,0,320099:0:0:0:0:
475,192,320014,128,0,320057:0:0:0:0:
256,192,320057,128,0,320314:0:0:0:0:
36,192,320099,128,0,320142:0:0:0:0:
182,192,320142,128,0,320228:0:0:0:0:
475,192,320142,128,0,320185:0:0:0:0:
109,192,320185,128,0,320228:0:0:0:0:
329,192,320185,128,0,320271:0:0:0:0:
402,192,320228,128,0,320314:0:0:0:0:
36,192,320228,128,0,320314:0:0:0:0:
182,192,320271,128,0,320399:0:0:0:0:
109,192,320271,128,0,320357:0:0:0:0:
475,192,320271,128,0,320399:0:0:0:0:
256,192,320357,128,0,320592:0:0:0:0:
402,192,320357,128,0,320442:0:0:0:0:
36,192,320357,1,0,0:0:0:0:
329,192,320399,128,0,320485:0:0:0:0:
475,192,320442,1,0,0:0:0:0:
182,192,320442,128,0,320571:0:0:0:0:
109,192,320464,128,0,320549:0:0:0:0:
36,192,320485,128,0,320635:0:0:0:0:
329,192,320528,128,0,320614:0:0:0:0:
402,192,320549,128,0,320635:0:0:0:0:
475,192,320571,128,0,320742:0:0:0:0:
109,192,320614,128,0,320657:0:0:0:0:
182,192,320635,128,0,320678:0:0:0:0:
256,192,320657,128,0,320699:0:0:0:0:
36,192,320699,128,0,320785:0:0:0:0:
402,192,320699,128,0,320828:0:0:0:0:
329,192,320699,1,0,0:0:0:0:
109,192,320742,128,0,320785:0:0:0:0:
329,192,320785,128,0,320914:0:0:0:0:
182,192,320785,128,0,320871:0:0:0:0:
475,192,320828,128,0,320871:0:0:0:0:
256,192,320871,128,0,320957:0:0:0:0:
109,192,320871,1,0,0:0:0:0:
36,192,320871,128,0,320957:0:0:0:0:
402,192,320914,128,0,320999:0:0:0:0:
475,192,320957,1,0,0:0:0:0:
182,192,320957,128,0,321085:0:0:0:0:
109,192,320957,128,0,321128:0:0:0:0:
329,192,320999,128,0,321042:0:0:0:0:
256,192,321042,128,0,321171:0:0:0:0:
36,192,321042,128,0,321257:0:0:0:0:
475,192,321042,128,0,321128:0:0:0:0:
402,192,321085,128,0,321214:0:0:0:0:
329,192,321128,1,0,0:0:0:0:
182,192,321171,128,0,321214:0:0:0:0:
329,192,321214,128,0,321385:0:0:0:0:
109,192,321214,128,0,321342:0:0:0:0:
475,192,321214,128,0,321299:0:0:0:0:
256,192,321257,128,0,321299:0:0:0:0:
402,192,321299,128,0,321342:0:0:0:0:
182,192,321299,128,0,321385:0:0:0:0:
36,192,321342,128,0,321428:0:0:0:0:
475,192,321385,128,0,321471:0:0:0:0:
256,192,321385,128,0,321471:0:0:0:0:
402,192,321428,128,0,321557:0:0:0:0:
109,192,321428,128,0,321471:0:0:0:0:
182,192,321471,128,0,321599:0:0:0:0:
329,192,321471,128,0,321514:0:0:0:0:
36,192,321514,128,0,321557:0:0:0:0:
475,192,321557,128,0,321642:0:0:0:0:
256,192,321557,128,0,321642:0:0:0:0:
109,192,321599,128,0,321642:0:0:0:0:
329,192,321599,128,0,321771:0:0:0:0:
402,192,321642,1,0,0:0:0:0:
36,192,321642,128,0,321814:0:0:0:0:
182,192,321685,128,0,321728:0:0:0:0:
475,192,321728,128,0,321985:0:0:0:0:
402,192,321728,128,0,321814:0:0:0:0:
256,192,321771,128,0,321857:0:0:0:0:
109,192,321771,128,0,321899:0:0:0:0:
182,192,321814,1,0,0:0:0:0:
329,192,321857,128,0,321899:0:0:0:0:
402,192,321899,128,0,321985:0:0:0:0:
182,192,321899,128,0,321985:0:0:0:0:
36,192,321899,128,0,321985:0:0:0:0:
256,192,321942,128,0,321985:0:0:0:0:
329,192,321985,1,0,0:0:0:0:
109,192,321985,1,0,0:0:0:0:
256,192,322071,128,0,322157:0:0:0:0:
475,192,322071,128,0,322199:0:0:0:0:
182,192,322071,128,0,322114:0:0:0:0:
402,192,322071,128,0,322371:0:0:0:0:
109,192,322071,128,0,322157:0:0:0:0:
329,192,322114,128,0,322199:0:0:0:0:
36,192,322114,128,0,322328:0:0:0:0:
182,192,322199,128,0,322242:0:0:0:0:
329,192,322242,128,0,322328:0:0:0:0:
475,192,322242,128,0,322285:0:0:0:0:
256,192,322285,128,0,322371:0:0:0:0:
109,192,322285,128,0,322371:0:0:0:0:
182,192,322328,128,0,322499:0:0:0:0:
475,192,322328,128,0,322457:0:0:0:0:
256,192,322414,128,0,322542:0:0:0:0:
402,192,322414,128,0,322499:0:0:0:0:
109,192,322414,128,0,322457:0:0:0:0:
36,192,322414,128,0,322499:0:0:0:0:
329,192,322457,128,0,322714:0:0:0:0:
402,192,322542,128,0,322628:0:0:0:0:
109,192,322542,128,0,322585:0:0:0:0:
475,192,322585,128,0,322628:0:0:0:0:
256,192,322585,128,0,322671:0:0:0:0:
182,192,322628,128,0,322714:0:0:0:0:
36,192,322628,128,0,322714:0:0:0:0:
475,192,322671,128,0,322757:0:0:0:0:
402,192,322671,128,0,322799:0:0:0:0:
109,192,322671,128,0,322842:0:0:0:0:
182,192,322757,128,0,322885:0:0:0:0:
329,192,322757,128,0,322842:0:0:0:0:
36,192,322757,128,0,322799:0:0:0:0:
256,192,322799,128,0,323057:0:0:0:0:
475,192,322842,128,0,322885:0:0:0:0:
329,192,322885,128,0,322971:0:0:0:0:
36,192,322885,128,0,322928:0:0:0:0:
402,192,322928,128,0,322971:0:0:0:0:
182,192,322928,128,0,323014:0:0:0:0:
109,192,322971,128,0,323057:0:0:0:0:
475,192,322971,128,0,323057:0:0:0:0:
329,192,323014,128,0,323142:0:0:0:0:
402,192,323014,128,0,323099:0:0:0:0:
36,192,323014,128,0,323142:0:0:0:0:
256,192,323099,128,0,323335:0:0:0:0:
109,192,323099,128,0,323185:0:0:0:0:
475,192,323099,1,0,0:0:0:0:
182,192,323142,128,0,323228:0:0:0:0:
36,192,323185,1,0,0:0:0:0:
329,192,323185,128,0,323314:0:0:0:0:
402,192,323207,128,0,323292:0:0:0:0:
475,192,323228,128,0,323378:0:0:0:0:
182,192,323271,128,0,323357:0:0:0:0:
109,192,323292,128,0,323378:0:0:0:0:
36,192,323314,128,0,323485:0:0:0:0:
402,192,323357,128,0,323399:0:0:0:0:
329,192,323378,128,0,323421:0:0:0:0:
256,192,323399,128,0,323442:0:0:0:0:
475,192,323442,128,0,323528:0:0:0:0:
109,192,323442,128,0,323528:0:0:0:0:
182,192,323442,1,0,0:0:0:0:
402,192,323485,128,0,323528:0:0:0:0:
182,192,323528,128,0,323657:0:0:0:0:
329,192,323528,128,0,323614:0:0:0:0:
36,192,323571,1,0,0:0:0:0:
256,192,323614,128,0,323699:0:0:0:0:
402,192,323614,1,0,0:0:0:0:
475,192,323614,128,0,323699:0:0:0:0:
109,192,323614,128,0,323699:0:0:0:0:
36,192,323657,128,0,323871:0:0:0:0:
329,192,323699,128,0,323828:0:0:0:0:
402,192,323699,128,0,323871:0:0:0:0:
182,192,323742,1,0,0:0:0:0:
256,192,323785,128,0,323871:0:0:0:0:
475,192,323785,128,0,323999:0:0:0:0:
109,192,323785,128,0,323871:0:0:0:0:
182,192,323828,128,0,324128:0:0:0:0:
329,192,323914,1,0,0:0:0:0:
402,192,323957,128,0,324042:0:0:0:0:
256,192,323957,128,0,324042:0:0:0:0:
109,192,323957,1,0,0:0:0:0:
36,192,323957,128,0,324042:0:0:0:0:
329,192,323999,128,0,324128:0:0:0:0:
109,192,324042,128,0,324085:0:0:0:0:
475,192,324085,128,0,324171:0:0:0:0:
256,192,324128,128,0,324385:0:0:0:0:
402,192,324128,128,0,324214:0:0:0:0:
36,192,324128,128,0,324214:0:0:0:0:
109,192,324171,128,0,324299:0:0:0:0:
182,192,324214,128,0,324257:0:0:0:0:
329,192,324214,128,0,324342:0:0:0:0:
475,192,324257,1,0,0:0:0:0:
36,192,324299,128,0,324385:0:0:0:0:
402,192,324299,128,0,324385:0:0:0:0:
475,192,324342,128,0,324514:0:0:0:0:
182,192,324342,128,0,324514:0:0:0:0:
109,192,324385,1,0,0:0:0:0:
329,192,324428,1,0,0:0:0:0:
402,192,324471,128,0,324642:0:0:0:0:
36,192,324471,128,0,324728:0:0:0:0:
256,192,324471,128,0,324599:0:0:0:0:
109,192,324471,128,0,324557:0:0:0:0:
329,192,324514,128,0,324557:0:0:0:0:
475,192,324599,128,0,324728:0:0:0:0:
182,192,324599,128,0,324642:0:0:0:0:
109,192,324642,128,0,324728:0:0:0:0:
329,192,324642,128,0,324728:0:0:0:0:
256,192,324685,128,0,324728:0:0:0:0:
182,192,324728,1,0,0:0:0:0:
402,192,324728,1,0,0:0:0:0:
402,192,324814,128,0,325114:0:0:0:0:
109,192,324814,128,0,324899:0:0:0:0:
182,192,324814,128,0,324857:0:0:0:0:
256,192,324814,128,0,324899:0:0:0:0:
475,192,324814,128,0,324942:0:0:0:0:
36,192,324857,128,0,325071:0:0:0:0:
329,192,324857,128,0,324942:0:0:0:0:
182,192,324942,128,0,324985:0:0:0:0:
475,192,324985,128,0,325028:0:0:0:0:
329,192,324985,128,0,325071:0:0:0:0:
109,192,325028,128,0,325114:0:0:0:0:
256,192,325028,128,0,325114:0:0:0:0:
475,192,325071,128,0,325199:0:0:0:0:
182,192,325071,128,0,325242:0:0:0:0:
109,192,325157,128,0,325199:0:0:0:0:
36,192,325157,128,0,325242:0:0:0:0:
256,192,325157,128,0,325285:0:0:0:0:
402,192,325157,128,0,325242:0:0:0:0:
329,192,325199,128,0,325457:0:0:0:0:
109,192,325285,128,0,325328:0:0:0:0:
402,192,325285,128,0,325371:0:0:0:0:
256,192,325328,128,0,325414:0:0:0:0:
475,192,325328,128,0,325371:0:0:0:0:
36,192,325371,128,0,325457:0:0:0:0:
182,192,325371,128,0,325457:0:0:0:0:
109,192,325414,128,0,325585:0:0:0:0:
402,192,325414,128,0,325542:0:0:0:0:
475,192,325414,128,0,325499:0:0:0:0:
36,192,325499,128,0,325542:0:0:0:0:
329,192,325499,128,0,325585:0:0:0:0:
182,192,325499,128,0,325628:0:0:0:0:
256,192,325542,128,0,325799:0:0:0:0:
475,192,325585,128,0,325628:0:0:0:0:
36,192,325628,128,0,325671:0:0:0:0:
329,192,325628,128,0,325714:0:0:0:0:
182,192,325671,128,0,325757:0:0:0:0:
402,192,325671,128,0,325714:0:0:0:0:
475,192,325714,128,0,325799:0:0:0:0:
109,192,325714,128,0,325799:0:0:0:0:
36,192,325757,128,0,325885:0:0:0:0:
402,192,325757,128,0,325842:0:0:0:0:
329,192,325757,128,0,325885:0:0:0:0:
475,192,325842,1,0,0:0:0:0:
109,192,325842,128,0,325928:0:0:0:0:
256,192,325842,128,0,326078:0:0:0:0:
182,192,325885,128,0,325971:0:0:0:0:
329,192,325928,128,0,326057:0:0:0:0:
36,192,325928,1,0,0:0:0:0:
402,192,325949,128,0,326035:0:0:0:0:
475,192,325971,128,0,326121:0:0:0:0:
182,192,326014,128,0,326099:0:0:0:0:
109,192,326035,128,0,326121:0:0:0:0:
36,192,326057,128,0,326228:0:0:0:0:
402,192,326099,128,0,326142:0:0:0:0:
329,192,326121,128,0,326164:0:0:0:0:
256,192,326142,128,0,326185:0:0:0:0:
475,192,326185,128,0,326271:0:0:0:0:
109,192,326185,128,0,326314:0:0:0:0:
182,192,326185,1,0,0:0:0:0:
402,192,326228,128,0,326271:0:0:0:0:
182,192,326271,128,0,326399:0:0:0:0:
329,192,326271,128,0,326357:0:0:0:0:
36,192,326314,128,0,326357:0:0:0:0:
256,192,326357,128,0,326442:0:0:0:0:
402,192,326357,1,0,0:0:0:0:
475,192,326357,128,0,326442:0:0:0:0:
109,192,326399,128,0,326485:0:0:0:0:
36,192,326442,1,0,0:0:0:0:
329,192,326442,128,0,326571:0:0:0:0:
402,192,326442,128,0,326614:0:0:0:0:
182,192,326485,128,0,326528:0:0:0:0:
256,192,326528,128,0,326657:0:0:0:0:
475,192,326528,128,0,326742:0:0:0:0:
36,192,326528,128,0,326614:0:0:0:0:
109,192,326571,128,0,326699:0:0:0:0:
182,192,326614,1,0,0:0:0:0:
329,192,326657,128,0,326699:0:0:0:0:
182,192,326699,128,0,326871:0:0:0:0:
402,192,326699,128,0,326828:0:0:0:0:
36,192,326699,128,0,326785:0:0:0:0:
256,192,326742,128,0,326785:0:0:0:0:
109,192,326785,128,0,326828:0:0:0:0:
329,192,326785,128,0,326871:0:0:0:0:
475,192,326828,128,0,326914:0:0:0:0:
36,192,326871,128,0,326957:0:0:0:0:
256,192,326871,128,0,326957:0:0:0:0:
109,192,326914,128,0,327042:0:0:0:0:
402,192,326914,128,0,326957:0:0:0:0:
182,192,326957,128,0,326999:0:0:0:0:
329,192,326957,128,0,327085:0:0:0:0:
475,192,326999,128,0,327042:0:0:0:0:
36,192,327042,128,0,327128:0:0:0:0:
256,192,327042,128,0,327128:0:0:0:0:
402,192,327085,128,0,327128:0:0:0:0:
182,192,327085,128,0,327257:0:0:0:0:
109,192,327128,1,0,0:0:0:0:
475,192,327128,128,0,327299:0:0:0:0:
329,192,327171,128,0,327214:0:0:0:0:
36,192,327214,128,0,327471:0:0:0:0:
109,192,327214,128,0,327299:0:0:0:0:
256,192,327257,128,0,327342:0:0:0:0:
402,192,327257,128,0,327385:0:0:0:0:
329,192,327299,1,0,0:0:0:0:
182,192,327342,128,0,327385:0:0:0:0:
109,192,327385,128,0,327471:0:0:0:0:
329,192,327385,128,0,327471:0:0:0:0:
475,192,327385,128,0,327471:0:0:0:0:
256,192,327428,128,0,327471:0:0:0:0:
182,192,327471,1,0,0:0:0:0:
402,192,327471,1,0,0:0:0:0:
256,192,327557,128,0,327642:0:0:0:0:
36,192,327557,128,0,327685:0:0:0:0:
329,192,327557,128,0,327599:0:0:0:0:
402,192,327557,128,0,327642:0:0:0:0:
109,192,327557,128,0,327857:0:0:0:0:
182,192,327599,128,0,327685:0:0:0:0:
475,192,327599,128,0,327814:0:0:0:0:
329,192,327685,128,0,327728:0:0:0:0:
182,192,327728,128,0,327814:0:0:0:0:
36,192,327728,128,0,327771:0:0:0:0:
256,192,327771,128,0,327857:0:0:0:0:
402,192,327771,128,0,327857:0:0:0:0:
329,192,327814,128,0,327985:0:0:0:0:
36,192,327814,128,0,327942:0:0:0:0:
256,192,327899,128,0,328028:0:0:0:0:
109,192,327899,128,0,327985:0:0:0:0:
402,192,327899,128,0,327942:0:0:0:0:
475,192,327899,128,0,327985:0:0:0:0:
182,192,327942,128,0,328199:0:0:0:0:
109,192,328028,128,0,328114:0:0:0:0:
402,192,328028,128,0,328071:0:0:0:0:
36,192,328071,128,0,328114:0:0:0:0:
256,192,328071,128,0,328157:0:0:0:0:
329,192,328114,128,0,328199:0:0:0:0:
475,192,328114,128,0,328199:0:0:0:0:
36,192,328157,128,0,328242:0:0:0:0:
109,192,328157,128,0,328285:0:0:0:0:
402,192,328157,128,0,328328:0:0:0:0:
329,192,328242,128,0,328371:0:0:0:0:
182,192,328242,128,0,328328:0:0:0:0:
475,192,328242,128,0,328285:0:0:0:0:
256,192,328285,128,0,328542:0:0:0:0:
36,192,328328,128,0,328371:0:0:0:0:
182,192,328371,128,0,328457:0:0:0:0:
475,192,328371,128,0,328414:0:0:0:0:
109,192,328414,128,0,328457:0:0:0:0:
329,192,328414,128,0,328499:0:0:0:0:
402,192,328457,128,0,328542:0:0:0:0:
36,192,328457,128,0,328542:0:0:0:0:
182,192,328499,128,0,328628:0:0:0:0:
109,192,328499,128,0,328585:0:0:0:0:
475,192,328499,128,0,328628:0:0:0:0:
256,192,328585,128,0,328799:0:0:0:0:
402,192,328585,128,0,328671:0:0:0:0:
36,192,328585,1,0,0:0:0:0:
329,192,328628,128,0,328714:0:0:0:0:
182,192,328671,128,0,328778:0:0:0:0:
475,192,328671,1,0,0:0:0:0:
109,192,328692,128,0,329014:0:0:0:0:
36,192,328714,128,0,328842:0:0:0:0:
329,192,328757,128,0,328821:0:0:0:0:
402,192,328778,128,0,328842:0:0:0:0:
475,192,328799,128,0,328928:0:0:0:0:
182,192,328842,128,0,328885:0:0:0:0:
256,192,328864,128,0,328907:0:0:0:0:
329,192,328885,128,0,328928:0:0:0:0:
36,192,328928,128,0,329014:0:0:0:0:
402,192,328928,1,0,0:0:0:0:
182,192,329014,5,0,0:0:0:0:
256,192,329057,1,0,0:0:0:0:
329,192,329099,128,0,329185:0:0:0:0:
36,192,329099,1,0,0:0:0:0:
109,192,329185,128,0,329271:0:0:0:0:
475,192,329185,1,0,0:0:0:0:
402,192,329271,128,0,329442:0:0:0:0:
256,192,329357,1,0,0:0:0:0:
182,192,329442,128,0,329528:0:0:0:0:
36,192,329442,1,0,0:0:0:0:
329,192,329528,128,0,329614:0:0:0:0:
475,192,329528,1,0,0:0:0:0:
109,192,329614,1,0,0:0:0:0:
402,192,329699,128,0,329785:0:0:0:0:
256,192,329699,1,0,0:0:0:0:
109,192,329785,128,0,329871:0:0:0:0:
182,192,329785,1,0,0:0:0:0:
329,192,329871,1,0,0:0:0:0:
36,192,329957,128,0,330214:0:0:0:0:
182,192,329957,1,0,0:0:0:0:
475,192,329957,1,0,0:0:0:0:
329,192,330042,1,0,0:0:0:0:
109,192,330128,128,0,330214:0:0:0:0:
256,192,330171,128,0,330214:0:0:0:0:
402,192,330214,1,0,0:0:0:0:
182,192,330299,128,0,330385:0:0:0:0:
475,192,330299,128,0,330814:0:0:0:0:
36,192,330299,1,0,0:0:0:0:
329,192,330385,128,0,330471:0:0:0:0:
256,192,330385,1,0,0:0:0:0:
109,192,330471,1,0,0:0:0:0:
256,192,330557,1,0,0:0:0:0:
402,192,330642,1,0,0:0:0:0:
329,192,330642,1,0,0:0:0:0:
182,192,330642,1,0,0:0:0:0:
36,192,330642,1,0,0:0:0:0:
109,192,330728,128,0,331157:0:0:0:0:
402,192,330814,128,0,330899:0:0:0:0:
182,192,330814,1,0,0:0:0:0:
256,192,330899,128,0,330985:0:0:0:0:
36,192,330899,1,0,0:0:0:0:
475,192,330985,1,0,0:0:0:0:
329,192,330985,128,0,332357:0:0:0:0:
182,192,331071,1,0,0:0:0:0:
402,192,331157,1,0,0:0:0:0:
36,192,331157,1,0,0:0:0:0:
256,192,331242,1,0,0:0:0:0:
475,192,331328,1,0,0:0:0:0:
402,192,331328,1,0,0:0:0:0:
36,192,331328,1,0,0:0:0:0:
109,192,331328,1,0,0:0:0:0:
182,192,331414,1,0,0:0:0:0:
109,192,331499,1,0,0:0:0:0:
256,192,331585,1,0,0:0:0:0:
402,192,331671,1,0,0:0:0:0:
182,192,331671,1,0,0:0:0:0:
109,192,331671,128,0,331928:0:0:0:0:
475,192,331757,128,0,331842:0:0:0:0:
36,192,331757,1,0,0:0:0:0:
182,192,331842,1,0,0:0:0:0:
256,192,331928,128,0,332099:0:0:0:0:
475,192,331928,1,0,0:0:0:0:
182,192,332014,1,0,0:0:0:0:
109,192,332014,1,0,0:0:0:0:
36,192,332014,1,0,0:0:0:0:
402,192,332014,1,0,0:0:0:0:
475,192,332099,1,0,0:0:0:0:
256,192,332185,1,0,0:0:0:0:
182,192,332185,128,0,332271:0:0:0:0:
402,192,332271,1,0,0:0:0:0:
36,192,332271,128,0,332442:0:0:0:0:
475,192,332357,128,0,332442:0:0:0:0:
182,192,332357,1,0,0:0:0:0:
256,192,332442,128,0,332528:0:0:0:0:
329,192,332442,1,0,0:0:0:0:
36,192,332528,1,0,0:0:0:0:
402,192,332528,128,0,332614:0:0:0:0:
475,192,332528,1,0,0:0:0:0:
182,192,332614,128,0,332871:0:0:0:0:
109,192,332614,1,0,0:0:0:0:
402,192,332699,1,0,0:0:0:0:
329,192,332699,128,0,332785:0:0:0:0:
36,192,332699,1,0,0:0:0:0:
256,192,332699,1,0,0:0:0:0:
475,192,332785,1,0,0:0:0:0:
109,192,332871,1,0,0:0:0:0:
329,192,332871,1,0,0:0:0:0:
402,192,332957,1,0,0:0:0:0:
329,192,333042,128,0,333128:0:0:0:0:
256,192,333042,1,0,0:0:0:0:
36,192,333042,1,0,0:0:0:0:
475,192,333128,128,0,333214:0:0:0:0:
182,192,333128,1,0,0:0:0:0:
109,192,333214,1,0,0:0:0:0:
329,192,333214,1,0,0:0:0:0:
475,192,333299,1,0,0:0:0:0:
182,192,333385,1,0,0:0:0:0:
256,192,333385,1,0,0:0:0:0:
109,192,333385,1,0,0:0:0:0:
36,192,333385,1,0,0:0:0:0:
329,192,333471,1,0,0:0:0:0:
256,192,333557,128,0,333642:0:0:0:0:
182,192,333557,1,0,0:0:0:0:
402,192,333642,128,0,333728:0:0:0:0:
109,192,333642,1,0,0:0:0:0:
36,192,333728,1,0,0:0:0:0:
256,192,333728,1,0,0:0:0:0:
402,192,333814,1,0,0:0:0:0:
475,192,333899,1,0,0:0:0:0:
256,192,333899,1,0,0:0:0:0:
182,192,333899,1,0,0:0:0:0:
329,192,333985,1,0,0:0:0:0:
182,192,334071,1,0,0:0:0:0:
36,192,334071,1,0,0:0:0:0:
109,192,334071,1,0,0:0:0:0:
402,192,334071,1,0,0:0:0:0:
256,192,334157,1,0,0:0:0:0:
109,192,334242,1,0,0:0:0:0:
475,192,334242,1,0,0:0:0:0:
329,192,334328,1,0,0:0:0:0:
256,192,334414,1,0,0:0:0:0:
402,192,334414,128,0,334671:0:0:0:0:
182,192,334414,1,0,0:0:0:0:
109,192,334499,128,0,334585:0:0:0:0:
36,192,334499,1,0,0:0:0:0:
329,192,334585,1,0,0:0:0:0:
256,192,334671,128,0,334842:0:0:0:0:
109,192,334671,1,0,0:0:0:0:
402,192,334757,1,0,0:0:0:0:
329,192,334757,1,0,0:0:0:0:
36,192,334757,1,0,0:0:0:0:
182,192,334757,1,0,0:0:0:0:
475,192,334842,1,0,0:0:0:0:
256,192,334928,1,0,0:0:0:0:
329,192,334928,128,0,335014:0:0:0:0:
36,192,335014,128,0,335185:0:0:0:0:
182,192,335014,1,0,0:0:0:0:
475,192,335099,128,0,335185:0:0:0:0:
329,192,335099,1,0,0:0:0:0:
256,192,335185,128,0,335271:0:0:0:0:
182,192,335185,1,0,0:0:0:0:
109,192,335271,128,0,335357:0:0:0:0:
475,192,335271,1,0,0:0:0:0:
36,192,335271,1,0,0:0:0:0:
402,192,335357,1,0,0:0:0:0:
329,192,335357,128,0,335614:0:0:0:0:
256,192,335442,1,0,0:0:0:0:
109,192,335442,1,0,0:0:0:0:
182,192,335442,128,0,335528:0:0:0:0:
475,192,335442,1,0,0:0:0:0:
36,192,335528,1,0,0:0:0:0:
182,192,335614,1,0,0:0:0:0:
402,192,335614,1,0,0:0:0:0:
329,192,335699,1,0,0:0:0:0:
475,192,335785,128,0,335871:0:0:0:0:
109,192,335785,128,0,336299:0:0:0:0:
36,192,335785,1,0,0:0:0:0:
256,192,335871,128,0,335957:0:0:0:0:
329,192,335871,1,0,0:0:0:0:
475,192,335957,1,0,0:0:0:0:
329,192,336042,1,0,0:0:0:0:
182,192,336128,1,0,0:0:0:0:
256,192,336128,1,0,0:0:0:0:
402,192,336128,1,0,0:0:0:0:
36,192,336128,1,0,0:0:0:0:
475,192,336214,128,0,336642:0:0:0:0:
182,192,336299,128,0,336385:0:0:0:0:
329,192,336299,1,0,0:0:0:0:
402,192,336385,128,0,336471:0:0:0:0:
36,192,336385,1,0,0:0:0:0:
109,192,336471,1,0,0:0:0:0:
256,192,336471,128,0,337842:0:0:0:0:
402,192,336557,1,0,0:0:0:0:
182,192,336642,1,0,0:0:0:0:
36,192,336642,1,0,0:0:0:0:
329,192,336728,1,0,0:0:0:0:
109,192,336814,1,0,0:0:0:0:
182,192,336814,1,0,0:0:0:0:
36,192,336814,1,0,0:0:0:0:
475,192,336814,1,0,0:0:0:0:
402,192,336899,1,0,0:0:0:0:
109,192,336985,1,0,0:0:0:0:
329,192,337071,1,0,0:0:0:0:
182,192,337157,1,0,0:0:0:0:
402,192,337157,1,0,0:0:0:0:
475,192,337157,128,0,337414:0:0:0:0:
109,192,337242,128,0,337328:0:0:0:0:
36,192,337242,1,0,0:0:0:0:
402,192,337328,1,0,0:0:0:0:
329,192,337414,128,0,337585:0:0:0:0:
109,192,337414,1,0,0:0:0:0:
402,192,337499,1,0,0:0:0:0:
475,192,337499,1,0,0:0:0:0:
36,192,337499,1,0,0:0:0:0:
182,192,337499,1,0,0:0:0:0:
109,192,337585,1,0,0:0:0:0:
329,192,337671,1,0,0:0:0:0:
402,192,337671,128,0,337757:0:0:0:0:
182,192,337757,1,0,0:0:0:0:
36,192,337757,128,0,337928:0:0:0:0:
475,192,337842,128,0,337928:0:0:0:0:
402,192,337842,1,0,0:0:0:0:
329,192,337928,128,0,338014:0:0:0:0:
256,192,337928,1,0,0:0:0:0:
36,192,338014,1,0,0:0:0:0:
109,192,338014,128,0,338099:0:0:0:0:
182,192,338014,1,0,0:0:0:0:
402,192,338099,128,0,338357:0:0:0:0:
475,192,338099,1,0,0:0:0:0:
182,192,338185,1,0,0:0:0:0:
256,192,338185,128,0,338271:0:0:0:0:
36,192,338185,1,0,0:0:0:0:
329,192,338185,1,0,0:0:0:0:
109,192,338271,1,0,0:0:0:0:
475,192,338357,1,0,0:0:0:0:
256,192,338357,1,0,0:0:0:0:
182,192,338442,1,0,0:0:0:0:
256,192,338528,128,0,338614:0:0:0:0:
329,192,338528,1,0,0:0:0:0:
36,192,338528,1,0,0:0:0:0:
109,192,338614,128,0,338699:0:0:0:0:
402,192,338614,1,0,0:0:0:0:
475,192,338699,1,0,0:0:0:0:
256,192,338699,1,0,0:0:0:0:
109,192,338785,1,0,0:0:0:0:
402,192,338871,1,0,0:0:0:0:
329,192,338871,1,0,0:0:0:0:
475,192,338871,1,0,0:0:0:0:
36,192,338871,1,0,0:0:0:0:
256,192,338957,1,0,0:0:0:0:
329,192,339042,128,0,339128:0:0:0:0:
402,192,339042,1,0,0:0:0:0:
182,192,339128,128,0,339214:0:0:0:0:
475,192,339128,1,0,0:0:0:0:
36,192,339214,1,0,0:0:0:0:
329,192,339214,1,0,0:0:0:0:
182,192,339299,1,0,0:0:0:0:
109,192,339385,1,0,0:0:0:0:
329,192,339385,1,0,0:0:0:0:
402,192,339385,1,0,0:0:0:0:
256,192,339471,1,0,0:0:0:0:
402,192,339557,1,0,0:0:0:0:
36,192,339557,1,0,0:0:0:0:
475,192,339557,1,0,0:0:0:0:
182,192,339557,1,0,0:0:0:0:
329,192,339642,1,0,0:0:0:0:
475,192,339728,1,0,0:0:0:0:
109,192,339728,1,0,0:0:0:0:
256,192,339814,1,0,0:0:0:0:
329,192,339899,1,0,0:0:0:0:
182,192,339899,128,0,340157:0:0:0:0:
402,192,339899,1,0,0:0:0:0:
36,192,339985,1,0,0:0:0:0:
475,192,339985,128,0,340071:0:0:0:0:
256,192,340071,1,0,0:0:0:0:
329,192,340157,128,0,340328:0:0:0:0:
475,192,340157,1,0,0:0:0:0:
182,192,340242,1,0,0:0:0:0:
256,192,340242,1,0,0:0:0:0:
36,192,340242,1,0,0:0:0:0:
402,192,340242,1,0,0:0:0:0:
109,192,340328,1,0,0:0:0:0:
329,192,340414,1,0,0:0:0:0:
256,192,340414,128,0,340499:0:0:0:0:
36,192,340499,128,0,340671:0:0:0:0:
402,192,340499,1,0,0:0:0:0:
182,192,340585,128,0,340671:0:0:0:0:
256,192,340585,1,0,0:0:0:0:
329,192,340671,128,0,340757:0:0:0:0:
402,192,340671,1,0,0:0:0:0:
475,192,340757,128,0,340842:0:0:0:0:
109,192,340757,1,0,0:0:0:0:
36,192,340757,1,0,0:0:0:0:
182,192,340842,1,0,0:0:0:0:
256,192,340842,128,0,341099:0:0:0:0:
329,192,340928,1,0,0:0:0:0:
475,192,340928,1,0,0:0:0:0:
402,192,340928,128,0,341014:0:0:0:0:
109,192,340928,1,0,0:0:0:0:
36,192,341014,1,0,0:0:0:0:
402,192,341099,1,0,0:0:0:0:
182,192,341099,1,0,0:0:0:0:
256,192,341185,1,0,0:0:0:0:
329,192,341271,128,0,341357:0:0:0:0:
36,192,341271,128,0,341785:0:0:0:0:
475,192,341271,1,0,0:0:0:0:
182,192,341357,128,0,341442:0:0:0:0:
256,192,341357,1,0,0:0:0:0:
402,192,341442,1,0,0:0:0:0:
256,192,341528,1,0,0:0:0:0:
109,192,341614,1,0,0:0:0:0:
182,192,341614,1,0,0:0:0:0:
329,192,341614,1,0,0:0:0:0:
475,192,341614,1,0,0:0:0:0:
402,192,341699,128,0,342128:0:0:0:0:
109,192,341785,128,0,341871:0:0:0:0:
329,192,341785,1,0,0:0:0:0:
256,192,341871,128,0,341957:0:0:0:0:
475,192,341871,1,0,0:0:0:0:
36,192,341957,1,0,0:0:0:0:
182,192,341957,128,0,343328:0:0:0:0:
329,192,342042,1,0,0:0:0:0:
109,192,342128,1,0,0:0:0:0:
475,192,342128,1,0,0:0:0:0:
256,192,342214,1,0,0:0:0:0:
36,192,342299,1,0,0:0:0:0:
109,192,342299,1,0,0:0:0:0:
475,192,342299,1,0,0:0:0:0:
402,192,342299,1,0,0:0:0:0:
329,192,342385,1,0,0:0:0:0:
402,192,342471,1,0,0:0:0:0:
256,192,342557,1,0,0:0:0:0:
109,192,342642,1,0,0:0:0:0:
329,192,342642,1,0,0:0:0:0:
402,192,342642,128,0,342899:0:0:0:0:
36,192,342728,128,0,342814:0:0:0:0:
475,192,342728,1,0,0:0:0:0:
329,192,342814,1,0,0:0:0:0:
256,192,342899,128,0,343071:0:0:0:0:
36,192,342899,1,0,0:0:0:0:
329,192,342985,1,0,0:0:0:0:
402,192,342985,1,0,0:0:0:0:
475,192,342985,1,0,0:0:0:0:
109,192,342985,1,0,0:0:0:0:
36,192,343071,1,0,0:0:0:0:
256,192,343157,1,0,0:0:0:0:
329,192,343157,128,0,343242:0:0:0:0:
109,192,343242,1,0,0:0:0:0:
475,192,343242,128,0,343414:0:0:0:0:
36,192,343328,128,0,343414:0:0:0:0:
329,192,343328,1,0,0:0:0:0:
256,192,343414,128,0,343499:0:0:0:0:
182,192,343414,1,0,0:0:0:0:
475,192,343499,1,0,0:0:0:0:
109,192,343499,128,0,343585:0:0:0:0:
36,192,343499,1,0,0:0:0:0:
329,192,343585,128,0,343842:0:0:0:0:
402,192,343585,1,0,0:0:0:0:
109,192,343671,1,0,0:0:0:0:
182,192,343671,128,0,343757:0:0:0:0:
475,192,343671,1,0,0:0:0:0:
256,192,343671,1,0,0:0:0:0:
36,192,343757,1,0,0:0:0:0:
402,192,343842,1,0,0:0:0:0:
182,192,343842,1,0,0:0:0:0:
109,192,343928,1,0,0:0:0:0:
182,192,344014,128,0,344099:0:0:0:0:
256,192,344014,1,0,0:0:0:0:
475,192,344014,1,0,0:0:0:0:
36,192,344099,128,0,344185:0:0:0:0:
329,192,344099,1,0,0:0:0:0:
402,192,344185,1,0,0:0:0:0:
182,192,344185,1,0,0:0:0:0:
36,192,344271,1,0,0:0:0:0:
329,192,344357,1,0,0:0:0:0:
256,192,344357,1,0,0:0:0:0:
402,192,344357,1,0,0:0:0:0:
475,192,344357,1,0,0:0:0:0:
182,192,344442,1,0,0:0:0:0:
256,192,344528,128,0,344614:0:0:0:0:
329,192,344528,1,0,0:0:0:0:
109,192,344614,128,0,344699:0:0:0:0:
402,192,344614,1,0,0:0:0:0:
475,192,344699,1,0,0:0:0:0:
256,192,344699,1,0,0:0:0:0:
109,192,344785,1,0,0:0:0:0:
36,192,344871,1,0,0:0:0:0:
256,192,344871,1,0,0:0:0:0:
329,192,344871,1,0,0:0:0:0:
182,192,344957,1,0,0:0:0:0:
329,192,345042,1,0,0:0:0:0:
475,192,345042,1,0,0:0:0:0:
402,192,345042,1,0,0:0:0:0:
109,192,345042,1,0,0:0:0:0:
256,192,345128,1,0,0:0:0:0:
402,192,345214,1,0,0:0:0:0:
36,192,345214,1,0,0:0:0:0:
182,192,345299,1,0,0:0:0:0:
256,192,345385,1,0,0:0:0:0:
109,192,345385,128,0,345642:0:0:0:0:
329,192,345385,1,0,0:0:0:0:
402,192,345471,128,0,345557:0:0:0:0:
475,192,345471,1,0,0:0:0:0:
182,192,345557,1,0,0:0:0:0:
256,192,345642,128,0,345814:0:0:0:0:
402,192,345642,1,0,0:0:0:0:
109,192,345728,1,0,0:0:0:0:
182,192,345728,1,0,0:0:0:0:
475,192,345728,1,0,0:0:0:0:
329,192,345728,1,0,0:0:0:0:
36,192,345814,1,0,0:0:0:0:
256,192,345899,1,0,0:0:0:0:
182,192,345899,128,0,345985:0:0:0:0:
475,192,345985,128,0,346157:0:0:0:0:
329,192,345985,1,0,0:0:0:0:
36,192,346071,128,0,346157:0:0:0:0:
182,192,346071,1,0,0:0:0:0:
256,192,346157,128,0,346242:0:0:0:0:
329,192,346157,1,0,0:0:0:0:
402,192,346242,128,0,346328:0:0:0:0:
36,192,346242,1,0,0:0:0:0:
475,192,346242,1,0,0:0:0:0:
109,192,346328,1,0,0:0:0:0:
182,192,346328,128,0,346585:0:0:0:0:
256,192,346414,1,0,0:0:0:0:
402,192,346414,1,0,0:0:0:0:
329,192,346414,128,0,346499:0:0:0:0:
36,192,346414,1,0,0:0:0:0:
475,192,346499,1,0,0:0:0:0:
329,192,346585,1,0,0:0:0:0:
109,192,346585,1,0,0:0:0:0:
182,192,346671,1,0,0:0:0:0:
36,192,346757,128,0,346842:0:0:0:0:
402,192,346757,128,0,347271:0:0:0:0:
475,192,346757,1,0,0:0:0:0:
256,192,346842,128,0,346928:0:0:0:0:
182,192,346842,1,0,0:0:0:0:
36,192,346928,1,0,0:0:0:0:
182,192,347014,1,0,0:0:0:0:
329,192,347099,1,0,0:0:0:0:
256,192,347099,1,0,0:0:0:0:
109,192,347099,1,0,0:0:0:0:
475,192,347099,1,0,0:0:0:0:
36,192,347185,128,0,347614:0:0:0:0:
329,192,347271,128,0,347357:0:0:0:0:
182,192,347271,1,0,0:0:0:0:
109,192,347357,128,0,347442:0:0:0:0:
475,192,347357,1,0,0:0:0:0:
402,192,347442,1,0,0:0:0:0:
256,192,347442,128,0,348814:0:0:0:0:
109,192,347528,1,0,0:0:0:0:
329,192,347614,1,0,0:0:0:0:
475,192,347614,1,0,0:0:0:0:
182,192,347699,1,0,0:0:0:0:
402,192,347785,1,0,0:0:0:0:
329,192,347785,1,0,0:0:0:0:
475,192,347785,1,0,0:0:0:0:
36,192,347785,1,0,0:0:0:0:
109,192,347871,1,0,0:0:0:0:
402,192,347957,1,0,0:0:0:0:
182,192,348042,1,0,0:0:0:0:
329,192,348128,1,0,0:0:0:0:
109,192,348128,1,0,0:0:0:0:
36,192,348128,128,0,348385:0:0:0:0:
402,192,348214,128,0,348299:0:0:0:0:
475,192,348214,1,0,0:0:0:0:
109,192,348299,1,0,0:0:0:0:
182,192,348385,128,0,348557:0:0:0:0:
402,192,348385,1,0,0:0:0:0:
109,192,348471,1,0,0:0:0:0:
36,192,348471,1,0,0:0:0:0:
475,192,348471,1,0,0:0:0:0:
329,192,348471,1,0,0:0:0:0:
402,192,348557,1,0,0:0:0:0:
182,192,348642,1,0,0:0:0:0:
109,192,348642,128,0,348728:0:0:0:0:
329,192,348728,1,0,0:0:0:0:
475,192,348728,128,0,348899:0:0:0:0:
36,192,348814,128,0,348899:0:0:0:0:
109,192,348814,1,0,0:0:0:0:
182,192,348899,128,0,348985:0:0:0:0:
256,192,348899,1,0,0:0:0:0:
475,192,348985,1,0,0:0:0:0:
402,192,348985,128,0,349071:0:0:0:0:
329,192,348985,1,0,0:0:0:0:
109,192,349071,128,0,349328:0:0:0:0:
36,192,349071,1,0,0:0:0:0:
329,192,349157,1,0,0:0:0:0:
256,192,349157,128,0,349242:0:0:0:0:
475,192,349157,1,0,0:0:0:0:
182,192,349157,1,0,0:0:0:0:
402,192,349242,1,0,0:0:0:0:
36,192,349328,1,0,0:0:0:0:
256,192,349328,1,0,0:0:0:0:
329,192,349414,1,0,0:0:0:0:
256,192,349499,128,0,349585:0:0:0:0:
182,192,349499,1,0,0:0:0:0:
475,192,349499,1,0,0:0:0:0:
402,192,349585,128,0,349671:0:0:0:0:
109,192,349585,1,0,0:0:0:0:
36,192,349671,1,0,0:0:0:0:
256,192,349671,1,0,0:0:0:0:
402,192,349757,1,0,0:0:0:0:
109,192,349842,1,0,0:0:0:0:
475,192,349842,1,0,0:0:0:0:
36,192,349842,1,0,0:0:0:0:
329,192,349842,1,0,0:0:0:0:
256,192,349928,1,0,0:0:0:0:
182,192,350014,128,0,350099:0:0:0:0:
109,192,350014,1,0,0:0:0:0:
329,192,350099,128,0,350185:0:0:0:0:
36,192,350099,1,0,0:0:0:0:
475,192,350185,1,0,0:0:0:0:
182,192,350185,1,0,0:0:0:0:
329,192,350271,1,0,0:0:0:0:
402,192,350357,1,0,0:0:0:0:
182,192,350357,1,0,0:0:0:0:
109,192,350357,1,0,0:0:0:0:
256,192,350442,1,0,0:0:0:0:
109,192,350528,1,0,0:0:0:0:
475,192,350528,1,0,0:0:0:0:
36,192,350528,1,0,0:0:0:0:
329,192,350528,1,0,0:0:0:0:
182,192,350614,1,0,0:0:0:0:
36,192,350699,1,0,0:0:0:0:
402,192,350699,1,0,0:0:0:0:
256,192,350785,1,0,0:0:0:0:
182,192,350871,1,0,0:0:0:0:
109,192,350871,1,0,0:0:0:0:
329,192,350871,128,0,351128:0:0:0:0:
475,192,350957,1,0,0:0:0:0:
36,192,350957,128,0,351042:0:0:0:0:
256,192,351042,1,0,0:0:0:0:
36,192,351128,1,0,0:0:0:0:
182,192,351128,128,0,351299:0:0:0:0:
329,192,351214,1,0,0:0:0:0:
256,192,351214,1,0,0:0:0:0:
475,192,351214,1,0,0:0:0:0:
109,192,351214,1,0,0:0:0:0:
402,192,351299,1,0,0:0:0:0:
182,192,351385,1,0,0:0:0:0:
256,192,351385,128,0,351471:0:0:0:0:
109,192,351471,1,0,0:0:0:0:
475,192,351471,128,0,351642:0:0:0:0:
329,192,351557,128,0,351642:0:0:0:0:
256,192,351557,1,0,0:0:0:0:
182,192,351642,128,0,351728:0:0:0:0:
109,192,351642,1,0,0:0:0:0:
36,192,351728,128,0,351814:0:0:0:0:
402,192,351728,1,0,0:0:0:0:
475,192,351728,1,0,0:0:0:0:
256,192,351814,128,0,352071:0:0:0:0:
182,192,351814,1,0,0:0:0:0:
36,192,351899,1,0,0:0:0:0:
109,192,351899,128,0,351985:0:0:0:0:
329,192,351899,1,0,0:0:0:0:
475,192,351899,1,0,0:0:0:0:
402,192,351985,1,0,0:0:0:0:
109,192,352071,1,0,0:0:0:0:
329,192,352071,1,0,0:0:0:0:
256,192,352157,1,0,0:0:0:0:
109,192,352242,128,0,352328:0:0:0:0:
182,192,352242,128,0,352328:0:0:0:0:
475,192,352242,128,0,352328:0:0:0:0:
36,192,352242,128,0,352328:0:0:0:0:
329,192,352242,128,0,352328:0:0:0:0:
402,192,352242,128,0,352328:0:0:0:0:
256,192,352414,1,0,0:0:0:0:
256,192,352585,1,0,0:0:0:0:
402,192,352585,1,0,0:0:0:0:
109,192,352585,1,0,0:0:0:0:
36,192,352585,1,0,0:0:0:0:
182,192,352585,1,0,0:0:0:0:
475,192,352585,128,0,354985:0:0:0:0:
109,192,352757,1,0,0:0:0:0:
329,192,352842,1,0,0:0:0:0:
109,192,352928,1,0,0:0:0:0:
402,192,353014,1,0,0:0:0:0:
182,192,353099,1,0,0:0:0:0:
109,192,353099,1,0,0:0:0:0:
36,192,353099,1,0,0:0:0:0:
182,192,353271,1,0,0:0:0:0:
36,192,353271,1,0,0:0:0:0:
256,192,353271,1,0,0:0:0:0:
329,192,353271,1,0,0:0:0:0:
402,192,353271,1,0,0:0:0:0:
256,192,353442,1,0,0:0:0:0:
256,192,353614,1,0,0:0:0:0:
36,192,353614,1,0,0:0:0:0:
182,192,353614,1,0,0:0:0:0:
36,192,353785,1,0,0:0:0:0:
182,192,353957,1,0,0:0:0:0:
109,192,353957,1,0,0:0:0:0:
36,192,353957,1,0,0:0:0:0:
329,192,353957,1,0,0:0:0:0:
402,192,353957,1,0,0:0:0:0:
329,192,354128,1,0,0:0:0:0:
109,192,354214,1,0,0:0:0:0:
329,192,354299,1,0,0:0:0:0:
36,192,354385,1,0,0:0:0:0:
256,192,354471,1,0,0:0:0:0:
329,192,354471,1,0,0:0:0:0:
402,192,354471,1,0,0:0:0:0:
256,192,354642,1,0,0:0:0:0:
182,192,354642,1,0,0:0:0:0:
109,192,354642,1,0,0:0:0:0:
36,192,354642,1,0,0:0:0:0:
402,192,354642,1,0,0:0:0:0:
182,192,354814,1,0,0:0:0:0:
182,192,354985,1,0,0:0:0:0:
402,192,354985,1,0,0:0:0:0:
329,192,354985,1,0,0:0:0:0:
402,192,355157,1,0,0:0:0:0:
109,192,355328,1,0,0:0:0:0:
256,192,355328,1,0,0:0:0:0:
329,192,355328,1,0,0:0:0:0:
402,192,355328,1,0,0:0:0:0:
475,192,355328,1,0,0:0:0:0:
329,192,355499,1,0,0:0:0:0:
36,192,355585,1,0,0:0:0:0:
329,192,355671,1,0,0:0:0:0:
109,192,355757,1,0,0:0:0:0:
329,192,355842,1,0,0:0:0:0:
402,192,355842,1,0,0:0:0:0:
475,192,355842,1,0,0:0:0:0:
256,192,356014,1,0,0:0:0:0:
182,192,356014,1,0,0:0:0:0:
109,192,356014,1,0,0:0:0:0:
36,192,356014,1,0,0:0:0:0:
475,192,356014,1,0,0:0:0:0:
182,192,356185,1,0,0:0:0:0:
182,192,356357,1,0,0:0:0:0:
109,192,356357,1,0,0:0:0:0:
329,192,356357,1,0,0:0:0:0:
329,192,356528,1,0,0:0:0:0:
182,192,356699,1,0,0:0:0:0:
256,192,356699,1,0,0:0:0:0:
329,192,356699,1,0,0:0:0:0:
402,192,356699,1,0,0:0:0:0:
36,192,356699,1,0,0:0:0:0:
256,192,356871,1,0,0:0:0:0:
475,192,356957,1,0,0:0:0:0:
256,192,357042,1,0,0:0:0:0:
36,192,357128,1,0,0:0:0:0:
256,192,357214,1,0,0:0:0:0:
329,192,357214,1,0,0:0:0:0:
402,192,357214,1,0,0:0:0:0:
109,192,357385,1,0,0:0:0:0:
36,192,357385,1,0,0:0:0:0:
182,192,357385,1,0,0:0:0:0:
402,192,357385,1,0,0:0:0:0:
475,192,357385,1,0,0:0:0:0:
109,192,357557,1,0,0:0:0:0:
256,192,357728,1,0,0:0:0:0:
402,192,357728,1,0,0:0:0:0:
475,192,357728,1,0,0:0:0:0:
109,192,357728,1,0,0:0:0:0:
36,192,357728,1,0,0:0:0:0:
256,192,357899,1,0,0:0:0:0:
36,192,357899,128,0,360471:0:0:0:0:
256,192,358071,1,0,0:0:0:0:
182,192,358071,1,0,0:0:0:0:
402,192,358071,1,0,0:0:0:0:
475,192,358071,1,0,0:0:0:0:
329,192,358071,1,0,0:0:0:0:
402,192,358242,1,0,0:0:0:0:
182,192,358328,1,0,0:0:0:0:
402,192,358414,1,0,0:0:0:0:
109,192,358499,1,0,0:0:0:0:
329,192,358585,1,0,0:0:0:0:
402,192,358585,1,0,0:0:0:0:
475,192,358585,1,0,0:0:0:0:
329,192,358757,1,0,0:0:0:0:
475,192,358757,1,0,0:0:0:0:
256,192,358757,1,0,0:0:0:0:
182,192,358757,1,0,0:0:0:0:
109,192,358757,1,0,0:0:0:0:
256,192,358928,1,0,0:0:0:0:
256,192,359099,1,0,0:0:0:0:
475,192,359099,1,0,0:0:0:0:
329,192,359099,1,0,0:0:0:0:
475,192,359271,1,0,0:0:0:0:
329,192,359442,1,0,0:0:0:0:
402,192,359442,1,0,0:0:0:0:
475,192,359442,1,0,0:0:0:0:
182,192,359442,1,0,0:0:0:0:
109,192,359442,1,0,0:0:0:0:
182,192,359614,1,0,0:0:0:0:
402,192,359699,1,0,0:0:0:0:
182,192,359785,1,0,0:0:0:0:
475,192,359871,1,0,0:0:0:0:
256,192,359957,1,0,0:0:0:0:
182,192,359957,1,0,0:0:0:0:
109,192,359957,1,0,0:0:0:0:
256,192,360128,1,0,0:0:0:0:
329,192,360128,1,0,0:0:0:0:
402,192,360128,1,0,0:0:0:0:
475,192,360128,1,0,0:0:0:0:
109,192,360128,1,0,0:0:0:0:
329,192,360299,1,0,0:0:0:0:
329,192,360471,1,0,0:0:0:0:
109,192,360471,1,0,0:0:0:0:
182,192,360471,1,0,0:0:0:0:
109,192,360642,1,0,0:0:0:0:
402,192,360814,1,0,0:0:0:0:
256,192,360814,1,0,0:0:0:0:
182,192,360814,1,0,0:0:0:0:
109,192,360814,1,0,0:0:0:0:
36,192,360814,1,0,0:0:0:0:
182,192,360985,1,0,0:0:0:0:
475,192,361071,1,0,0:0:0:0:
182,192,361157,1,0,0:0:0:0:
402,192,361242,1,0,0:0:0:0:
182,192,361328,1,0,0:0:0:0:
109,192,361328,1,0,0:0:0:0:
36,192,361328,1,0,0:0:0:0:
256,192,361499,1,0,0:0:0:0:
329,192,361499,1,0,0:0:0:0:
402,192,361499,1,0,0:0:0:0:
475,192,361499,1,0,0:0:0:0:
36,192,361499,1,0,0:0:0:0:
329,192,361671,1,0,0:0:0:0:
329,192,361842,1,0,0:0:0:0:
402,192,361842,1,0,0:0:0:0:
182,192,361842,1,0,0:0:0:0:
182,192,362014,1,0,0:0:0:0:
329,192,362185,1,0,0:0:0:0:
256,192,362185,1,0,0:0:0:0:
182,192,362185,1,0,0:0:0:0:
109,192,362185,1,0,0:0:0:0:
475,192,362185,1,0,0:0:0:0:
256,192,362357,1,0,0:0:0:0:
36,192,362442,1,0,0:0:0:0:
256,192,362528,1,0,0:0:0:0:
475,192,362614,1,0,0:0:0:0:
256,192,362699,1,0,0:0:0:0:
182,192,362699,1,0,0:0:0:0:
109,192,362699,1,0,0:0:0:0:
402,192,362871,1,0,0:0:0:0:
475,192,362871,1,0,0:0:0:0:
329,192,362871,1,0,0:0:0:0:
109,192,362871,1,0,0:0:0:0:
36,192,362871,1,0,0:0:0:0:
402,192,363042,1,0,0:0:0:0:
109,192,363214,1,0,0:0:0:0:
182,192,363214,1,0,0:0:0:0:
329,192,363214,1,0,0:0:0:0:
402,192,363214,1,0,0:0:0:0:
475,192,363214,1,0,0:0:0:0:
329,192,363385,128,0,365957:0:0:0:0:
182,192,363385,1,0,0:0:0:0:
182,192,363557,1,0,0:0:0:0:
109,192,363557,1,0,0:0:0:0:
36,192,363557,1,0,0:0:0:0:
256,192,363557,1,0,0:0:0:0:
475,192,363557,1,0,0:0:0:0:
36,192,363728,1,0,0:0:0:0:
402,192,363814,1,0,0:0:0:0:
36,192,363899,1,0,0:0:0:0:
256,192,363985,1,0,0:0:0:0:
109,192,364071,1,0,0:0:0:0:
36,192,364071,1,0,0:0:0:0:
475,192,364071,1,0,0:0:0:0:
256,192,364242,1,0,0:0:0:0:
182,192,364242,1,0,0:0:0:0:
109,192,364242,1,0,0:0:0:0:
402,192,364242,1,0,0:0:0:0:
475,192,364242,1,0,0:0:0:0:
256,192,364414,1,0,0:0:0:0:
256,192,364585,1,0,0:0:0:0:
109,192,364585,1,0,0:0:0:0:
36,192,364585,1,0,0:0:0:0:
109,192,364757,1,0,0:0:0:0:
182,192,364928,1,0,0:0:0:0:
109,192,364928,1,0,0:0:0:0:
36,192,364928,1,0,0:0:0:0:
475,192,364928,1,0,0:0:0:0:
402,192,364928,1,0,0:0:0:0:
475,192,365099,1,0,0:0:0:0:
109,192,365185,1,0,0:0:0:0:
475,192,365271,1,0,0:0:0:0:
256,192,365357,1,0,0:0:0:0:
402,192,365442,1,0,0:0:0:0:
475,192,365442,1,0,0:0:0:0:
36,192,365442,1,0,0:0:0:0:
402,192,365614,1,0,0:0:0:0:
256,192,365614,1,0,0:0:0:0:
109,192,365614,1,0,0:0:0:0:
36,192,365614,1,0,0:0:0:0:
182,192,365614,1,0,0:0:0:0:
182,192,365785,1,0,0:0:0:0:
182,192,365957,1,0,0:0:0:0:
109,192,365957,1,0,0:0:0:0:
475,192,365957,1,0,0:0:0:0:
475,192,366128,1,0,0:0:0:0:
475,192,366299,1,0,0:0:0:0:
402,192,366299,1,0,0:0:0:0:
329,192,366299,1,0,0:0:0:0:
256,192,366299,1,0,0:0:0:0:
36,192,366299,1,0,0:0:0:0:
256,192,366471,1,0,0:0:0:0:
109,192,366557,1,0,0:0:0:0:
256,192,366642,1,0,0:0:0:0:
402,192,366728,1,0,0:0:0:0:
256,192,366814,1,0,0:0:0:0:
36,192,366814,1,0,0:0:0:0:
109,192,366814,1,0,0:0:0:0:
36,192,366985,1,0,0:0:0:0:
182,192,366985,1,0,0:0:0:0:
329,192,366985,1,0,0:0:0:0:
402,192,366985,1,0,0:0:0:0:
475,192,366985,1,0,0:0:0:0:
402,192,367157,1,0,0:0:0:0:
402,192,367328,1,0,0:0:0:0:
329,192,367328,1,0,0:0:0:0:
109,192,367328,1,0,0:0:0:0:
109,192,367499,1,0,0:0:0:0:
256,192,367671,1,0,0:0:0:0:
182,192,367671,1,0,0:0:0:0:
109,192,367671,1,0,0:0:0:0:
36,192,367671,1,0,0:0:0:0:
475,192,367671,1,0,0:0:0:0:
182,192,367842,1,0,0:0:0:0:
329,192,367928,1,0,0:0:0:0:
182,192,368014,1,0,0:0:0:0:
36,192,368099,1,0,0:0:0:0:
182,192,368185,1,0,0:0:0:0:
256,192,368185,1,0,0:0:0:0:
329,192,368185,1,0,0:0:0:0:
329,192,368357,1,0,0:0:0:0:
402,192,368357,1,0,0:0:0:0:
475,192,368357,1,0,0:0:0:0:
109,192,368357,1,0,0:0:0:0:
36,192,368357,1,0,0:0:0:0:
402,192,368528,1,0,0:0:0:0:
402,192,368699,1,0,0:0:0:0:
329,192,368699,1,0,0:0:0:0:
182,192,368699,1,0,0:0:0:0:
36,192,368699,1,0,0:0:0:0:
109,192,368699,1,0,0:0:0:0:
182,192,368871,128,0,371442:0:0:0:0:
329,192,368871,1,0,0:0:0:0:
329,192,369042,1,0,0:0:0:0:
402,192,369042,1,0,0:0:0:0:
475,192,369042,1,0,0:0:0:0:
256,192,369042,1,0,0:0:0:0:
36,192,369042,1,0,0:0:0:0:
475,192,369214,1,0,0:0:0:0:
109,192,369299,1,0,0:0:0:0:
475,192,369385,1,0,0:0:0:0:
256,192,369471,1,0,0:0:0:0:
402,192,369557,1,0,0:0:0:0:
475,192,369557,1,0,0:0:0:0:
36,192,369557,1,0,0:0:0:0:
256,192,369728,1,0,0:0:0:0:
329,192,369728,1,0,0:0:0:0:
402,192,369728,1,0,0:0:0:0:
109,192,369728,1,0,0:0:0:0:
36,192,369728,1,0,0:0:0:0:
256,192,369899,1,0,0:0:0:0:
256,192,370071,1,0,0:0:0:0:
402,192,370071,1,0,0:0:0:0:
475,192,370071,1,0,0:0:0:0:
402,192,370242,1,0,0:0:0:0:
329,192,370414,1,0,0:0:0:0:
402,192,370414,1,0,0:0:0:0:
475,192,370414,1,0,0:0:0:0:
36,192,370414,1,0,0:0:0:0:
109,192,370414,1,0,0:0:0:0:
36,192,370585,1,0,0:0:0:0:
402,192,370671,1,0,0:0:0:0:
36,192,370757,1,0,0:0:0:0:
256,192,370842,1,0,0:0:0:0:
109,192,370928,1,0,0:0:0:0:
36,192,370928,1,0,0:0:0:0:
475,192,370928,1,0,0:0:0:0:
109,192,371099,1,0,0:0:0:0:
256,192,371099,1,0,0:0:0:0:
402,192,371099,1,0,0:0:0:0:
475,192,371099,1,0,0:0:0:0:
329,192,371099,1,0,0:0:0:0:
329,192,371271,1,0,0:0:0:0:
329,192,371442,1,0,0:0:0:0:
402,192,371442,1,0,0:0:0:0:
36,192,371442,1,0,0:0:0:0:
36,192,371614,1,0,0:0:0:0:
36,192,371785,1,0,0:0:0:0:
109,192,371785,1,0,0:0:0:0:
182,192,371785,1,0,0:0:0:0:
256,192,371785,1,0,0:0:0:0:
475,192,371785,1,0,0:0:0:0:
256,192,371957,1,0,0:0:0:0:
402,192,372042,1,0,0:0:0:0:
256,192,372128,1,0,0:0:0:0:
109,192,372214,1,0,0:0:0:0:
256,192,372299,1,0,0:0:0:0:
475,192,372299,1,0,0:0:0:0:
402,192,372299,1,0,0:0:0:0:
475,192,372471,1,0,0:0:0:0:
329,192,372471,1,0,0:0:0:0:
182,192,372471,1,0,0:0:0:0:
109,192,372471,1,0,0:0:0:0:
36,192,372471,1,0,0:0:0:0:
109,192,372642,1,0,0:0:0:0:
109,192,372814,1,0,0:0:0:0:
182,192,372814,1,0,0:0:0:0:
402,192,372814,1,0,0:0:0:0:
402,192,372985,1,0,0:0:0:0:
109,192,373157,1,0,0:0:0:0:
36,192,373157,1,0,0:0:0:0:
329,192,373328,1,0,0:0:0:0:
182,192,373414,1,0,0:0:0:0:
329,192,373499,1,0,0:0:0:0:
475,192,373585,1,0,0:0:0:0:
329,192,373671,1,0,0:0:0:0:
109,192,373842,1,0,0:0:0:0:
36,192,373842,1,0,0:0:0:0:
329,192,374014,1,0,0:0:0:0:
