osu file format v14

[General]
AudioFilename: audio.mp3
AudioLeadIn: 0
PreviewTime: 45155
Countdown: 1
SampleSet: Normal
StackLeniency: 0.7
Mode: 1
LetterboxInBreaks: 0
WidescreenStoryboard: 0

[Editor]
DistanceSpacing: 2
BeatDivisor: 4
GridSize: 32
TimelineZoom: 3.199999

[Metadata]
Title:Central Nucleus (TV Size)
TitleUnicode:Central Nucleus (TV Size)
Artist:Feryquitous
ArtistUnicode:Feryquitous
Creator:Skull Kid
Version:Startgame
Source:
Tags:ad:drum'n'bass 3 diverse system dnb drum and bass DVSP-0180
BeatmapID:1865111
BeatmapSetID:892198

[Difficulty]
HPDrainRate:5
CircleSize:4
OverallDifficulty:6.5
ApproachRate:9
SliderMultiplier:1.4
SliderTickRate:1

[Events]
//Background and Video events
0,0,"bg.png",0,75
//Break Periods
//Storyboard Layer 0 (Background)
//Storyboard Layer 1 (Fail)
//Storyboard Layer 2 (Pass)
//Storyboard Layer 3 (Foreground)
//Storyboard Sound Samples

[TimingPoints]
1291,342.857142857143,4,1,0,50,1,0
22033,-101.010101010101,4,1,0,40,0,0
22376,-102.040816326531,4,1,0,40,0,0
22462,-103.092783505155,4,1,0,40,0,0
22548,-104.166666666667,4,1,0,40,0,0
22633,-105.263157894737,4,1,0,40,0,0
22719,-106.382978723404,4,1,0,40,0,0
22891,-107.52688172043,4,1,0,40,0,0
23062,-108.695652173913,4,1,0,40,0,0
23148,-95.2380952380952,4,1,0,60,0,0
42348,-95.2380952380952,4,1,0,50,0,0
43633,-95.2380952380952,4,1,0,40,0,0
44148,-105.263157894737,4,1,0,40,0,0
44662,-117.647058823529,4,1,0,40,0,0
45005,-117.647058823529,4,1,0,70,0,0
45176,-90.9090909090909,4,1,0,70,0,0
64291,-90.9090909090909,4,1,0,60,0,0
65662,-90.9090909090909,4,1,0,50,0,0
66348,-90.0900900900901,4,1,0,50,0,0
66433,-89.2857142857143,4,1,0,50,0,0
66519,-88.4955752212389,4,1,0,50,0,0
66605,-87.719298245614,4,1,0,50,0,0
66691,-86.9565217391304,4,1,0,50,0,0
66776,-86.2068965517241,4,1,0,50,0,0
66862,-85.4700854700855,4,1,0,50,0,0
66948,-84.7457627118644,4,1,0,50,0,0
67033,-84.0336134453781,4,1,0,50,0,0
67076,-84.0336134453781,4,1,0,80,0,0
67119,-83.3333333333333,4,1,0,80,0,1
77748,-83.3333333333333,4,1,0,80,0,0
78091,-83.3333333333333,4,1,0,80,0,1
88805,-83.3333333333333,4,1,0,70,0,1
89062,-83.3333333333333,4,1,0,60,0,0
89233,-84.0336134453781,4,1,0,60,0,0
89319,-84.7457627118644,4,1,0,60,0,0
89405,-85.4700854700855,4,1,0,60,0,0
89576,-86.2068965517241,4,1,0,60,0,0
89662,-86.9565217391304,4,1,0,60,0,0
89748,-87.719298245614,4,1,0,60,0,0
89833,-88.4955752212389,4,1,0,60,0,0
89919,-89.2857142857143,4,1,0,60,0,0
90091,-90.0900900900901,4,1,0,60,0,0
90262,-90.9090909090909,4,1,0,60,0,0

[HitObjects]
256,192,1291,5,0,0:0:0:0:
256,192,1633,1,8,0:0:0:0:
256,192,1805,1,0,0:0:0:0:
256,192,1891,1,8,0:0:0:0:
256,192,1976,1,0,0:0:0:0:
256,192,2148,1,0,0:0:0:0:
256,192,2319,1,8,0:0:0:0:
256,192,2662,1,0,0:0:0:0:
256,192,3005,1,8,0:0:0:0:
256,192,3176,1,0,0:0:0:0:
256,192,3262,1,8,0:0:0:0:
256,192,3348,1,8,0:0:0:0:
256,192,3433,1,0,0:0:0:0:
256,192,3519,1,0,0:0:0:0:
256,192,3691,1,8,0:0:0:0:
256,192,4033,1,0,0:0:0:0:
256,192,4376,1,8,0:0:0:0:
256,192,4548,1,0,0:0:0:0:
256,192,4633,1,8,0:0:0:0:
256,192,4719,1,0,0:0:0:0:
256,192,4891,1,0,0:0:0:0:
256,192,5062,1,8,0:0:0:0:
256,192,5405,1,0,0:0:0:0:
256,192,5748,1,8,0:0:0:0:
256,192,5919,1,0,0:0:0:0:
256,192,6005,1,8,0:0:0:0:
256,192,6091,1,8,0:0:0:0:
256,192,6176,1,0,0:0:0:0:
256,192,6262,1,0,0:0:0:0:
256,192,6433,1,8,0:0:0:0:
256,192,6605,1,0,0:0:0:0:
256,192,6776,1,0,0:0:0:0:
256,192,7119,1,8,0:0:0:0:
256,192,7291,1,0,0:0:0:0:
256,192,7376,1,8,0:0:0:0:
256,192,7462,1,0,0:0:0:0:
256,192,7633,1,0,0:0:0:0:
256,192,7805,1,8,0:0:0:0:
256,192,8148,1,0,0:0:0:0:
256,192,8491,1,8,0:0:0:0:
256,192,8662,1,0,0:0:0:0:
256,192,8748,1,8,0:0:0:0:
256,192,8833,1,8,0:0:0:0:
256,192,8919,1,0,0:0:0:0:
256,192,9005,1,0,0:0:0:0:
256,192,9176,1,8,0:0:0:0:
256,192,9519,1,0,0:0:0:0:
256,192,9862,1,8,0:0:0:0:
256,192,10033,1,0,0:0:0:0:
256,192,10119,1,8,0:0:0:0:
256,192,10205,1,0,0:0:0:0:
256,192,10376,1,0,0:0:0:0:
256,192,10548,1,8,0:0:0:0:
256,192,10891,1,0,0:0:0:0:
256,192,11233,1,8,0:0:0:0:
256,192,11405,1,0,0:0:0:0:
256,192,11491,1,8,0:0:0:0:
256,192,11576,1,8,0:0:0:0:
256,192,11662,1,0,0:0:0:0:
256,192,11748,1,0,0:0:0:0:
256,192,11919,1,8,0:0:0:0:
256,192,12091,1,8,0:0:0:0:
256,192,12262,1,0,0:0:0:0:
256,192,12605,1,8,0:0:0:0:
256,192,12776,1,0,0:0:0:0:
256,192,12862,1,8,0:0:0:0:
256,192,12948,1,0,0:0:0:0:
256,192,13119,1,0,0:0:0:0:
256,192,13291,1,8,0:0:0:0:
256,192,13633,1,0,0:0:0:0:
256,192,13976,1,8,0:0:0:0:
256,192,14148,1,0,0:0:0:0:
256,192,14233,1,8,0:0:0:0:
256,192,14319,1,8,0:0:0:0:
256,192,14405,1,0,0:0:0:0:
256,192,14491,1,0,0:0:0:0:
256,192,14662,1,8,0:0:0:0:
256,192,15005,1,0,0:0:0:0:
256,192,15348,1,8,0:0:0:0:
256,192,15519,1,0,0:0:0:0:
256,192,15605,1,8,0:0:0:0:
256,192,15691,1,0,0:0:0:0:
256,192,15862,1,0,0:0:0:0:
256,192,16033,1,8,0:0:0:0:
256,192,16376,1,0,0:0:0:0:
256,192,16719,1,8,0:0:0:0:
256,192,16891,1,0,0:0:0:0:
256,192,16976,1,8,0:0:0:0:
256,192,17062,1,8,0:0:0:0:
256,192,17148,1,0,0:0:0:0:
256,192,17233,1,0,0:0:0:0:
256,192,17405,1,8,0:0:0:0:
256,192,17576,1,0,0:0:0:0:
256,192,17748,1,0,0:0:0:0:
256,192,18091,1,8,0:0:0:0:
256,192,18262,1,0,0:0:0:0:
256,192,18348,1,8,0:0:0:0:
256,192,18433,1,0,0:0:0:0:
256,192,18605,1,0,0:0:0:0:
256,192,18776,1,8,0:0:0:0:
256,192,19119,1,0,0:0:0:0:
256,192,19462,1,8,0:0:0:0:
256,192,19633,1,0,0:0:0:0:
256,192,19719,1,8,0:0:0:0:
256,192,19805,1,8,0:0:0:0:
256,192,19891,1,0,0:0:0:0:
256,192,19976,1,0,0:0:0:0:
256,192,20148,1,8,0:0:0:0:
256,192,20491,1,0,0:0:0:0:
256,192,20833,1,8,0:0:0:0:
256,192,21005,1,0,0:0:0:0:
256,192,21091,1,8,0:0:0:0:
256,192,21176,1,0,0:0:0:0:
256,192,21348,1,0,0:0:0:0:
256,192,21519,1,8,0:0:0:0:
256,192,21862,1,0,0:0:0:0:
256,192,22205,1,8,0:0:0:0:
256,192,22376,1,0,0:0:0:0:
256,192,22462,1,8,0:0:0:0:
256,192,22548,1,8,0:0:0:0:
256,192,22633,1,0,0:0:0:0:
256,192,22719,1,0,0:0:0:0:
256,192,22891,1,8,0:0:0:0:
256,192,23062,1,8,0:0:0:0:
256,192,23233,1,0,0:0:0:0:
256,192,23319,1,0,0:0:0:0:
256,192,23576,1,8,0:0:0:0:
256,192,23748,1,0,0:0:0:0:
256,192,23833,1,0,0:0:0:0:
256,192,24091,1,8,0:0:0:0:
256,192,24262,1,0,0:0:0:0:
256,192,24433,1,0,0:0:0:0:
256,192,24605,1,8,0:0:0:0:
256,192,24691,1,8,0:0:0:0:
256,192,24862,1,0,0:0:0:0:
256,192,24948,1,8,0:0:0:0:
256,192,25119,1,0,0:0:0:0:
256,192,25205,1,8,0:0:0:0:
256,192,25291,1,8,0:0:0:0:
256,192,25376,1,0,0:0:0:0:
256,192,25462,1,8,0:0:0:0:
256,192,25633,1,0,0:0:0:0:
256,192,25805,1,8,0:0:0:0:
256,192,25976,1,0,0:0:0:0:
256,192,26062,1,0,0:0:0:0:
256,192,26319,1,8,0:0:0:0:
256,192,26491,1,0,0:0:0:0:
256,192,26576,1,0,0:0:0:0:
256,192,26833,1,8,0:0:0:0:
256,192,27005,1,0,0:0:0:0:
256,192,27176,1,0,0:0:0:0:
256,192,27348,1,8,0:0:0:0:
256,192,27433,1,8,0:0:0:0:
256,192,27519,1,0,0:0:0:0:
256,192,27605,1,8,0:0:0:0:
256,192,27691,1,0,0:0:0:0:
256,192,27862,1,8,0:0:0:0:
256,192,27948,1,0,0:0:0:0:
256,192,28033,1,8,0:0:0:0:
256,192,28119,1,8,0:0:0:0:
256,192,28205,1,0,0:0:0:0:
256,192,28291,1,8,0:0:0:0:
256,192,28376,1,0,0:0:0:0:
256,192,28548,1,8,0:0:0:0:
256,192,28719,1,0,0:0:0:0:
256,192,28805,1,0,0:0:0:0:
256,192,29062,1,8,0:0:0:0:
256,192,29233,1,0,0:0:0:0:
256,192,29319,1,0,0:0:0:0:
256,192,29576,1,8,0:0:0:0:
256,192,29748,1,0,0:0:0:0:
256,192,29919,1,0,0:0:0:0:
256,192,30091,1,8,0:0:0:0:
256,192,30176,1,8,0:0:0:0:
256,192,30348,1,0,0:0:0:0:
256,192,30433,1,8,0:0:0:0:
256,192,30605,1,0,0:0:0:0:
256,192,30691,1,8,0:0:0:0:
256,192,30776,1,0,0:0:0:0:
256,192,30862,1,0,0:0:0:0:
256,192,30948,1,8,0:0:0:0:
256,192,31033,1,8,0:0:0:0:
256,192,31119,1,0,0:0:0:0:
256,192,31291,1,8,0:0:0:0:
256,192,31462,1,0,0:0:0:0:
256,192,31548,1,0,0:0:0:0:
256,192,31805,1,8,0:0:0:0:
256,192,31976,1,0,0:0:0:0:
256,192,32062,1,0,0:0:0:0:
256,192,32319,1,8,0:0:0:0:
256,192,32491,1,0,0:0:0:0:
256,192,32662,1,0,0:0:0:0:
256,192,32833,1,8,0:0:0:0:
256,192,32919,1,8,0:0:0:0:
256,192,33005,1,0,0:0:0:0:
256,192,33091,1,8,0:0:0:0:
256,192,33176,1,0,0:0:0:0:
256,192,33348,1,8,0:0:0:0:
256,192,33433,1,0,0:0:0:0:
256,192,33519,1,8,0:0:0:0:
256,192,33605,1,8,0:0:0:0:
256,192,33691,1,0,0:0:0:0:
256,192,33776,1,8,0:0:0:0:
256,192,33862,1,0,0:0:0:0:
256,192,34033,1,8,0:0:0:0:
256,192,34205,1,0,0:0:0:0:
256,192,34291,1,0,0:0:0:0:
256,192,34548,1,8,0:0:0:0:
256,192,34719,1,0,0:0:0:0:
256,192,34805,1,0,0:0:0:0:
256,192,35062,1,8,0:0:0:0:
256,192,35233,1,0,0:0:0:0:
256,192,35405,1,0,0:0:0:0:
256,192,35576,1,8,0:0:0:0:
256,192,35662,1,8,0:0:0:0:
256,192,35833,1,0,0:0:0:0:
256,192,35919,1,8,0:0:0:0:
256,192,36091,1,0,0:0:0:0:
256,192,36176,1,8,0:0:0:0:
256,192,36262,1,8,0:0:0:0:
256,192,36348,1,0,0:0:0:0:
256,192,36433,1,8,0:0:0:0:
256,192,36605,1,0,0:0:0:0:
256,192,36776,1,8,0:0:0:0:
256,192,36948,1,0,0:0:0:0:
256,192,37033,1,0,0:0:0:0:
256,192,37291,1,8,0:0:0:0:
256,192,37462,1,0,0:0:0:0:
256,192,37548,1,0,0:0:0:0:
256,192,37805,1,8,0:0:0:0:
256,192,37976,1,0,0:0:0:0:
256,192,38148,1,0,0:0:0:0:
256,192,38319,1,8,0:0:0:0:
256,192,38405,1,8,0:0:0:0:
256,192,38491,1,0,0:0:0:0:
256,192,38576,1,8,0:0:0:0:
256,192,38662,1,0,0:0:0:0:
256,192,38833,1,8,0:0:0:0:
256,192,38919,1,0,0:0:0:0:
256,192,39005,1,8,0:0:0:0:
256,192,39091,1,8,0:0:0:0:
256,192,39176,1,0,0:0:0:0:
256,192,39262,1,8,0:0:0:0:
256,192,39348,1,0,0:0:0:0:
256,192,39519,1,8,0:0:0:0:
256,192,39691,1,0,0:0:0:0:
256,192,39776,1,0,0:0:0:0:
256,192,40033,1,8,0:0:0:0:
256,192,40205,1,0,0:0:0:0:
256,192,40291,1,0,0:0:0:0:
256,192,40548,1,8,0:0:0:0:
256,192,40719,1,0,0:0:0:0:
256,192,40891,1,0,0:0:0:0:
256,192,41062,1,8,0:0:0:0:
256,192,41148,1,8,0:0:0:0:
256,192,41319,1,0,0:0:0:0:
256,192,41405,1,8,0:0:0:0:
256,192,41576,1,0,0:0:0:0:
256,192,41662,1,8,0:0:0:0:
256,192,41748,1,0,0:0:0:0:
256,192,41833,1,0,0:0:0:0:
256,192,41919,1,8,0:0:0:0:
256,192,42005,1,8,0:0:0:0:
256,192,42091,1,0,0:0:0:0:
256,192,42262,1,8,0:0:0:0:
256,192,42433,1,0,0:0:0:0:
256,192,42519,1,0,0:0:0:0:
256,192,42776,1,8,0:0:0:0:
256,192,42948,1,0,0:0:0:0:
256,192,43033,1,0,0:0:0:0:
256,192,43462,1,8,0:0:0:0:
256,192,43805,1,0,0:0:0:0:
256,192,44148,1,8,0:0:0:0:
256,192,44662,1,8,0:0:0:0:
256,192,45176,1,4,0:0:0:0:
256,192,45519,1,8,0:0:0:0:
256,192,45691,1,0,0:0:0:0:
256,192,45776,1,8,0:0:0:0:
256,192,45862,1,8,0:0:0:0:
256,192,45948,1,0,0:0:0:0:
256,192,46033,1,0,0:0:0:0:
256,192,46205,1,8,0:0:0:0:
256,192,46376,1,0,0:0:0:0:
256,192,46548,1,8,0:0:0:0:
256,192,46633,1,8,0:0:0:0:
256,192,46805,1,0,0:0:0:0:
256,192,46891,1,8,0:0:0:0:
256,192,47062,1,0,0:0:0:0:
256,192,47148,1,8,0:0:0:0:
256,192,47233,1,0,0:0:0:0:
256,192,47319,1,0,0:0:0:0:
256,192,47405,1,8,0:0:0:0:
256,192,47491,1,8,0:0:0:0:
256,192,47576,1,0,0:0:0:0:
256,192,47748,1,0,0:0:0:0:
256,192,47919,1,8,0:0:0:0:
256,192,48005,1,8,0:0:0:0:
256,192,48262,1,0,0:0:0:0:
256,192,48433,1,8,0:0:0:0:
256,192,48519,1,8,0:0:0:0:
256,192,48691,1,0,0:0:0:0:
256,192,48776,1,8,0:0:0:0:
256,192,48948,1,8,0:0:0:0:
256,192,49119,1,0,0:0:0:0:
256,192,49291,1,8,0:0:0:0:
256,192,49376,1,8,0:0:0:0:
256,192,49462,1,0,0:0:0:0:
256,192,49548,1,8,0:0:0:0:
256,192,49633,1,0,0:0:0:0:
256,192,49805,1,8,0:0:0:0:
256,192,49891,1,0,0:0:0:0:
256,192,49976,1,8,0:0:0:0:
256,192,50062,1,8,0:0:0:0:
256,192,50148,1,0,0:0:0:0:
256,192,50233,1,8,0:0:0:0:
256,192,50319,1,0,0:0:0:0:
256,192,50491,1,8,0:0:0:0:
256,192,50662,1,0,0:0:0:0:
256,192,50748,1,0,0:0:0:0:
256,192,50919,1,8,0:0:0:0:
256,192,51005,1,0,0:0:0:0:
256,192,51176,1,8,0:0:0:0:
256,192,51262,1,8,0:0:0:0:
256,192,51348,1,0,0:0:0:0:
256,192,51433,1,0,0:0:0:0:
256,192,51519,1,8,0:0:0:0:
256,192,51691,1,0,0:0:0:0:
256,192,51862,1,0,0:0:0:0:
256,192,52033,1,8,0:0:0:0:
256,192,52119,1,8,0:0:0:0:
256,192,52291,1,0,0:0:0:0:
256,192,52376,1,8,0:0:0:0:
256,192,52548,1,0,0:0:0:0:
256,192,52633,1,8,0:0:0:0:
256,192,52719,1,0,0:0:0:0:
256,192,52805,1,8,0:0:0:0:
256,192,52891,1,8,0:0:0:0:
256,192,52976,1,0,0:0:0:0:
256,192,53062,1,0,0:0:0:0:
256,192,53233,1,8,0:0:0:0:
256,192,53405,1,0,0:0:0:0:
256,192,53491,1,0,0:0:0:0:
256,192,53748,1,8,0:0:0:0:
256,192,53919,1,0,0:0:0:0:
256,192,54005,1,0,0:0:0:0:
256,192,54176,1,8,0:0:0:0:
256,192,54262,1,0,0:0:0:0:
256,192,54433,1,8,0:0:0:0:
256,192,54605,1,0,0:0:0:0:
256,192,54776,1,8,0:0:0:0:
256,192,54862,1,8,0:0:0:0:
256,192,54948,1,0,0:0:0:0:
256,192,55033,1,8,0:0:0:0:
256,192,55119,1,0,0:0:0:0:
256,192,55291,1,8,0:0:0:0:
256,192,55376,1,0,0:0:0:0:
256,192,55462,1,8,0:0:0:0:
256,192,55548,1,8,0:0:0:0:
256,192,55633,1,0,0:0:0:0:
256,192,55719,1,8,0:0:0:0:
256,192,55805,1,0,0:0:0:0:
256,192,55976,1,8,0:0:0:0:
256,192,56148,1,4,0:0:0:0:
256,192,56491,1,8,0:0:0:0:
256,192,56662,1,0,0:0:0:0:
256,192,56748,1,8,0:0:0:0:
256,192,56833,1,8,0:0:0:0:
256,192,56919,1,0,0:0:0:0:
256,192,57005,1,0,0:0:0:0:
256,192,57176,1,8,0:0:0:0:
256,192,57348,1,0,0:0:0:0:
256,192,57519,1,8,0:0:0:0:
256,192,57605,1,8,0:0:0:0:
256,192,57776,1,0,0:0:0:0:
256,192,57862,1,8,0:0:0:0:
256,192,58033,1,0,0:0:0:0:
256,192,58119,1,8,0:0:0:0:
256,192,58205,1,0,0:0:0:0:
256,192,58291,1,0,0:0:0:0:
256,192,58376,1,8,0:0:0:0:
256,192,58462,1,8,0:0:0:0:
256,192,58548,1,0,0:0:0:0:
256,192,58719,1,0,0:0:0:0:
256,192,58891,1,8,0:0:0:0:
256,192,58976,1,8,0:0:0:0:
256,192,59233,1,0,0:0:0:0:
256,192,59405,1,8,0:0:0:0:
256,192,59491,1,8,0:0:0:0:
256,192,59662,1,0,0:0:0:0:
256,192,59748,1,8,0:0:0:0:
256,192,59919,1,8,0:0:0:0:
256,192,60091,1,0,0:0:0:0:
256,192,60262,1,8,0:0:0:0:
256,192,60348,1,8,0:0:0:0:
256,192,60433,1,0,0:0:0:0:
256,192,60519,1,8,0:0:0:0:
256,192,60605,1,0,0:0:0:0:
256,192,60776,1,8,0:0:0:0:
256,192,60862,1,0,0:0:0:0:
256,192,60948,1,8,0:0:0:0:
256,192,61033,1,8,0:0:0:0:
256,192,61119,1,0,0:0:0:0:
256,192,61205,1,8,0:0:0:0:
256,192,61291,1,0,0:0:0:0:
256,192,61462,1,8,0:0:0:0:
256,192,61633,1,0,0:0:0:0:
256,192,61719,1,0,0:0:0:0:
256,192,61891,1,8,0:0:0:0:
256,192,61976,1,0,0:0:0:0:
256,192,62148,1,8,0:0:0:0:
256,192,62233,1,8,0:0:0:0:
256,192,62319,1,0,0:0:0:0:
256,192,62405,1,0,0:0:0:0:
256,192,62491,1,8,0:0:0:0:
256,192,62662,1,0,0:0:0:0:
256,192,62833,1,0,0:0:0:0:
256,192,63005,1,8,0:0:0:0:
256,192,63091,1,8,0:0:0:0:
256,192,63176,1,0,0:0:0:0:
256,192,63262,1,0,0:0:0:0:
256,192,63348,1,8,0:0:0:0:
256,192,63519,1,0,0:0:0:0:
256,192,63605,1,8,0:0:0:0:
256,192,63691,1,0,0:0:0:0:
256,192,63776,1,8,0:0:0:0:
256,192,63862,1,8,0:0:0:0:
256,192,63948,1,0,0:0:0:0:
256,192,64033,1,0,0:0:0:0:
256,192,64205,1,8,0:0:0:0:
256,192,64376,1,0,0:0:0:0:
256,192,64462,1,0,0:0:0:0:
256,192,64719,1,8,0:0:0:0:
256,192,64891,1,0,0:0:0:0:
256,192,64976,1,0,0:0:0:0:
256,192,65233,1,0,0:0:0:0:
256,192,65405,1,8,0:0:0:0:
256,192,65576,1,0,0:0:0:0:
256,192,65748,1,8,0:0:0:0:
256,192,65833,1,8,0:0:0:0:
256,192,66005,1,0,0:0:0:0:
256,192,66091,1,8,0:0:0:0:
256,192,66176,1,8,0:0:0:0:
256,192,66348,1,0,0:0:0:0:
256,192,66433,1,8,0:0:0:0:
256,192,66519,1,0,0:0:0:0:
256,192,66605,1,8,0:0:0:0:
256,192,66691,1,8,0:0:0:0:
256,192,66776,1,0,0:0:0:0:
256,192,66862,1,8,0:0:0:0:
256,192,66948,1,0,0:0:0:0:
256,192,67033,1,0,0:0:0:0:
256,192,67119,1,8,0:0:0:0:
256,192,67176,1,8,0:0:0:0:
256,192,67233,1,8,0:0:0:0:
256,192,67291,1,0,0:0:0:0:
256,192,67376,1,0,0:0:0:0:
256,192,67462,1,8,0:0:0:0:
256,192,67548,1,0,0:0:0:0:
256,192,67633,1,8,0:0:0:0:
256,192,67719,1,8,0:0:0:0:
256,192,67805,1,0,0:0:0:0:
256,192,67891,1,8,0:0:0:0:
256,192,67976,1,0,0:0:0:0:
256,192,68062,1,0,0:0:0:0:
256,192,68148,1,8,0:0:0:0:
256,192,68205,1,8,0:0:0:0:
256,192,68262,1,8,0:0:0:0:
256,192,68319,1,0,0:0:0:0:
256,192,68405,1,0,0:0:0:0:
256,192,68491,1,8,0:0:0:0:
256,192,68548,1,0,0:0:0:0:
256,192,68605,1,0,0:0:0:0:
256,192,68662,1,8,0:0:0:0:
256,192,68748,1,8,0:0:0:0:
256,192,68833,1,0,0:0:0:0:
256,192,68919,1,8,0:0:0:0:
256,192,69005,1,0,0:0:0:0:
256,192,69091,1,0,0:0:0:0:
256,192,69176,1,8,0:0:0:0:
256,192,69233,1,8,0:0:0:0:
256,192,69291,1,0,0:0:0:0:
256,192,69348,1,0,0:0:0:0:
256,192,69433,1,0,0:0:0:0:
256,192,69519,1,8,0:0:0:0:
256,192,69576,1,0,0:0:0:0:
256,192,69633,1,0,0:0:0:0:
256,192,69691,1,0,0:0:0:0:
256,192,69776,1,0,0:0:0:0:
256,192,69862,1,8,0:0:0:0:
256,192,69919,1,8,0:0:0:0:
256,192,69976,1,8,0:0:0:0:
256,192,70033,1,0,0:0:0:0:
256,192,70119,1,0,0:0:0:0:
256,192,70205,1,8,0:0:0:0:
256,192,70291,1,0,0:0:0:0:
256,192,70376,1,8,0:0:0:0:
256,192,70462,1,8,0:0:0:0:
256,192,70548,1,0,0:0:0:0:
256,192,70633,1,8,0:0:0:0:
256,192,70719,1,0,0:0:0:0:
256,192,70805,1,0,0:0:0:0:
256,192,70891,1,8,0:0:0:0:
256,192,70948,1,8,0:0:0:0:
256,192,71005,1,8,0:0:0:0:
256,192,71062,1,0,0:0:0:0:
256,192,71148,1,0,0:0:0:0:
256,192,71233,1,8,0:0:0:0:
256,192,71319,1,0,0:0:0:0:
256,192,71405,1,0,0:0:0:0:
256,192,71462,1,8,0:0:0:0:
256,192,71519,1,8,0:0:0:0:
256,192,71576,1,0,0:0:0:0:
256,192,71662,1,0,0:0:0:0:
256,192,71748,1,8,0:0:0:0:
256,192,71833,1,0,0:0:0:0:
256,192,71919,1,8,0:0:0:0:
256,192,71976,1,8,0:0:0:0:
256,192,72033,1,0,0:0:0:0:
256,192,72091,1,0,0:0:0:0:
256,192,72176,1,0,0:0:0:0:
256,192,72262,1,8,0:0:0:0:
256,192,72319,1,0,0:0:0:0:
256,192,72376,1,0,0:0:0:0:
256,192,72433,1,0,0:0:0:0:
256,192,72519,1,0,0:0:0:0:
256,192,72605,1,8,0:0:0:0:
256,192,72662,1,8,0:0:0:0:
256,192,72719,1,8,0:0:0:0:
256,192,72776,1,0,0:0:0:0:
256,192,72862,1,0,0:0:0:0:
256,192,72948,1,8,0:0:0:0:
256,192,73033,1,0,0:0:0:0:
256,192,73119,1,8,0:0:0:0:
256,192,73205,1,8,0:0:0:0:
256,192,73291,1,0,0:0:0:0:
256,192,73376,1,8,0:0:0:0:
256,192,73462,1,0,0:0:0:0:
256,192,73548,1,0,0:0:0:0:
256,192,73633,1,8,0:0:0:0:
256,192,73691,1,8,0:0:0:0:
256,192,73748,1,8,0:0:0:0:
256,192,73805,1,0,0:0:0:0:
256,192,73891,1,0,0:0:0:0:
256,192,73976,1,8,0:0:0:0:
256,192,74033,1,0,0:0:0:0:
256,192,74091,1,0,0:0:0:0:
256,192,74148,1,8,0:0:0:0:
256,192,74233,1,8,0:0:0:0:
256,192,74319,1,0,0:0:0:0:
256,192,74405,1,8,0:0:0:0:
256,192,74491,1,0,0:0:0:0:
256,192,74576,1,0,0:0:0:0:
256,192,74662,1,8,0:0:0:0:
256,192,74719,1,8,0:0:0:0:
256,192,74776,1,0,0:0:0:0:
256,192,74833,1,0,0:0:0:0:
256,192,74919,1,0,0:0:0:0:
256,192,75005,1,8,0:0:0:0:
256,192,75062,1,0,0:0:0:0:
256,192,75119,1,0,0:0:0:0:
256,192,75176,1,0,0:0:0:0:
256,192,75262,1,0,0:0:0:0:
256,192,75348,1,8,0:0:0:0:
256,192,75405,1,8,0:0:0:0:
256,192,75462,1,8,0:0:0:0:
256,192,75519,1,0,0:0:0:0:
256,192,75605,1,0,0:0:0:0:
256,192,75691,1,8,0:0:0:0:
256,192,75776,1,0,0:0:0:0:
256,192,75862,1,8,0:0:0:0:
256,192,75948,1,8,0:0:0:0:
256,192,76033,1,0,0:0:0:0:
256,192,76119,1,8,0:0:0:0:
256,192,76205,1,0,0:0:0:0:
256,192,76291,1,0,0:0:0:0:
256,192,76376,1,8,0:0:0:0:
256,192,76433,1,8,0:0:0:0:
256,192,76491,1,8,0:0:0:0:
256,192,76548,1,0,0:0:0:0:
256,192,76633,1,0,0:0:0:0:
256,192,76719,1,8,0:0:0:0:
256,192,76805,1,0,0:0:0:0:
256,192,76891,1,0,0:0:0:0:
256,192,76948,1,8,0:0:0:0:
256,192,77005,1,8,0:0:0:0:
256,192,77062,1,0,0:0:0:0:
256,192,77148,1,0,0:0:0:0:
256,192,77233,1,8,0:0:0:0:
256,192,77319,1,0,0:0:0:0:
256,192,77405,1,8,0:0:0:0:
256,192,77462,1,8,0:0:0:0:
256,192,77519,1,0,0:0:0:0:
256,192,77576,1,0,0:0:0:0:
256,192,77662,1,0,0:0:0:0:
256,192,77748,1,8,0:0:0:0:
256,192,78091,1,8,0:0:0:0:
256,192,78148,1,8,0:0:0:0:
256,192,78205,1,8,0:0:0:0:
256,192,78262,1,0,0:0:0:0:
256,192,78348,1,0,0:0:0:0:
256,192,78433,1,8,0:0:0:0:
256,192,78519,1,0,0:0:0:0:
256,192,78605,1,8,0:0:0:0:
256,192,78691,1,8,0:0:0:0:
256,192,78776,1,0,0:0:0:0:
256,192,78862,1,8,0:0:0:0:
256,192,78948,1,0,0:0:0:0:
256,192,79033,1,0,0:0:0:0:
256,192,79119,1,8,0:0:0:0:
256,192,79176,1,8,0:0:0:0:
256,192,79233,1,8,0:0:0:0:
256,192,79291,1,0,0:0:0:0:
256,192,79376,1,0,0:0:0:0:
256,192,79462,1,8,0:0:0:0:
256,192,79519,1,0,0:0:0:0:
256,192,79576,1,0,0:0:0:0:
256,192,79633,1,8,0:0:0:0:
256,192,79719,1,8,0:0:0:0:
256,192,79805,1,0,0:0:0:0:
256,192,79891,1,8,0:0:0:0:
256,192,79976,1,0,0:0:0:0:
256,192,80062,1,0,0:0:0:0:
256,192,80148,1,8,0:0:0:0:
256,192,80205,1,8,0:0:0:0:
256,192,80262,1,0,0:0:0:0:
256,192,80319,1,0,0:0:0:0:
256,192,80405,1,0,0:0:0:0:
256,192,80491,1,8,0:0:0:0:
256,192,80548,1,0,0:0:0:0:
256,192,80605,1,0,0:0:0:0:
256,192,80662,1,0,0:0:0:0:
256,192,80748,1,0,0:0:0:0:
256,192,80833,1,8,0:0:0:0:
256,192,80891,1,8,0:0:0:0:
256,192,80948,1,8,0:0:0:0:
256,192,81005,1,0,0:0:0:0:
256,192,81091,1,0,0:0:0:0:
256,192,81176,1,8,0:0:0:0:
256,192,81262,1,0,0:0:0:0:
256,192,81348,1,8,0:0:0:0:
256,192,81433,1,8,0:0:0:0:
256,192,81519,1,0,0:0:0:0:
256,192,81605,1,8,0:0:0:0:
256,192,81691,1,0,0:0:0:0:
256,192,81776,1,0,0:0:0:0:
256,192,81862,1,8,0:0:0:0:
256,192,81919,1,8,0:0:0:0:
256,192,81976,1,8,0:0:0:0:
256,192,82033,1,0,0:0:0:0:
256,192,82119,1,0,0:0:0:0:
256,192,82205,1,8,0:0:0:0:
256,192,82291,1,0,0:0:0:0:
256,192,82376,1,0,0:0:0:0:
256,192,82433,1,8,0:0:0:0:
256,192,82491,1,8,0:0:0:0:
256,192,82548,1,0,0:0:0:0:
256,192,82633,1,0,0:0:0:0:
256,192,82719,1,8,0:0:0:0:
256,192,82805,1,0,0:0:0:0:
256,192,82891,1,8,0:0:0:0:
256,192,82948,1,8,0:0:0:0:
256,192,83005,1,0,0:0:0:0:
256,192,83062,1,0,0:0:0:0:
256,192,83148,1,0,0:0:0:0:
256,192,83233,1,8,0:0:0:0:
256,192,83291,1,0,0:0:0:0:
256,192,83348,1,0,0:0:0:0:
256,192,83405,1,0,0:0:0:0:
256,192,83491,1,0,0:0:0:0:
256,192,83576,1,8,0:0:0:0:
256,192,83633,1,8,0:0:0:0:
256,192,83691,1,8,0:0:0:0:
256,192,83748,1,0,0:0:0:0:
256,192,83833,1,0,0:0:0:0:
256,192,83919,1,8,0:0:0:0:
256,192,84005,1,0,0:0:0:0:
256,192,84091,1,8,0:0:0:0:
256,192,84176,1,8,0:0:0:0:
256,192,84262,1,0,0:0:0:0:
256,192,84348,1,8,0:0:0:0:
256,192,84433,1,0,0:0:0:0:
256,192,84519,1,0,0:0:0:0:
256,192,84605,1,8,0:0:0:0:
256,192,84662,1,8,0:0:0:0:
256,192,84719,1,8,0:0:0:0:
256,192,84776,1,0,0:0:0:0:
256,192,84862,1,0,0:0:0:0:
256,192,84948,1,8,0:0:0:0:
256,192,85005,1,0,0:0:0:0:
256,192,85062,1,0,0:0:0:0:
256,192,85119,1,8,0:0:0:0:
256,192,85205,1,8,0:0:0:0:
256,192,85291,1,0,0:0:0:0:
256,192,85376,1,8,0:0:0:0:
256,192,85462,1,0,0:0:0:0:
256,192,85548,1,0,0:0:0:0:
256,192,85633,1,8,0:0:0:0:
256,192,85691,1,8,0:0:0:0:
256,192,85748,1,0,0:0:0:0:
256,192,85805,1,0,0:0:0:0:
256,192,85891,1,0,0:0:0:0:
256,192,85976,1,8,0:0:0:0:
256,192,86033,1,0,0:0:0:0:
256,192,86091,1,0,0:0:0:0:
256,192,86148,1,0,0:0:0:0:
256,192,86233,1,0,0:0:0:0:
256,192,86319,1,8,0:0:0:0:
256,192,86376,1,8,0:0:0:0:
256,192,86433,1,8,0:0:0:0:
256,192,86491,1,0,0:0:0:0:
256,192,86576,1,0,0:0:0:0:
256,192,86662,1,8,0:0:0:0:
256,192,86748,1,0,0:0:0:0:
256,192,86833,1,8,0:0:0:0:
256,192,86919,1,8,0:0:0:0:
256,192,87005,1,0,0:0:0:0:
256,192,87091,1,8,0:0:0:0:
256,192,87176,1,0,0:0:0:0:
256,192,87262,1,0,0:0:0:0:
256,192,87348,1,8,0:0:0:0:
256,192,87405,1,8,0:0:0:0:
256,192,87462,1,8,0:0:0:0:
256,192,87519,1,0,0:0:0:0:
256,192,87605,1,0,0:0:0:0:
256,192,87691,1,8,0:0:0:0:
256,192,87776,1,0,0:0:0:0:
256,192,87862,1,0,0:0:0:0:
256,192,87919,1,8,0:0:0:0:
256,192,87976,1,8,0:0:0:0:
256,192,88033,1,0,0:0:0:0:
256,192,88119,1,0,0:0:0:0:
256,192,88205,1,8,0:0:0:0:
256,192,88291,1,0,0:0:0:0:
256,192,88376,1,8,0:0:0:0:
256,192,88433,1,8,0:0:0:0:
256,192,88491,1,0,0:0:0:0:
256,192,88548,1,0,0:0:0:0:
256,192,88633,1,0,0:0:0:0:
256,192,88719,1,8,0:0:0:0:
256,192,88891,1,8,0:0:0:0:
256,192,88933,1,8,0:0:0:0:
256,192,89062,1,4,0:0:0:0:
256,192,89233,1,8,0:0:0:0:
256,192,89319,1,0,0:0:0:0:
256,192,89405,1,8,0:0:0:0:
256,192,89576,1,0,0:0:0:0:
256,192,89662,1,0,0:0:0:0:
256,192,89748,1,8,0:0:0:0:
256,192,89833,1,8,0:0:0:0:
256,192,89919,1,0,0:0:0:0:
256,192,90091,1,8,0:0:0:0:
256,192,90262,1,0,0:0:0:0:
256,192,90305,1,0,0:0:0:0:
256,192,90433,1,8,0:0:0:0:
256,192,90605,1,0,0:0:0:0:
256,192,90691,1,8,0:0:0:0:
256,192,90776,1,0,0:0:0:0:
256,192,90948,1,8,0:0:0:0:
256,192,91033,1,8,0:0:0:0:
256,192,91119,1,0,0:0:0:0:
256,192,91205,1,0,0:0:0:0:
256,192,91291,1,8,0:0:0:0:
256,192,91462,1,0,0:0:0:0:
256,192,91633,1,8,0:0:0:0:
256,192,91676,1,8,0:0:0:0:
256,192,91805,1,0,0:0:0:0:
256,192,91976,1,8,0:0:0:0:
256,192,92062,1,8,0:0:0:0:
256,192,92148,1,0,0:0:0:0:
256,192,92319,1,8,0:0:0:0:
256,192,92405,1,8,0:0:0:0:
256,192,92491,1,0,0:0:0:0:
256,192,92576,1,8,0:0:0:0:
256,192,92662,1,0,0:0:0:0:
256,192,92748,1,0,0:0:0:0:
256,192,92833,1,8,0:0:0:0:
256,192,93005,1,0,0:0:0:0:
256,192,93048,1,0,0:0:0:0:
256,192,93176,1,8,0:0:0:0:
256,192,93348,1,0,0:0:0:0:
256,192,93433,1,8,0:0:0:0:
256,192,93519,1,0,0:0:0:0:
256,192,93691,1,8,0:0:0:0:
256,192,93776,1,0,0:0:0:0:
256,192,93862,1,8,0:0:0:0:
256,192,93948,1,8,0:0:0:0:
256,192,94033,1,0,0:0:0:0:
256,192,94119,1,8,0:0:0:0:
256,192,94205,1,0,0:0:0:0:
256,192,94376,1,8,0:0:0:0:
256,192,94419,1,8,0:0:0:0:
256,192,94548,1,0,0:0:0:0:
256,192,94719,1,8,0:0:0:0:
256,192,94805,1,0,0:0:0:0:
256,192,94891,1,8,0:0:0:0:
256,192,95062,1,0,0:0:0:0:
256,192,95148,1,8,0:0:0:0:
256,192,95233,1,8,0:0:0:0:
256,192,95319,1,0,0:0:0:0:
256,192,95405,1,0,0:0:0:0:
256,192,95576,1,8,0:0:0:0:
256,192,95748,1,0,0:0:0:0:
256,192,95791,1,0,0:0:0:0:
256,192,95919,1,8,0:0:0:0:
256,192,96091,1,0,0:0:0:0:
256,192,96176,1,8,0:0:0:0:
256,192,96262,1,0,0:0:0:0:
256,192,96433,1,8,0:0:0:0:
256,192,96519,1,0,0:0:0:0:
256,192,96605,1,0,0:0:0:0:
256,192,96691,1,8,0:0:0:0:
256,192,96776,1,8,0:0:0:0:
256,192,96948,1,0,0:0:0:0:
256,192,97119,1,8,0:0:0:0:
256,192,97162,1,8,0:0:0:0:
256,192,97291,1,0,0:0:0:0:
256,192,97462,1,8,0:0:0:0:
256,192,97548,1,0,0:0:0:0:
256,192,97633,1,8,0:0:0:0:
256,192,97805,1,0,0:0:0:0:
256,192,97891,1,8,0:0:0:0:
256,192,97976,1,8,0:0:0:0:
256,192,98062,1,0,0:0:0:0:
256,192,98148,1,0,0:0:0:0:
256,192,98233,1,8,0:0:0:0:
256,192,98319,1,0,0:0:0:0:
256,192,98491,1,0,0:0:0:0:
256,192,98533,1,0,0:0:0:0:
256,192,98662,1,8,0:0:0:0:
256,192,98833,1,0,0:0:0:0:
256,192,98919,1,8,0:0:0:0:
256,192,99005,1,0,0:0:0:0:
256,192,99176,1,8,0:0:0:0:
256,192,99262,1,0,0:0:0:0:
256,192,99348,1,8,0:0:0:0:
256,192,99433,1,8,0:0:0:0:
256,192,99519,1,0,0:0:0:0:
256,192,99605,1,8,0:0:0:0:
256,192,99691,1,0,0:0:0:0:
256,192,99862,1,8,0:0:0:0:
256,192,99905,1,8,0:0:0:0:
256,192,100033,1,0,0:0:0:0:
256,192,100205,1,8,0:0:0:0:
256,192,100291,1,0,0:0:0:0:
256,192,100376,1,8,0:0:0:0:
256,192,100548,1,0,0:0:0:0:
256,192,100633,1,0,0:0:0:0:
256,192,100719,1,8,0:0:0:0:
256,192,100805,1,8,0:0:0:0:
256,192,100891,1,0,0:0:0:0:
256,192,101062,1,8,0:0:0:0:
256,192,101233,1,0,0:0:0:0:
256,192,101276,1,0,0:0:0:0:
256,192,101405,1,8,0:0:0:0:
256,192,101576,1,0,0:0:0:0:
256,192,101662,1,8,0:0:0:0:
256,192,101748,1,0,0:0:0:0:
256,192,101919,1,8,0:0:0:0:
256,192,102005,1,8,0:0:0:0:
256,192,102091,1,0,0:0:0:0:
256,192,102176,1,0,0:0:0:0:
256,192,102262,1,8,0:0:0:0:
256,192,102433,1,0,0:0:0:0:
256,192,102605,1,8,0:0:0:0:
256,192,102648,1,8,0:0:0:0:
256,192,102776,1,0,0:0:0:0:
256,192,102948,1,8,0:0:0:0:
256,192,103033,1,8,0:0:0:0:
256,192,103119,1,0,0:0:0:0:
256,192,103291,1,8,0:0:0:0:
256,192,103376,1,8,0:0:0:0:
256,192,103462,1,0,0:0:0:0:
256,192,103548,1,8,0:0:0:0:
256,192,103633,1,0,0:0:0:0:
256,192,103719,1,0,0:0:0:0:
256,192,103805,1,8,0:0:0:0:
256,192,103976,1,0,0:0:0:0:
256,192,104019,1,0,0:0:0:0:
256,192,104148,1,8,0:0:0:0:
256,192,104319,1,0,0:0:0:0:
256,192,104405,1,8,0:0:0:0:
256,192,104491,1,0,0:0:0:0:
256,192,104662,1,8,0:0:0:0:
256,192,104748,1,0,0:0:0:0:
256,192,104833,1,8,0:0:0:0:
256,192,104919,1,8,0:0:0:0:
256,192,105005,1,0,0:0:0:0:
256,192,105091,1,8,0:0:0:0:
256,192,105176,1,0,0:0:0:0:
256,192,105348,1,8,0:0:0:0:
256,192,105391,1,8,0:0:0:0:
256,192,105519,1,0,0:0:0:0:
256,192,105691,1,8,0:0:0:0:
256,192,105776,1,0,0:0:0:0:
256,192,105862,1,8,0:0:0:0:
256,192,106033,1,0,0:0:0:0:
256,192,106119,1,8,0:0:0:0:
256,192,106205,1,8,0:0:0:0:
256,192,106291,1,0,0:0:0:0:
256,192,106376,1,0,0:0:0:0:
256,192,106548,1,8,0:0:0:0:
256,192,106719,1,0,0:0:0:0:
256,192,106762,1,0,0:0:0:0:
256,192,106891,1,8,0:0:0:0:
256,192,107062,1,0,0:0:0:0:
256,192,107148,1,8,0:0:0:0:
256,192,107233,1,0,0:0:0:0:
256,192,107405,1,8,0:0:0:0:
256,192,107491,1,0,0:0:0:0:
256,192,107576,1,0,0:0:0:0:
256,192,107662,1,8,0:0:0:0:
256,192,107748,1,8,0:0:0:0:
256,192,107919,1,0,0:0:0:0:
256,192,108091,1,8,0:0:0:0:
256,192,108133,1,8,0:0:0:0:
256,192,108262,1,4,0:0:0:0:
