osu file format v14

[General]
AudioFilename: audio.mp3
AudioLeadIn: 0
PreviewTime: 44999
Countdown: 0
SampleSet: Soft
StackLeniency: 0.2
Mode: 0
LetterboxInBreaks: 0
WidescreenStoryboard: 0

[Editor]
Bookmarks: 23099,45042,66985,88928,110871,132814,154756,176699,198642,220585,220649,220699,220756,220842,220906,220985,220992,221099,221206,221214,221314,221356,221421,221471,221528,221549,221585,221656,221657,221728,221764,221785,221814,221849,221914,221956,221978,221999,222042,222071,222085,222171,222185,222214,222257,222271,222328,222342,222357,222385,222442,222449,222514,222528,222556,222578,222614,222642,222671,222685,222699,222728,222785,222814,222842,222857,222921,222928,222942,223014,223028,223049,223071,223099,223135,223157,223185,223242,223264,223271,223328,223371,223385,223392,223414,223442,223457,223499,223542,223556,223557,223606,223614,223671,223699,223714,223735,223785,223799,223814,223842,223864,223871,223928,223956,223957,223971,224014,224042,224071,224099,224142,224185,224206,224228,224271,224299,224356,224385,224399,224442,224464,224471,224485,224528,224556,224571,224614,224642,224657,224671,224699,224757,224785,224806,224814,224871,224914,224928,224935,224999,225014,225042,225071,225099,225128,225171,225185,225271,225278,225299,225357,225385,225406,225414,225428,225471,225514,225528,225535,225556,225557,225642,225671,225728,225771,225814,225878,225899,225928,225985,226006,226028,226042,226071,226092,226099,226114,226185,226199,226214,226221,226242,226285,226299,226349,226371,226414,226456,226457,226499,226528,226542,226556,226585,226614,226628,226671,226692,226699,226714,226757,226785,226799,226814,226821,226842,226899,226928,226949,226971,226985,227014,227042,227078,227099,227128,227142,227185,227228,227242,227271,227299,227314,227328,227357,227399,227414,227442,227485,227499,227528,227571,227585,227614,227671,227678,227699,227728,227742,227785,227828,227842,227871,227899,227935,227957,227985,227999,228042,228071,228085,228099,228128,228157,228192,228214,228242,228257,228299,228321,228328,228356,228357,228385,228428,228471,228514,228557,228578,228614,228642,228699,228706,228756,228771,228835,228842,228871,228899,228942,228957,228985,229014,229028,229071,229099,229128,229157,229178,229242,229271,229285,229299,229306,229357,229385,229414,229442,229499,229528,229542,229585,229642,229671,229728,229756,229778,229814,229842,229899,229928,229971,230014,230042,230056,230099,230128,230156,230164,230185,230214,230271,230292,230299,230357,230399,230414,230442,230485,230499,230549,230556,230557,230571,230585,230642,230656,230671,230699,230728,230806,230814,230871,230899,230914,230928,230957,230985,231042,231071,231085,231157,231171,231185,231214,231242,231271,231299,231328,231342,231414,231449,231471,231535,231556,231685,231857,231985,232157,232285,232457,232585,232757,232928,233057,233228,233357,233528,233699,233871,234042,234214,234342,234514,234685,234814,235071,235242,235414,235499,235628,235714,235842,235971,236099,236228,236314,236442,236571,236699,236828,236957,237085,237214,237342,237471,237599,237728,237857,238028,238157,238285,238414,238585,238671,238842,238971,239142,239271,239399,239571,239699,239828,239957,240085,240214,240342,240514,240642,240814,240942,241114,241242,241371,241542,241671,241799,241928,242057,242228,242357,242485,242528,264471,286414,308357,319328,330299,352242,374014
DistanceSpacing: 0.5
BeatDivisor: 8
GridSize: 32
TimelineZoom: 4.399998

[Metadata]
Title:Central Nucleus
TitleUnicode:Central Nucleus
Artist:Feryquitous
ArtistUnicode:Feryquitous
Creator:Shiirn
Version:Sanctus Nexum
Source:
Tags:AD:drum'n'bass 3 diverse system dnb drum and bass wub wob wibble wobble improv made up tags
BeatmapID:1402167
BeatmapSetID:662395

[Difficulty]
HPDrainRate:4
CircleSize:4
OverallDifficulty:9
ApproachRate:9.5
SliderMultiplier:2.1
SliderTickRate:1

[Events]
//Background and Video events
0,0,"fery.png",0,0
//Break Periods
2,220785,241842
//Storyboard Layer 0 (Background)
//Storyboard Layer 1 (Fail)
//Storyboard Layer 2 (Pass)
//Storyboard Layer 3 (Foreground)
//Storyboard Sound Samples

[TimingPoints]
1157,342.857142857143,4,2,1,40,1,0
1157,-200,4,2,1,40,0,0
3899,-192.307692307692,4,2,1,45,0,0
6642,-181.818181818182,4,2,1,47,0,0
9385,-175.438596491228,4,2,1,50,0,0
12128,-166.666666666667,4,2,1,55,0,0
14871,-161.290322580645,4,2,1,60,0,0
17614,-153.846153846154,4,2,1,65,0,0
20357,-142.857142857143,4,2,1,75,0,0
23099,-133.333333333333,4,2,1,100,0,0
25157,-100,4,2,1,100,0,0
25499,-133.333333333333,4,2,1,100,0,0
27214,-166.666666666667,4,2,1,100,0,0
28585,-133.333333333333,4,2,1,100,0,0
30642,-100,4,2,1,100,0,0
30985,-133.333333333333,4,2,1,100,0,0
32699,-166.666666666667,4,2,1,100,0,0
34070,-133.333333333333,4,2,1,100,0,0
36128,-100,4,2,1,100,0,0
36471,-133.333333333333,4,2,1,100,0,0
38185,-166.666666666667,4,2,1,100,0,0
39556,-133.333333333333,4,2,1,100,0,0
41614,-100,4,2,1,100,0,0
41957,-133.333333333333,4,2,1,100,0,0
42299,-166.666666666667,4,2,1,100,0,0
43670,-133.333333333333,4,2,1,100,0,0
44528,-200,4,2,1,100,0,0
45042,-100,4,2,1,100,0,0
65614,-200,4,2,1,100,0,0
66985,-66.6666666666667,4,2,1,100,0,1
67328,-50,4,2,1,100,0,1
68699,-66.6666666666667,4,2,1,100,0,1
68957,-50,4,2,1,100,0,1
69728,-66.6666666666667,4,2,1,100,0,1
69899,-50,4,2,1,100,0,1
74185,-66.6666666666667,4,2,1,100,0,1
74356,-50,4,2,1,100,0,1
75214,-66.6666666666667,4,2,1,100,0,1
75385,-50,4,2,1,100,0,1
77614,-200,4,2,1,100,0,0
77957,-50,4,2,1,100,0,1
88585,-200,4,2,1,100,0,0
88928,-100,4,2,1,100,0,0
110871,-133.333333333333,4,2,1,100,0,0
131442,-166.666666666667,4,2,1,100,0,0
132814,-100,4,2,1,100,0,0
153385,-166.666666666667,4,2,1,100,0,0
154757,-100,4,2,1,100,0,0
175328,-133.333333333333,4,2,1,100,0,0
176014,-100,4,2,1,100,0,0
176699,-45.4545454545455,4,2,1,100,0,1
187328,-33.3333333333333,4,2,1,100,0,0
187671,-45.4545454545455,4,2,1,100,0,1
197271,-100,4,2,1,100,0,0
242528,-133.333333333333,4,2,1,100,0,0
264471,-100,4,2,1,100,0,0
268585,-83.3333333333333,4,2,1,100,0,0
269957,-100,4,2,1,100,0,0
279557,-83.3333333333333,4,2,1,100,0,0
280928,-100,4,2,1,100,0,0
283671,-133.333333333333,4,2,1,100,0,0
286414,-50,4,2,1,100,0,1
288128,-66.6666666666667,4,2,1,100,0,1
288386,-50,4,2,1,100,0,1
289157,-66.6666666666667,4,2,1,100,0,1
289328,-50,4,2,1,100,0,1
293614,-66.6666666666667,4,2,1,100,0,1
293785,-50,4,2,1,100,0,1
294642,-66.6666666666667,4,2,1,100,0,1
294814,-50,4,2,1,100,0,1
297042,-50,4,2,1,100,0,0
297385,-50,4,2,1,100,0,1
308014,-50,4,2,1,100,0,0
308357,-50,4,2,1,100,0,1
318985,-50,4,2,1,100,0,0
319328,-45.4545454545455,4,2,1,100,0,1
328585,-50,4,2,1,100,0,1
328928,-100,4,2,1,100,0,0
330299,-133.333333333333,4,2,1,100,0,0
332357,-100,4,2,1,100,0,0
332699,-133.333333333333,4,2,1,100,0,0
334414,-166.666666666667,4,2,1,100,0,0
335785,-133.333333333333,4,2,1,100,0,0
337842,-100,4,2,1,100,0,0
338185,-133.333333333333,4,2,1,100,0,0
339899,-166.666666666667,4,2,1,100,0,0
341270,-133.333333333333,4,2,1,100,0,0
343328,-100,4,2,1,100,0,0
343671,-133.333333333333,4,2,1,100,0,0
345385,-166.666666666667,4,2,1,100,0,0
346756,-133.333333333333,4,2,1,100,0,0
348814,-100,4,2,1,100,0,0
349157,-133.333333333333,4,2,1,100,0,0
349499,-166.666666666667,4,2,1,100,0,0

[Colours]
Combo1 : 146,63,135
Combo2 : 188,176,193
Combo3 : 184,99,169
Combo4 : 176,45,114

[HitObjects]
48,336,1157,6,0,L|56:256,1,52.5,0|0,1:0|0:0,0:0:0:0:
195,312,1499,1,8,0:0:0:0:
48,336,2014,1,0,1:0:0:0:
195,312,2185,2,0,L|203:232,1,52.5,8|0,0:0|0:0,0:0:0:0:
318,349,2528,6,0,L|310:269,1,52.5,0|0,1:0|0:0,0:0:0:0:
417,232,2871,1,8,0:0:0:0:
318,349,3385,1,0,1:0:0:0:
417,232,3557,2,0,L|409:152,1,52.5,8|0,0:0|0:0,0:0:0:0:
376,55,3899,38,0,P|332:75|304:72,1,54.599999666748,0|0,1:0|0:0,0:0:0:0:
200,43,4242,1,8,0:0:0:0:
376,55,4757,1,0,1:0:0:0:
200,43,4928,2,0,P|152:51|130:69,1,54.599999666748,8|0,0:0|0:0,0:0:0:0:
73,239,5271,6,0,P|99:206|102:175,1,54.599999666748,0|0,1:0|0:0,0:0:0:0:
53,78,5614,1,8,0:0:0:0:
73,239,6128,1,0,1:0:0:0:
53,78,6299,2,0,P|28:112|28:145,1,54.599999666748,8|0,0:0|0:0,0:0:0:0:
38,315,6642,38,0,L|119:323,1,57.7500017623902,0|0,1:0|0:0,0:0:0:0:
159,214,6985,1,8,0:0:0:0:
38,315,7500,1,0,1:0:0:0:
159,214,7671,2,0,L|240:206,1,57.7500017623902,8|0,0:0|0:0,0:0:0:0:
362,187,8014,6,0,L|355:264,1,57.7500017623902,0|0,1:0|0:0,0:0:0:0:
235,320,8357,1,8,0:0:0:0:
362,187,8871,1,0,1:0:0:0:
235,320,9042,2,0,L|228:397,1,57.7500017623902,8|0,0:0|0:0,0:0:0:0:
317,323,9385,38,0,L|312:264,1,59.8499992694092,0|0,1:0|0:0,0:0:0:0:
429,207,9728,1,8,0:0:0:0:
317,323,10242,1,0,1:0:0:0:
429,207,10414,2,0,L|435:148,1,59.8499992694092,8|0,0:0|0:0,0:0:0:0:
333,76,10757,6,0,P|348:120|348:156,1,59.8499992694092,0|0,1:0|0:0,0:0:0:0:
311,263,11099,1,8,0:0:0:0:
333,76,11614,1,0,1:0:0:0:
311,263,11785,2,0,P|270:280|217:277,1,59.8499992694092,8|0,0:0|0:0,0:0:0:0:
125,73,12128,38,0,L|135:150,1,62.9999980773926,0|0,1:0|0:0,0:0:0:0:
73,250,12471,1,8,0:0:0:0:
125,72,12985,1,0,1:0:0:0:
73,250,13157,2,0,L|83:327,1,62.9999980773926,8|0,0:0|0:0,0:0:0:0:
192,241,13499,6,0,P|215:248|264:238,1,62.9999980773926,0|0,1:0|0:0,0:0:0:0:
372,165,13842,1,8,0:0:0:0:
192,241,14357,1,0,1:0:0:0:
372,165,14528,2,0,P|388:142|391:99,1,62.9999980773926,8|0,0:0|0:0,0:0:0:0:
263,43,14871,38,0,L|274:123,1,65.0999974172975,0|0,1:0|0:0,0:0:0:0:
192,241,15214,1,8,0:0:0:0:
263,43,15728,1,0,1:0:0:0:
192,241,15900,2,0,L|203:321,1,65.0999974172975,8|0,0:0|0:0,0:0:0:0:
297,352,16242,6,0,P|308:321|305:287,1,65.0999974172975,0|0,1:0|0:0,0:0:0:0:
240,179,16585,1,8,0:0:0:0:
297,353,17100,1,0,1:0:0:0:
240,179,17271,2,0,P|231:203|198:235,1,65.0999974172975,8|0,0:0|0:0,0:0:0:0:
24,202,17614,38,0,P|69:188|118:206,1,68.2499968757631,0|0,1:0|0:0,0:0:0:0:
190,247,17957,1,8,0:0:0:0:
24,202,18471,1,0,1:0:0:0:
190,247,18642,2,0,P|235:261|284:243,1,68.2499968757631,8|0,0:0|0:0,0:0:0:0:
385,334,18985,6,0,L|395:250,1,68.2499968757631,0|0,1:0|0:0,0:0:0:0:
333,171,19328,1,8,0:0:0:0:
385,334,19842,1,0,1:0:0:0:
333,171,20014,2,0,L|323:87,1,68.2499968757631,8|0,0:0|0:0,0:0:0:0:
188,35,20357,38,0,P|243:63|282:51,1,73.4999977569581,0|0,1:0|0:0,0:0:0:0:
417,65,20699,1,8,0:0:0:0:
188,35,21214,1,0,1:0:0:0:
417,65,21385,2,0,L|405:149,1,73.4999977569581,8|0,0:0|0:0,0:0:0:0:
386,323,21728,6,0,P|340:315|286:327,1,73.4999977569581,0|0,1:0|0:0,0:0:0:0:
240,347,22071,1,2,0:0:0:0:
386,323,22242,2,0,P|368:317|350:315,3,36.749998878479,0|0|0|0,0:0|0:0|0:0|0:0,0:0:0:0:
240,347,22585,1,0,0:0:0:0:
275,258,22757,2,0,P|269:219|287:167,1,73.4999977569581,2|0,0:0|0:0,0:0:0:0:
112,256,23099,37,0,1:0:0:0:
121,271,23185,2,0,P|132:229|83:178,1,118.125004506111,2|8,0:0|0:0,0:0:0:0:
132,344,23614,1,0,0:0:0:0:
122,360,23700,2,0,P|111:318|161:259,1,118.125004506111,2|0,0:0|1:0,0:0:0:0:
342,260,24128,2,0,P|314:286|255:297,1,78.7500030040742,8|0,0:0|0:0,0:0:0:0:
238,175,24471,5,2,1:2:0:0:
226,204,24557,2,0,P|216:166|224:128,2,78.7500030040742,2|2|0,0:0|0:0|0:0,0:0:0:0:
224,227,24985,2,0,P|200:208|177:205,1,39.3750015020371,2|0,0:0|0:0,0:0:0:0:
109,316,25157,2,0,P|141:324|169:320,1,52.5
244,300,25328,2,0,P|276:292|304:296,1,52.5,0|0,1:2|0:0,0:0:0:0:
380,333,25499,1,8,0:0:0:0:
93,308,25842,37,0,1:0:0:0:
107,316,25928,2,0,P|151:324|197:259,1,118.125004506111,2|8,0:0|0:0,0:0:0:0:
308,300,26357,1,0,0:0:0:0:
295,291,26442,2,0,P|269:290|219:361,1,118.125004506111,2|0,0:0|1:0,0:0:0:0:
380,353,26871,2,0,P|393:308|387:270,1,78.7500030040742,8|0,0:0|0:0,0:0:0:0:
228,138,27214,5,2,1:2:0:0:
237,145,27299,2,0,L|227:214,1,62.9999980773926,2|2,0:0|0:0,0:0:0:0:
242,212,27728,38,0,L|246:180,1,31.4999990386963,2|0,0:0|0:0,0:0:0:0:
290,303,27899,2,0,L|321:298,1,31.4999990386963,0|0,0:3|0:0,0:0:0:0:
360,224,28071,2,0,L|328:219,1,31.4999990386963,2|0,1:2|0:0,0:0:0:0:
227,207,28242,2,0,L|237:145,1,62.9999980773926,8|0,0:0|0:0,0:0:0:0:
304,39,28585,5,0,1:0:0:0:
313,22,28671,2,0,P|333:68|301:139,1,118.125004506111,2|8,0:0|0:0,0:0:0:0:
179,101,29099,1,0,0:0:0:0:
169,83,29185,2,0,P|149:129|181:200,1,118.125004506111,2|0,0:0|1:0,0:0:0:0:
304,285,29614,2,0,P|306:244|285:209,1,78.7500030040742,8|0,0:0|0:0,0:0:0:0:
128,270,29957,37,2,1:2:0:0:
151,277,30042,2,0,P|194:281|234:265,2,78.7500030040742,2|2|0,0:0|0:0|0:0,0:0:0:0:
128,270,30471,2,0,P|122:300|116:310,1,39.3750015020371,2|0,0:0|0:0,0:0:0:0:
41,206,30642,2,0,P|48:251|57:264,1,52.5,2|0,0:0|0:0,0:0:0:0:
147,181,30814,2,0,P|152:145|146:124,1,52.5,2|0,1:2|0:0,0:0:0:0:
40,78,30985,1,8,0:0:0:0:
55,241,31328,5,0,1:0:0:0:
51,256,31414,2,0,P|41:213|78:152,1,118.125004506111,2|8,0:0|0:0,0:0:0:0:
145,309,31842,1,0,0:0:0:0:
152,323,31928,2,0,P|162:280|125:219,1,118.125004506111,2|0,0:0|1:0,0:0:0:0:
105,74,32357,2,0,P|139:91|178:89,1,78.7500030040742,8|0,0:0|0:0,0:0:0:0:
326,50,32699,37,2,1:2:0:0:
337,50,32785,2,0,L|323:121,1,62.9999980773926,2|2,0:0|0:0,0:0:0:0:
326,118,33214,6,0,P|292:113|282:118,1,31.4999990386963,2|0,0:0|0:0,0:0:0:0:
210,144,33385,2,0,P|201:172|202:188,1,31.4999990386963,0|0,0:0|0:0,0:0:0:0:
284,282,33557,2,0,P|277:254|261:237,1,31.4999990386963,0|0,1:0|0:0,0:0:0:0:
138,245,33728,2,0,P|179:272|217:269,1,62.9999980773926,8|0,0:0|0:0,0:0:0:0:
402,186,34071,37,0,1:0:0:0:
403,174,34157,2,0,P|369:192|359:277,1,118.125004506111,2|8,0:0|0:0,0:0:0:0:
196,264,34585,1,0,0:0:0:0:
195,252,34671,2,0,P|229:270|239:355,1,118.125004506111,2|0,0:0|1:0,0:0:0:0:
410,314,35099,2,0,P|428:279|426:241,1,78.7500030040742,8|0,0:0|0:0,0:0:0:0:
241,184,35442,5,2,1:2:0:0:
249,195,35528,2,0,L|240:113,2,78.7500030040742,2|2|0,0:0|0:0|0:0,0:0:0:0:
255,205,35957,2,0,P|219:198|201:203,1,39.3750015020371,2|0,0:0|0:0,0:0:0:0:
169,321,36128,2,0,P|206:303|214:289,1,52.5,0|0,0:0|0:0,0:0:0:0:
136,192,36299,2,0,P|135:224|142:246,1,52.5,0|0,1:0|0:0,0:0:0:0:
247,107,36471,1,8,0:0:0:0:
206,281,36814,37,0,1:0:0:0:
211,294,36899,2,0,P|161:324|103:317,1,118.125004506111,2|8,0:0|0:0,0:0:0:0:
298,270,37328,1,0,0:0:0:0:
307,258,37414,2,0,P|273:212|216:198,1,118.125004506111,2|0,0:0|1:0,0:0:0:0:
59,179,37842,2,0,P|109:193|143:190,1,78.7500030040742,8|0,0:0|0:0,0:0:0:0:
292,61,38185,5,2,1:2:0:0:
298,76,38271,2,0,L|288:150,1,62.9999980773926,2|2,0:0|0:0,0:0:0:0:
289,154,38699,38,0,P|273:150|258:149,1,31.4999990386963,2|0,0:0|0:0,0:0:0:0:
155,238,38871,2,0,L|176:202,1,31.4999990386963,0|0,0:0|0:0,0:0:0:0:
252,277,39042,2,0,L|239:237,1,31.4999990386963,0|0,1:0|0:0,0:0:0:0:
372,295,39214,2,0,L|324:238,1,62.9999980773926,8|0,0:0|0:0,0:0:0:0:
285,143,39557,5,0,1:0:0:0:
294,155,39642,2,0,P|312:95|298:38,1,118.125004506111,2|8,0:0|0:0,0:0:0:0:
172,131,40071,1,0,0:0:0:0:
162,120,40156,2,0,P|143:180|158:237,1,118.125004506111,2|0,0:0|1:0,0:0:0:0:
313,337,40585,2,0,L|279:262,1,78.7500030040742,8|0,0:0|0:0,0:0:0:0:
250,143,40928,37,2,1:2:0:0:
254,152,41014,2,0,P|298:146|333:161,2,78.7500030040742,2|2|0,0:0|0:0|0:0,0:0:0:0:
244,165,41442,2,0,L|226:212,1,39.3750015020371,2|0,0:0|0:0,0:0:0:0:
175,297,41614,2,0,P|150:283|136:264,1,52.5,0|0,0:0|0:0,0:0:0:0:
102,180,41785,2,0,P|99:150|107:120,1,52.5,0|0,1:0|0:0,0:0:0:0:
178,75,41957,1,8,0:0:0:0:
334,206,42299,6,0,L|255:193,1,62.9999980773926,0|0,1:0|0:0,0:0:0:0:
187,181,42642,1,2,0:0:0:0:
342,214,42814,2,0,L|264:230,1,62.9999980773926,0|0,0:0|0:0,0:0:0:0:
187,181,43157,1,0,0:0:0:0:
350,222,43328,2,0,L|283:265,1,62.9999980773926,2|0,0:0|0:0,0:0:0:0:
181,317,43671,37,0,0:0:0:0:
185,293,44014,1,0,0:0:0:0:
192,259,44528,2,0,P|239:231|293:245,1,105
301,256,45042,6,0,P|351:239|379:142,1,157.5,4|0,1:2|0:0,0:0:0:0:
365,101,45385,1,8,0:0:0:0:
287,241,45557,1,0,0:0:0:0:
307,242,45642,2,0,P|362:213|371:152,1,105,2|0,0:0|0:0,0:0:0:0:
278,46,45899,2,0,P|280:92|290:105,1,52.5,0|0,1:0|0:0,0:0:0:0:
465,95,46071,2,0,P|419:84|356:107,1,105,8|0,0:0|0:0,0:0:0:0:
204,224,46414,37,2,1:2:0:0:
213,211,46499,2,0,B|292:192|292:192|278:221,2,105,2|2|0,0:0|0:0|0:0,0:0:0:0:
231,335,46928,2,0,P|246:298|241:278,1,52.5,2|0,0:0|0:0,0:0:0:0:
119,291,47099,2,0,P|145:295|170:290,1,52.5,2|0,0:2|0:0,0:0:0:0:
320,318,47271,2,0,P|346:314|371:319,1,52.5,0|0,1:2|0:0,0:0:0:0:
287,196,47442,2,0,P|309:140|415:137,1,157.5,10|0,0:0|0:0,0:0:0:0:
475,227,47785,6,0,B|367:198|367:198|391:240,1,157.5,2|0,1:2|0:0,0:0:0:0:
399,258,48128,1,8,0:0:0:0:
502,212,48299,1,0,0:0:0:0:
490,218,48385,2,0,B|382:189,1,105,2|0,0:0|0:0,0:0:0:0:
312,236,48642,1,0,1:0:0:0:
446,318,48814,2,0,P|398:348|302:326,1,157.5,10|0,0:0|0:0,0:0:0:0:
289,312,49157,38,0,P|288:260|259:217,1,105,2|0,1:2|0:0,0:0:0:0:
114,315,49414,2,0,P|166:315|209:287,1,105,2|0,0:0|0:0,0:0:0:0:
148,167,49671,2,0,P|155:192|171:213,1,52.5,2|0,0:0|0:0,0:0:0:0:
289,312,49842,2,0,L|340:324,1,52.5
293,322,50014,2,0,L|344:334,1,52.5,0|0,1:0|0:0,0:0:0:0:
257,324,50185,2,0,B|347:345|347:345|405:387,1,157.5,8|0,0:0|0:0,0:0:0:0:
336,259,50528,6,0,P|364:214|327:121,1,157.5,2|0,1:2|0:0,0:0:0:0:
309,114,50871,1,8,0:0:0:0:
315,255,51043,1,0,0:0:0:0:
332,244,51128,2,0,P|357:187|327:133,1,105,2|0,0:0|0:0,0:0:0:0:
215,185,51385,2,0,L|281:192,1,52.5,0|0,1:0|0:0,0:0:0:0:
89,154,51557,1,8,0:0:0:0:
96,164,51642,1,2,0:0:0:0:
103,173,51728,1,0,0:0:0:0:
200,283,51899,37,2,1:2:0:0:
216,298,51985,2,0,L|204:184,2,105,2|2|0,0:0|0:0|0:0,0:0:0:0:
237,321,52414,2,0,L|252:266,1,52.5,2|0,0:0|0:0,0:0:0:0:
336,252,52585,2,0,L|382:298,1,52.5,2|0,0:0|0:0,0:0:0:0:
431,186,52757,2,0,L|373:171,1,52.5,0|0,1:0|0:0,0:0:0:0:
205,193,52928,2,0,L|221:350,1,157.5,8|0,0:0|0:0,0:0:0:0:
291,209,53271,6,0,B|279:97|279:97|316:128,1,157.5,2|0,1:2|0:0,0:0:0:0:
331,137,53614,1,8,0:0:0:0:
271,233,53785,1,0,0:0:0:0:
279,222,53871,2,0,B|267:110,1,105,2|0,0:0|0:0,0:0:0:0:
325,49,54128,1,0,1:0:0:0:
461,219,54299,2,0,L|352:207,1,105,8|0,0:0|0:0,0:0:0:0:
184,250,54642,38,0,P|223:267|288:248,1,105,2|0,1:2|0:0,0:0:0:0:
371,103,54899,2,0,L|355:216,1,105,2|0,0:0|0:0,0:0:0:0:
392,332,55157,2,0,P|361:309|356:292,1,52.5,2|0,0:0|0:0,0:0:0:0:
512,211,55328,2,0,P|472:221|457:218,1,52.5,0|0,0:0|0:0,0:0:0:0:
451,212,55499,2,0,P|411:202|396:205,1,52.5,0|0,1:2|0:0,0:0:0:0:
498,272,55671,2,0,P|463:205|388:195,1,157.5,10|0,0:0|0:0,0:0:0:0:
183,266,56014,6,0,P|270:280|326:215,1,157.5,2|0,1:2|0:0,0:0:0:0:
322,156,56357,1,8,0:0:0:0:
185,254,56528,1,0,0:0:0:0:
205,264,56614,2,0,P|255:272|297:243,1,105,2|0,0:0|0:0,0:0:0:0:
318,105,56871,2,0,P|314:130|322:156,1,52.5,0|0,1:0|0:0,0:0:0:0:
381,292,57042,2,0,P|401:244|387:195,1,105,8|0,0:0|0:0,0:0:0:0:
214,80,57385,37,2,1:2:0:0:
209,97,57471,2,0,L|239:198,2,105,2|2|0,0:0|0:0|0:0,0:0:0:0:
204,110,57899,2,0,P|165:118|139:104,1,52.5,2|0,0:0|0:0,0:0:0:0:
54,101,58071,2,0,P|68:134|68:160,1,52.5,2|0,0:0|0:0,0:0:0:0:
56,236,58242,2,0,P|46:267|54:299,1,52.5,0|0,1:0|0:0,0:0:0:0:
267,299,58414,2,0,P|200:261|125:277,1,157.5,10|0,0:0|0:0,0:0:0:0:
124,277,58757,6,0,P|166:204|109:140,1,157.5,2|0,1:2|0:0,0:0:0:0:
99,128,59099,1,8,0:0:0:0:
213,59,59271,1,0,0:0:0:0:
230,81,59357,2,0,P|270:95|328:68,1,105,2|0,0:0|0:0,0:0:0:0:
417,95,59614,2,0,P|395:138|393:164,1,52.5,0|0,1:0|0:0,0:0:0:0:
489,265,59785,2,0,L|332:238,1,157.5,10|0,0:0|0:0,0:0:0:0:
211,198,60128,38,0,L|224:304,1,105,2|0,1:2|0:0,0:0:0:0:
213,329,60385,2,0,P|171:292|106:297,1,105,2|0,0:0|0:0,0:0:0:0:
14,287,60642,2,0,P|37:271|49:225,1,52.5,2|0,0:0|0:0,0:0:0:0:
131,164,60814,2,0,L|79:154,1,52.5,2|0,0:0|0:0,0:0:0:0:
69,69,60985,2,0,L|138:56,1,52.5,0|0,1:0|0:0,0:0:0:0:
230,81,61157,2,0,P|276:131|373:108,1,157.5,8|0,0:0|0:0,0:0:0:0:
457,64,61499,6,0,P|405:97|404:197,1,157.5,2|0,1:2|0:0,0:0:0:0:
409,202,61842,1,8,0:0:0:0:
352,347,62014,1,0,0:0:0:0:
363,359,62099,2,0,P|366:322|339:248,1,105,2|0,0:0|0:0,0:0:0:0:
172,291,62357,2,0,P|215:301|237:299,1,52.5,0|0,1:0|0:0,0:0:0:0:
315,122,62528,2,0,P|296:188|214:210,1,157.5,10|0,0:2|0:0,0:0:0:0:
109,257,62871,37,2,1:2:0:0:
94,273,62957,2,0,L|80:155,2,105,2|2|0,0:0|0:0|0:0,0:0:0:0:
84,291,63385,2,0,P|90:324|96:344,1,52.5,2|0,0:0|0:0,0:0:0:0:
223,300,63557,2,0,P|247:291|274:290,1,52.5,2|0,0:0|0:0,0:0:0:0:
393,305,63728,2,0,P|411:281|415:251,1,52.5,0|0,1:0|0:0,0:0:0:0:
310,94,63899,2,0,L|338:260,1,157.5,8|0,0:0|0:0,0:0:0:0:
224,300,64242,6,0,P|270:313|310:356,1,105,2|0,1:2|0:0,0:0:0:0:
408,317,64585,1,0,0:0:0:0:
424,209,64757,2,0,P|419:260|392:304,1,105,2|0,0:0|0:0,0:0:0:0:
317,210,65099,1,0,0:0:0:0:
308,353,65271,1,0,0:0:0:0:
224,300,65442,1,0,0:0:0:0:
370,147,65614,37,0,0:0:0:0:
256,192,65657,12,0,66299,0:0:0:0:
282,301,66985,22,0,P|304:217|379:220,1,157.500006008148,0|0,1:0|0:0,0:0:0:0:
506,211,67242,1,0,0:0:0:0:
452,141,67328,2,0,B|387:131|387:131|419:152,1,105,8|0,0:1|0:0,0:0:0:0:
434,346,67499,1,0,0:0:0:0:
441,333,67585,1,0,0:0:0:0:
455,312,67671,6,0,L|442:262,1,52.5,0|0,0:0|0:0,0:0:0:0:
462,298,67757,2,0,L|448:247,1,52.5
473,258,67842,38,0,L|459:208,1,52.5
482,250,67928,2,0,L|468:199,1,52.5,0|0,1:0|0:0,0:0:0:0:
506,211,68014,6,0,B|448:238|392:221|392:221|461:197|480:142,1,210,8|0,0:0|0:0,0:0:0:0:
345,64,68271,1,0,1:0:0:0:
426,78,68357,38,0,B|421:131|346:175|290:126|290:126|254:97|175:85|152:161,1,315,0|0,1:0|0:0,0:0:0:0:
83,340,68699,2,0,P|129:297|126:253,1,78.7500030040742,8|0,0:0|0:0,0:0:0:0:
51,168,68871,1,0,0:0:0:0:
58,218,68957,1,0,0:0:0:0:
55,269,69042,6,0,B|43:230|3:210|3:210|45:230|98:229|150:184,1,210,0|0,0:0|1:0,0:0:0:0:
143,115,69299,1,0,1:0:0:0:
204,186,69385,2,0,B|198:156|168:133|168:133|216:136|264:171|249:237,1,210,8|0,0:0|0:0,0:0:0:0:
219,322,69642,1,0,1:0:0:0:
151,355,69728,38,0,P|152:289|203:243,1,78.7500030040742,0|0,1:0|0:0,0:0:0:0:
421,175,69899,1,0,0:0:0:0:
429,183,69985,1,0,0:0:0:0:
436,192,70071,6,0,L|297:208,1,105,8|0,0:0|0:0,0:0:0:0:
288,322,70242,1,0,0:0:0:0:
282,329,70328,1,0,0:0:0:0:
269,332,70414,38,0,L|279:391,1,52.5
261,324,70499,2,0,L|271:383,1,52.5
227,314,70585,6,0,L|237:255,1,52.5,0|0,1:0|0:0,0:0:0:0:
219,322,70671,2,0,L|229:263,1,52.5
175,332,70757,38,0,P|236:276|172:168,1,210,8|0,0:0|0:0,0:0:0:0:
136,59,71014,1,0,0:0:0:0:
48,88,71099,6,0,P|60:119|89:143,1,52.5,0|0,1:0|0:0,0:0:0:0:
72,132,71185,2,0,P|92:148|116:156,1,52.5,0|0,0:0|0:0,0:0:0:0:
116,156,71271,2,0,P|141:159|167:153,1,52.5,0|0,0:0|0:0,0:0:0:0:
167,152,71357,2,0,P|189:141|208:122,1,52.5
243,53,71442,38,0,B|233:104|233:104|280:156|280:156|254:242,1,210,8|0,0:0|0:0,0:0:0:0:
227,323,71699,1,0,1:0:0:0:
295,359,71785,6,0,B|355:372|391:305|381:247|381:247|347:274,1,210,0|0,0:0|1:0,0:0:0:0:
227,323,72042,1,0,1:0:0:0:
148,331,72128,2,0,B|113:334|81:306|81:306|113:305,1,105,8|0,0:0|0:0,0:0:0:0:
231,208,72299,38,0,B|282:217,1,52.5,0|0,0:0|0:0,0:0:0:0:
223,213,72385,2,0,B|274:222,1,52.5,0|0,0:0|0:0,0:0:0:0:
220,223,72471,6,0,P|279:301|366:258,1,210,0|0,1:0|0:0,0:0:0:0:
457,237,72728,1,0,0:0:0:0:
365,259,72814,2,0,P|406:288|452:266,1,105,8|0,0:0|0:0,0:0:0:0:
328,127,72985,1,0,0:0:0:0:
319,129,73071,1,0,0:0:0:0:
297,106,73157,38,0,L|311:52,1,52.5,0|0,0:0|0:0,0:0:0:0:
289,114,73242,2,0,L|303:60,1,52.5,0|0,0:0|0:0,0:0:0:0:
247,112,73328,6,0,L|261:61,1,52.5,0|0,1:0|0:0,0:0:0:0:
239,120,73414,2,0,L|253:69,1,52.5
210,138,73499,38,0,B|240:156|268:165|333:157|333:157|267:176|236:241,1,210,8|0,0:0|0:0,0:0:0:0:
269,323,73757,1,0,0:0:0:0:
369,348,73842,6,0,B|365:256|365:256|241:207|241:207|158:288,1,315,0|0,1:0|0:0,0:0:0:0:
0,275,74185,2,0,L|78:267,1,78.7500030040742,8|0,0:0|0:0,0:0:0:0:
93,95,74357,1,0,0:0:0:0:
64,123,74442,1,0,0:0:0:0:
56,163,74528,38,0,B|103:181|147:164|162:119|162:119|134:168|139:206,1,210,0|0,0:0|1:0,0:0:0:0:
233,187,74785,1,0,1:0:0:0:
314,147,74871,2,0,B|300:107|253:93|253:93|318:97|347:165,1,210,8|0,0:0|0:0,0:0:0:0:
233,187,75128,1,0,1:0:0:0:
214,287,75214,6,0,L|218:179,1,78.7500030040742,0|0,1:0|0:0,0:0:0:0:
382,270,75385,1,0,0:0:0:0:
390,260,75471,1,0,0:0:0:0:
397,249,75557,38,0,L|393:141,1,105,8|0,0:0|0:0,0:0:0:0:
301,185,75728,1,0,0:0:0:0:
289,200,75814,1,0,0:0:0:0:
274,205,75899,6,0,L|260:151,1,52.5
260,220,75985,2,0,L|246:166,1,52.5
226,228,76071,38,0,L|240:174,1,52.5,0|0,1:0|0:0,0:0:0:0:
218,236,76157,2,0,L|232:182,1,52.5
214,281,76242,6,0,P|227:219|112:191,1,210,8|0,0:0|0:0,0:0:0:0:
131,354,76499,1,0,0:0:0:0:
152,370,76585,38,0,L|240:352,1,52.5,0|0,1:0|0:0,0:0:0:0:
203,359,76671,2,0,L|291:341,1,52.5,0|0,0:0|0:0,0:0:0:0:
254,348,76757,2,0,L|342:330,1,52.5,0|0,0:0|0:0,0:0:0:0:
305,337,76842,2,0,L|393:355,1,52.5,0|0,0:0|0:0,0:0:0:0:
431,363,76928,6,0,P|384:318|423:190,1,210,8|0,0:0|0:0,0:0:0:0:
455,119,77185,1,0,0:0:0:0:
419,192,77271,38,0,P|326:259|254:206,1,210,0|0,0:0|1:0,0:0:0:0:
164,225,77528,1,0,1:0:0:0:
78,191,77614,22,0,P|118:188|157:210,1,78.75,8|0,3:1|0:0,0:0:0:0:
157,212,77957,38,0,L|180:69,1,105,0|0,1:0|0:0,0:0:0:0:
252,50,78128,1,0,0:0:0:0:
263,59,78214,1,0,0:0:0:0:
275,66,78299,38,0,L|379:55,1,105,8|0,0:0|0:0,0:0:0:0:
282,187,78471,1,0,0:0:0:0:
276,204,78557,1,0,0:0:0:0:
257,196,78642,6,0,L|274:246,1,52.5,0|0,0:0|0:0,0:0:0:0:
254,158,78728,2,0,L|271:208,1,52.5,0|0,0:0|0:0,0:0:0:0:
248,122,78814,38,0,L|231:172,1,52.5,0|0,1:0|0:0,0:0:0:0:
251,84,78899,2,0,L|234:134,1,52.5
216,95,78985,6,0,B|166:131|166:131|178:219|178:219|244:171,1,210,8|0,0:0|0:0,0:0:0:0:
360,165,79242,1,0,1:0:0:0:
401,90,79328,38,0,B|388:157|388:157|445:155|445:155|424:229|424:229|372:229|372:229|329:289,1,315,0|0,1:0|0:0,0:0:0:0:
493,349,79671,6,0,B|431:317|431:317|369:329,1,105,8|0,0:0|0:0,0:0:0:0:
293,206,79842,1,0,0:0:0:0:
253,232,79928,1,0,0:0:0:0:
231,273,80014,38,0,P|291:296|382:198,1,210,0|0,0:0|1:0,0:0:0:0:
342,125,80271,1,0,1:0:0:0:
232,141,80357,2,0,P|305:116|370:154,1,105,8|0,0:0|0:0,0:0:0:0:
465,211,80528,1,0,0:0:0:0:
474,222,80614,1,0,0:0:0:0:
482,234,80699,6,0,L|353:194,1,105,0|0,1:0|0:0,0:0:0:0:
149,329,80871,1,0,0:0:0:0:
140,316,80957,1,0,0:0:0:0:
130,304,81042,38,0,L|259:264,1,105,8|0,0:0|0:0,0:0:0:0:
412,230,81214,1,0,0:0:0:0:
422,242,81299,1,0,0:0:0:0:
456,236,81385,6,0,L|432:302,1,52.5
434,203,81471,2,0,L|436:273,1,52.5
471,174,81557,38,0,L|447:240,1,52.5,0|0,1:0|0:0,0:0:0:0:
443,136,81642,2,0,L|445:206,1,52.5,0|0,0:0|0:0,0:0:0:0:
455,105,81728,6,0,P|388:160|310:79,1,210,8|0,0:0|0:0,0:0:0:0:
237,42,81985,1,0,0:0:0:0:
309,89,82071,38,0,P|275:123|184:110,1,105,0|0,1:0|0:0,0:0:0:0:
82,125,82242,2,0,P|105:135|132:130,1,52.5,0|0,0:0|0:0,0:0:0:0:
71,134,82328,2,0,P|97:161|124:160,1,52.5,0|0,0:0|0:0,0:0:0:0:
59,143,82414,2,0,P|86:206|138:243,1,105,8|0,0:0|0:0,0:0:0:0:
280,334,82585,1,0,0:0:0:0:
295,322,82671,1,0,0:0:0:0:
308,306,82757,6,0,P|302:207|208:200,1,210,0|0,0:0|1:0,0:0:0:0:
154,289,83014,1,0,0:0:0:0:
216,380,83099,2,0,P|166:347|150:296,1,105,8|0,0:0|0:0,0:0:0:0:
138,111,83271,2,0,L|150:168,1,52.5,0|0,0:0|0:0,0:0:0:0:
177,90,83357,2,0,L|165:147,1,52.5,0|0,0:0|0:0,0:0:0:0:
216,94,83442,38,0,B|148:234|148:234|116:180,1,210,0|0,1:0|0:0,0:0:0:0:
47,196,83699,1,0,0:0:0:0:
88,285,83785,6,0,P|120:314|193:293,1,105,8|0,0:0|0:0,0:0:0:0:
308,278,83957,1,0,0:0:0:0:
320,264,84042,1,0,0:0:0:0:
344,227,84128,38,0,L|350:282,1,52.5,0|0,0:0|0:0,0:0:0:0:
352,219,84214,2,0,L|358:274,1,52.5,0|0,0:0|0:0,0:0:0:0:
390,194,84299,6,0,L|384:249,1,52.5,0|0,1:0|0:0,0:0:0:0:
398,187,84385,2,0,L|392:242,1,52.5,0|0,0:0|0:0,0:0:0:0:
444,153,84471,38,0,B|456:212|432:287|432:287|473:214|471:177,1,210,8|0,0:0|0:0,0:0:0:0:
486,75,84728,1,0,1:0:0:0:
404,35,84814,6,0,B|348:30|302:57|302:57|278:116|303:171|303:171|278:129|224:111|183:145,1,315,0|0,1:0|0:0,0:0:0:0:
273,282,85157,2,0,P|223:294|176:272,1,105,8|0,0:0|0:0,0:0:0:0:
231,211,85328,1,0,0:0:0:0:
144,202,85414,1,0,0:0:0:0:
86,262,85499,38,0,B|123:272|136:305|136:305|146:261|179:219|231:212,1,210,0|0,0:0|1:0,0:0:0:0:
273,282,85757,1,0,1:0:0:0:
377,292,85842,2,0,B|404:307|412:338|412:338|412:313|392:237|314:214,1,210,8|0,0:0|0:0,0:0:0:0:
273,282,86099,1,0,1:0:0:0:
136,304,86185,6,0,P|157:257|197:223,1,105,0|0,1:0|0:0,0:0:0:0:
329,133,86357,1,0,0:0:0:0:
337,176,86442,1,0,0:0:0:0:
330,220,86528,38,0,P|321:130|361:89,1,105,8|0,0:0|0:0,0:0:0:0:
486,130,86699,1,0,0:0:0:0:
474,141,86785,1,0,0:0:0:0:
464,159,86871,6,0,L|477:215,1,52.5,0|0,0:0|0:0,0:0:0:0:
460,197,86957,2,0,L|473:253,1,52.5,0|0,0:0|0:0,0:0:0:0:
457,240,87042,38,0,L|444:296,1,52.5,0|0,1:0|0:0,0:0:0:0:
461,278,87128,2,0,L|448:334,1,52.5,0|0,0:0|0:0,0:0:0:0:
484,358,87214,6,0,P|432:292|295:327,1,210,8|0,0:0|0:0,0:0:0:0:
217,361,87471,1,0,1:0:0:0:
163,216,87557,38,0,P|196:269|243:284,1,105,0|0,1:0|0:0,0:0:0:0:
328,219,87728,2,0,P|360:201|373:180,1,52.5,0|0,0:0|0:0,0:0:0:0:
340,182,87814,2,0,P|358:161|361:126,1,52.5,0|0,0:0|0:0,0:0:0:0:
345,135,87899,6,0,P|340:95|273:48,1,105,8|0,0:0|0:0,0:0:0:0:
141,92,88071,1,0,0:0:0:0:
187,114,88157,1,0,0:0:0:0:
209,159,88242,38,0,B|211:212|275:261|275:261|221:250|193:208,1,210,0|0,0:0|1:0,0:0:0:0:
116,209,88499,1,0,1:0:0:0:
62,296,88585,22,0,L|40:242,1,52.5,8|2,0:0|0:0,0:0:0:0:
36,254,88928,6,0,P|88:234|173:291,1,157.5,2|0,1:2|0:0,0:0:0:0:
179,301,89271,1,10,0:2:0:0:
321,268,89442,1,0,0:0:0:0:
304,257,89528,2,0,L|289:138,1,105,0|0,0:0|0:0,0:0:0:0:
206,176,89785,2,0,P|167:182|139:173,1,52.5,2|0,1:2|0:0,0:0:0:0:
179,301,89957,2,0,P|228:274|282:289,1,105,8|0,0:2|0:0,0:0:0:0:
274,284,90299,38,0,L|289:165,1,105,2|0,1:2|0:0,0:0:0:0:
296,172,90557,1,0,0:0:0:0:
306,165,90642,1,8,0:0:0:0:
179,301,90814,2,0,P|188:264|181:237,1,52.5,2|0,0:0|0:0,0:0:0:0:
105,178,90985,1,2,0:0:0:0:
100,186,91071,1,0,0:0:0:0:
94,194,91157,1,0,1:0:0:0:
321,268,91328,2,0,L|305:162,1,105,10|0,0:0|0:0,0:0:0:0:
15,160,91671,6,0,P|62:174|113:145,1,105,2|0,1:2|0:0,0:0:0:0:
113,139,91928,1,0,0:0:0:0:
114,128,92014,1,8,0:0:0:0:
303,95,92185,1,0,0:0:0:0:
281,84,92271,2,0,P|231:84|192:132,1,105,0|0,0:0|0:0,0:0:0:0:
238,240,92528,2,0,P|246:189|217:151,1,52.5,0|0,1:0|0:0,0:0:0:0:
52,222,92699,2,0,L|165:200,1,105,8|0,0:0|0:0,0:0:0:0:
231,256,92957,1,0,0:0:0:0:
238,241,93042,38,0,P|248:198|164:136,1,157.5,2|0,1:2|0:0,0:0:0:0:
17,225,93385,2,0,L|174:209,1,157.5,10|0,0:0|0:0,0:0:0:0:
93,179,93728,2,0,L|250:194,1,157.5,2|0,0:0|0:0,0:0:0:0:
313,161,94071,2,0,P|323:204|239:266,1,157.5,10|0,0:0|0:0,0:0:0:0:
212,344,94414,6,0,L|198:188,1,157.5,2|0,1:2|0:0,0:0:0:0:
93,179,94757,1,10,0:0:0:0:
117,269,94928,2,0,L|132:113,1,157.5,0|0,0:0|0:0,0:0:0:0:
198,188,95271,1,2,1:2:0:0:
6,125,95442,2,0,L|15:229,1,105,8|0,0:0|0:0,0:0:0:0:
108,342,95785,38,0,P|158:371|233:268,1,210,2|8,1:2|0:0,0:0:0:0:
93,179,96299,1,2,0:0:0:0:
112,276,96471,2,0,L|189:288,1,52.5,2|0,0:0|0:0,0:0:0:0:
182,263,96642,2,0,L|259:275,1,52.5,0|0,1:0|0:0,0:0:0:0:
319,257,96814,2,0,L|141:288,1,157.5,10|0,0:0|0:0,0:0:0:0:
93,179,97157,6,0,L|80:284,1,105,2|0,1:2|0:0,0:0:0:0:
72,290,97414,1,0,0:0:0:0:
63,299,97499,1,8,0:0:0:0:
177,123,97671,1,0,0:0:0:0:
184,137,97757,2,0,P|225:171|279:163,1,105,0|0,0:0|0:0,0:0:0:0:
335,54,98014,2,0,P|319:75|313:100,1,52.5,0|0,1:0|0:0,0:0:0:0:
369,259,98185,2,0,P|379:208|350:167,1,105,8|0,0:0|0:0,0:0:0:0:
289,237,98442,1,0,0:0:0:0:
299,229,98528,38,0,L|125:222,1,157.5,2|0,1:2|0:0,0:0:0:0:
201,262,98871,2,0,P|212:205|141:232,1,157.5,10|0,0:0|0:0,0:0:0:0:
125,305,99214,2,0,P|87:352|81:287,1,157.5,2|0,0:0|0:0,0:0:0:0:
101,134,99557,2,0,P|159:165|252:92,1,157.5,10|0,0:0|0:0,0:0:0:0:
296,82,99899,6,0,L|288:223,1,105,2|0,1:2|0:0,0:0:0:0:
299,197,100157,1,0,0:0:0:0:
309,207,100242,1,8,0:0:0:0:
439,218,100414,1,0,0:0:0:0:
443,196,100499,2,0,P|443:155|400:111,1,105,0|0,0:0|0:0,0:0:0:0:
325,42,100757,2,0,P|300:53|267:46,1,52.5,2|0,1:2|0:0,0:0:0:0:
107,66,100928,2,0,P|143:107|152:164,1,105,8|0,0:0|0:0,0:0:0:0:
161,145,101271,38,0,P|201:137|259:162,1,105,2|0,1:2|0:0,0:0:0:0:
263,174,101528,1,0,0:0:0:0:
266,187,101614,1,8,0:0:0:0:
80,212,101785,2,0,P|71:237|72:263,1,52.5,2|0,0:0|0:0,0:0:0:0:
246,318,101957,1,2,0:0:0:0:
259,304,102042,1,0,0:0:0:0:
266,289,102128,1,0,1:2:0:0:
161,145,102299,2,0,L|150:251,1,105,10|0,0:0|0:0,0:0:0:0:
215,310,102642,6,0,L|203:192,1,105,2|0,1:2|0:0,0:0:0:0:
212,193,102899,1,0,0:0:0:0:
225,179,102985,1,8,0:0:0:0:
319,304,103157,1,0,0:0:0:0:
333,292,103242,2,0,P|338:252|312:191,1,105,0|0,0:0|0:0,0:0:0:0:
284,103,103499,2,0,P|330:120|346:116,1,52.5,0|0,1:0|0:0,0:0:0:0:
446,106,103671,2,0,L|427:209,1,105,8|0,0:0|0:0,0:0:0:0:
433,220,103928,1,0,0:0:0:0:
443,234,104014,38,0,P|389:205|320:267,1,157.5,2|0,1:2|0:0,0:0:0:0:
393,286,104357,2,0,L|215:271,1,157.5,10|0,0:0|0:0,0:0:0:0:
321,258,104699,2,0,L|143:273,1,157.5,2|0,0:0|0:0,0:0:0:0:
123,330,105042,2,0,P|198:336|236:272,1,157.5,10|0,0:0|0:0,0:0:0:0:
207,77,105385,6,0,L|192:184,1,105,2|0,1:2|0:0,0:0:0:0:
181,190,105642,1,0,0:0:0:0:
170,199,105728,1,10,0:0:0:0:
336,162,105899,1,0,0:0:0:0:
346,172,105985,2,0,B|427:164|427:164|398:189,1,105,0|0,0:0|0:0,0:0:0:0:
321,258,106242,2,0,P|294:266|257:263,1,52.5,2|0,1:2|0:0,0:0:0:0:
170,199,106414,2,0,L|184:95,1,105,8|0,0:0|0:0,0:0:0:0:
321,258,106757,38,0,L|307:154,1,105,2|0,1:2|0:0,0:0:0:0:
311,144,107014,1,0,0:0:0:0:
318,132,107099,1,8,0:0:0:0:
455,212,107271,2,0,P|444:233|412:252,1,52.5,2|0,0:0|0:0,0:0:0:0:
377,58,107442,1,0,0:0:0:0:
381,75,107528,1,2,0:0:0:0:
386,92,107614,1,0,1:0:0:0:
170,199,107785,2,0,L|184:95,1,105,8|0,0:0|0:0,0:0:0:0:
249,294,108128,5,2,1:2:0:0:
256,192,108214,12,0,109499,0:0:0:0:
143,219,110871,37,0,1:0:0:0:
157,228,110957,2,0,P|198:220|241:149,1,118.125004506111,2|8,0:0|0:0,0:0:0:0:
304,49,111385,1,0,0:0:0:0:
307,63,111471,2,0,L|326:190,1,118.125004506111,2|0,0:0|1:0,0:0:0:0:
420,318,111899,2,0,P|407:281|379:253,1,78.7500030040742,8|0,0:0|0:0,0:0:0:0:
250,344,112242,5,2,1:2:0:0:
262,330,112328,2,0,L|358:320,2,78.7500030040742,2|2|0,0:0|0:0|0:0,0:0:0:0:
258,246,112757,2,0,L|305:251,1,39.3750015020371,2|0,0:0|0:0,0:0:0:0:
341,177,112928,2,0,L|388:182,1,39.3750015020371,2|0,0:0|0:0,0:0:0:0:
212,155,113099,2,0,L|259:160,1,39.3750015020371,2|0,1:2|0:0,0:0:0:0:
179,248,113271,2,0,L|190:158,1,78.7500030040742,8|0,0:0|0:0,0:0:0:0:
209,25,113614,37,0,1:0:0:0:
222,43,113699,2,0,P|233:92|206:164,1,118.125004506111,2|8,0:0|0:0,0:0:0:0:
63,232,114128,1,0,0:0:0:0:
81,243,114214,2,0,L|200:238,1,118.125004506111,2|0,0:0|1:0,0:0:0:0:
369,191,114642,2,0,P|342:160|343:111,1,78.7500030040742,8|0,0:0|0:0,0:0:0:0:
209,25,114985,5,2,1:2:0:0:
221,42,115071,2,0,P|229:60|231:80,1,39.3750015020371,2|0,0:0|0:0,0:0:0:0:
161,165,115242,2,0,P|153:145|155:84,1,78.7500030040742,2|0,0:0|0:0,0:0:0:0:
240,190,115499,2,0,P|242:215|235:235,1,39.3750015020371,2|0,0:0|0:0,0:0:0:0:
151,323,115671,2,0,P|180:304|202:306,1,39.3750015020371,0|0,0:3|0:0,0:0:0:0:
284,310,115842,2,0,P|315:317|337:309,1,39.3750015020371,2|0,1:2|0:0,0:0:0:0:
410,255,116014,2,0,L|428:174,1,78.7500030040742,8|0,0:0|0:0,0:0:0:0:
444,57,116357,37,0,1:0:0:0:
427,54,116442,2,0,L|436:186,1,118.125004506111,2|8,0:0|0:0,0:0:0:0:
308,196,116871,1,0,0:0:0:0:
321,207,116956,2,0,P|340:247|316:321,1,118.125004506111,2|0,0:0|1:0,0:0:0:0:
173,267,117385,2,0,L|252:261,1,78.7500030040742,8|0,0:0|0:0,0:0:0:0:
413,235,117728,5,2,1:2:0:0:
428,250,117814,2,0,L|435:164,2,78.7500030040742,2|2|0,0:0|0:0|0:0,0:0:0:0:
423,328,118242,2,0,L|462:330,1,39.3750015020371,2|0,0:0|0:0,0:0:0:0:
318,287,118414,2,0,L|358:290,1,39.3750015020371,2|0,0:0|0:0,0:0:0:0:
252,374,118585,2,0,L|291:376,1,39.3750015020371,2|0,1:2|0:0,0:0:0:0:
129,338,118757,2,0,P|181:309|201:284,1,78.7500030040742,8|0,0:0|0:0,0:0:0:0:
129,180,119099,37,0,1:0:0:0:
145,190,119185,2,0,L|268:169,1,118.125004506111,2|8,0:0|0:0,0:0:0:0:
410,107,119614,1,0,0:0:0:0:
397,124,119699,2,0,P|380:160|396:245,1,118.125004506111,2|0,0:0|1:0,0:0:0:0:
423,358,120128,2,0,P|380:319|358:315,1,78.7500030040742,8|0,0:0|0:0,0:0:0:0:
179,324,120471,5,2,1:2:0:0:
198,332,120557,2,0,P|227:336|244:326,1,39.3750015020371,2|0,0:0|0:0,0:0:0:0:
287,195,120728,2,0,P|279:221|286:277,1,78.7500030040742,2|0,0:0|0:0,0:0:0:0:
329,375,120985,2,0,P|324:355|311:329,1,39.3750015020371,2|0,0:0|0:0,0:0:0:0:
207,242,121157,2,0,P|207:222|210:202,1,39.3750015020371,0|0,0:0|0:0,0:0:0:0:
254,116,121328,2,0,P|274:101|294:96,1,39.3750015020371,0|0,1:0|0:0,0:0:0:0:
435,136,121499,2,0,P|385:152|349:140,1,78.7500030040742,8|0,0:0|0:0,0:0:0:0:
491,58,121842,37,0,1:0:0:0:
484,73,121928,2,0,P|473:131|506:198,1,118.125004506111,2|8,0:0|0:0,0:0:0:0:
448,286,122357,1,0,0:0:0:0:
437,297,122442,2,0,L|306:276,1,118.125004506111,2|0,0:0|1:0,0:0:0:0:
212,278,122871,2,0,P|203:233|227:190,1,78.7500030040742,8|0,0:0|0:0,0:0:0:0:
359,129,123214,5,2,1:2:0:0:
351,144,123299,2,0,L|281:207,2,78.7500030040742,2|2|0,0:0|0:0|0:0,0:0:0:0:
297,90,123728,2,0,L|245:136,1,39.3750015020371,2|0,0:0|0:0,0:0:0:0:
215,204,123899,2,0,P|176:204|168:198,1,39.3750015020371,0|0,0:0|0:0,0:0:0:0:
111,163,124071,2,0,P|95:151|87:133,1,39.3750015020371,0|0,1:0|0:0,0:0:0:0:
200,29,124242,2,0,P|209:66|194:102,1,78.7500030040742,8|0,0:0|0:0,0:0:0:0:
45,230,124585,37,0,1:0:0:0:
59,212,124670,2,0,L|191:203,1,118.125004506111,2|8,0:0|0:0,0:0:0:0:
201,331,125099,1,0,0:0:0:0:
212,318,125184,2,0,P|252:299|326:323,1,118.125004506111,2|0,0:0|1:0,0:0:0:0:
415,207,125614,2,0,P|371:196|345:161,1,78.7500030040742,8|0,0:0|0:0,0:0:0:0:
239,46,125957,5,2,1:2:0:0:
252,63,126042,2,0,P|261:104|260:111,1,39.3750015020371,2|0,0:0|0:0,0:0:0:0:
141,173,126214,2,0,P|175:156|214:162,1,78.7500030040742,2|0,0:0|0:0,0:0:0:0:
198,294,126471,2,0,L|197:255,1,39.3750015020371,2|0,0:0|0:0,0:0:0:0:
286,174,126642,2,0,L|282:214,1,39.3750015020371,0|0,0:0|0:0,0:0:0:0:
293,325,126814,2,0,L|314:291,1,39.3750015020371,0|0,1:0|0:0,0:0:0:0:
444,210,126985,2,0,P|415:236|377:239,1,78.7500030040742,8|0,0:0|0:0,0:0:0:0:
286,340,127328,37,0,1:0:0:0:
293,325,127414,2,0,P|304:267|271:200,1,118.125004506111,2|8,0:0|0:0,0:0:0:0:
441,134,127843,1,0,0:0:0:0:
456,119,127928,2,0,L|340:101,1,118.125004506111,2|0,0:0|1:0,0:0:0:0:
221,55,128357,2,0,P|220:104|237:152,1,78.7500030040742,8|0,0:0|0:0,0:0:0:0:
284,235,128699,5,2,1:2:0:0:
299,248,128785,2,0,L|404:230,2,78.7500030040742,2|2|0,0:0|0:0|0:0,0:0:0:0:
263,319,129214,2,0,P|240:296|232:278,1,39.3750015020371,2|0,0:0|0:0,0:0:0:0:
222,159,129385,2,0,P|255:167|270:167,1,39.3750015020371,0|0,0:0|0:0,0:0:0:0:
345,153,129557,2,0,P|371:142|386:134,1,39.3750015020371,0|0,1:0|0:0,0:0:0:0:
438,49,129728,2,0,P|376:63|336:59,1,78.7500030040742,8|0,0:0|0:0,0:0:0:0:
186,52,130071,37,0,1:0:0:0:
196,62,130157,2,0,L|206:198,1,118.125004506111,2|8,0:0|0:0,0:0:0:0:
179,292,130585,1,0,0:0:0:0:
190,307,130671,2,0,P|258:270|314:287,1,118.125004506111,2|0,0:0|1:0,0:0:0:0:
409,353,131099,2,0,L|420:254,1,78.7500030040742,8|0,0:0|0:0,0:0:0:0:
460,107,131442,6,0,L|403:117,1,31.4999990386963
378,173,131614,2,0,L|389:198,1,15.7499995193482
364,180,131699,2,0,L|375:205,1,15.7499995193482
355,187,131785,2,0,L|270:172,1,62.9999980773926,0|0,0:0|0:0,0:0:0:0:
281,189,132042,2,0,L|196:174,1,62.9999980773926,0|0,0:0|0:0,0:0:0:0:
180,253,132299,2,0,L|171:201,1,31.4999990386963,0|0,0:0|0:0,0:0:0:0:
153,294,132471,2,0,L|141:219,1,62.9999980773926,0|0,0:0|0:0,0:0:0:0:
135,243,132814,37,4,1:0:0:0:
237,179,132985,1,0,0:0:0:0:
237,179,133071,1,0,0:0:0:0:
237,179,133157,2,0,L|224:235,1,52.5,2|0,0:3|0:0,0:0:0:0:
307,224,133328,2,0,L|320:280,1,52.5,0|0,0:0|0:0,0:0:0:0:
425,258,133499,1,8,0:0:0:0:
250,321,133671,1,0,1:0:0:0:
310,138,133842,1,2,0:3:0:0:
164,136,134014,2,0,L|150:193,1,52.5,0|0,0:0|0:0,0:0:0:0:
250,321,134185,6,0,L|241:260,1,52.5,0|0,0:0|0:0,0:0:0:0:
113,280,134357,1,0,1:0:0:0:
113,280,134442,1,0,0:0:0:0:
113,280,134528,2,0,L|176:267,1,52.5,2|0,0:3|0:0,0:0:0:0:
310,138,134699,1,0,1:0:0:0:
152,187,134871,2,0,L|269:197,1,105,8|0,0:0|0:0,0:0:0:0:
239,209,135128,1,0,0:0:0:0:
222,224,135214,2,0,L|339:234,1,105,2|0,0:3|0:0,0:0:0:0:
344,220,135471,1,0,0:0:0:0:
368,205,135557,37,0,1:0:0:0:
369,236,135642,1,0,0:0:0:0:
377,266,135728,1,0,0:0:0:0:
397,289,135814,1,0,0:0:0:0:
428,307,135899,2,0,L|371:315,1,52.5,2|0,0:3|0:0,0:0:0:0:
503,246,136071,2,0,L|446:238,1,52.5,0|0,0:0|0:0,0:0:0:0:
499,145,136242,1,8,0:0:0:0:
274,292,136414,1,0,1:0:0:0:
499,145,136585,2,0,P|454:134|436:137,1,52.5,2|0,0:3|0:0,0:0:0:0:
294,227,136757,1,0,0:0:0:0:
294,263,136842,1,0,0:0:0:0:
274,292,136928,6,0,P|251:227|262:193,1,105,2|0,0:0|1:0,0:0:0:0:
364,138,137185,1,0,0:0:0:0:
379,148,137271,2,0,L|320:143,1,52.5,2|2,0:3|0:0,0:0:0:0:
243,81,137442,1,0,1:0:0:0:
481,120,137614,2,0,L|325:143,1,157.5,8|0,0:0|0:0,0:0:0:0:
243,81,137957,2,0,P|251:136|245:212,1,105,2|0,3:2|0:0,0:0:0:0:
125,267,138299,37,0,1:0:0:0:
121,252,138385,1,0,0:0:0:0:
117,237,138471,1,0,0:0:0:0:
113,222,138557,1,0,0:0:0:0:
121,201,138642,2,0,L|193:195,1,52.5,2|0,0:3|0:3,0:0:0:0:
247,292,138814,2,0,L|235:216,1,52.5,0|0,0:0|0:0,0:0:0:0:
70,130,138985,1,8,0:0:0:0:
162,285,139157,1,0,1:0:0:0:
247,157,139328,1,2,0:3:0:0:
41,248,139499,1,0,0:0:0:0:
41,248,139585,1,0,0:0:0:0:
41,248,139671,6,0,L|98:259,1,52.5,2|0,0:3|0:0,0:0:0:0:
254,164,139842,1,0,1:0:0:0:
254,164,139928,1,0,0:0:0:0:
254,164,140014,2,0,L|311:175,1,52.5,2|0,0:3|0:0,0:0:0:0:
394,191,140185,1,0,1:0:0:0:
92,257,140357,2,0,L|149:246,1,52.5,8|0,0:0|0:0,0:0:0:0:
202,173,140528,2,0,L|259:162,1,52.5,2|0,0:3|0:0,0:0:0:0:
394,191,140699,2,0,L|370:300,1,105,2|0,0:3|0:0,0:0:0:0:
376,305,140957,1,0,0:0:0:0:
383,316,141042,37,0,1:0:0:0:
351,311,141128,1,0,0:0:0:0:
319,314,141214,1,0,0:0:0:0:
291,328,141299,1,0,0:0:0:0:
269,363,141385,2,0,P|268:321|261:296,1,52.5,2|0,0:3|0:0,0:0:0:0:
92,257,141557,2,0,P|123:255|149:246,1,52.5,0|0,0:0|0:0,0:0:0:0:
260,124,141728,1,8,0:0:0:0:
179,345,141899,1,0,1:0:0:0:
121,126,142071,2,0,L|115:186,1,52.5,2|0,0:3|0:0,0:0:0:0:
303,247,142242,1,2,0:0:0:0:
323,232,142328,1,2,0:0:0:0:
339,216,142414,6,0,P|352:179|352:158,1,52.5,0|0,0:0|0:0,0:0:0:0:
260,124,142585,2,0,P|257:90|246:69,1,52.5,0|0,1:0|0:0,0:0:0:0:
108,110,142757,1,0,0:0:0:0:
114,119,142842,1,0,0:0:0:0:
121,127,142928,1,0,1:0:0:0:
62,206,143099,2,0,L|235:187,1,157.5,10|0,0:0|0:0,0:0:0:0:
112,279,143442,2,0,L|238:292,1,105,2|0,0:3|0:0,0:0:0:0:
226,304,143699,1,0,0:0:0:0:
236,320,143785,37,0,1:0:0:0:
299,252,143957,2,0,L|312:308,1,52.5,8|0,3:3|0:0,0:0:0:0:
443,227,144128,1,2,0:3:0:0:
452,243,144214,1,0,0:0:0:0:
458,258,144299,2,0,L|469:206,1,52.5,8|0,3:3|0:0,0:0:0:0:
316,172,144470,1,8,0:0:0:0:
460,341,144642,1,0,1:0:0:0:
310,303,144813,1,2,0:3:0:0:
399,180,144985,2,0,L|386:129,1,52.5,0|0,0:0|0:0,0:0:0:0:
440,40,145157,6,0,P|384:47|370:42,1,52.5,2|0,0:0|0:0,0:0:0:0:
286,65,145328,1,0,0:0:0:0:
269,52,145414,1,0,0:0:0:0:
252,44,145499,2,0,P|208:50|197:55,1,52.5,2|0,0:3|0:0,0:0:0:0:
131,154,145671,1,0,1:0:0:0:
305,199,145842,2,0,L|200:190,1,105,10|0,0:0|0:0,0:0:0:0:
218,177,146099,1,0,0:0:0:0:
235,162,146185,2,0,L|130:153,1,105,2|0,0:3|0:0,0:0:0:0:
113,166,146442,1,0,0:0:0:0:
99,186,146528,37,0,1:0:0:0:
117,211,146614,1,0,0:0:0:0:
132,237,146699,1,0,0:0:0:0:
133,268,146785,1,0,0:0:0:0:
121,297,146871,2,0,P|136:321|160:333,1,52.5,2|0,0:3|0:0,0:0:0:0:
7,279,147042,2,0,P|28:260|54:255,1,52.5,0|0,0:0|0:0,0:0:0:0:
48,363,147214,1,8,0:0:0:0:
246,181,147385,2,0,L|228:248,1,52.5,0|0,1:0|0:0,0:0:0:0:
33,175,147557,2,0,L|146:189,1,105,2|0,0:3|0:0,0:0:0:0:
148,200,147814,1,0,0:0:0:0:
158,213,147899,6,0,L|44:78,1,157.5,2|0,0:0|0:0,0:0:0:0:
33,175,148242,2,0,L|202:135,1,157.5,2|0,0:0|0:0,0:0:0:0:
241,66,148585,2,0,P|212:123|246:211,1,157.5,2|0,0:0|0:0,0:0:0:0:
335,230,148928,2,0,P|240:232|187:306,1,157.5,2|0,0:0|0:0,0:0:0:0:
226,352,149271,37,0,1:0:0:0:
246,347,149357,1,0,0:0:0:0:
266,342,149442,1,0,0:0:0:0:
286,337,149528,1,0,0:0:0:0:
306,341,149614,2,0,P|322:320|344:306,1,52.5,2|0,0:3|0:0,0:0:0:0:
447,276,149785,2,0,P|471:261|484:233,1,52.5,0|0,0:0|0:0,0:0:0:0:
433,142,149957,1,8,0:0:0:0:
407,369,150128,1,0,1:0:0:0:
335,230,150299,1,2,0:3:0:0:
216,335,150471,1,0,0:0:0:0:
216,335,150557,1,0,0:0:0:0:
216,335,150642,6,0,L|155:321,1,52.5,8|0,0:3|0:0,0:0:0:0:
90,238,150814,1,0,1:0:0:0:
335,230,150985,2,0,L|260:216,1,52.5,8|0,0:0|0:0,0:0:0:0:
86,322,151157,1,0,1:0:0:0:
230,143,151328,1,8,0:0:0:0:
38,227,151499,2,0,L|109:241,1,52.5,8|0,0:3|0:0,0:0:0:0:
232,230,151671,2,0,P|273:224|319:159,1,105,10|0,0:3|0:0,0:0:0:0:
318,160,151928,1,0,0:0:0:0:
312,139,152014,37,0,1:0:0:0:
331,145,152099,1,0,0:0:0:0:
351,151,152185,1,0,0:0:0:0:
371,157,152271,1,0,0:0:0:0:
401,149,152357,2,0,L|395:214,1,52.5,2|0,0:3|0:0,0:0:0:0:
479,219,152528,2,0,L|485:284,1,52.5,0|0,0:0|0:0,0:0:0:0:
419,337,152699,1,8,0:0:0:0:
496,81,152871,2,0,P|450:88|415:80,1,52.5,0|0,1:0|0:0,0:0:0:0:
280,65,153042,1,2,0:3:0:0:
309,246,153214,1,0,0:0:0:0:
309,246,153299,1,0,0:0:0:0:
309,246,153385,5,2,0:0:0:0:
314,251,153728,1,0,0:0:0:0:
319,256,154071,1,0,0:0:0:0:
324,261,154414,1,0,0:0:0:0:
329,266,154757,38,0,P|242:280|186:215,1,157.5,4|0,1:2|0:0,0:0:0:0:
190,156,155100,1,8,0:0:0:0:
327,254,155271,1,0,0:0:0:0:
307,264,155357,2,0,P|257:272|215:243,1,105,2|0,0:0|0:0,0:0:0:0:
194,105,155614,2,0,P|198:130|190:156,1,52.5,0|0,1:0|0:0,0:0:0:0:
131,292,155785,2,0,P|111:244|125:195,1,105,8|0,0:0|0:0,0:0:0:0:
234,122,156128,5,2,1:2:0:0:
225,137,156214,2,0,L|213:251,2,105,2|2|0,0:0|0:0|0:0,0:0:0:0:
301,97,156643,2,0,L|316:152,1,52.5,2|0,0:0|0:0,0:0:0:0:
304,260,156814,2,0,L|350:214,1,52.5,2|0,0:2|0:0,0:0:0:0:
441,143,156986,2,0,L|383:158,1,52.5,0|0,1:2|0:0,0:0:0:0:
214,242,157157,2,0,L|230:85,1,157.5,10|0,0:0|0:0,0:0:0:0:
341,222,157499,38,0,P|301:147|356:85,1,157.5,2|0,1:2|0:0,0:0:0:0:
359,86,157841,1,8,0:0:0:0:
229,85,158013,1,0,0:0:0:0:
212,107,158099,2,0,P|172:121|114:94,1,105,2|0,0:0|0:0,0:0:0:0:
58,197,158356,2,0,P|80:240|82:266,1,52.5,0|0,1:0|0:0,0:0:0:0:
0,264,158527,2,0,L|157:237,1,157.5,10|0,0:0|0:0,0:0:0:0:
273,336,158871,6,0,P|272:284|243:241,1,105,2|0,1:2|0:0,0:0:0:0:
98,339,159128,2,0,P|150:339|193:311,1,105,2|0,0:0|0:0,0:0:0:0:
132,191,159385,2,0,P|139:216|155:237,1,52.5,2|0,0:0|0:0,0:0:0:0:
300,178,159556,2,0,L|351:190,1,52.5,0|0,0:0|0:0,0:0:0:0:
357,111,159728,2,0,B|406:93,1,52.5,0|0,1:0|0:0,0:0:0:0:
446,197,159899,2,0,B|384:218|384:218|294:197,1,157.5,8|0,0:0|0:0,0:0:0:0:
287,106,160242,38,0,P|237:123|209:220,1,157.5,2|0,1:2|0:0,0:0:0:0:
223,261,160585,1,8,0:0:0:0:
301,121,160757,1,0,0:0:0:0:
281,120,160842,2,0,P|226:149|217:210,1,105,2|0,0:0|0:0,0:0:0:0:
308,308,161099,2,0,P|306:262|296:249,1,52.5,0|0,1:0|0:0,0:0:0:0:
96,218,161271,2,0,P|148:273|223:261,1,157.5,10|0,0:0|0:0,0:0:0:0:
291,191,161614,5,2,1:2:0:0:
300,178,161699,2,0,B|379:159|379:159|365:188,2,105,2|2|0,0:0|0:0|0:0,0:0:0:0:
314,300,162128,2,0,P|312:254|302:241,1,52.5,2|0,0:0|0:0,0:0:0:0:
189,283,162299,2,0,P|215:287|240:282,1,52.5,2|0,0:0|0:0,0:0:0:0:
395,268,162471,2,0,P|421:264|446:269,1,52.5,0|0,1:0|0:0,0:0:0:0:
410,107,162642,2,0,P|388:163|282:166,1,157.5,8|0,0:0|0:0,0:0:0:0:
211,208,162985,38,0,B|223:96|223:96|186:127,1,157.5,2|0,1:2|0:0,0:0:0:0:
171,136,163328,1,8,0:0:0:0:
231,232,163499,1,0,0:0:0:0:
223,221,163585,2,0,B|235:109,1,105,2|0,0:0|0:0,0:0:0:0:
177,48,163842,1,0,1:0:0:0:
133,255,164013,2,0,L|242:243,1,105,8|0,0:0|0:0,0:0:0:0:
410,196,164357,6,0,P|371:213|306:194,1,105,2|0,1:2|0:0,0:0:0:0:
223,49,164614,2,0,L|239:162,1,105,2|0,0:0|0:0,0:0:0:0:
202,278,164872,2,0,P|233:255|238:238,1,52.5,2|0,0:0|0:0,0:0:0:0:
82,157,165043,2,0,P|122:167|137:164,1,52.5,0|0,0:0|0:0,0:0:0:0:
143,158,165214,2,0,P|183:148|198:151,1,52.5,0|0,1:2|0:0,0:0:0:0:
96,218,165386,2,0,P|131:151|206:141,1,157.5,10|0,0:0|0:0,0:0:0:0:
314,338,165728,38,0,L|185:222,1,157.5,2|0,1:2|0:0,0:0:0:0:
188,223,166071,1,8,0:0:0:0:
288,101,166242,1,0,0:0:0:0:
304,115,166328,2,0,P|317:159|307:236,1,105,2|0,0:0|0:0,0:0:0:0:
304,238,166585,1,0,1:0:0:0:
110,264,166757,2,0,L|235:246,1,105,8|0,0:0|0:0,0:0:0:0:
309,255,167099,5,2,1:2:0:0:
304,238,167185,2,0,P|317:181|359:155,2,105,2|2|0,0:0|0:0|0:0,0:0:0:0:
299,225,167613,2,0,P|260:217|234:231,1,52.5,2|0,0:0|0:0,0:0:0:0:
149,234,167785,2,0,P|163:201|163:175,1,52.5,2|0,0:0|0:0,0:0:0:0:
151,99,167956,2,0,P|141:68|149:36,1,52.5,0|0,1:0|0:0,0:0:0:0:
361,82,168128,2,0,P|294:44|219:60,1,157.5,10|0,0:0|0:0,0:0:0:0:
70,150,168471,38,0,P|114:184|218:129,1,157.5,2|0,1:2|0:0,0:0:0:0:
214,145,168814,1,8,0:0:0:0:
100,277,168985,1,0,0:0:0:0:
110,264,169071,2,0,P|148:243|226:257,1,105,2|0,0:0|0:0,0:0:0:0:
291,350,169328,2,0,P|269:310|268:286,1,52.5,0|0,1:0|0:0,0:0:0:0:
425,229,169499,2,0,P|360:190|291:220,1,157.5,10|0,0:0|0:0,0:0:0:0:
173,333,169842,6,0,P|153:292|175:217,1,105,2|0,1:2|0:0,0:0:0:0:
290,220,170099,2,0,P|297:156|268:103,1,105,2|0,0:0|0:0,0:0:0:0:
158,33,170357,2,0,P|146:75|152:112,1,52.5,0|0,0:0|0:0,0:0:0:0:
173,231,170528,1,0,0:0:0:0:
183,223,170614,1,2,0:0:0:0:
193,215,170699,1,0,1:0:0:0:
119,155,170871,2,0,P|152:222|121:320,1,157.5,10|0,0:0|0:0,0:0:0:0:
93,337,171214,38,0,B|161:316|204:356|290:316,1,157.5,2|0,1:2|0:0,0:0:0:0:
269,318,171557,1,8,0:0:0:0:
352,254,171728,1,0,0:0:0:0:
356,268,171814,2,0,P|406:242|413:177,1,105,2|0,0:0|0:0,0:0:0:0:
501,108,172071,2,0,P|484:129|448:132,1,52.5,0|0,1:0|0:0,0:0:0:0:
262,173,172242,2,0,P|311:116|385:132,1,157.5,10|0,0:2|0:0,0:0:0:0:
354,297,172585,5,2,1:2:0:0:
341,312,172671,2,0,L|458:320,2,105,2|2|0,0:0|0:0|0:0,0:0:0:0:
334,328,173099,2,0,P|299:332|271:350,1,52.5,2|0,0:0|0:0,0:0:0:0:
200,363,173271,2,0,P|165:368|130:364,1,52.5,2|0,0:0|0:0,0:0:0:0:
76,326,173442,2,0,P|49:293|45:267,1,52.5,0|0,1:0|0:0,0:0:0:0:
44,186,173614,2,0,P|52:138|114:100,1,105,8|0,0:0|0:0,0:0:0:0:
338,253,173957,38,0,P|286:249|235:260,1,105,0|0,0:0|0:0,0:0:0:0:
142,353,174299,1,0,0:0:0:0:
370,181,174471,6,0,P|322:161|270:155,1,105,0|0,0:0|0:0,0:0:0:0:
149,335,174814,1,0,0:0:0:0:
140,163,174985,2,0,P|89:180|40:215,1,105,0|0,0:0|0:0,0:0:0:0:
28,317,175328,38,0,P|107:301|139:246,1,118.125004506111,0|0,0:0|0:0,0:0:0:0:
140,163,175671,2,0,P|187:196|202:252,1,118.125004506111
28,317,176014,6,0,L|97:300,1,52.5,0|0,0:0|0:0,0:0:0:0:
152,264,176185,2,0,L|221:247,1,52.5,0|0,0:0|0:0,0:0:0:0:
401,265,176357,1,8,0:0:0:0:
390,255,176699,6,0,L|229:241,1,115.50000352478,0|0,1:0|0:0,0:0:0:0:
68,258,176871,2,0,L|84:348,1,57.7500017623902,0|0,3:0|0:0,0:0:0:0:
60,250,176957,2,0,L|76:340,1,57.7500017623902,0|0,3:0|0:0,0:0:0:0:
52,242,177042,6,0,L|213:228,1,115.50000352478,8|0,0:0|0:0,0:0:0:0:
400,198,177214,2,0,L|384:288,1,57.7500017623902,0|0,3:0|0:0,0:0:0:0:
392,190,177299,2,0,L|376:280,1,57.7500017623902,0|0,3:0|0:0,0:0:0:0:
384,182,177385,38,0,P|291:192|242:143,1,115.50000352478,0|0,0:0|0:0,0:0:0:0:
117,56,177557,2,0,P|144:48|183:47,1,57.7500017623902,0|0,1:0|0:0,0:0:0:0:
173,46,177642,2,0,P|221:65|237:87,1,57.7500017623902,0|0,3:0|0:0,0:0:0:0:
224,68,177728,6,0,P|259:122|136:225,1,231.000007049561,8|0,0:0|0:0,0:0:0:0:
58,210,177985,1,0,1:0:0:0:
79,321,178071,38,0,B|117:299|125:258|88:208|88:208|128:198|150:169|151:118,1,231.000007049561,0|0,1:0|0:0,0:0:0:0:
110,48,178328,1,0,0:0:0:0:
224,68,178414,6,0,B|260:68|260:68|292:81|292:81|320:83|320:83|335:90|335:90|378:84,1,115.50000352478,8|0,0:0|0:0,0:0:0:0:
431,153,178585,1,0,0:0:0:0:
441,165,178671,1,0,0:0:0:0:
437,178,178757,38,0,P|423:210|421:233,1,57.7500017623902,0|0,0:0|0:0,0:0:0:0:
444,185,178842,2,0,P|430:217|428:240,1,57.7500017623902,0|0,0:0|0:0,0:0:0:0:
468,230,178928,6,0,P|482:262|484:285,1,57.7500017623902,0|0,1:0|0:0,0:0:0:0:
461,237,179014,2,0,P|475:269|477:292,1,57.7500017623902
464,312,179099,38,0,B|443:352|394:365|344:331|344:331|290:294|241:315,1,231.000007049561,8|0,0:0|0:0,0:0:0:0:
164,340,179357,1,0,1:0:0:0:
66,254,179442,6,0,L|190:263,1,115.50000352478,0|0,1:0|0:0,0:0:0:0:
412,216,179614,2,0,L|396:306,1,57.7500017623902,0|0,3:0|0:0,0:0:0:0:
420,208,179700,2,0,L|404:298,1,57.7500017623902,0|0,3:0|0:0,0:0:0:0:
428,200,179785,38,0,L|304:209,1,115.50000352478,8|0,0:0|0:0,0:0:0:0:
55,197,179957,2,0,L|71:287,1,57.7500017623902,0|0,3:0|0:0,0:0:0:0:
63,189,180043,2,0,L|79:279,1,57.7500017623902,0|0,3:0|0:0,0:0:0:0:
71,181,180128,6,0,P|128:191|208:136,1,115.50000352478,0|0,0:0|0:0,0:0:0:0:
378,86,180299,2,0,L|326:120,1,57.7500017623902,0|0,1:0|0:0,0:0:0:0:
329,119,180385,2,0,L|310:178,1,57.7500017623902,0|0,3:0|0:0,0:0:0:0:
312,174,180471,38,0,B|260:208|260:208|249:269|249:269|186:285|186:285|144:245,1,231.000007049561,8|0,0:0|0:0,0:0:0:0:
27,139,180728,1,0,1:0:0:0:
97,109,180814,6,0,P|86:83|63:68,1,57.7500017623902,0|0,1:0|0:0,0:0:0:0:
106,112,180899,2,0,P|99:84|78:66,1,57.7500017623902,0|0,3:0|0:0,0:0:0:0:
116,113,180985,2,0,P|112:85|93:65,1,57.7500017623902,0|0,3:0|0:0,0:0:0:0:
124,117,181071,2,0,P|124:89|108:66,1,57.7500017623902,0|0,3:0|3:0,0:0:0:0:
133,169,181157,37,8,1:0:0:0:
178,179,181242,1,0,0:0:0:0:
224,181,181328,1,0,0:0:0:0:
269,174,181414,1,0,0:0:0:0:
330,233,181499,6,0,B|351:208|354:194|352:154|352:154|381:234|372:269|319:321,1,231.000007049561,0|0,1:0|1:0,0:0:0:0:
235,254,181757,1,0,1:0:0:0:
133,314,181842,2,0,B|162:327|199:328|199:328|176:317|152:282,1,115.50000352478,8|0,0:0|0:0,0:0:0:0:
47,224,182014,2,0,P|73:228|98:270,1,57.7500017623902
39,216,182100,2,0,P|69:238|56:300,1,57.7500017623902
31,208,182185,38,0,L|192:194,1,115.50000352478,0|0,1:0|0:0,0:0:0:0:
330,233,182357,2,0,L|314:323,1,57.7500017623902,0|0,3:0|0:0,0:0:0:0:
338,225,182443,2,0,L|322:315,1,57.7500017623902,0|0,3:0|0:0,0:0:0:0:
346,217,182528,6,0,B|417:222|417:222|462:205,1,115.50000352478,8|0,0:0|0:0,0:0:0:0:
394,90,182699,2,0,L|410:180,1,57.7500017623902,0|0,3:0|0:0,0:0:0:0:
386,82,182785,2,0,L|402:172,1,57.7500017623902,0|0,3:0|0:0,0:0:0:0:
378,74,182871,38,0,P|318:53|262:62,1,115.50000352478
216,186,183042,2,0,P|215:156|200:122,1,57.7500017623902,0|0,1:0|0:0,0:0:0:0:
205,130,183128,2,0,P|177:90|148:73,1,57.7500017623902,0|0,3:0|0:0,0:0:0:0:
170,85,183214,6,0,P|148:153|285:230,1,231.000007049561,8|0,0:0|0:0,0:0:0:0:
354,169,183471,1,0,1:0:0:0:
458,206,183557,38,0,B|456:245|492:270|492:270|435:261|383:285|372:358,1,231.000007049561,0|0,1:0|0:0,0:0:0:0:
286,313,183814,1,0,0:0:0:0:
206,362,183899,2,0,P|132:369|92:328,1,115.50000352478,8|0,0:0|0:0,0:0:0:0:
108,191,184071,1,0,0:0:0:0:
124,180,184157,1,0,0:0:0:0:
145,172,184242,6,0,P|146:194|163:234,1,57.7500017623902,0|0,0:0|0:0,0:0:0:0:
157,175,184328,2,0,P|158:197|175:237,1,57.7500017623902,0|0,0:0|0:0,0:0:0:0:
191,219,184414,38,0,P|190:241|173:281,1,57.7500017623902,0|0,1:0|0:0,0:0:0:0:
198,226,184500,2,0,P|197:248|180:288,1,57.7500017623902,0|0,0:0|0:0,0:0:0:0:
210,241,184585,6,0,B|247:266|275:246|275:246|301:223|292:152|216:109,1,231.000007049561,8|0,0:0|0:0,0:0:0:0:
99,79,184842,1,0,1:0:0:0:
33,187,184928,38,0,L|174:160,1,115.50000352478,0|0,1:0|0:0,0:0:0:0:
454,216,185099,2,0,L|374:201,1,57.7500017623902,0|0,3:0|0:0,0:0:0:0:
450,226,185185,2,0,L|370:211,1,57.7500017623902,0|0,3:0|0:0,0:0:0:0:
446,236,185271,6,0,L|304:209,1,115.50000352478,8|0,0:0|0:0,0:0:0:0:
272,358,185442,2,0,L|287:278,1,57.7500017623902,0|0,3:0|0:0,0:0:0:0:
262,354,185528,2,0,L|277:274,1,57.7500017623902,0|0,3:0|0:0,0:0:0:0:
252,350,185614,38,0,P|247:281|209:194,1,115.50000352478,0|0,0:0|0:0,0:0:0:0:
44,131,185785,2,0,B|33:159|33:159|33:189,1,57.7500017623902,0|0,1:0|0:0,0:0:0:0:
33,186,185871,2,0,B|39:220|39:220|91:259,1,57.7500017623902,0|0,3:0|0:0,0:0:0:0:
57,234,185957,6,0,P|107:260|218:134,1,231.000007049561,8|0,0:0|0:0,0:0:0:0:
193,74,186214,1,0,1:0:0:0:
223,162,186299,38,0,B|243:223|234:280|234:280|134:323|134:323|88:288|56:236,1,346.500010574341,0|0,1:0|0:0,0:0:0:0:
67,71,186642,2,0,P|114:102|183:94,1,115.50000352478,8|0,0:0|0:0,0:0:0:0:
294,68,186814,1,0,0:0:0:0:
310,60,186899,1,0,0:0:0:0:
328,54,186985,6,0,P|408:49|435:241,1,231.000007049561,0|0,0:0|1:0,0:0:0:0:
396,266,187242,1,0,0:0:0:0:
403,276,187328,6,0,B|411:284|411:284|415:298|415:298|426:310,13,39.3750015020371,0|0|0|0|0|0|0|0|0|0|0|0|0|0,0:0|0:0|0:0|0:0|0:0|0:0|0:0|0:0|0:0|0:0|0:0|0:0|0:0|0:0,0:0:0:0:
440,316,187671,38,0,P|379:302|289:311,1,115.50000352478,0|0,1:0|0:0,0:0:0:0:
101,286,187842,1,0,0:0:0:0:
64,302,187928,1,0,0:0:0:0:
41,334,188014,38,0,P|100:359|156:337,1,115.50000352478,8|0,0:0|0:0,0:0:0:0:
190,125,188185,1,0,0:0:0:0:
175,78,188271,1,0,0:0:0:0:
154,34,188357,6,0,B|145:107|98:133|98:133|129:188|207:216,1,231.000007049561,0|0,0:0|1:0,0:0:0:0:
373,173,188614,2,0,P|384:143|371:95,1,57.7500017623902,0|0,3:0|0:0,0:0:0:0:
369,160,188699,2,0,B|373:136|371:94|329:58|329:58|289:190,1,231.000007049561,8|0,0:0|0:0,0:0:0:0:
326,332,188957,1,0,1:0:0:0:
408,284,189042,38,0,P|332:238|227:335,1,231.000007049561,0|0,1:0|0:0,0:0:0:0:
163,377,189299,1,0,0:0:0:0:
143,277,189385,2,0,P|52:331|51:206,1,231.000007049561,8|0,0:0|0:0,0:0:0:0:
145,112,189642,1,0,0:0:0:0:
183,90,189728,6,0,L|181:186,1,57.7500017623902,0|0,0:0|0:0,0:0:0:0:
214,78,189814,2,0,L|212:174,1,57.7500017623902,0|0,0:0|0:0,0:0:0:0:
249,91,189899,38,0,L|247:187,1,57.7500017623902,0|0,1:0|0:0,0:0:0:0:
277,72,189985,2,0,L|275:168,1,57.7500017623902,0|0,0:0|0:0,0:0:0:0:
307,87,190071,6,0,B|304:195|304:195|275:230|275:230|268:331,1,231.000007049561,8|0,0:0|0:0,0:0:0:0:
423,290,190328,1,0,1:0:0:0:
419,210,190414,38,0,L|259:186,1,115.50000352478,0|0,1:0|1:0,0:0:0:0:
67,291,190585,1,0,0:0:0:0:
76,318,190671,1,0,0:0:0:0:
83,346,190757,6,0,L|243:322,1,115.50000352478,8|0,0:0|0:0,0:0:0:0:
456,200,190928,1,0,0:0:0:0:
478,159,191014,1,0,0:0:0:0:
473,113,191099,38,0,B|417:134|340:124|340:124|313:91|300:20,1,231.000007049561,0|0,0:0|1:0,0:0:0:0:
160,57,191357,2,0,P|198:73|217:88,1,57.7500017623902,0|0,3:0|0:0,0:0:0:0:
180,93,191442,2,0,B|221:111|233:142|237:169|237:169|183:174|216:242|144:273,1,231.000007049561,8|0,0:0|0:0,0:0:0:0:
82,166,191699,1,0,1:0:0:0:
8,116,191785,6,0,P|25:211|-8:262,1,115.50000352478,0|0,1:0|0:0,0:0:0:0:
138,358,191957,1,0,0:0:0:0:
171,335,192042,1,0,0:0:0:0:
212,330,192128,38,0,P|270:345|371:318,1,115.50000352478,8|0,0:0|0:0,0:0:0:0:
434,123,192299,1,0,0:0:0:0:
429,77,192385,1,0,0:0:0:0:
393,48,192471,6,0,B|414:94|402:144|402:144|385:78|347:48|280:43,1,231.000007049561,0|0,0:0|1:0,0:0:0:0:
295,160,192728,1,0,1:0:0:0:
209,180,192814,2,0,B|205:190|208:204|208:204|174:180|192:112,1,115.50000352478,8|0,0:0|0:0,0:0:0:0:
160,32,192985,2,0,L|102:71,1,57.7500017623902,0|0,0:0|0:0,0:0:0:0:
123,28,193071,2,0,L|98:95,1,57.7500017623902,0|0,0:0|0:0,0:0:0:0:
91,43,193157,38,0,P|104:132|68:187,1,115.50000352478,0|0,1:0|0:0,0:0:0:0:
139,325,193328,1,0,0:0:0:0:
176,346,193414,1,0,0:0:0:0:
211,349,193499,6,0,P|289:337|316:278,1,115.50000352478,8|0,0:0|0:0,0:0:0:0:
447,96,193671,1,0,0:0:0:0:
427,75,193757,1,0,0:0:0:0:
389,57,193842,38,0,B|433:85|449:127|425:165|425:165|290:135,1,231.000007049561,0|0,0:0|1:0,0:0:0:0:
185,153,194099,2,0,P|220:158|246:183,1,57.7500017623902,0|0,3:0|0:0,0:0:0:0:
166,166,194185,2,0,B|232:182|260:241|260:241|318:212|364:246,1,231.000007049561,8|0,0:0|0:0,0:0:0:0:
414,314,194442,1,0,1:0:0:0:
475,366,194528,6,0,L|451:236,1,115.50000352478,0|0,1:0|0:0,0:0:0:0:
447,96,194699,1,0,0:0:0:0:
420,77,194785,1,0,0:0:0:0:
389,57,194871,38,0,L|263:66,1,115.50000352478,0|0,3:0|0:0,0:0:0:0:
83,92,195042,1,0,0:0:0:0:
96,121,195128,1,0,0:0:0:0:
85,144,195214,6,0,L|164:151,1,57.7500017623902
108,176,195299,2,0,L|187:183,1,57.7500017623902,0|0,0:0|0:0,0:0:0:0:
76,204,195385,38,0,L|155:211,1,57.7500017623902,0|0,1:0|0:0,0:0:0:0:
99,236,195471,2,0,L|178:243,1,57.7500017623902
116,266,195557,6,0,B|200:273|200:273|281:233|281:233|385:238,1,231.000007049561,8|0,0:0|0:0,0:0:0:0:
471,239,195814,1,0,1:0:0:0:
395,286,195899,38,0,L|374:160,1,115.50000352478,0|0,1:0|0:0,0:0:0:0:
235,91,196071,1,0,0:0:0:0:
202,79,196157,1,0,0:0:0:0:
168,76,196242,6,0,L|202:220,1,115.50000352478,8|0,0:0|0:0,0:0:0:0:
308,365,196414,1,0,0:0:0:0:
330,340,196499,1,0,0:0:0:0:
351,314,196585,38,0,P|301:331|196:312,1,115.50000352478,0|0,0:0|0:0,0:0:0:0:
98,280,196757,1,0,1:0:0:0:
76,255,196842,1,0,0:0:0:0:
55,229,196928,6,8,P|105:246|210:227,1,115.50000352478,0|0,0:0|0:0,0:0:0:0:
416,284,197099,1,0,0:0:0:0:
433,265,197185,1,0,0:0:0:0:
441,245,197271,6,0,P|403:234|367:241,1,52.5,0|0,0:0|0:0,0:0:0:0:
276,306,197442,1,0,0:0:0:0:
286,267,197528,1,0,0:0:0:0:
281,226,197614,2,0,P|247:201|180:213,1,105,0|0,0:0|0:0,0:0:0:0:
143,269,197871,2,0,L|128:154,1,105,0|0,0:0|0:0,0:0:0:0:
115,172,198128,1,0,0:0:0:0:
259,56,198299,2,0,L|246:160,1,105,0|0,0:0|0:0,0:0:0:0:
185,256,198642,5,0,0:0:0:0:
183,343,198814,1,2,0:0:0:0:
115,172,198985,1,10,0:0:0:0:
254,214,199157,2,0,P|286:149|274:63,1,157.5,2|0,0:0|0:0,0:0:0:0:
268,51,199499,1,2,1:2:0:0:
115,172,199671,1,8,0:0:0:0:
145,53,199842,1,2,0:0:0:0:
182,223,200014,38,0,P|150:254|83:252,1,105,0|0,1:0|0:0,0:0:0:0:
56,120,200357,1,8,0:0:0:0:
62,128,200528,2,0,P|74:176|187:214,1,157.5,0|0,0:0|0:0,0:0:0:0:
182,223,200871,1,0,1:0:0:0:
62,128,201042,2,0,L|182:102,1,105,8|0,0:0|0:0,0:0:0:0:
324,83,201385,6,0,P|302:138|313:196,1,105,2|0,1:2|0:0,0:0:0:0:
369,289,201728,1,8,0:0:0:0:
381,294,202071,1,0,0:0:0:0:
307,182,202242,1,2,1:2:0:0:
393,302,202414,2,0,P|331:332|283:326,1,105,8|0,0:0|0:0,0:0:0:0:
113,352,202757,38,0,P|145:313|142:249,1,105,2|0,1:2|0:0,0:0:0:0:
63,177,203099,1,8,0:0:0:0:
94,82,203271,2,0,P|148:64|205:74,1,105,2|0,0:0|0:0,0:0:0:0:
347,101,203614,1,0,1:0:0:0:
256,137,203785,2,0,L|266:261,1,105,8|0,0:0|0:0,0:0:0:0:
277,354,204128,6,0,P|249:307|142:300,1,157.5,2|0,1:2|0:0,0:0:0:0:
134,310,204471,1,8,0:0:0:0:
124,320,204814,1,2,0:0:0:0:
145,170,204985,1,0,1:0:0:0:
111,334,205157,2,0,P|147:350|216:336,1,105,10|0,0:0|0:0,0:0:0:0:
380,81,205499,38,0,P|353:112|357:184,1,105,2|0,1:2|0:0,0:0:0:0:
434,282,205842,1,8,0:0:0:0:
438,148,206014,1,2,0:0:0:0:
252,116,206185,1,2,0:0:0:0:
430,159,206357,1,2,1:2:0:0:
244,122,206528,2,0,P|271:153|267:225,1,105,8|0,0:0|0:0,0:0:0:0:
145,243,206871,6,0,L|125:136,1,105,2|0,1:2|0:0,0:0:0:0:
8,378,207214,2,0,L|32:272,1,105,10|0,0:0|0:0,0:0:0:0:
115,331,207557,1,2,0:0:0:0:
210,352,207728,1,0,1:0:0:0:
125,139,207899,2,0,P|94:181|91:251,1,105,2|0,0:0|0:0,0:0:0:0:
337,201,208242,37,0,0:0:0:0:
328,176,208328,1,2,0:0:0:0:
315,153,208414,1,0,0:0:0:0:
163,216,208585,2,0,P|195:234|262:206,1,105,8|0,0:0|0:0,0:0:0:0:
377,106,208928,1,2,0:0:0:0:
211,147,209099,1,0,1:0:0:0:
389,123,209271,2,0,L|378:291,1,157.5,10|0,0:0|0:0,0:0:0:0:
376,300,209614,5,0,1:0:0:0:
486,279,209785,1,2,0:0:0:0:
295,206,209957,1,8,0:0:0:0:
432,362,210128,2,0,P|452:332|412:224,1,157.5,2|0,0:0|0:0,0:0:0:0:
288,227,210471,2,0,P|214:239|166:181,1,157.5,2|0,1:2|0:0,0:0:0:0:
109,75,210814,2,0,P|116:99|114:140,1,52.5,2|0,0:0|0:0,0:0:0:0:
31,270,210985,38,0,P|50:222|94:195,1,105,2|0,1:2|0:0,0:0:0:0:
246,157,211328,1,8,0:0:0:0:
256,163,211671,1,2,0:0:0:0:
244,308,211842,1,0,1:0:0:0:
266,168,212014,2,0,P|230:184|161:170,1,105,8|0,0:0|0:0,0:0:0:0:
39,133,212357,6,0,P|87:169|88:271,1,157.5,2|0,1:2|0:0,0:0:0:0:
82,277,212699,1,8,0:0:0:0:
75,287,213214,1,2,1:2:0:0:
221,347,213385,1,8,0:0:0:0:
75,275,213557,1,2,0:0:0:0:
233,362,213728,38,0,P|247:310|232:241,1,105,2|0,1:2|0:0,0:0:0:0:
178,165,214071,1,8,0:0:0:0:
157,309,214242,1,2,0:0:0:0:
348,284,214414,1,2,0:0:0:0:
303,142,214585,1,0,1:0:0:0:
360,301,214757,2,0,L|242:312,1,105,8|0,0:0|0:0,0:0:0:0:
157,309,215099,6,0,P|199:264|174:163,1,157.5,2|0,1:2|0:0,0:0:0:0:
178,165,215442,1,8,0:0:0:0:
168,156,215957,1,0,1:0:0:0:
340,115,216128,2,0,L|324:271,1,157.5,10|0,0:0|0:0,0:0:0:0:
326,286,216471,37,2,1:2:0:0:
168,156,216642,2,0,P|201:205|163:302,1,157.5,2|0,0:0|0:0,0:0:0:0:
50,282,216985,2,0,P|93:289|109:305,1,52.5,2|0,0:0|0:0,0:0:0:0:
140,364,217157,2,0,P|202:385|255:351,1,105,2|0,0:0|1:0,0:0:0:0:
326,286,217499,2,0,L|310:130,1,157.5,8|0,0:0|0:0,0:0:0:0:
318,117,217842,6,0,P|371:147|421:129,1,105,2|0,1:2|0:0,0:0:0:0:
470,49,218185,1,8,0:0:0:0:
464,56,218699,1,0,1:0:0:0:
265,67,218871,2,0,P|293:140|279:183,1,105,8|0,0:0|0:0,0:0:0:0:
93,213,219214,37,0,1:0:0:0:
109,212,219299,1,0,0:0:0:0:
124,217,219385,1,0,0:0:0:0:
134,229,219471,1,0,0:0:0:0:
138,244,219557,6,0,P|161:259|209:265,1,52.5,8|0,0:0|0:0,0:0:0:0:
306,254,219728,1,0,0:0:0:0:
290,244,219814,2,0,P|340:232|398:251,1,105,0|0,0:0|0:0,0:0:0:0:
504,297,220071,2,0,P|480:307|454:305,1,52.5,0|0,1:0|0:0,0:0:0:0:
497,192,220242,1,8,0:0:0:0:
243,334,220414,1,0,0:0:0:0:
243,334,220499,1,0,0:0:0:0:
243,334,220585,5,4,0:1:0:0:
59,205,242528,22,0,L|163:192,1,78.7500030040742,4|0,1:2|0:0,0:0:0:0:
262,220,242871,1,8,0:0:0:0:
59,205,243042,2,0,L|185:167,1,118.125004506111,0|0,0:0|0:0,0:0:0:0:
200,161,243385,1,0,1:0:0:0:
198,268,243557,1,8,0:0:0:0:
208,168,243728,1,0,0:0:0:0:
59,205,243899,5,0,1:0:0:0:
198,268,244071,2,0,L|216:176,1,78.7500030040742,0|8,0:0|0:0,0:0:0:0:
235,331,244414,2,0,L|219:208,1,118.125004506111,0|0,0:0|0:0,0:0:0:0:
214,191,244757,1,0,1:0:0:0:
145,297,244928,1,8,0:0:0:0:
208,168,245099,1,0,0:0:0:0:
7,199,245271,38,0,L|111:186,1,78.7500030040742,0|0,1:2|0:0,0:0:0:0:
210,214,245614,1,8,0:0:0:0:
7,199,245785,2,0,L|133:161,1,118.125004506111,0|0,0:0|0:0,0:0:0:0:
146,158,246128,1,0,1:0:0:0:
177,299,246299,1,8,0:0:0:0:
173,148,246471,1,0,0:0:0:0:
98,273,246642,5,0,1:0:0:0:
275,256,246814,2,0,L|244:174,1,78.7500030040742,0|8,0:0|0:0,0:0:0:0:
206,318,247157,2,0,L|227:186,1,118.125004506111,0|0,0:0|0:0,0:0:0:0:
233,169,247499,1,0,1:0:0:0:
334,335,247671,1,8,0:0:0:0:
241,140,247842,1,0,0:0:0:0:
384,268,248014,38,0,P|344:252|299:258,1,78.7500030040742,0|0,1:2|0:0,0:0:0:0:
222,324,248357,1,8,0:0:0:0:
376,279,248528,2,0,P|308:275|271:223,1,118.125004506111,0|0,0:0|0:0,0:0:0:0:
268,206,248871,1,0,1:0:0:0:
216,352,249042,1,8,0:0:0:0:
265,171,249214,1,0,0:0:0:0:
369,296,249385,5,0,1:0:0:0:
191,279,249557,2,0,L|206:369,1,78.7500030040742,0|8,0:0|0:0,0:0:0:0:
276,240,249899,2,0,L|294:121,1,118.125004506111,0|0,0:0|0:0,0:0:0:0:
297,97,250242,1,0,1:0:0:0:
362,232,250414,1,8,0:0:0:0:
305,69,250585,1,0,0:0:0:0:
129,181,250757,38,0,P|169:197|214:191,1,78.7500030040742,0|0,1:2|0:0,0:0:0:0:
293,123,251100,1,8,0:0:0:0:
137,170,251271,2,0,P|205:174|242:226,1,118.125004506111,0|0,0:0|0:0,0:0:0:0:
245,243,251614,1,0,1:0:0:0:
298,98,251785,1,8,0:0:0:0:
248,278,251957,1,0,0:0:0:0:
137,170,252128,5,0,1:0:0:0:
317,187,252300,2,0,L|407:172,1,78.7500030040742,0|8,0:0|0:0,0:0:0:0:
364,295,252642,2,0,L|245:277,1,118.125004506111,0|0,0:0|0:0,0:0:0:0:
210,269,252985,1,0,1:0:0:0:
394,174,253157,1,8,0:0:0:0:
174,262,253328,1,0,0:0:0:0:
283,128,253499,38,0,L|290:214,1,78.7500030040742,0|0,1:2|0:0,0:0:0:0:
299,307,253842,1,8,0:0:0:0:
283,128,254014,2,0,L|225:246,1,118.125004506111,0|0,0:0|0:0,0:0:0:0:
210,269,254357,1,0,1:0:0:0:
394,198,254528,1,8,0:0:0:0:
186,309,254699,1,0,0:0:0:0:
69,190,254871,5,0,1:0:0:0:
230,234,255042,2,0,P|182:221|143:236,1,78.7500030040742,0|8,0:0|0:0,0:0:0:0:
186,309,255385,2,0,P|222:325|301:286,1,118.125004506111,0|0,0:0|0:0,0:0:0:0:
306,280,255728,1,0,1:0:0:0:
97,271,255899,1,8,0:0:0:0:
310,256,256071,1,0,0:0:0:0:
170,130,256242,38,0,L|177:216,1,78.7500030040742,0|0,1:2|0:0,0:0:0:0:
186,309,256585,1,8,0:0:0:0:
170,130,256757,2,0,L|112:248,1,118.125004506111,0|0,0:0|0:0,0:0:0:0:
97,271,257100,1,0,1:0:0:0:
281,200,257271,1,8,0:0:0:0:
76,304,257442,1,0,0:0:0:0:
206,350,257614,5,0,1:0:0:0:
281,200,257785,2,0,P|258:244|221:263,1,78.7500030040742,0|8,0:0|0:0,0:0:0:0:
195,183,258128,2,0,P|207:145|289:112,1,118.125004506111,0|0,0:0|0:0,0:0:0:0:
297,113,258471,1,0,1:0:0:0:
334,291,258642,1,8,0:0:0:0:
318,126,258814,1,0,0:0:0:0:
480,182,258985,38,0,P|440:198|395:192,1,78.7500030040742,0|0,1:2|0:0,0:0:0:0:
318,126,259328,1,8,0:0:0:0:
472,171,259499,2,0,P|404:175|367:227,1,118.125004506111,0|0,0:0|0:0,0:0:0:0:
364,244,259842,1,0,1:0:0:0:
253,81,260014,1,8,0:0:0:0:
357,273,260185,1,0,0:0:0:0:
368,69,260357,5,0,1:0:0:0:
164,156,260528,2,0,L|252:175,1,78.7500030040742,0|8,0:0|0:0,0:0:0:0:
330,150,260871,2,0,P|325:215|282:255,1,118.125004506111,0|0,0:0|0:0,0:0:0:0:
268,264,261214,1,0,1:0:0:0:
239,75,261385,1,8,0:0:0:0:
240,276,261557,1,0,0:0:0:0:
386,312,261728,38,0,P|402:272|396:227,1,78.7500030040742,0|0,1:2|0:0,0:0:0:0:
330,150,262071,1,8,0:0:0:0:
375,304,262242,2,0,P|379:236|431:199,1,118.125004506111,0|0,0:0|0:0,0:0:0:0:
448,196,262585,1,0,1:0:0:0:
438,372,262757,1,8,0:0:0:0:
473,206,262928,1,0,0:0:0:0:
448,196,263271,5,0,0:0:0:0:
438,372,263443,1,0,0:0:0:0:
473,206,263614,1,0,0:0:0:0:
438,372,263957,37,0,0:0:0:0:
473,206,264128,1,0,0:0:0:0:
419,379,264299,1,0,0:0:0:0:
450,197,264471,6,0,P|397:205|327:132,1,157.5,4|0,1:2|0:0,0:0:0:0:
320,90,264814,1,8,0:0:0:0:
455,177,264986,1,0,0:0:0:0:
438,187,265071,2,0,P|375:187|339:137,1,105,2|0,0:0|0:0,0:0:0:0:
371,0,265328,2,0,P|390:41|388:57,1,52.5,0|0,1:0|0:0,0:0:0:0:
320,90,265500,2,0,P|269:99|230:133,1,105,8|0,0:0|0:0,0:0:0:0:
143,229,265842,37,2,1:2:0:0:
153,245,265928,2,0,L|145:332,1,52.5,2|0,0:0|0:0,0:0:0:0:
83,364,266099,2,0,P|60:305|72:250,1,105,2|0,0:0|0:0,0:0:0:0:
119,151,266356,2,0,P|133:124|131:98,1,52.5,2|0,0:0|0:0,0:0:0:0:
227,176,266528,2,0,P|251:185|278:186,1,52.5,2|0,0:0|0:0,0:0:0:0:
397,171,266699,2,0,P|415:195|419:225,1,52.5,0|0,1:0|0:0,0:0:0:0:
314,382,266870,2,0,L|342:216,1,157.5,0|0,0:0|0:0,0:0:0:0:
402,300,267214,6,0,P|327:318|259:271,1,157.5,2|0,1:2|0:0,0:0:0:0:
250,259,267557,1,8,0:0:0:0:
453,205,267728,1,0,0:0:0:0:
441,199,267814,2,0,B|333:228,1,105,2|0,0:0|0:0,0:0:0:0:
263,181,268071,1,0,1:0:0:0:
339,99,268243,2,0,P|291:69|195:91,1,157.5,10|0,0:2|0:0,0:0:0:0:
39,227,268585,38,0,P|67:143|93:221,1,188.999994232178,2|0,1:2|0:0,0:0:0:0:
106,271,268928,2,0,P|159:336|222:279,1,188.999994232178,10|0,0:0|0:0,0:0:0:0:
236,197,269271,2,0,P|301:147|373:226,1,188.999994232178,2|0,0:0|0:0,0:0:0:0:
397,337,269614,2,0,P|393:260|311:332,1,188.999994232178,10|0,0:0|0:0,0:0:0:0:
251,354,269957,6,0,L|233:155,1,157.5,2|0,1:2|0:2,0:0:0:0:
240,184,270299,1,8,0:0:0:0:
55,191,270471,1,0,0:0:0:0:
62,206,270557,1,2,0:0:0:0:
70,220,270642,1,2,0:0:0:0:
162,83,270814,1,0,1:0:0:0:
355,149,270985,2,0,P|283:136|236:199,1,157.5,10|0,0:0|0:0,0:0:0:0:
353,315,271328,37,2,1:2:0:0:
361,305,271414,2,0,B|447:319,1,52.5,2|0,0:0|0:0,0:0:0:0:
485,285,271585,2,0,B|381:301,1,105,2|0,0:0|0:0,0:0:0:0:
299,290,271842,2,0,P|252:280|221:295,1,52.5,2|0,0:0|0:0,0:0:0:0:
110,270,272014,2,0,P|117:300|101:345,1,52.5,2|0,0:0|0:0,0:0:0:0:
28,200,272185,2,0,P|21:170|27:125,1,52.5,0|0,1:0|0:0,0:0:0:0:
116,260,272357,2,0,P|119:328|29:348,1,157.5,8|0,0:0|0:0,0:0:0:0:
36,207,272699,6,0,P|87:171|185:210,1,157.5,2|0,1:2|0:0,0:0:0:0:
184,207,273042,1,8,0:0:0:0:
235,319,273214,1,0,0:0:0:0:
248,311,273299,2,0,L|277:205,1,105,2|0,0:0|0:0,0:0:0:0:
288,202,273557,1,0,1:0:0:0:
469,330,273728,2,0,L|351:310,1,105,8|0,0:0|0:0,0:0:0:0:
277,211,274071,38,0,P|276:263|247:306,1,105,2|0,1:2|0:0,0:0:0:0:
102,208,274328,2,0,P|154:208|197:236,1,105,2|0,0:0|0:0,0:0:0:0:
136,356,274585,2,0,P|143:331|159:310,1,52.5,0|0,0:0|0:0,0:0:0:0:
276,262,274757,2,0,P|280:236|276:210,1,52.5,2|0,0:0|0:0,0:0:0:0:
153,207,274928,2,0,P|127:204|102:208,1,52.5,0|0,1:0|0:0,0:0:0:0:
227,332,275099,2,0,P|301:346|354:289,1,157.5,10|0,0:0|0:0,0:0:0:0:
365,168,275442,6,0,B|387:126|387:126|251:160,1,157.5,2|0,1:2|0:0,0:0:0:0:
267,168,275785,1,8,0:0:0:0:
423,249,275957,1,0,0:0:0:0:
444,229,276042,2,0,L|457:116,1,105,2|0,0:0|0:0,0:0:0:0:
441,38,276299,2,0,P|405:49|352:43,1,52.5,0|0,1:0|0:0,0:0:0:0:
283,64,276471,2,0,L|264:186,1,105,8|0,0:0|0:0,0:0:0:0:
161,290,276814,37,2,1:2:0:0:
156,306,276899,2,0,P|196:311|248:297,1,52.5,2|0,0:0|0:0,0:0:0:0:
294,253,277071,2,0,P|257:218|186:226,1,105,2|0,0:0|0:0,0:0:0:0:
94,255,277328,2,0,P|75:303|79:319,1,52.5,2|0,0:0|0:0,0:0:0:0:
155,319,277499,2,0,P|179:327|204:320,1,52.5,2|0,0:0|0:0,0:0:0:0:
304,262,277671,2,0,P|312:224|312:202,1,52.5,0|0,1:0|0:0,0:0:0:0:
194,111,277842,2,0,L|206:231,1,105,8|0,0:0|0:0,0:0:0:0:
280,347,278185,6,0,P|232:279|134:299,1,157.5,2|0,1:2|0:0,0:0:0:0:
147,290,278528,1,8,0:0:0:0:
386,261,278699,1,0,0:0:0:0:
361,271,278785,2,0,P|306:254|287:209,1,105,2|0,0:0|0:0,0:0:0:0:
277,186,279042,1,0,1:0:0:0:
392,141,279214,2,0,L|383:323,1,157.5,10|0,0:0|0:0,0:0:0:0:
383,359,279557,38,0,P|343:297|232:350,1,188.999994232178,2|0,1:2|0:0,0:0:0:0:
168,265,279899,2,0,P|142:328|43:271,1,188.999994232178,10|0,0:0|0:0,0:0:0:0:
61,206,280242,2,0,P|124:169|128:27,1,188.999994232178,2|0,0:0|0:0,0:0:0:0:
226,43,280585,2,0,P|273:121|364:138,1,188.999994232178,10|0,0:0|0:0,0:0:0:0:
456,221,280928,6,0,P|389:188|296:255,1,157.5,2|0,1:2|0:0,0:0:0:0:
298,242,281271,1,8,0:0:0:0:
407,352,281442,1,0,0:0:0:0:
402,336,281528,1,0,0:0:0:0:
396,318,281614,1,2,0:0:0:0:
275,351,281785,1,0,1:0:0:0:
173,298,281957,1,8,0:0:0:0:
178,282,282043,1,2,0:0:0:0:
184,264,282129,1,2,0:0:0:0:
74,204,282299,37,2,1:2:0:0:
88,199,282385,2,0,P|86:228|58:262,1,52.5,2|0,0:0|0:0,0:0:0:0:
72,129,282557,2,0,P|118:126|161:168,1,105,2|0,0:0|0:0,0:0:0:0:
184,264,282814,2,0,P|197:290|224:315,1,52.5,2|0,0:0|0:0,0:0:0:0:
292,343,282985,2,0,P|323:344|347:329,1,52.5,2|0,0:0|0:0,0:0:0:0:
395,237,283157,2,0,L|371:171,1,52.5,0|0,1:0|0:0,0:0:0:0:
251,78,283328,2,0,L|259:193,1,105,8|0,0:0|0:0,0:0:0:0:
270,323,283671,6,0,P|200:303|164:313,1,78.7500030040742,2|0,0:0|0:0,0:0:0:0:
110,345,284014,1,0,0:0:0:0:
280,310,284185,38,0,P|219:269|182:267,1,78.7500030040742,2|0,0:0|0:0,0:0:0:0:
120,268,284528,1,0,0:0:0:0:
217,368,284699,1,0,0:0:0:0:
163,174,284871,1,0,0:0:0:0:
39,331,285042,5,0,0:0:0:0:
256,192,285128,12,0,285899,0:0:0:0:
200,173,286071,5,0,0:0:0:0:
224,192,286157,1,0,0:0:0:0:
254,176,286242,1,0,0:0:0:0:
283,159,286328,1,0,0:0:0:0:
302,187,286414,6,0,B|354:138|383:144|383:144|417:154|439:238|354:242,1,210,4|0,1:0|0:0,0:0:0:0:
299,268,286671,1,0,0:0:0:0:
335,345,286757,2,0,P|283:352|237:328,1,105,8|0,0:0|0:0,0:0:0:0:
113,323,286928,1,0,0:0:0:0:
119,314,287014,1,0,0:0:0:0:
84,282,287100,38,0,L|69:338,1,52.5,0|0,0:0|0:0,0:0:0:0:
76,274,287186,2,0,L|63:324,1,52.5,0|0,0:0|0:0,0:0:0:0:
45,244,287271,6,0,L|60:300,1,52.5,0|0,1:0|1:0,0:0:0:0:
31,233,287357,2,0,L|45:283,1,52.5,0|0,0:0|0:0,0:0:0:0:
6,211,287443,38,0,B|64:238|120:221|120:221|51:197|32:142,1,210,8|0,0:0|0:0,0:0:0:0:
167,64,287700,1,0,1:0:0:0:
86,78,287786,6,0,B|91:131|166:175|222:126|222:126|258:97|337:85|360:161,1,315,0|0,1:0|0:0,0:0:0:0:
429,340,288128,2,0,P|383:297|386:253,1,78.7500030040742,8|0,0:0|0:0,0:0:0:0:
461,168,288300,1,0,0:0:0:0:
454,218,288386,1,0,0:0:0:0:
457,269,288471,38,0,B|469:230|509:210|509:210|467:230|414:229|362:184,1,210,0|0,0:0|1:0,0:0:0:0:
369,115,288728,1,0,1:0:0:0:
308,186,288814,2,0,B|314:156|344:133|344:133|296:136|248:171|263:237,1,210,8|0,0:0|0:0,0:0:0:0:
289,323,289071,1,0,1:0:0:0:
361,355,289157,6,0,P|360:289|309:243,1,78.7500030040742,0|0,1:0|0:0,0:0:0:0:
91,175,289328,1,0,0:0:0:0:
84,183,289414,1,0,0:0:0:0:
76,192,289500,38,0,L|215:208,1,105,8|0,0:0|0:0,0:0:0:0:
252,316,289671,1,0,0:0:0:0:
258,323,289757,1,0,0:0:0:0:
271,326,289843,6,0,L|261:385,1,52.5,0|0,0:0|0:0,0:0:0:0:
279,318,289928,2,0,L|269:377,1,52.5,0|0,0:0|0:0,0:0:0:0:
300,317,290014,38,0,L|290:258,1,52.5,0|0,1:0|0:0,0:0:0:0:
308,325,290099,2,0,L|298:266,1,52.5,0|0,0:0|0:0,0:0:0:0:
365,348,290186,6,0,P|304:292|368:184,1,210,8|0,0:0|0:0,0:0:0:0:
376,59,290443,1,0,0:0:0:0:
464,88,290528,38,0,P|452:119|423:143,1,52.5,0|0,1:0|0:0,0:0:0:0:
440,132,290614,2,0,P|420:148|396:156,1,52.5,0|0,0:0|0:0,0:0:0:0:
396,156,290700,2,0,P|371:159|345:153,1,52.5,0|0,0:0|0:0,0:0:0:0:
345,152,290786,2,0,P|323:141|304:122,1,52.5,0|0,0:0|0:0,0:0:0:0:
269,53,290871,6,0,B|279:104|279:104|232:156|232:156|258:242,1,210,8|0,0:0|0:0,0:0:0:0:
285,323,291128,1,0,0:0:0:0:
217,359,291214,38,0,B|157:372|121:305|131:247|131:247|165:274,1,210,0|0,0:0|1:0,0:0:0:0:
285,323,291471,1,0,1:0:0:0:
364,331,291557,2,0,B|399:334|431:306|431:306|399:305,1,105,8|0,0:0|0:0,0:0:0:0:
281,208,291728,6,0,B|230:217,1,52.5,0|0,0:0|0:0,0:0:0:0:
289,213,291814,2,0,B|238:222,1,52.5,0|0,0:0|0:0,0:0:0:0:
292,223,291899,38,0,P|233:301|146:258,1,210,0|0,1:0|0:0,0:0:0:0:
70,232,292157,1,0,0:0:0:0:
147,259,292243,2,0,P|106:288|60:266,1,105,8|0,0:0|0:0,0:0:0:0:
173,110,292414,1,0,0:0:0:0:
181,98,292500,1,0,0:0:0:0:
213,94,292586,6,0,L|199:40,1,52.5,0|0,0:0|0:0,0:0:0:0:
221,102,292671,2,0,L|207:48,1,52.5,0|0,0:0|0:0,0:0:0:0:
249,113,292757,38,0,L|263:62,1,52.5,0|0,1:0|0:0,0:0:0:0:
241,121,292842,2,0,L|255:70,1,52.5,0|0,0:0|0:0,0:0:0:0:
302,138,292928,6,0,B|272:156|244:165|179:157|179:157|245:176|276:241,1,210,8|0,0:0|0:0,0:0:0:0:
243,323,293186,1,0,0:0:0:0:
143,348,293271,38,0,B|147:256|147:256|271:207|271:207|354:288,1,315,0|0,1:0|0:0,0:0:0:0:
512,275,293614,2,0,L|434:267,1,78.7500030040742,8|0,0:0|0:0,0:0:0:0:
419,95,293786,1,0,0:0:0:0:
446,124,293871,1,0,0:0:0:0:
456,163,293957,6,0,B|409:181|365:164|350:119|350:119|378:168|373:206,1,210,0|0,0:0|1:0,0:0:0:0:
279,187,294214,1,0,1:0:0:0:
198,147,294300,2,0,B|212:107|259:93|259:93|194:97|165:165,1,210,8|0,0:0|0:0,0:0:0:0:
279,187,294557,1,0,1:0:0:0:
298,287,294642,38,0,L|294:179,1,78.7500030040742,0|0,1:0|0:0,0:0:0:0:
130,270,294814,1,0,0:0:0:0:
123,260,294900,1,0,0:0:0:0:
115,249,294986,6,0,L|119:141,1,105,8|0,0:0|0:0,0:0:0:0:
243,158,295157,1,0,0:0:0:0:
255,173,295243,1,0,0:0:0:0:
273,181,295328,38,0,L|287:127,1,52.5,0|0,0:0|0:0,0:0:0:0:
265,189,295414,2,0,L|279:135,1,52.5
301,210,295499,6,0,L|287:156,1,52.5,0|0,1:0|0:0,0:0:0:0:
309,218,295585,2,0,L|295:164,1,52.5
298,281,295671,38,0,P|285:219|400:191,1,210,8|0,0:0|0:0,0:0:0:0:
381,354,295928,1,0,0:0:0:0:
360,370,296014,6,0,L|272:352,1,52.5,0|0,1:0|0:0,0:0:0:0:
309,359,296100,2,0,L|221:341,1,52.5,0|0,0:0|0:0,0:0:0:0:
258,348,296186,2,0,L|170:330,1,52.5,0|0,0:0|0:0,0:0:0:0:
207,337,296271,2,0,L|119:355,1,52.5,0|0,0:0|0:0,0:0:0:0:
81,363,296357,38,0,P|128:318|89:190,1,210,8|0,0:0|0:0,0:0:0:0:
57,119,296614,1,0,0:0:0:0:
92,192,296700,6,0,P|206:187|230:101,1,210,0|0,0:0|0:0,0:0:0:0:
321,66,296957,1,0,1:0:0:0:
329,56,297042,5,0,0:0:0:0:
349,137,297128,1,0,0:0:0:0:
369,218,297214,1,0,0:0:0:0:
388,298,297299,1,0,0:0:0:0:
409,379,297385,38,0,P|356:328|312:328,1,105,4|0,1:0|0:0,0:0:0:0:
164,328,297557,1,0,0:0:0:0:
160,320,297643,1,0,0:0:0:0:
141,312,297728,38,0,L|37:323,1,105,8|0,0:0|0:0,0:0:0:0:
127,229,297900,1,0,0:0:0:0:
133,212,297986,1,0,0:0:0:0:
166,210,298071,6,0,L|149:160,1,52.5,0|0,0:0|0:0,0:0:0:0:
185,227,298157,2,0,L|168:177,1,52.5
202,241,298243,38,0,L|219:191,1,52.5,0|0,1:0|0:0,0:0:0:0:
215,256,298328,2,0,L|232:206,1,52.5
243,270,298414,6,0,B|293:234|293:234|281:146|281:146|215:194,1,210,8|0,0:0|0:0,0:0:0:0:
67,278,298671,1,0,1:0:0:0:
103,356,298757,38,0,B|116:289|116:289|59:291|59:291|80:217|80:217|132:217|132:217|172:147,1,315,0|0,1:0|0:0,0:0:0:0:
17,88,299100,6,0,B|79:120|79:120|141:108,1,105,8|0,0:0|0:0,0:0:0:0:
217,231,299271,1,0,0:0:0:0:
257,205,299357,1,0,0:0:0:0:
279,164,299443,38,0,P|219:141|128:239,1,210,0|0,0:0|1:0,0:0:0:0:
202,334,299700,1,0,1:0:0:0:
279,298,299786,2,0,P|182:316|128:234,1,210,8|0,0:0|0:0,0:0:0:0:
36,216,300043,1,0,1:0:0:0:
28,203,300128,6,0,L|157:243,1,105,0|0,1:0|0:0,0:0:0:0:
370,174,300299,1,0,0:0:0:0:
380,161,300386,1,0,0:0:0:0:
388,148,300471,38,0,L|259:188,1,105,8|0,0:0|0:0,0:0:0:0:
128,234,300642,1,0,0:0:0:0:
117,246,300727,1,0,0:0:0:0:
83,240,300814,6,0,L|106:306,1,52.5
101,204,300899,2,0,L|98:274,1,52.5
73,174,300985,38,0,L|96:240,1,52.5,0|0,1:0|0:0,0:0:0:0:
95,138,301071,2,0,L|92:208,1,52.5
69,109,301157,6,0,P|136:164|214:83,1,210,8|0,0:0|0:0,0:0:0:0:
196,16,301413,1,0,0:0:0:0:
215,93,301499,38,0,P|249:127|340:114,1,105,0|0,1:0|0:0,0:0:0:0:
442,129,301671,2,0,P|419:139|392:134,1,52.5
453,138,301757,2,0,P|427:165|400:164,1,52.5
465,147,301842,2,0,P|438:210|386:247,1,105,8|0,0:0|0:0,0:0:0:0:
244,338,302013,1,0,0:0:0:0:
229,326,302099,1,0,0:0:0:0:
216,310,302185,6,0,P|222:211|316:204,1,210,0|0,0:0|1:0,0:0:0:0:
370,293,302442,1,0,1:0:0:0:
308,384,302528,2,0,P|358:351|374:300,1,105,8|0,0:0|0:0,0:0:0:0:
386,115,302699,2,0,L|374:172,1,52.5,0|0,0:0|0:0,0:0:0:0:
347,94,302785,2,0,L|359:151,1,52.5,0|0,0:0|0:0,0:0:0:0:
308,98,302870,38,0,B|376:238|376:238|408:184,1,210,0|0,1:0|0:0,0:0:0:0:
477,200,303127,1,0,0:0:0:0:
436,289,303213,6,0,P|404:318|331:297,1,105,8|0,0:0|0:0,0:0:0:0:
217,246,303385,1,0,0:0:0:0:
205,232,303470,1,0,0:0:0:0:
162,207,303556,38,0,L|156:262,1,52.5,0|0,0:0|0:0,0:0:0:0:
154,199,303642,2,0,L|148:254,1,52.5,0|0,0:0|0:0,0:0:0:0:
121,176,303728,6,0,L|127:231,1,52.5,0|0,1:0|0:0,0:0:0:0:
113,184,303814,2,0,L|119:239,1,52.5
80,157,303899,38,0,B|68:216|92:291|92:291|51:218|53:181,1,210,8|0,0:0|0:0,0:0:0:0:
38,79,304156,1,0,1:0:0:0:
120,39,304242,6,0,B|176:34|222:61|222:61|246:120|221:175|221:175|246:133|300:128|341:149,1,315,0|0,1:0|0:0,0:0:0:0:
249,285,304585,2,0,P|300:296|347:277,1,105,8|0,0:0|0:0,0:0:0:0:
293,215,304756,1,0,0:0:0:0:
380,206,304842,1,0,0:0:0:0:
438,266,304927,38,0,B|401:276|388:309|388:309|378:265|345:223|293:216,1,210,0|0,0:0|1:0,0:0:0:0:
249,285,305185,1,0,1:0:0:0:
147,296,305270,2,0,B|120:311|112:342|112:342|112:317|132:241|210:218,1,210,8|0,0:0|0:0,0:0:0:0:
249,285,305527,1,0,1:0:0:0:
388,308,305613,6,0,P|367:261|327:227,1,105,0|0,1:0|0:0,0:0:0:0:
195,137,305785,1,0,0:0:0:0:
184,180,305870,1,0,0:0:0:0:
194,224,305956,38,0,P|203:134|163:93,1,105,8|0,0:0|0:0,0:0:0:0:
41,109,306127,1,0,0:0:0:0:
53,120,306213,1,0,0:0:0:0:
65,129,306299,6,0,L|52:185,1,52.5,0|0,0:0|0:0,0:0:0:0:
69,167,306385,2,0,L|56:223,1,52.5,0|0,0:0|0:0,0:0:0:0:
44,226,306471,38,0,L|57:282,1,52.5,0|0,1:0|0:0,0:0:0:0:
40,264,306556,2,0,L|53:320,1,52.5,0|0,0:0|0:0,0:0:0:0:
40,362,306642,6,0,P|92:296|229:331,1,210,8|0,0:0|0:0,0:0:0:0:
307,365,306899,1,0,1:0:0:0:
361,220,306985,38,0,P|328:273|281:288,1,105
196,223,307156,2,0,P|164:205|151:184,1,52.5,0|0,0:0|0:0,0:0:0:0:
184,186,307242,2,0,P|166:165|163:130,1,52.5
179,139,307328,6,0,P|184:99|251:52,1,105,8|0,0:0|0:0,0:0:0:0:
396,102,307499,1,0,0:0:0:0:
347,102,307585,1,0,0:0:0:0:
313,136,307671,38,0,B|306:197|361:220|361:220|351:252|329:287|289:287,1,210,0|0,0:0|1:0,0:0:0:0:
205,349,307928,1,0,1:0:0:0:
193,339,308014,21,0,0:0:0:0:
179,267,308099,1,0,0:0:0:0:
164,194,308185,1,0,0:0:0:0:
150,121,308271,1,0,0:0:0:0:
138,48,308357,22,0,L|243:62,1,105,4|0,1:0|0:0,0:0:0:0:
432,122,308528,1,0,0:0:0:0:
442,98,308614,1,0,0:0:0:0:
453,73,308699,6,0,L|348:87,1,105,8|0,0:0|0:0,0:0:0:0:
112,205,308871,1,0,0:0:0:0:
102,181,308957,1,0,0:0:0:0:
91,156,309042,38,0,L|196:170,1,105
400,237,309214,2,0,L|405:297,1,52.5,0|0,1:0|0:0,0:0:0:0:
410,213,309299,2,0,L|415:273,1,52.5,0|0,3:0|0:0,0:0:0:0:
421,188,309385,6,0,B|335:203|335:203|293:249|293:249|228:264,1,210,8|0,0:0|0:0,0:0:0:0:
118,281,309642,1,0,1:0:0:0:
75,327,309728,38,0,L|90:198,1,105,0|0,1:0|0:0,0:0:0:0:
148,73,309899,1,0,0:0:0:0:
129,57,309985,1,0,0:0:0:0:
107,42,310071,6,0,L|122:171,1,105,8|0,0:0|0:0,0:0:0:0:
220,183,310242,1,0,0:0:0:0:
241,171,310328,1,0,0:0:0:0:
284,155,310414,38,0,L|274:216,1,52.5,0|0,0:0|0:0,0:0:0:0:
304,182,310499,2,0,L|314:243,1,52.5,0|0,0:0|0:0,0:0:0:0:
346,201,310585,6,0,L|336:262,1,52.5,0|0,1:0|0:0,0:0:0:0:
366,228,310671,2,0,L|376:289,1,52.5
395,238,310757,38,0,B|387:344|387:344|339:316|244:348,1,210,8|0,0:0|0:0,0:0:0:0:
204,364,311014,1,0,1:0:0:0:
126,320,311099,6,0,B|167:249|167:249|73:233|73:233|52:282,1,210,0|0,1:0|0:0,0:0:0:0:
78,156,311357,1,0,0:0:0:0:
87,133,311442,38,0,B|127:164|127:164|202:175,1,105,8|0,0:0|0:0,0:0:0:0:
126,320,311614,1,0,0:0:0:0:
140,339,311700,1,0,0:0:0:0:
148,361,311785,6,0,B|188:330|188:330|263:319,1,105
464,309,311957,2,0,L|455:363,1,52.5,0|0,1:0|0:0,0:0:0:0:
451,291,312042,2,0,L|427:342,1,52.5,0|0,3:0|0:0,0:0:0:0:
442,268,312128,38,0,B|402:299|402:299|334:309|334:309|295:268|295:268|337:260,1,210,8|0,0:0|0:0,0:0:0:0:
382,196,312385,1,0,1:0:0:0:
333,128,312471,6,0,P|308:145|299:184,1,52.5,0|0,1:0|0:0,0:0:0:0:
318,126,312557,2,0,P|296:145|292:185,1,52.5,0|0,3:0|0:0,0:0:0:0:
303,125,312642,2,0,P|283:147|284:187,1,52.5,0|0,3:0|0:0,0:0:0:0:
288,126,312728,2,0,P|271:150|277:190,1,52.5,0|0,3:0|0:0,0:0:0:0:
260,191,312814,37,8,0:0:0:0:
210,206,312899,1,0,0:0:0:0:
160,188,312985,1,0,0:0:0:0:
125,148,313071,1,0,0:0:0:0:
71,89,313157,6,0,B|91:47|161:27|205:36|205:36|160:43|131:84,1,210,0|0,0:0|1:0,0:0:0:0:
209,116,313414,1,0,1:0:0:0:
283,131,313499,2,0,B|290:117|289:102|289:102|307:155|273:197,1,105,8|0,0:0|0:0,0:0:0:0:
246,316,313671,2,0,L|258:229,1,52.5,0|0,0:0|0:0,0:0:0:0:
233,332,313757,2,0,L|245:245,1,52.5,0|0,0:0|0:0,0:0:0:0:
217,347,313842,38,0,B|322:331|322:331|444:355,1,210,0|0,1:0|0:0,0:0:0:0:
483,254,314099,1,0,0:0:0:0:
491,231,314185,6,0,L|361:212,1,105,8|0,0:0|0:0,0:0:0:0:
110,258,314357,2,0,L|101:318,1,52.5,0|0,3:0|0:0,0:0:0:0:
100,237,314442,2,0,L|91:297,1,52.5,0|0,3:0|0:0,0:0:0:0:
92,214,314528,38,0,P|154:220|222:195,1,105
369,171,314699,2,0,L|378:111,1,52.5,0|0,1:0|0:0,0:0:0:0:
379,192,314785,2,0,L|388:132,1,52.5,0|0,3:0|0:0,0:0:0:0:
387,215,314871,6,0,P|324:208|257:234,1,105,8|0,0:0|0:0,0:0:0:0:
182,305,315042,1,0,0:0:0:0:
131,327,315128,1,0,1:0:0:0:
76,334,315214,38,0,P|104:275|35:162,1,210,0|0,1:0|0:0,0:0:0:0:
153,37,315471,1,0,0:0:0:0:
129,50,315557,2,0,P|138:102|187:149,1,105,8|0,0:0|0:0,0:0:0:0:
327,99,315728,1,0,0:0:0:0:
354,90,315814,1,0,0:0:0:0:
393,92,315899,6,0,P|401:127|391:164,1,52.5
419,147,315985,2,0,P|417:175|402:198,1,52.5,0|0,0:0|0:0,0:0:0:0:
381,192,316071,38,0,P|373:227|383:264,1,52.5,0|0,1:0|0:0,0:0:0:0:
355,247,316157,2,0,P|357:275|372:298,1,52.5,0|0,0:0|0:0,0:0:0:0:
376,319,316242,6,0,B|376:349|355:364|355:364|334:319|291:274|226:290,1,210,8|0,0:0|0:0,0:0:0:0:
148,346,316499,1,0,1:0:0:0:
61,265,316585,38,0,P|109:267|153:137,1,210,0|0,1:0|0:0,0:0:0:0:
110,32,316842,1,0,0:0:0:0:
123,55,316928,2,0,L|237:70,1,105,8|0,0:0|0:0,0:0:0:0:
384,123,317099,2,0,L|378:182,1,52.5,0|0,3:0|0:0,0:0:0:0:
401,121,317185,2,0,L|383:190,1,52.5,0|0,3:0|0:0,0:0:0:0:
419,125,317271,6,0,L|369:232,1,105
257,315,317442,2,0,L|198:325,1,52.5,0|0,1:0|0:0,0:0:0:0:
263,330,317528,2,0,L|191:331,1,52.5,0|0,3:0|0:0,0:0:0:0:
264,349,317614,38,0,B|153:331|153:331|112:344|112:344|45:326,1,210,8|0,0:0|0:0,0:0:0:0:
72,222,317871,1,0,1:0:0:0:
59,117,317957,6,0,P|103:206|201:143,1,210,0|0,1:0|0:0,0:0:0:0:
234,73,318214,1,0,0:0:0:0:
257,55,318299,2,0,L|266:166,1,105,8|0,0:0|0:0,0:0:0:0:
296,302,318471,1,0,0:0:0:0:
316,315,318557,1,0,0:0:0:0:
327,334,318642,2,0,P|335:232|247:154,1,210,0|0,0:0|1:0,0:0:0:0:
184,112,318899,1,0,1:0:0:0:
146,114,318985,6,0,L|164:86,2,26.25
109,146,319071,2,0,L|108:113,2,26.25,0|0|0,0:0|0:0|0:0,0:0:0:0:
87,202,319157,2,0,L|91:169,2,26.25,0|0|0,0:0|0:0|0:0,0:0:0:0:
66,246,319243,2,0,L|51:216,2,26.25,0|0|0,0:0|0:0|0:0,0:0:0:0:
61,284,319328,38,0,P|122:270|212:279,1,115.50000352478,0|0,1:0|0:0,0:0:0:0:
411,286,319499,1,0,0:0:0:0:
449,301,319585,1,0,0:0:0:0:
471,334,319671,38,0,P|412:359|356:337,1,115.50000352478,8|0,0:0|0:0,0:0:0:0:
322,125,319842,1,0,0:0:0:0:
328,75,319928,1,0,0:0:0:0:
358,34,320014,6,0,B|367:107|414:133|414:133|383:188|305:216,1,231.000007049561,0|0,0:0|0:0,0:0:0:0:
139,173,320271,2,0,P|128:143|141:95,1,57.7500017623902,0|0,3:0|0:0,0:0:0:0:
143,160,320356,2,0,B|139:136|141:94|183:58|183:58|223:190,1,231.000007049561,8|0,0:0|0:0,0:0:0:0:
186,332,320614,1,0,1:0:0:0:
104,284,320699,38,0,P|180:238|285:335,1,231.000007049561,0|0,1:0|0:0,0:0:0:0:
349,377,320956,1,0,1:0:0:0:
369,277,321042,2,0,P|460:331|461:206,1,231.000007049561,8|0,0:0|0:0,0:0:0:0:
367,112,321299,1,0,0:0:0:0:
329,90,321385,6,0,L|331:186,1,57.7500017623902,0|0,0:0|0:0,0:0:0:0:
298,78,321471,2,0,L|300:174,1,57.7500017623902,0|0,0:0|0:0,0:0:0:0:
263,91,321556,38,0,L|265:187,1,57.7500017623902,0|0,1:0|0:0,0:0:0:0:
235,72,321642,2,0,L|237:168,1,57.7500017623902
205,87,321728,6,0,B|208:195|208:195|237:230|237:230|244:331,1,231.000007049561,8|0,0:0|0:0,0:0:0:0:
89,290,321985,1,0,1:0:0:0:
93,209,322071,38,0,L|253:185,1,115.50000352478,0|0,1:0|0:0,0:0:0:0:
445,291,322242,1,0,0:0:0:0:
438,318,322328,1,0,0:0:0:0:
429,346,322414,6,0,L|269:322,1,115.50000352478,8|0,0:0|0:0,0:0:0:0:
56,200,322585,1,0,0:0:0:0:
33,158,322671,1,0,0:0:0:0:
39,113,322756,38,0,B|95:134|172:124|172:124|199:91|212:20,1,231.000007049561
352,57,323014,2,0,P|314:73|295:88,1,57.7500017623902,0|0,3:0|0:0,0:0:0:0:
332,93,323099,2,0,B|291:111|279:142|275:169|275:169|329:174|296:242|368:273,1,231.000007049561,8|0,0:0|0:0,0:0:0:0:
430,166,323356,1,0,1:0:0:0:
504,116,323442,6,0,P|487:211|520:262,1,115.50000352478,0|0,1:0|0:0,0:0:0:0:
410,348,323614,1,0,0:0:0:0:
357,340,323699,1,0,0:0:0:0:
309,349,323785,38,0,P|251:364|150:337,1,115.50000352478,8|0,0:0|0:0,0:0:0:0:
78,123,323956,1,0,0:0:0:0:
82,77,324042,1,0,0:0:0:0:
119,48,324128,6,0,B|98:94|110:144|110:144|127:78|165:48|232:43,1,231.000007049561
217,160,324385,1,0,1:0:0:0:
303,180,324471,2,0,B|307:190|304:204|304:204|338:180|320:112,1,115.50000352478,8|0,0:0|0:0,0:0:0:0:
331,21,324642,2,0,L|389:60,1,57.7500017623902,0|0,0:0|0:0,0:0:0:0:
368,17,324728,2,0,L|393:84,1,57.7500017623902,0|0,0:0|0:0,0:0:0:0:
400,32,324814,38,0,P|387:121|423:176,1,115.50000352478,0|0,1:0|0:0,0:0:0:0:
373,325,324985,1,0,0:0:0:0:
336,346,325071,1,0,0:0:0:0:
301,349,325156,6,0,P|223:337|196:278,1,115.50000352478,8|0,0:0|0:0,0:0:0:0:
65,96,325328,1,0,0:0:0:0:
88,67,325414,1,0,0:0:0:0:
123,57,325499,38,0,B|79:85|63:127|87:165|87:165|222:135,1,231.000007049561
327,153,325756,2,0,P|292:158|266:183,1,57.7500017623902,0|0,3:0|0:0,0:0:0:0:
346,166,325842,2,0,B|280:182|252:241|252:241|194:212|148:246,1,231.000007049561,8|0,0:0|0:0,0:0:0:0:
98,314,326099,1,0,0:0:0:0:
37,366,326185,6,0,L|61:236,1,115.50000352478,0|0,1:0|0:0,0:0:0:0:
65,96,326356,1,0,0:0:0:0:
92,76,326442,1,0,0:0:0:0:
123,57,326528,38,0,L|249:66,1,115.50000352478,8|0,0:0|0:0,0:0:0:0:
429,92,326699,1,0,0:0:0:0:
416,121,326785,1,0,0:0:0:0:
427,144,326871,6,0,L|348:151,1,57.7500017623902
404,176,326956,2,0,L|325:183,1,57.7500017623902,0|0,0:0|0:0,0:0:0:0:
436,204,327042,38,0,L|357:211,1,57.7500017623902,0|0,1:0|0:0,0:0:0:0:
413,236,327128,2,0,L|334:243,1,57.7500017623902
396,266,327214,6,0,B|312:273|312:273|231:233|231:233|127:238,1,231.000007049561,8|0,0:0|0:0,0:0:0:0:
41,239,327471,1,0,0:0:0:0:
117,286,327556,38,0,L|138:160,1,115.50000352478,0|0,1:0|0:0,0:0:0:0:
277,91,327728,1,0,0:0:0:0:
311,80,327814,1,0,0:0:0:0:
344,76,327899,6,0,L|310:220,1,115.50000352478,8|0,0:0|0:0,0:0:0:0:
204,365,328071,1,0,0:0:0:0:
182,340,328156,1,0,0:0:0:0:
161,314,328242,38,0,P|211:331|316:312,1,115.50000352478
409,283,328414,1,0,0:0:0:0:
431,258,328499,1,0,0:0:0:0:
452,232,328585,6,8,B|402:249|344:227|344:227|260:198|212:233,1,210,8|0,0:0|0:0,0:0:0:0:
111,226,328842,1,0,0:0:0:0:
98,209,328928,6,0,P|135:198|149:180,1,52.5,0|0,0:0|0:0,0:0:0:0:
196,27,329099,1,0,0:0:0:0:
212,19,329185,1,0,0:0:0:0:
229,17,329271,2,0,P|215:56|235:119,1,105,0|0,0:0|0:0,0:0:0:0:
313,257,329528,2,0,P|324:207|297:164,1,105,0|0,0:0|0:0,0:0:0:0:
188,223,329785,2,0,P|210:210|224:188,1,52.5,0|0,0:0|0:0,0:0:0:0:
166,47,329957,6,0,L|159:160,1,105,0|0,0:0|0:0,0:0:0:0:
112,256,330299,37,0,0:0:0:0:
121,271,330385,2,0,P|132:229|83:178,1,118.125004506111,2|8,0:0|0:0,0:0:0:0:
132,344,330814,1,0,0:0:0:0:
122,360,330900,2,0,P|111:318|161:259,1,118.125004506111,2|0,0:0|1:0,0:0:0:0:
342,260,331328,2,0,P|314:286|255:297,1,78.7500030040742,8|0,0:0|0:0,0:0:0:0:
233,199,331671,5,2,1:2:0:0:
226,204,331757,2,0,P|216:166|224:128,2,78.7500030040742,2|2|0,0:0|0:0|0:0,0:0:0:0:
224,227,332185,2,0,P|200:208|177:205,1,39.3750015020371,2|0,0:0|0:0,0:0:0:0:
109,316,332357,2,0,P|141:324|169:320,1,52.5,2|0,0:0|0:0,0:0:0:0:
244,300,332528,2,0,P|276:292|304:296,1,52.5,2|0,1:2|0:0,0:0:0:0:
380,333,332699,1,8,0:0:0:0:
93,308,333042,37,0,1:0:0:0:
109,316,333128,2,0,P|153:324|199:259,1,118.125004506111,2|0,0:0|0:0,0:0:0:0:
308,300,333557,1,0,0:0:0:0:
295,293,333642,2,0,P|269:292|219:363,1,118.125004506111,2|0,0:0|1:0,0:0:0:0:
380,353,334071,2,0,P|393:308|387:270,1,78.7500030040742,8|0,0:0|0:0,0:0:0:0:
228,138,334414,5,0,0:0:0:0:
237,145,334499,2,0,L|227:214,1,62.9999980773926,2|2,0:0|0:0,0:0:0:0:
242,212,334928,38,0,L|246:180,1,31.4999990386963,2|0,0:0|0:0,0:0:0:0:
290,303,335099,2,0,L|321:298,1,31.4999990386963,0|0,0:3|0:0,0:0:0:0:
360,224,335271,2,0,L|328:219,1,31.4999990386963,2|2,1:2|0:0,0:0:0:0:
227,207,335442,2,0,L|237:145,1,62.9999980773926,8|0,0:0|0:0,0:0:0:0:
304,39,335785,5,0,1:0:0:0:
313,22,335871,2,0,P|333:68|301:139,1,118.125004506111,2|8,0:0|0:0,0:0:0:0:
179,101,336299,1,0,0:0:0:0:
169,83,336385,2,0,P|149:129|181:200,1,118.125004506111,2|0,0:0|1:0,0:0:0:0:
304,285,336814,2,0,P|306:244|285:209,1,78.7500030040742,8|0,0:0|0:0,0:0:0:0:
128,270,337157,37,2,1:2:0:0:
151,277,337242,2,0,B|192:277|192:277|234:265,2,78.7500030040742,2|2|0,0:0|0:0|0:0,0:0:0:0:
128,270,337671,2,0,P|122:300|116:310,1,39.3750015020371,2|0,0:0|0:0,0:0:0:0:
41,206,337842,2,0,P|48:251|57:264,1,52.5,2|0,0:0|0:0,0:0:0:0:
147,181,338014,2,0,P|152:145|146:124,1,52.5,2|0,1:2|0:0,0:0:0:0:
40,78,338185,1,8,0:0:0:0:
55,241,338528,5,0,1:0:0:0:
51,256,338614,2,0,P|41:213|78:152,1,118.125004506111,2|8,0:0|0:0,0:0:0:0:
145,312,339042,1,0,0:0:0:0:
152,323,339128,2,0,P|162:280|125:219,1,118.125004506111,2|0,0:0|1:0,0:0:0:0:
105,74,339557,2,0,P|139:91|178:89,1,78.7500030040742,8|0,0:0|0:0,0:0:0:0:
326,50,339899,37,2,1:2:0:0:
337,50,339985,2,0,L|323:121,1,62.9999980773926,2|2,0:0|0:0,0:0:0:0:
326,118,340414,6,0,P|292:113|282:118,1,31.4999990386963,2|0,0:0|0:0,0:0:0:0:
210,144,340585,2,0,P|201:172|202:188,1,31.4999990386963,0|0,0:0|0:0,0:0:0:0:
284,282,340757,2,0,P|277:254|261:237,1,31.4999990386963,0|0,1:0|0:0,0:0:0:0:
138,245,340928,2,0,P|179:272|217:269,1,62.9999980773926,8|0,0:0|0:0,0:0:0:0:
402,186,341271,37,0,1:0:0:0:
403,174,341357,2,0,P|369:192|359:277,1,118.125004506111,2|8,0:0|0:0,0:0:0:0:
196,264,341785,1,0,0:0:0:0:
195,252,341871,2,0,P|229:270|239:355,1,118.125004506111,2|0,0:0|1:0,0:0:0:0:
410,314,342299,2,0,P|428:279|426:241,1,78.7500030040742,8|0,0:0|0:0,0:0:0:0:
241,184,342642,5,2,1:2:0:0:
249,195,342728,2,0,L|240:113,2,78.7500030040742,2|2|0,0:0|0:0|0:0,0:0:0:0:
255,205,343157,2,0,P|219:198|201:203,1,39.3750015020371,2|0,0:0|0:0,0:0:0:0:
169,321,343328,2,0,P|206:303|214:289,1,52.5,0|0,0:0|0:0,0:0:0:0:
136,192,343499,2,0,P|135:224|142:246,1,52.5,0|0,1:0|0:0,0:0:0:0:
247,107,343671,1,8,0:0:0:0:
206,281,344014,37,0,1:2:0:0:
211,294,344099,2,0,P|161:324|103:317,1,118.125004506111,2|8,0:0|0:0,0:0:0:0:
301,276,344528,1,0,0:0:0:0:
307,258,344614,2,0,P|273:212|216:198,1,118.125004506111,2|0,0:0|1:0,0:0:0:0:
59,179,345042,2,0,P|109:193|143:190,1,78.7500030040742,8|0,0:0|0:0,0:0:0:0:
292,61,345385,5,2,1:2:0:0:
298,76,345471,2,0,L|288:150,1,62.9999980773926,2|2,0:0|0:0,0:0:0:0:
289,154,345899,38,0,P|273:150|258:149,1,31.4999990386963,2|0,0:0|0:0,0:0:0:0:
155,238,346071,2,0,L|176:202,1,31.4999990386963,0|0,0:0|0:0,0:0:0:0:
252,277,346242,2,0,L|239:237,1,31.4999990386963,0|0,1:0|0:0,0:0:0:0:
372,295,346414,2,0,L|324:238,1,62.9999980773926,8|0,0:0|0:0,0:0:0:0:
285,143,346757,5,0,1:0:0:0:
293,164,346842,2,0,P|311:104|297:47,1,118.125004506111,2|8,0:0|0:0,0:0:0:0:
172,131,347271,1,0,0:0:0:0:
164,110,347356,2,0,P|145:170|160:227,1,118.125004506111,2|0,0:0|1:0,0:0:0:0:
313,337,347785,2,0,L|279:262,1,78.7500030040742,8|0,0:0|0:0,0:0:0:0:
250,143,348128,37,2,1:2:0:0:
254,152,348214,2,0,P|298:146|333:161,2,78.7500030040742,2|2|0,0:0|0:0|0:0,0:0:0:0:
244,165,348642,2,0,L|226:212,1,39.3750015020371,2|0,0:0|0:0,0:0:0:0:
175,297,348814,2,0,P|150:283|136:264,1,52.5,0|0,0:0|0:0,0:0:0:0:
102,180,348985,2,0,P|99:150|107:120,1,52.5,0|0,1:0|0:0,0:0:0:0:
178,75,349157,1,8,0:0:0:0:
187,81,349499,6,0,L|193:144,1,62.9999980773926,0|0,1:0|0:0,0:0:0:0:
203,225,349842,1,0,0:0:0:0:
193,144,350014,1,2,0:0:0:0:
298,120,350186,38,0,L|293:183,1,62.9999980773926
283,264,350529,1,2,0:0:0:0:
293,183,350700,1,2,0:0:0:0:
391,251,350871,5,0,0:0:0:0:
405,263,350957,2,0,L|414:332,2,62.9999980773926,2|2|0,0:0|0:0|0:0,0:0:0:0:
418,275,351385,1,0,0:0:0:0:
403,134,351557,1,0,0:0:0:0:
407,112,351642,1,0,0:0:0:0:
400,88,351728,1,0,0:0:0:0:
388,69,351814,1,0,0:0:0:0:
367,56,351899,2,0,P|334:51|294:58,1,62.9999980773926,2|0,0:0|0:0,0:0:0:0:
213,163,352242,5,4,1:0:0:0:
