osu file format v14

[General]
AudioFilename: audio.mp3
AudioLeadIn: 0
PreviewTime: 88676
Countdown: 0
SampleSet: Soft
StackLeniency: 0.4
Mode: 0
LetterboxInBreaks: 0
WidescreenStoryboard: 1

[Editor]
Bookmarks: 1248,2619,6733,12219,17705,21819,25933,28676,31419,34162,36905,38790,39648,42390,45133,47876,50619,53362,56105,58848,61590,64333,67076,77705,80790,108219,110276
DistanceSpacing: 1.3
BeatDivisor: 4
GridSize: 8
TimelineZoom: 1.800005

[Metadata]
Title:Central Nucleus (Cut Ver.)
TitleUnicode:Central Nucleus (Cut Ver.)
Artist:Feryquitous
ArtistUnicode:Feryquitous
Creator:BlastTheKidd
Version:HD
Source:
Tags:snowin anna apple bor newton- newton newtonscradle Free Hong Kong honne AD:drum'nbass 3 diverse system focus dnb drum and bass wub Electronic 2017 Instrumental Version [alt][F4] pyroflayer borborygmos _83 102335 HalfsIashed Meat Inspector imbor blacksocks big fan I love apples Lego man In your heart type 1 if cute
BeatmapID:2395078
BeatmapSetID:864679

[Difficulty]
HPDrainRate:4
CircleSize:3.5
OverallDifficulty:5
ApproachRate:8
SliderMultiplier:1.29999990463257
SliderTickRate:1

[Events]
//Background and Video events
0,0,"71097621_p0.jpg",0,0
//Break Periods
//Storyboard Layer 0 (Background)
//Storyboard Layer 1 (Fail)
//Storyboard Layer 2 (Pass)
//Storyboard Layer 3 (Foreground)
//Storyboard Layer 4 (Overlay)
//Storyboard Sound Samples

[TimingPoints]
1248,342.857142857143,4,2,1,45,1,0
1248,-100,4,2,1,45,0,0
21819,-153.846153846153,4,2,1,35,0,0
23190,-100,4,2,1,55,0,0
42305,-100,4,2,1,5,0,0
42390,-250,4,2,1,45,0,0
43762,-100,4,2,1,35,0,0
45133,-117.647058823529,4,2,1,60,0,0
46505,-133.333333333333,4,2,1,60,0,0
47876,-117.647058823529,4,2,1,60,0,0
49248,-133.333333333333,4,2,1,64,0,0
49590,-133.333333333333,4,2,1,68,0,0
49933,-133.333333333333,4,2,1,72,0,0
50276,-133.333333333333,4,2,1,76,0,0
50619,-117.647058823529,4,2,1,60,0,0
51990,-133.333333333333,4,2,1,60,0,0
53362,-117.647058823529,4,2,1,60,0,0
54733,-133.333333333333,4,2,1,60,0,0
55076,-133.333333333333,4,2,1,68,0,0
55419,-133.333333333333,4,2,1,72,0,0
55762,-133.333333333333,4,2,1,64,0,0
56105,-117.647058823529,4,2,1,60,0,0
57476,-133.333333333333,4,2,1,60,0,0
58848,-117.647058823529,4,2,1,60,0,0
60219,-133.333333333333,4,2,1,64,0,0
60562,-133.333333333333,4,2,1,68,0,0
60905,-133.333333333333,4,2,1,72,0,0
61248,-133.333333333333,4,2,1,76,0,0
61590,-100,4,2,1,60,0,0
62962,-133.333333333333,4,2,1,60,0,0
64333,-250,4,2,1,50,0,0
65705,-250,4,2,1,40,0,0
65876,-250,4,2,1,40,0,0
66048,-250,4,2,1,48,0,0
66219,-250,4,2,1,48,0,0
66390,-250,4,2,1,56,0,0
66562,-250,4,2,1,56,0,0
66733,-250,4,2,1,64,0,0
66905,-250,4,2,1,64,0,0
67076,-84.7457627118644,4,2,1,72,0,1
69476,-84.7457627118644,4,2,1,72,0,0
69819,-84.7457627118644,4,2,1,72,0,1
72219,-84.7457627118644,4,2,1,72,0,0
72305,-84.7457627118644,4,2,1,80,0,0
72562,-84.7457627118644,4,2,1,72,0,1
74962,-84.7457627118644,4,2,1,72,0,0
75305,-84.7457627118644,4,2,1,72,0,1
77362,-84.7457627118644,4,2,1,72,0,1
77705,-84.7457627118644,4,2,1,80,0,0
78048,-75.7575757575758,4,2,1,80,0,1
79076,-75.7575757575758,4,2,1,80,0,1
81990,-75.7575757575758,4,2,1,80,0,1
82676,-75.7575757575758,4,2,1,80,0,1
83276,-75.7575757575758,4,2,1,88,0,1
83533,-75.7575757575758,4,2,1,80,0,1
83705,-75.7575757575758,4,2,1,80,0,1
84733,-75.7575757575758,4,2,1,80,0,1
85955,-75.7575757575758,4,2,1,80,0,1
86019,-75.7575757575758,4,2,1,80,0,1
86276,-68.4931506849315,4,2,1,80,0,1
86448,-68.4931506849315,4,2,1,80,0,1
87476,-68.4931506849315,4,2,1,80,0,1
88162,-68.4931506849315,4,2,1,80,0,0
88848,-68.4931506849315,4,2,1,80,0,0
89019,-100,4,2,1,55,0,0
91762,-196.078431372549,4,2,1,55,0,0
93133,-196.078431372549,4,2,1,60,0,0
93476,-196.078431372549,4,2,1,65,0,0
93819,-196.078431372549,4,2,1,70,0,0
94162,-196.078431372549,4,2,1,75,0,0
94505,-100,4,2,1,55,0,0
97248,-200,4,2,1,55,0,0
98619,-200,4,2,1,60,0,0
98962,-200,4,2,1,65,0,0
99305,-200,4,2,1,70,0,0
99648,-200,4,2,1,75,0,0
99990,-100,4,2,1,55,0,0
102733,-204.081632653061,4,2,1,55,0,0
104105,-100,4,2,1,60,0,0
104448,-100,4,2,1,65,0,0
104790,-100,4,2,1,70,0,0
105133,-100,4,2,1,75,0,0
105476,-100,4,2,1,55,0,0
106848,-111.111111111111,4,2,1,55,0,0
108219,-204.081632653061,4,2,1,60,0,0
108562,-204.081632653061,4,2,1,50,0,0
108905,-204.081632653061,4,2,1,40,0,0
109248,-204.081632653061,4,2,1,30,0,0
109590,-204.081632653061,4,2,1,20,0,0
109933,-204.081632653061,4,2,1,10,0,0
110276,-204.081632653061,4,2,1,5,0,0

[Colours]
Combo1 : 54,148,150
Combo2 : 97,218,224
Combo3 : 157,219,171
Combo4 : 106,139,149

[HitObjects]
256,224,21819,6,0,L|256:128,3,84.4999899330145,4|2|0|2,3:0|3:0|0:0|3:0,0:0:0:0:
345,93,23019,1,0,3:0:0:0:
345,93,23105,1,0,3:0:0:0:
345,93,23190,38,0,L|425:109,1,64.9999952316285,4|0,3:0|3:0,0:0:0:0:
413,191,23533,2,0,L|458:326,1,129.999990463257,8|0,2:2|3:0,0:0:0:0:
352,304,24048,2,0,L|336:384,2,64.9999952316285,4|8|0,3:0|2:2|3:0,0:0:0:0:
252,335,24562,37,4,3:0:0:0:
252,335,24648,1,0,3:0:0:0:
252,335,24733,1,0,3:0:0:0:
190,277,24905,1,8,2:2:0:0:
247,215,25076,1,0,3:0:0:0:
255,204,25162,1,0,3:0:0:0:
265,194,25248,2,0,L|297:162,2,32.4999976158142,0|0|4,3:2|3:0|3:3,0:0:0:0:
189,157,25590,2,0,L|126:139,1,64.9999952316285,8|0,2:2|3:0,0:0:0:0:
20,195,25933,6,0,L|85:213,1,64.9999952316285,4|0,3:0|3:0,0:0:0:0:
128,288,26276,1,8,2:2:0:0:
128,288,26448,1,0,3:0:0:0:
208,256,26619,2,0,L|224:304,2,32.4999976158143,0|0|4,3:0|3:0|3:3,0:0:0:0:
160,184,26962,2,0,L|128:104,1,64.9999952316285,8|0,2:2|3:0,0:0:0:0:
32,64,27305,38,0,L|-16:48,2,32.4999976158143,4|0|0,3:0|3:0|0:0,0:0:0:0:
112,24,27648,1,8,2:2:0:0:
192,56,27819,1,0,3:0:0:0:
207,54,27905,1,0,3:0:0:0:
221,52,27990,2,0,L|265:45,3,32.4999976158142,0|0|4|0,3:2|3:0|3:3|3:0,0:0:0:0:
283,77,28333,1,8,2:2:0:0:
440,32,28676,6,0,L|458:97,1,64.9999952316285,4|0,3:0|3:0,0:0:0:0:
512,160,29019,2,0,L|447:287,1,129.999990463257,8|0,2:2|3:0,0:0:0:0:
376,216,29533,2,0,L|280:208,2,64.9999952316285,4|8|0,3:3|2:2|3:3,0:0:0:0:
344,128,30048,37,4,3:0:0:0:
344,128,30133,1,0,3:0:0:0:
344,128,30219,1,0,3:0:0:0:
323,46,30390,1,8,2:2:0:0:
240,65,30562,1,0,3:0:0:0:
229,54,30648,1,0,3:0:0:0:
219,42,30733,2,0,L|187:10,2,32.4999976158142,0|0|4,3:2|3:0|3:3,0:0:0:0:
184,120,31076,2,0,L|111:147,1,64.9999952316285,8|0,2:2|3:0,0:0:0:0:
0,152,31419,6,0,L|32:224,1,64.9999952316285,4|0,3:0|3:0,0:0:0:0:
30,289,31762,1,8,2:2:0:0:
107,296,31933,1,0,3:0:0:0:
171,352,32105,2,0,L|162:384,2,32.4999976158143,0|0|4,3:0|3:0|3:3,0:0:0:0:
246,312,32448,2,0,L|263:249,1,64.9999952316285,8|0,2:2|3:0,0:0:0:0:
289,174,32790,37,4,3:0:0:0:
289,174,32876,1,0,3:0:0:0:
289,174,32962,1,0,3:0:0:0:
210,143,33133,1,8,2:2:0:0:
176,65,33305,1,0,3:0:0:0:
161,59,33390,1,0,3:0:0:0:
145,54,33476,2,0,L|102:38,3,32.4999976158142,0|0|4|0,3:2|3:0|3:3|3:0,0:0:0:0:
92,10,33819,1,8,2:2:0:0:
16,148,34162,6,0,P|54:170|73:205,1,64.9999952316285,4|0,3:0|3:0,0:0:0:0:
12,244,34505,2,0,P|64:250|121:319,1,129.999990463257,8|0,2:2|3:0,0:0:0:0:
58,356,35019,2,0,P|107:338|195:360,1,129.999990463257,4|0,3:3|3:0,0:0:0:0:
272,336,35533,37,4,3:0:0:0:
272,336,35619,1,0,3:0:0:0:
272,336,35705,2,0,L|299:384,2,32.4999976158143,0|0|8,3:0|3:0|2:2,0:0:0:0:
312,256,36048,1,0,3:0:0:0:
327,253,36133,1,0,3:0:0:0:
342,251,36219,2,0,L|380:243,2,32.4999976158143,0|0|4,3:2|3:0|3:3,0:0:0:0:
264,176,36562,2,0,L|192:192,1,64.9999952316285,8|0,2:2|3:0,0:0:0:0:
104,168,36905,6,0,L|37:124,1,64.9999952316285,4|0,3:0|3:0,0:0:0:0:
104,56,37248,2,0,L|158:91,1,64.9999952316285,8|0,2:2|3:0,0:0:0:0:
248,64,37590,2,0,L|243:28,2,32.4999976158143,0|0|4,3:0|3:0|3:3,0:0:0:0:
320,120,37933,2,0,L|380:160,1,64.9999952316285,8|0,2:2|3:0,0:0:0:0:
464,200,38276,37,4,3:0:0:0:
451,204,38362,1,0,3:0:0:0:
438,210,38448,2,0,L|447:241,2,32.4999976158143,0|0|8,3:0|3:0|2:2,0:0:0:0:
424,320,38790,1,0,3:0:0:0:
431,332,38876,1,0,3:0:0:0:
438,344,38962,2,0,L|468:327,2,32.4999976158143,0|0|4,3:2|3:0|3:3,0:0:0:0:
336,328,39305,2,0,L|280:362,1,64.9999952316285,8|0,2:2|3:0,0:0:0:0:
288,248,39648,22,0,P|325:227|352:214,1,64.9999952316285,4|0,3:0|3:0,0:0:0:0:
374,209,39904,1,0,3:0:0:0:
374,209,39990,2,0,B|382:132|314:180|290:98,1,129.999990463257,8|0,2:2|3:0,0:0:0:0:
204,77,40505,2,0,B|225:40|262:16,2,64.9999952316285,4|8|0,3:3|0:2|3:0,0:0:0:0:
193,174,41019,38,0,B|171:212|130:217|153:199|98:204|86:268,1,129.999990463257,4|8,3:0|2:2,0:0:0:0:
5,218,41533,1,0,3:0:0:0:
5,218,41619,1,0,3:0:0:0:
5,218,41705,2,0,B|12:182|24:160,2,32.4999976158143,0|0|4,3:0|3:0|3:0,0:0:0:0:
0,310,42048,2,0,P|48:315|93:351,1,97.4999928474428,8|0,0:2|0:0,0:0:0:0:
112,360,42390,38,0,L|131:389,2,25.9999980926514,4|0|2,3:0|3:0|3:0,0:0:0:0:
134,266,42905,1,0,3:0:0:0:
134,266,43076,6,0,L|160:248,2,25.9999980926514,0|0|2,3:0|3:0|3:0,0:0:0:0:
232,304,43590,1,0,3:0:0:0:
232,304,43762,5,0,3:0:0:0:
472,64,45133,38,0,L|472:120,1,55.2499970006943,4|0,3:0|3:0,0:0:0:0:
392,184,45476,1,8,2:2:0:0:
392,184,45648,2,0,L|392:248,1,55.2499970006943,0|0,3:0|3:0,0:0:0:0:
336,328,45990,1,4,3:3:0:0:
336,328,46162,2,0,L|336:392,1,55.2499970006943,8|0,2:0|3:0,0:0:0:0:
256,280,46505,21,4,3:0:0:0:
256,264,46590,1,0,3:0:0:0:
256,248,46676,1,0,3:0:0:0:
256,157,46848,1,8,2:0:0:0:
256,66,47019,1,0,3:0:0:0:
232,66,47105,1,0,3:2:0:0:
208,66,47190,2,0,L|176:66,3,24.3749991416931,2|0|4|0,3:2|3:0|3:3|3:0,0:0:0:0:
157,66,47533,1,8,2:0:0:0:
40,64,47876,6,0,L|40:120,1,55.2499970006943,4|0,3:0|3:0,0:0:0:0:
120,184,48219,1,8,2:2:0:0:
120,184,48391,2,0,L|120:248,1,55.2499970006943,0|0,3:0|3:0,0:0:0:0:
176,328,48733,1,4,3:3:0:0:
176,328,48905,2,0,L|176:392,1,55.2499970006943,8|0,2:0|3:0,0:0:0:0:
312,320,49248,21,4,3:0:0:0:
224,256,49590,1,10,2:2:0:0:
304,160,49933,1,2,3:2:0:0:
256,32,50276,1,10,2:2:0:0:
416,64,50619,6,0,L|480:104,1,55.2499970006943,4|0,3:0|3:0,0:0:0:0:
392,184,50962,1,8,2:2:0:0:
392,184,51134,2,0,L|400:240,1,55.2499970006943,0|0,3:0|3:0,0:0:0:0:
336,328,51476,1,4,3:3:0:0:
336,328,51648,2,0,L|292:373,1,55.2499970006943,8|0,2:0|3:0,0:0:0:0:
256,280,51991,21,4,3:0:0:0:
256,264,52076,1,0,3:0:0:0:
256,248,52162,1,0,3:0:0:0:
200,176,52334,1,8,2:0:0:0:
256,104,52505,1,0,3:0:0:0:
256,88,52591,1,0,3:2:0:0:
256,64,52676,2,0,L|256:32,3,24.3749991416931,2|0|4|0,3:2|3:0|3:3|3:0,0:0:0:0:
256,8,53019,1,8,2:0:0:0:
96,64,53362,6,0,L|32:104,1,55.2499970006943,4|0,3:0|3:0,0:0:0:0:
120,184,53705,1,8,2:2:0:0:
120,184,53877,2,0,L|112:240,1,55.2499970006943,0|0,3:0|3:0,0:0:0:0:
176,328,54219,1,4,3:3:0:0:
176,328,54391,2,0,L|220:373,1,55.2499970006943,8|0,2:0|3:0,0:0:0:0:
336,328,54733,21,4,3:0:0:0:
248,240,55076,1,10,2:2:0:0:
336,144,55419,1,2,3:2:0:0:
256,32,55762,1,10,2:2:0:0:
416,64,56105,22,0,B|472:80,1,55.2499970006943,4|0,3:0|3:0,0:0:0:0:
464,192,56448,1,8,2:2:0:0:
464,192,56619,2,0,B|391:170,1,55.2499970006943,0|0,3:0|3:0,0:0:0:0:
330,256,56962,1,4,3:3:0:0:
330,256,57134,2,0,L|390:274,1,55.2499970006943,8|0,2:0|3:0,0:0:0:0:
256,352,57476,21,4,3:0:0:0:
256,32,58162,1,2,3:2:0:0:
96,64,58848,22,0,B|40:80,1,55.2499970006943,4|0,3:0|3:0,0:0:0:0:
48,192,59191,1,8,2:2:0:0:
48,192,59362,2,0,B|112:168,1,55.2499970006943,0|0,3:0|3:0,0:0:0:0:
72,288,59705,1,4,3:3:0:0:
72,288,59877,2,0,L|16:320,1,55.2499970006943,8|0,2:0|3:0,0:0:0:0:
97,375,60219,22,0,L|149:344,1,48.7499982833862,4|0,3:0|3:0,0:0:0:0:
196,300,60562,2,0,L|236:340,1,48.7499982833862,8|0,2:0|3:0,0:0:0:0:
300,384,60905,2,0,L|345:367,1,48.7499982833862,2|4,3:2|3:3,0:0:0:0:
436,359,61248,2,0,L|453:294,1,48.7499982833862,8|0,2:0|3:0,0:0:0:0:
511,254,61590,22,0,P|488:217|446:188,1,64.9999952316285,4|0,3:0|3:2,0:0:0:0:
428,106,61933,1,8,3:2:0:0:
428,106,62105,2,0,P|391:128|365:163,1,64.9999952316285,2|0,3:2|3:3,0:0:0:0:
275,153,62448,1,4,3:0:0:0:
275,153,62619,2,0,B|272:184|290:221,1,64.9999952316285,8|0,2:2|3:0,0:0:0:0:
256,312,62962,21,4,3:0:0:0:
256,72,63648,1,2,3:2:0:0:
28,105,64333,38,0,L|-1:86,2,25.9999980926514,4|0|2,3:0|3:0|3:0,0:0:0:0:
120,83,64848,1,0,3:0:0:0:
120,83,65019,6,0,L|145:99,2,25.9999980926514,0|0|2,3:0|3:0|3:0,0:0:0:0:
111,179,65533,1,0,3:0:0:0:
111,179,65705,5,0,3:0:0:0:
256,192,65790,12,0,66733,3:0:0:0:
215,53,67076,22,0,L|366:17,1,153.399983363038,4|8,3:0|2:2,0:0:0:0:
424,77,67590,1,0,3:0:0:0:
424,77,67762,2,0,L|503:97,1,76.699991681519,2|4,3:2|3:0,2:1:0:0:
475,177,68105,2,0,L|513:265,1,76.699991681519,8|0,2:2|3:0,0:0:0:0:
429,284,68448,2,0,L|310:388,3,153.399983363038,4|8|0|8,3:0|2:2|3:2|2:2,0:0:0:0:
145,369,69819,38,0,P|201:316|260:268,1,153.399983363038,4|8,3:0|2:2,0:0:0:0:
341,244,70333,1,0,3:0:0:0:
341,244,70505,2,0,B|379:226|428:210,1,76.699991681519,2|4,3:2|3:0,2:1:0:0:
494,236,70848,2,0,P|495:187|492:142,1,76.699991681519,8|0,2:2|3:0,0:0:0:0:
452,69,71190,5,4,3:0:0:0:
428,59,71276,1,2,3:2:0:0:
405,50,71362,1,2,3:2:0:0:
320,32,71533,2,0,P|240:27|165:25,2,153.399983363038,8|2|8,2:2|3:2|2:2,0:0:0:0:
161,140,72562,38,0,B|179:148|194:161|194:161|207:170|227:177|227:177|243:193|256:200|256:200|272:209|290:221,1,153.399983363038,4|8,3:0|2:2,0:0:0:0:
349,281,73076,1,0,3:0:0:0:
349,281,73248,2,0,B|343:291|336:300|336:300|331:308|327:319|327:319|318:328|314:336|314:336|308:345|301:355,1,76.699991681519,2|4,3:2|3:0,2:1:0:0:
224,345,73590,2,0,B|213:339|204:332|204:332|196:327|185:323|185:323|176:314|168:310|168:310|159:304|149:297,1,76.699991681519,8|0,2:2|3:0,0:0:0:0:
197,229,73933,1,4,3:0:0:0:
197,229,74105,1,0,3:0:0:0:
294,179,74276,2,0,B|281:173|271:166|271:166|263:162|250:159|250:159|240:150|231:146|231:146|221:141|209:134,1,76.699991681519,8|0,2:2|3:0,0:0:0:0:
252,47,74619,2,0,B|239:50|227:52|227:52|217:54|206:59|206:59|192:59|183:62|183:62|172:65|159:67,1,76.699991681519,0|4,3:2|3:0,0:0:0:0:
82,54,74962,2,0,B|79:66|74:77|74:77|71:87|69:99|69:99|62:111|61:121|61:121|57:131|53:144,1,76.699991681519,8|0,2:2|3:0,0:0:0:0:
11,210,75305,6,0,B|18:221|18:221|22:230|23:246|23:246|33:262|33:262|27:270|36:277|43:295|43:295|51:306|51:306|52:313|54:319|54:319|60:331|60:331|65:343|72:353|72:353,1,153.399983363038,4|8,3:0|2:2,0:0:0:0:
163,314,75819,1,0,3:0:0:0:
122,223,75990,2,0,B|119:202|119:202|109:190|108:163|108:163|82:134|82:134|91:106|91:106|80:72,1,153.399983363038,2|8,3:2|2:2,2:1:0:0:
250,34,76676,5,4,3:0:0:0:
257,59,76762,1,2,3:2:0:0:
266,84,76848,1,2,3:2:0:0:
288,160,77019,2,0,B|271:181|265:195|265:195|261:203|261:203|254:208|242:213|242:213|227:230|214:249|214:249|212:242|212:242|203:258|203:258|183:274,2,153.399983363038,8|2|12,2:2|3:2|2:2,0:0:0:0:
288,160,78048,38,0,B|296:165|296:165|303:166|307:169|307:169|317:168|325:171|325:171|333:164|338:168|338:168|344:160|350:163|350:163|357:155|364:153|364:153|366:142|373:139|373:139|375:127,1,85.7999934439088,4|0,3:0|3:0,0:0:0:0:
466,115,78390,1,8,1:2:0:0:
390,39,78562,1,0,3:0:0:0:
382,41,78648,1,0,3:0:0:0:
374,46,78733,2,0,B|352:45|352:45|341:36|319:42|292:34,3,42.8999967219544,2|2|4|2,3:2|3:2|3:3|3:2,2:1:0:0:
294,34,79076,2,0,B|283:35|283:35|277:39|272:39|272:39|265:46|257:48|257:48|255:58|249:59|249:59|249:69|243:71|243:71|243:80|239:88|239:88|244:96|241:105|241:105|247:115,1,85.7999934439088,8|0,1:2|3:0,0:0:0:0:
167,171,79419,22,0,B|158:187|158:187|149:186|144:196|144:196|135:194|128:199|128:199|123:194|113:199|113:199|111:193|101:195|101:195|95:190|86:186|86:186|84:181|77:179|77:179|72:169,1,85.7999934439088,4|0,3:0|3:0,0:0:0:0:
5,253,79762,1,8,1:2:0:0:
5,253,79933,1,0,3:0:0:0:
71,344,80105,2,0,B|112:331|112:331|115:334|115:334|158:321,1,85.7999934439088,2|4,3:2|3:0,0:0:0:0:
254,366,80448,2,0,B|258:362|258:362|258:355|258:355|266:349|266:349|267:339|267:339|274:328|278:324|278:324|277:321|277:321|288:304|288:304|291:303|291:303|299:262,1,85.7999934439088,8|0,1:2|3:0,0:0:0:0:
392,251,80790,38,0,B|379:233|379:233|373:222|373:222|368:218|368:218|368:210|368:210|353:185|353:185|343:161,1,85.7999934439088,4|0,3:0|3:0,0:0:0:0:
341,66,81133,1,8,1:2:0:0:
229,61,81305,1,0,3:0:0:0:
221,63,81391,1,0,3:0:0:0:
214,68,81476,2,0,B|197:85|197:85|197:104,3,42.8999967219544,2|2|4|2,3:2|3:2|3:3|3:2,2:1:0:0:
200,139,81819,2,0,B|199:146|199:146|210:165|210:165|214:169|213:175|213:175|218:179|218:179|223:185|228:194|228:194|230:205|230:205|261:222,1,85.7999934439088,8|0,1:2|3:0,0:0:0:0:
245,322,82162,6,0,L|198:356,3,42.8999967219544,4|2|2|2,3:0|3:2|3:2|3:2,2:1:0:0:
185,374,82505,2,0,B|169:374|169:374|160:377|160:377|128:366|94:382|94:382,1,85.7999934439088,8|0,1:2|3:0,0:0:0:0:
12,305,82848,2,0,B|30:288|35:269|35:269|45:272|45:272|64:227|64:227,1,85.7999934439088,2|4,3:2|3:0,0:0:0:0:
169,250,83190,1,8,1:2:0:0:
174,248,83276,1,2,3:2:0:0:
180,246,83362,1,2,3:2:0:0:
186,244,83448,1,2,3:2:0:0:
191,242,83533,6,0,B|191:228|198:230|209:227|201:213|206:201|223:168|206:183|224:192|230:173|224:160|231:160|231:160,1,85.7999934439088,4|0,3:0|3:0,0:0:0:0:
199,57,83875,1,8,1:2:0:0:
89,59,84047,1,0,3:0:0:0:
81,61,84133,1,0,3:0:0:0:
73,62,84219,2,0,L|76:122,3,42.8999967219544,2|2|4|2,3:2|3:2|3:0|3:2,2:1:0:0:
76,141,84562,2,0,B|67:169|63:183|74:154|63:183|-17:198|29:171|45:204|29:171|-4:202|-4:200|-13:177|-13:177,1,85.7999934439088,8|0,1:2|3:0,0:0:0:0:
19,302,84905,22,0,B|34:303|34:303|58:290|58:290|84:286|84:286|86:277|86:277|123:266,1,85.7999934439088,4|0,3:0|3:0,0:0:0:0:
196,323,85248,2,0,B|215:329|215:329|216:327|216:327|243:335|255:349|255:349|257:348|257:348|274:360,1,85.7999934439088,8|0,1:2|3:0,0:0:0:0:
368,303,85590,1,2,3:2:0:0:
285,236,85762,1,4,3:0:0:0:
285,236,85933,2,0,B|276:229|276:229|264:222|264:222|265:221|265:221|256:208|256:208|246:204|246:204|244:199|244:199|248:195|237:194|237:194|233:186|233:186|222:186|222:186|214:183,1,85.7999934439088,8|0,1:2|3:0,0:0:0:0:
204,174,86190,1,0,3:0:0:0:
187,172,86276,22,0,B|173:142|171:152|171:152|161:146|174:142|161:141|161:141|167:144|143:121|143:121|149:131|132:111|140:81|140:81,1,94.8999956446838,4|0,3:0|3:0,0:0:0:0:
215,14,86618,1,8,1:2:0:0:
336,30,86790,1,0,3:0:0:0:
340,23,86876,1,0,3:0:0:0:
346,16,86962,2,0,B|358:8|358:8|369:12|369:12|393:12|359:5|389:6|389:19|420:26|420:26,3,47.4499978223419,2|0|2|2,3:2|3:0|3:2|3:2,2:0:0:0:
424,14,87305,2,0,B|455:29|455:29|459:31|459:31|457:33|457:33|480:62|480:62|468:87,1,94.8999956446838,8|0,1:2|3:0,0:0:0:0:
458,168,87648,37,4,3:0:0:0:
448,170,87733,1,2,3:2:0:0:
440,172,87819,1,2,3:2:0:0:
432,175,87905,1,2,3:2:0:0:
424,178,87990,2,0,B|364:189|334:247|349:218|362:256|337:246|369:243|369:243,1,94.8999956446838,8|0,1:2|3:0,0:0:0:0:
357,356,88333,2,0,B|304:328|304:328|289:343|259:341|259:341,1,94.8999956446838,2|4,3:2|3:0,0:0:0:0:
185,255,88676,1,8,2:2:0:0:
185,255,89019,38,0,P|141:266|105:296,1,64.9999952316285,4|0,2:3|3:0,0:0:0:0:
9,235,89362,2,0,B|34:166|23:99|23:99,1,129.999990463257,10|0,2:0|3:0,0:0:0:0:
101,23,89876,1,4,2:3:0:0:
101,23,90048,2,0,P|119:53|135:93,1,64.9999952316285,8|0,3:2|3:0,0:0:0:0:
122,196,90390,22,0,P|73:191|5:244,1,129.999990463257,4|8,2:3|3:2,0:0:0:0:
104,306,90905,1,2,2:2:0:0:
104,306,91076,2,0,B|146:296|163:324|146:297|162:328|203:333|186:339|234:318|247:316|239:300|239:300,1,129.999990463257,2|8,2:2|3:2,0:0:0:0:
355,292,91590,1,0,3:0:0:0:
355,292,91762,6,0,L|421:98,1,198.899986622772,4|8,2:3|3:2,0:0:0:0:
456,16,92962,1,0,3:0:0:0:
456,16,93133,37,4,2:3:0:0:
320,96,93476,1,10,2:0:0:0:
457,173,93819,1,2,2:2:0:0:
456,16,94162,1,10,2:0:0:0:
320,96,94505,38,0,B|285:109|235:113|235:113,1,64.9999952316285,4|0,2:3|3:0,0:0:0:0:
159,93,94848,2,0,B|116:143|144:224|144:224,1,129.999990463257,10|0,2:0|3:0,0:0:0:0:
244,234,95362,1,4,2:3:0:0:
244,234,95533,2,0,B|291:235|312:285|312:285,1,64.9999952316285,8|0,3:2|3:0,0:0:0:0:
319,351,95876,6,0,B|260:376|260:376|221:288,1,129.999990463257,4|8,2:3|3:2,0:0:0:0:
299,218,96390,1,2,2:2:0:0:
299,218,96562,2,0,B|357:191|357:191|396:279,1,129.999990463257,2|8,2:2|3:2,0:0:0:0:
320,352,97076,1,0,3:0:0:0:
320,352,97248,6,0,P|247:275|174:207,1,194.999985694886,4|8,2:3|3:2,0:0:0:0:
160,128,98448,1,0,3:0:0:0:
160,128,98619,21,4,2:3:0:0:
0,176,98962,1,10,2:0:0:0:
47,325,99305,1,2,2:2:0:0:
196,278,99648,1,10,2:0:0:0:
160,128,99990,6,0,P|182:99|229:77,1,64.9999952316285,4|0,2:3|3:0,0:0:0:0:
305,59,100333,2,0,B|394:107|314:170|314:170,1,129.999990463257,10|0,2:0|3:0,0:0:0:0:
226,200,100848,1,4,2:3:0:0:
226,200,101019,2,0,L|148:223,1,64.9999952316285,8|0,3:2|3:0,0:0:0:0:
85,294,101362,6,0,B|115:287|115:287|144:328|144:328|205:347,1,129.999990463257,4|8,2:3|3:2,0:0:0:0:
306,367,101876,1,2,2:2:0:0:
306,367,102048,2,0,B|336:336|336:336|320:304|320:304|328:240,1,129.999990463257,2|8,2:2|3:2,0:0:0:0:
386,172,102562,1,0,3:0:0:0:
386,172,102733,22,0,B|401:192|401:192|409:208|409:208|433:224|433:224|425:256|425:256|441:272|441:272|449:288|449:288|465:304|465:304|464:328,1,191.099984231415,4|8,2:3|3:2,0:0:0:0:
390,359,103933,1,0,3:0:0:0:
390,359,104105,21,4,2:3:0:0:
224,383,104448,1,10,2:0:0:0:
359,207,104791,1,2,2:0:0:0:
204,227,105134,1,10,2:2:0:0:
184,72,105476,6,0,B|173:57|123:46|113:50,1,64.9999952316285,4|0,2:3|3:0,0:0:0:0:
43,118,105819,2,0,B|33:164|33:164|18:222|25:197|11:247|52:259|52:259,1,129.999990463257,10|0,2:0|3:0,0:0:0:0:
152,280,106333,1,4,2:3:0:0:
152,280,106505,2,0,L|170:215,1,64.9999952316285,8|0,3:2|3:0,0:0:0:0:
256,136,106848,38,0,L|381:92,1,116.999987846375,4|8,2:3|3:2,0:0:0:0:
407,215,107362,1,2,2:2:0:0:
407,215,107533,2,0,L|287:256,1,116.999987846375,2|8,2:2|2:0,0:0:0:0:
178,224,108048,1,0,3:0:0:0:
178,224,108219,6,0,B|155:241|155:241|154:251|154:251|154:251|154:251|133:265|128:273|128:273|126:281|126:281|118:283|118:284|100:293|100:293|97:297|97:297|87:301|87:301|90:299|74:299|74:299|42:315|42:315|24:320|24:317|1:331|1:331|-4:344|-5:363|-5:363|12:341|30:339|30:339|25:319|33:295|33:295|9:295|-6:271|-6:271,1,382.19996846283,4|2,3:0|0:2,0:0:0:0:
