osu file format v14

[General]
AudioFilename: audio.mp3
AudioLeadIn: 0
PreviewTime: -1
Countdown: 1
SampleSet: None
StackLeniency: 0.2
Mode: 0
LetterboxInBreaks: 0
WidescreenStoryboard: 1

[Editor]
Bookmarks: 66796,88739,110681,129367,154567,176510
DistanceSpacing: 0.7
BeatDivisor: 4
GridSize: 8
TimelineZoom: 1

[Metadata]
Title:Absolute Region
TitleUnicode:Absolute Region
Artist:Feryquitous
ArtistUnicode:Feryquitous
Creator:thiev
Version:backup vrai
Source:
Tags:az le refre big up
BeatmapID:2009796
BeatmapSetID:959949

[Difficulty]
HPDrainRate:5
CircleSize:4.2
OverallDifficulty:8.6
ApproachRate:9.3
SliderMultiplier:1.8
SliderTickRate:1

[Events]
//Background and Video events
0,0,"0b4a87eb732bc376809c4a4f56c97dba0e70e68b.png",0,0
//Break Periods
//Storyboard Layer 0 (Background)
//Storyboard Layer 1 (Fail)
//Storyboard Layer 2 (Pass)
//Storyboard Layer 3 (Foreground)
//Storyboard Sound Samples

[TimingPoints]
11939,342.857142857143,4,2,0,50,1,0
12635,-200,4,2,0,50,0,0
14682,-333.333333333333,4,2,0,50,0,0
15367,-200,4,2,0,50,0,0
20167,-333.333333333333,4,2,0,50,0,0
20853,-200,4,2,0,50,0,0
23425,-117.647058823529,4,2,0,50,0,0
24110,-200,4,2,0,50,0,0
24453,-117.647058823529,4,2,0,50,0,0
25653,-200,4,2,0,50,0,0
26339,-90.9090909090909,4,2,0,50,0,0
26853,-200,4,2,0,50,0,0
29939,-117.647058823529,4,2,0,50,0,0
30796,-200,4,2,0,50,0,0
34225,-133.333333333333,4,2,0,50,0,0
34567,-200,4,2,0,50,0,0
35596,-133.333333333333,4,2,0,50,0,0
37310,-200,4,2,0,50,0,0
38339,-133.333333333333,4,2,0,50,0,0
40567,-200,4,2,0,50,0,0
41082,-133.333333333333,4,2,0,50,0,0
42282,-200,4,2,0,50,0,0
43482,-133.333333333333,4,2,0,50,0,0
44853,-333.333333333333,4,2,0,50,0,0
61310,-250,4,2,0,50,0,0
61996,-200,4,2,0,50,0,0
62682,-166.666666666667,4,2,0,50,0,0
63367,-142.857142857143,4,2,0,50,0,0
64396,-125,4,2,0,50,0,0
66796,-66.6666666666667,4,2,0,50,0,1
67139,-80,4,2,0,50,0,1
67596,-66.6666666666667,4,2,0,50,0,1
67710,-50,4,2,0,50,0,1
67825,-57.1428571428571,4,2,0,50,0,1
68510,-100,4,2,0,50,0,1
69196,-500,4,2,0,50,0,1
69539,-43.4782608695652,4,2,0,50,0,1
69882,-200,4,2,0,50,0,1
70225,-100,4,2,0,50,0,1
70396,-76.9230769230769,4,2,0,50,0,1
70567,-57.1428571428571,4,2,0,50,0,1
71253,-71.4285714285714,4,2,0,50,0,1
71510,-166.666666666667,4,2,0,50,0,1
71939,-500,4,2,0,50,0,1
72282,-57.1428571428571,4,2,0,50,0,1
72625,-80,4,2,0,50,0,1
73082,-66.6666666666667,4,2,0,50,0,1
73196,-50,4,2,0,50,0,1
73996,-100,4,2,0,50,0,1
74682,-500,4,2,0,50,0,1
75025,-50,4,2,0,50,0,1
75367,-100,4,2,0,50,0,1
75710,-50,4,2,0,50,0,1
76053,-57.1428571428571,4,2,0,50,0,1
76396,-500,4,2,0,50,0,1
76739,-142.857142857143,4,2,0,50,0,1
77767,-58.8235294117647,4,2,0,50,0,1
78453,-80,4,2,0,50,0,1
78553,-80,4,2,0,50,0,1
78625,-66.6666666666667,4,2,0,50,0,1
79482,-80,4,2,0,50,0,1
80167,-500,4,2,0,50,0,1
80510,-43.4782608695652,4,2,0,50,0,1
80853,-100,4,2,0,50,0,1
81310,-66.6666666666667,4,2,0,50,0,1
81425,-50,4,2,0,50,0,1
82224,-83.3333333333333,4,2,0,50,0,1
82481,-166.666666666667,4,2,0,50,0,1
82910,-500,4,2,0,50,0,1
83253,-50,4,2,0,50,0,1
83596,-80,4,2,0,50,0,1
83939,-100,4,2,0,50,0,1
84048,-66.6666666666667,4,2,0,50,0,1
84167,-50,4,2,0,50,0,1
84967,-83.3333333333333,4,2,0,50,0,1
85653,-500,4,2,0,50,0,1
85996,-50,4,2,0,50,0,1
86339,-100,4,2,0,50,0,1
86681,-80,4,2,0,50,0,1
86796,-66.6666666666667,4,2,0,50,0,1
86910,-50,4,2,0,50,0,1
87367,-50,4,2,0,50,0,1
87881,-133.333333333333,4,2,0,50,0,0
88737,-40,4,2,0,50,0,0
89596,-285.714285714284,4,2,0,50,0,0
89939,-40,4,2,0,50,0,0
90967,-66.6666666666667,4,2,0,50,0,0
91139,-133.333333333333,4,2,0,50,0,0
91481,-40,4,2,0,50,0,0
92339,-285.714285714284,4,2,0,50,0,0
92681,-40,4,2,0,50,0,0
93367,-47.6190476190476,4,2,0,50,0,0
94224,-40,4,2,0,50,0,0
95081,-285.714285714284,4,2,0,50,0,0
95424,-37.037037037037,4,2,0,50,0,0
96453,-66.6666666666667,4,2,0,50,0,0
96624,-133.333333333333,4,2,0,50,0,0
96967,-40,4,2,0,50,0,0
97824,-285.714285714286,4,2,0,50,0,0
98167,-40,4,2,0,50,0,0
101939,-66.6666666666667,4,2,0,50,0,0
102110,-200,4,2,0,50,0,0
102453,-40,4,2,0,50,0,0
104339,-133.333333333333,4,2,0,50,0,0
105196,-40,4,2,0,50,0,0
107424,-66.6666666666667,4,2,0,50,0,0
107596,-200,4,2,0,50,0,0
107939,-40,4,2,0,50,0,0
110339,-133.333333333333,4,2,0,50,0,0
110681,-133.333333333333,4,2,0,50,0,0
113424,-285.714285714284,4,2,0,50,0,0
114110,-181.818181818181,4,2,0,50,0,0
114796,-133.333333333333,4,2,0,50,0,0
115481,-100,4,2,0,50,0,0
116167,-76.9230769230769,4,2,0,50,0,0
116853,-100,4,2,0,50,0,0
117539,-133.333333333333,4,2,0,50,0,0
124396,-285.714285714284,4,2,0,50,0,0
125081,-181.818181818181,4,2,0,50,0,0
125767,-133.333333333333,4,2,0,50,0,0
126453,-100,4,2,0,50,0,0
127139,-76.9230769230769,4,2,0,50,0,0
127824,-100,4,2,0,50,0,0
128510,-133.333333333333,4,2,0,50,0,0
134681,-285.714285714286,4,2,0,50,0,0
149081,-133.333333333333,4,2,0,50,0,0
149767,-114.285714285714,4,2,0,50,0,0
150453,-100,4,2,0,50,0,0
151139,-80,4,2,0,50,0,0
153196,-133.333333333333,4,2,0,50,0,0
154567,-57.1428571428571,4,2,0,50,0,1
155253,-40,4,2,0,50,0,1
156281,-100,4,2,0,50,0,1
156967,-500,4,2,0,50,0,1
157310,-55.5555555555556,4,2,0,50,0,1
157653,-80,4,2,0,50,0,1
157996,-50,4,2,0,50,0,1
158167,-66.6666666666667,4,2,0,50,0,1
158339,-52.6315789473684,4,2,0,50,0,1
159024,-76.9230769230769,4,2,0,50,0,1
159281,-166.666666666667,4,2,0,50,0,1
159710,-500.000000000003,4,2,0,50,0,1
160053,-43.4782608695652,4,2,0,50,0,1
160396,-66.6666666666667,4,2,0,50,0,1
160739,-80,4,2,0,50,0,1
160853,-66.6666666666667,4,2,0,50,0,1
160967,-50,4,2,0,50,0,1
161767,-100,4,2,0,50,0,1
162453,-500,4,2,0,50,0,1
162796,-43.4782608695652,4,2,0,50,0,1
163139,-100,4,2,0,50,0,1
163481,-43.4782608695652,4,2,0,50,0,1
164167,-500,4,2,0,50,0,1
164510,-142.857142857143,4,2,0,50,0,1
165539,-100,4,2,0,50,0,1
165881,-31.25,4,2,0,50,0,1
166224,-50,4,2,0,50,0,1
167253,-100,4,2,0,50,0,1
167939,-500,4,2,0,50,0,1
168281,-43.4782608695652,4,2,0,50,0,1
168624,-66.6666666666667,4,2,0,50,0,1
168967,-80,4,2,0,50,0,1
169081,-66.6666666666667,4,2,0,50,0,1
169196,-50,4,2,0,50,0,1
169996,-66.6666666666667,4,2,0,50,0,1
170253,-166.666666666667,4,2,0,50,0,1
170681,-500.000000000003,4,2,0,50,0,1
171024,-43.4782608695652,4,2,0,50,0,1
171367,-66.6666666666667,4,2,0,50,0,1
171710,-80,4,2,0,50,0,1
171824,-66.6666666666667,4,2,0,50,0,1
171939,-50,4,2,0,50,0,1
172053,-47.6190476190476,4,2,0,50,0,1
172739,-100,4,2,0,50,0,1
173424,-500,4,2,0,50,0,1
173767,-37.037037037037,4,2,0,50,0,1

[Colours]
Combo1 : 83,225,204
Combo2 : 50,241,98
Combo3 : 247,208,94

[HitObjects]
103,259,11949,5,0,0:0:0:0:
93,241,12121,1,0,0:0:0:0:
88,205,12292,1,0,0:0:0:0:
116,126,12464,1,0,0:0:0:0:
198,79,12635,2,0,L|208:82,4,11.25
257,192,12967,2,0,P|252:168|256:144,1,45
263,155,14167,5,0,0:0:0:0:
263,155,14253,1,0,0:0:0:0:
263,155,14339,1,0,0:0:0:0:
332,116,14510,1,0,0:0:0:0:
168,65,14682,2,0,B|156:87|168:118|168:103|179:133|168:156,1,94.499997116089
154,171,15367,2,0,L|143:174,4,11.25
58,248,15710,2,0,P|88:240|109:243,1,45
109,249,16910,5,0,0:0:0:0:
109,249,16996,1,0,0:0:0:0:
109,249,17082,1,0,0:0:0:0:
163,313,17253,1,0,0:0:0:0:
209,155,17425,1,0,0:0:0:0:
219,146,17596,1,0,0:0:0:0:
246,134,17767,1,0,0:0:0:0:
322,148,17939,1,0,0:0:0:0:
366,225,18110,2,0,L|363:243,4,11.25
424,319,18453,2,0,P|421:289|435:257,1,45
484,222,18796,1,0,0:0:0:0:
484,222,19053,1,0,0:0:0:0:
484,222,19139,1,0,0:0:0:0:
418,118,19310,2,0,P|421:148|407:180,1,45
355,222,19653,1,0,0:0:0:0:
355,222,19739,1,0,0:0:0:0:
355,222,19825,1,0,0:0:0:0:
309,146,19996,1,0,0:0:0:0:
264,324,20167,2,0,P|307:302|362:305,1,94.4999971160889
375,316,20853,2,0,L|378:332,4,11.25
473,363,21196,2,0,P|457:336|458:312,1,45
492,248,21539,1,0,0:0:0:0:
492,248,21796,1,0,0:0:0:0:
492,248,21882,1,0,0:0:0:0:
376,198,22053,1,0,0:0:0:0:
449,171,22225,1,0,0:0:0:0:
380,275,22396,1,0,0:0:0:0:
357,275,22481,1,0,0:0:0:0:
336,267,22567,1,0,0:0:0:0:
289,192,22739,1,0,0:0:0:0:
239,313,22910,5,0,0:0:0:0:
158,216,23082,2,0,P|168:253|160:298,1,67.5
159,304,23425,1,0,0:0:0:0:
0,278,23596,1,0,0:0:0:0:
82,255,23767,1,0,0:0:0:0:
82,349,24110,6,0,P|71:313|79:267,1,67.5
96,214,24453,2,0,P|58:148|19:192,1,153.000002918243
65,249,24882,1,0,0:0:0:0:
82,255,24967,1,0,0:0:0:0:
200,203,25139,1,0,0:0:0:0:
200,203,25225,1,0,0:0:0:0:
200,203,25310,2,0,L|175:213,2,19.1250003647804
275,177,25482,1,0,0:0:0:0:
176,7,25653,6,0,P|171:37|177:66,1,45
213,115,25910,1,0,0:0:0:0:
213,115,25996,1,0,0:0:0:0:
260,41,26167,1,0,0:0:0:0:
316,211,26339,1,0,0:0:0:0:
426,155,26510,1,0,0:0:0:0:
400,248,26853,6,0,P|391:214|403:177,1,67.5
452,133,27196,2,0,P|407:153|343:142,1,112.5
291,90,27710,1,0,0:0:0:0:
193,180,27882,1,0,0:0:0:0:
193,180,27967,1,0,0:0:0:0:
193,180,28053,2,0,L|207:176,2,11.25
121,199,28225,1,0,0:0:0:0:
264,255,28396,5,0,0:0:0:0:
346,143,28567,2,0,P|331:183|339:217,1,67.5
344,230,28910,1,0,0:0:0:0:
510,207,29082,1,0,0:0:0:0:
420,186,29253,1,0,0:0:0:0:
429,88,29596,6,0,P|442:123|438:154,1,67.5
344,230,29939,2,0,P|387:184|456:243,1,153.000002918243
448,313,30367,1,0,0:0:0:0:
428,317,30453,1,0,0:0:0:0:
279,279,30625,1,0,0:0:0:0:
279,279,30710,1,0,0:0:0:0:
279,279,30796,2,0,L|276:261,2,11.25
254,350,30967,1,0,0:0:0:0:
109,208,31139,6,0,P|141:187|163:187,1,45
224,202,31396,1,0,0:0:0:0:
224,202,31482,1,0,0:0:0:0:
178,286,31653,1,0,0:0:0:0:
126,83,31825,1,0,0:0:0:0:
27,144,31996,1,0,0:0:0:0:
43,46,32339,6,0,P|52:85|41:124,1,67.5
9,175,32682,2,0,P|51:139|111:139,1,112.5
168,182,33196,1,0,0:0:0:0:
238,92,33367,1,0,0:0:0:0:
238,92,33453,1,0,0:0:0:0:
238,92,33539,2,0,L|221:97,2,11.25
309,68,33710,1,0,0:0:0:0:
442,167,33882,5,0,0:0:0:0:
357,253,34053,1,0,0:0:0:0:
357,253,34139,1,0,0:0:0:0:
357,253,34225,2,0,B|364:225|364:225|350:172,1,67.5000025749208
242,130,34567,2,0,L|226:127,2,11.25
310,111,34739,1,0,0:0:0:0:
244,258,34910,1,0,0:0:0:0:
132,184,35082,2,0,P|121:151|121:132,1,45
7,232,35425,5,0,0:0:0:0:
54,171,35510,1,0,0:0:0:0:
132,184,35596,2,0,P|146:226|146:251,1,67.5000025749208
71,324,35939,1,0,0:0:0:0:
285,265,36110,5,0,0:0:0:0:
238,326,36195,1,0,0:0:0:0:
160,313,36281,2,0,P|145:270|145:245,1,67.5000025749208
217,164,36624,1,0,0:0:0:0:
86,51,36796,5,0,0:0:0:0:
86,51,36882,1,0,0:0:0:0:
86,51,36967,2,0,B|117:57|117:57|177:42,1,67.5000025749208
316,54,37310,2,0,L|334:58,2,11.25
243,41,37482,1,0,0:0:0:0:
348,148,37653,1,0,0:0:0:0:
250,231,37825,2,0,P|288:221|298:221,1,45
192,105,38167,5,0,0:0:0:0:
249,155,38253,1,0,0:0:0:0:
250,231,38339,2,0,P|211:246|182:242,1,67.5000025749208
63,169,38682,1,0,0:0:0:0:
166,377,38853,5,0,0:0:0:0:
109,327,38939,1,0,0:0:0:0:
108,251,39025,1,0,0:0:0:0:
199,158,39196,1,0,0:0:0:0:
332,208,39367,5,0,0:0:0:0:
409,113,39539,1,0,0:0:0:0:
409,113,39625,1,0,0:0:0:0:
409,113,39711,2,0,B|402:141|402:141|416:194,1,67.5000025749208
478,259,40053,2,0,L|496:262,2,16.8750006437302
415,303,40225,1,0,0:0:0:0:
328,126,40396,1,0,0:0:0:0:
247,220,40567,2,0,P|243:242|247:264,1,45
110,202,40910,5,0,0:0:0:0:
172,246,40996,1,0,0:0:0:0:
247,220,41082,2,0,P|253:185|246:151,1,67.5000025749208
145,63,41425,1,0,0:0:0:0:
384,105,41596,5,0,0:0:0:0:
322,61,41682,1,0,0:0:0:0:
247,87,41768,2,0,P|240:121|247:155,1,67.5000025749208
336,255,42110,1,0,0:0:0:0:
437,192,42282,6,0,L|439:165,2,22.5
491,276,42625,1,0,0:0:0:0:
423,346,42796,2,0,L|376:339,1,45
278,315,43139,2,0,L|231:322,1,45
97,313,43482,2,0,B|75:338|77:382|146:408|223:356|177:272|139:209|129:291|73:206|121:113|194:124,1,371.250014162064
205,135,44510,1,0,0:0:0:0:
205,135,44596,1,0,0:0:0:0:
285,190,44853,6,0,P|277:157|286:108,3,80.9999975280763
385,33,46910,2,0,P|393:62|389:114,1,80.9999975280763
377,248,47596,2,0,P|410:227|459:230,3,80.9999975280763
494,333,49653,1,0,0:0:0:0:
485,341,49825,1,0,0:0:0:0:
446,356,49996,1,0,0:0:0:0:
380,340,50167,1,0,0:0:0:0:
295,365,50339,6,0,P|305:334|290:279,3,80.9999975280763
196,192,52396,2,0,P|190:220|198:277,1,80.9999975280763
94,356,53082,2,0,P|112:318|104:272,3,80.9999975280763
26,197,55139,1,0,0:0:0:0:
42,205,55310,1,0,0:0:0:0:
92,214,55482,1,0,0:0:0:0:
169,184,55653,1,0,0:0:0:0:
297,224,55825,6,0,P|306:252|293:303,3,80.9999975280763
442,380,57882,2,0,P|423:349|423:300,1,80.9999975280763
473,172,58567,6,0,P|446:189|396:186,3,80.9999975280763
245,98,60625,1,0,0:0:0:0:
254,107,60796,1,0,0:0:0:0:
268,140,60967,1,0,0:0:0:0:
238,212,61139,1,0,0:0:0:0:
294,332,61310,6,0,L|346:325,1,36
430,292,61653,2,0,L|381:285,1,36
208,276,61996,6,0,L|149:268,1,45
44,228,62339,2,0,L|93:221,1,45
292,186,62681,6,0,L|351:178,1,45
452,149,63024,2,0,L|392:141,1,45
188,104,63367,6,0,L|118:94,1,62.9999980773926
0,46,63710,2,0,L|65:37,1,62.9999980773926
299,23,64053,5,0,0:0:0:0:
318,101,64225,1,0,0:0:0:0:
168,191,64396,5,0,0:0:0:0:
188,104,64567,1,0,0:0:0:0:
347,195,64739,5,0,0:0:0:0:
373,305,64910,1,0,0:0:0:0:
116,384,65082,5,0,0:0:0:0:
148,265,65253,1,0,0:0:0:0:
282,246,65425,6,0,B|308:283|265:319|228:288|207:240|263:211|258:281|343:173|301:82|199:46|114:158|202:225|240:177,1,360
243,184,66367,1,0,0:0:0:0:
243,184,66453,1,0,0:0:0:0:
243,184,66796,6,0,B|273:187|273:187|292:207|292:207|291:160|232:133|185:151|166:183,1,202.500007724762
168,189,67139,2,0,L|187:311,1,112.5
316,345,67396,5,0,0:0:0:0:
338,332,67482,6,0,L|350:291,1,28.125
367,284,67596,2,0,L|363:230,1,45.0000017166138
373,212,67710,2,0,L|347:131,1,45
198,30,67825,2,0,B|156:93|156:93|185:309,1,236.250002253056
182,274,68167,5,0,0:0:0:0:
291,134,68339,1,0,0:0:0:0:
353,373,68510,6,0,B|338:333|338:333|354:239,1,135
458,140,68939,1,0,0:0:0:0:
460,155,69025,1,0,0:0:0:0:
457,128,69110,1,0,0:0:0:0:
463,198,69196,2,0,L|460:169,1,26.9999991760254
384,52,69539,6,0,B|341:69|324:160|376:180|376:180|393:133|326:99|241:146,1,310.500005922318
245,151,69882,6,0,L|250:106,1,45
170,172,70139,1,0,0:0:0:0:
154,186,70225,2,0,L|159:138,1,45
60,53,70396,2,0,B|52:85|52:85|62:112,1,58.4999973220826
222,276,70567,6,0,B|261:248|261:248|175:269|175:269|158:266|158:266|58:285,1,236.250002253056
64,302,70910,1,0,0:0:0:0:
24,185,71082,1,0,0:0:0:0:
300,365,71253,2,0,B|327:386|362:350|314:319|257:345|282:360|243:376|198:350,1,157.499995193482
204,349,71510,2,0,P|195:322|200:293,1,53.9999983520508
297,227,71767,1,0,0:0:0:0:
312,225,71853,1,0,0:0:0:0:
348,238,71939,2,0,L|368:233,1,18
456,328,72196,5,0,0:0:0:0:
450,343,72282,2,0,B|435:374|435:374|421:335|438:291|438:291|435:277|435:277|463:225|426:155,1,236.250002253056
422,161,72625,2,0,B|344:142|344:142|299:150,1,112.5
294,283,72882,1,0,0:0:0:0:
305,300,72967,2,0,P|311:268|300:241,1,37.5
284,233,73082,2,0,P|278:201|288:170,1,45.0000017166138
304,154,73196,2,0,P|309:126|295:81,1,60
30,70,73310,2,0,B|-7:116|45:199|174:141|189:93,1,240
195,81,73653,5,0,0:0:0:0:
304,154,73825,1,0,0:0:0:0:
161,246,73996,2,0,B|198:216|198:216|295:235,1,135
411,278,74425,1,0,0:0:0:0:
426,280,74511,1,0,0:0:0:0:
399,277,74596,1,0,0:0:0:0:
478,283,74682,2,0,L|449:280,1,26.9999991760254
290,311,75025,6,0,B|266:375|266:375|328:345|328:345|297:191,1,270
294,203,75367,2,0,L|195:185,1,90
115,228,75625,1,0,0:0:0:0:
117,242,75710,2,0,B|132:230|132:230|95:216|95:216|115:291,1,135
126,315,75882,1,0,0:0:0:0:
80,68,76053,6,0,B|25:80|25:80|106:90|106:90|122:98|122:98|205:107,1,236.250002253056
216,104,76396,2,0,L|213:79,1,22.5
326,34,76696,1,0,0:0:0:0:
326,34,76739,2,0,L|318:113,1,78.7499975967408
329,131,76996,2,0,L|336:51,1,78.7499975967408
326,34,77253,2,0,L|318:113,1,78.7499975967408
329,131,77510,2,0,L|336:51,1,78.7499975967408
462,94,77767,6,0,B|498:94|479:31|410:21|394:112|446:143|433:82|474:142|479:183|427:255|427:255|452:201|415:136|329:123|275:192|307:250,1,535.500010213852
329,372,78453,2,0,P|338:328|325:290,1,56.25
229,170,78625,2,0,P|218:220|230:259,1,67.5000025749208
39,351,78796,6,0,B|132:339|132:339|152:346|152:346|240:334,1,202.500007724762
249,324,79139,1,0,0:0:0:0:
125,259,79310,1,0,0:0:0:0:
356,193,79482,2,0,B|311:211|311:211|374:201|430:235,1,168.75
425,320,79910,1,0,0:0:0:0:
410,316,79996,1,0,0:0:0:0:
436,322,80081,1,0,0:0:0:0:
358,309,80167,2,0,L|386:314,1,26.9999991760254
506,205,80510,6,0,B|523:145|469:93|424:134|424:134|473:181|520:116|502:46,1,310.500005922318
496,38,80853,6,0,L|396:51,1,90
368,184,81110,1,0,0:0:0:0:
344,207,81196,6,0,P|321:206|292:194,1,30
300,235,81310,2,0,P|281:217|267:183,1,45.0000017166138
230,239,81425,2,0,P|220:210|228:165,1,60
77,89,81539,6,0,B|95:56|95:56|78:129|78:129|87:183|87:183|62:203|47:231|48:267|72:300,1,270
74,297,81882,1,0,0:0:0:0:
27,378,82053,1,0,0:0:0:0:
230,239,82224,2,0,B|254:261|249:288|195:298|140:251,1,135
141,251,82481,2,0,P|154:281|156:310,1,53.9999983520508
250,360,82739,1,0,0:0:0:0:
267,356,82825,1,0,0:0:0:0:
309,369,82910,2,0,L|329:363,1,18
462,314,83167,5,0,0:0:0:0:
458,331,83253,2,0,B|451:353|451:353|412:304|452:247|444:294|485:262|502:203|444:157|381:161|368:221,1,270
375,206,83596,2,0,B|363:286|363:286|345:247,1,112.5
285,192,83853,5,0,0:0:0:0:
278,174,83939,2,0,P|276:151|286:128,1,30
296,111,84053,2,0,P|292:85|260:50,1,45.0000017166138
242,39,84167,2,0,P|193:35|160:55,1,60
131,225,84281,6,0,B|143:243|167:263|224:236|230:194|223:128|170:98|100:100|80:154,1,270
83,148,84624,1,0,0:0:0:0:
0,99,84796,1,0,0:0:0:0:
58,311,84967,6,0,B|32:346|32:346|44:224,1,161.999995056153
231,321,85396,1,0,0:0:0:0:
216,325,85482,1,0,0:0:0:0:
242,319,85567,1,0,0:0:0:0:
164,332,85653,2,0,L|192:327,1,26.9999991760254
447,355,85996,6,0,B|510:367|510:367|490:327|490:327|397:342|397:342|317:323,1,270
324,320,86339,2,0,P|308:276|323:223,1,90
439,239,86596,1,0,0:0:0:0:
450,217,86681,2,0,P|451:192|437:152,1,37.5
436,151,86796,2,0,P|431:120|436:81,1,45.0000017166138
444,71,86910,2,0,P|444:31|432:3,1,60
292,0,87024,6,0,B|267:54|267:54|286:123|286:123|213:115|213:115|142:150,1,270
67,186,87367,1,0,0:0:0:0:
67,186,87881,2,0,L|63:148,1,33.7500012874604
134,256,88053,2,0,L|137:222,1,33.7500012874604
53,309,88224,2,0,L|49:271,1,33.7500012874604
127,367,88396,1,0,0:0:0:0:
127,367,88481,1,0,0:0:0:0:
127,367,88567,1,0,0:0:0:0:
258,304,88739,6,0,B|267:259|267:259|210:337|210:337|411:309,1,337.5
492,310,89081,2,0,B|532:304|532:304|479:277|479:277|437:313|437:313|206:347,1,337.5
177,252,89424,5,0,0:0:0:0:
479,317,89596,2,0,L|423:325,1,47.2499985580445
208,348,89939,6,0,B|242:296|208:245|174:248|174:248|166:275|207:323|266:326|311:277|306:225|225:173|187:175,1,337.5
239,197,90281,1,0,0:0:0:0:
47,336,90453,1,0,0:0:0:0:
47,336,90796,5,0,0:0:0:0:
44,347,90881,1,0,0:0:0:0:
43,360,90967,2,0,B|34:327|34:327|57:276,1,67.5000025749208
108,199,91139,6,0,B|169:191|188:232|161:248|143:223,1,101.250003862381
97,196,91481,2,0,B|40:190|22:132|52:79|108:46|149:107|116:78|131:144|199:163|310:90|299:8,1,393.75
326,152,91824,2,0,B|378:129|377:69|332:28|269:13|249:84|271:46|277:114|221:158|91:160|60:47|121:0|142:-1,1,337.5
81,5,92167,1,0,0:0:0:0:
270,95,92339,2,0,P|245:113|219:123,1,47.2499985580445
97,196,92681,6,0,B|57:204|57:204|109:155|109:155|171:183|171:183|162:258|162:258|224:325|224:325|265:313|310:223|266:146|222:114,1,562.5
230,119,93196,1,0,0:0:0:0:
419,230,93367,2,0,B|409:275|322:274|311:170|375:127|432:149,1,188.999994232178
411,147,93624,1,0,0:0:0:0:
411,147,93710,1,0,0:0:0:0:
427,236,93881,1,0,0:0:0:0:
447,331,94053,5,0,0:0:0:0:
284,354,94224,6,0,B|260:311|279:266|279:266|183:296|96:212|125:124,1,337.5
63,73,94567,2,0,B|115:44|152:93|152:93|73:199|207:300|268:249,1,337.5
367,309,94910,1,0,0:0:0:0:
140,171,95081,6,0,P|149:207|164:223,1,47.2499985580445
284,354,95424,6,0,B|296:351|296:351|285:313|234:271|156:278|171:354|171:354|253:348|236:243|142:220,1,364.500001390457
154,214,95767,1,0,0:0:0:0:
385,163,95939,1,0,0:0:0:0:
385,163,96281,5,0,0:0:0:0:
396,166,96367,1,0,0:0:0:0:
408,167,96453,2,0,B|375:176|375:176|324:153,1,67.5000025749208
245,113,96624,6,0,B|237:52|278:33|294:60|269:78,1,101.250003862381
239,126,96967,6,0,B|190:154|134:119|134:119|164:222|164:222|158:245|158:245|188:355,1,337.5
67,355,97310,6,0,B|95:346|95:346|181:366|181:366|149:244|149:244|155:224|155:224|131:140,1,337.5
64,76,97653,1,0,0:0:0:0:
172,260,97824,6,0,B|168:243|168:243|173:222|173:222|168:203,1,47.2499985580445
286,81,98167,6,0,B|265:42|265:42|240:127|240:127|327:109|327:109|336:97|336:97|415:80|415:80|464:133|447:232|352:265|295:227,1,562.5
303,227,98681,1,0,0:0:0:0:
399,355,98853,6,0,B|417:365|417:365|441:341|441:341|408:318|362:331|397:333|331:356|266:316,1,225
263,309,99110,1,0,0:0:0:0:
263,309,99196,1,0,0:0:0:0:
373,260,99367,1,0,0:0:0:0:
483,211,99539,1,0,0:0:0:0:
270,125,99710,6,0,B|243:67|328:7|396:93|336:227|336:134|242:201|256:312|338:350,1,337.5
386,363,100053,6,0,B|331:363|288:323|250:245|316:178|354:165|354:165|451:209,1,337.5
492,223,100396,1,0,0:0:0:0:
469,341,100567,1,0,0:0:0:0:
373,260,100739,1,0,0:0:0:0:
410,34,100910,6,0,B|437:7|437:7|445:65|479:93|479:93|430:111|375:85|375:85|362:88|362:88|311:69|251:103,1,337.5
260,110,101253,1,0,0:0:0:0:
492,223,101424,5,0,0:0:0:0:
492,223,101767,1,0,0:0:0:0:
496,200,101853,1,0,0:0:0:0:
491,177,101939,2,0,P|482:157|440:126,1,67.5000025749208
260,110,102110,2,0,L|272:184,1,67.5
305,328,102453,6,0,B|305:282|343:255|343:255|275:305|197:271|256:276|169:210|72:290|133:370,1,337.5
16,342,102796,6,0,B|37:367|76:372|104:352|109:323|109:323|116:248|191:231|254:267|211:268|267:283|310:264,1,337.5
400,339,103139,1,0,0:0:0:0:
213,358,103310,1,0,0:0:0:0:
270,176,103481,1,0,0:0:0:0:
48,31,103653,6,0,B|11:76|11:76|85:36|206:77|125:79|170:144|233:156|286:126|289:66|276:1|201:-14|136:6|139:96|181:169,1,562.5
195,178,104167,1,0,0:0:0:0:
111,298,104339,2,0,P|172:272|231:290,1,101.250003862381
225,293,104681,1,0,0:0:0:0:
22,215,104853,6,0,P|16:185|26:147,1,67.5000025749208
195,178,105196,6,0,B|225:222|205:277|205:277|128:240|128:240|92:145|174:99,1,337.5
166,21,105539,6,0,B|215:69|215:69|116:99|76:175|134:281,1,337.5
225,293,105881,1,0,0:0:0:0:
300,210,106053,1,0,0:0:0:0:
195,178,106224,1,0,0:0:0:0:
64,376,106396,6,0,B|30:380|10:362|10:362|79:333|150:363|150:363|174:359|174:359|232:397|291:350,1,337.5
303,338,106739,1,0,0:0:0:0:
63,218,106910,1,0,0:0:0:0:
63,218,107253,5,0,0:0:0:0:
71,194,107339,1,0,0:0:0:0:
88,177,107424,2,0,P|120:162|163:167,1,67.5000025749208
315,255,107596,6,0,L|229:263,1,67.5
325,339,107939,6,0,B|359:312|364:263|329:224|329:224|339:212|339:212|303:159|311:84|378:55|433:74,1,337.5
479,17,108281,6,0,B|456:53|479:104|479:104|412:42|297:73|308:193|367:217,1,337.5
446,340,108624,5,0,0:0:0:0:
413,157,108796,1,0,0:0:0:0:
272,280,108967,1,0,0:0:0:0:
19,122,109139,6,0,B|86:12|229:21|301:98|292:171|164:209|98:122|215:167|232:127|152:67|40:55|-28:182|1:299|132:346|238:266|196:190,1,675
201,226,110167,5,0,0:0:0:0:
269,345,110339,2,0,P|263:315|273:277,1,67.5000025749208
347,73,110681,6,0,B|389:55|445:116|396:185|288:165|256:104,1,236.250009012223
256,99,111367,2,0,L|263:21,1,67.5000025749208
183,144,111710,1,0,0:0:0:0:
319,259,111881,2,0,P|338:309|319:360,1,101.250003862381
317,382,112224,2,0,P|344:283|304:229,1,168.750006437302
287,225,112739,1,0,0:0:0:0:
216,315,112910,1,0,0:0:0:0:
216,315,112996,1,0,0:0:0:0:
216,315,113081,2,0,L|241:305,2,19.1250003647804
127,343,113253,5,0,0:0:0:0:
103,328,113339,1,0,0:0:0:0:
86,307,113424,2,0,P|72:270|81:228,1,78.7499975967408
158,180,113939,5,0,0:0:0:0:
183,144,114024,1,0,0:0:0:0:
179,98,114110,2,0,P|107:60|56:88,1,123.75000377655
24,148,114624,5,0,0:0:0:0:
81,201,114710,1,0,0:0:0:0:
158,180,114796,2,0,P|192:161|199:36,1,168.750006437302
305,26,115310,5,0,0:0:0:0:
398,10,115396,1,0,0:0:0:0:
476,60,115481,2,0,P|524:142|493:273,1,225
434,324,115996,5,0,0:0:0:0:
326,366,116081,1,0,0:0:0:0:
221,313,116167,2,0,B|150:250|134:128|232:52|318:75|363:146|329:205|268:203,1,409.499981254578
275,202,116853,2,0,P|309:183|362:196,1,90
434,324,117196,5,0,0:0:0:0:
372,358,117281,1,0,0:0:0:0:
326,366,117367,1,0,0:0:0:0:
295,361,117453,1,0,0:0:0:0:
280,356,117539,2,0,B|246:352|224:315|224:315|175:294|135:329|164:320|128:351|65:335,1,236.250009012223
42,323,118224,1,0,0:0:0:0:
104,217,118396,1,0,0:0:0:0:
104,217,118482,1,0,0:0:0:0:
104,217,118567,2,0,L|94:242,2,19.1250003647804
167,152,118739,5,0,0:0:0:0:
177,128,118824,1,0,0:0:0:0:
170,102,118910,2,0,P|137:69|145:165,1,253.125009655953
167,152,119596,2,0,P|208:132|189:244,1,253.125009655953
178,238,120281,2,0,P|206:217|370:289,1,236.250009012223
369,312,120967,1,0,0:0:0:0:
236,346,121139,1,0,0:0:0:0:
236,346,121224,1,0,0:0:0:0:
236,346,121310,2,0,L|257:337,2,16.8750006437302
158,310,121481,1,0,0:0:0:0:
42,359,121653,6,0,B|52:326|52:326|42:283,1,67.5000025749208
133,233,121996,6,0,B|125:200|125:200|135:167,1,67.5000025749208
245,127,122339,5,0,0:0:0:0:
139,233,122510,6,0,B|131:200|131:200|141:167,1,67.5000025749208
245,127,122853,2,0,P|264:77|245:26,1,101.250003862381
243,4,123196,2,0,P|270:103|230:157,1,168.750006437302
219,155,123710,1,0,0:0:0:0:
399,143,123881,1,0,0:0:0:0:
399,143,123966,1,0,0:0:0:0:
399,143,124052,2,0,L|421:147,2,16.8750006437302
473,233,124224,5,0,0:0:0:0:
486,253,124310,1,0,0:0:0:0:
492,274,124396,2,0,P|495:304|465:357,1,78.7499975967408
350,383,124910,5,0,0:0:0:0:
314,370,124996,1,0,0:0:0:0:
288,343,125081,2,0,P|272:306|294:229,1,123.75000377655
394,182,125596,5,0,0:0:0:0:
416,103,125681,1,0,0:0:0:0:
386,28,125767,2,0,P|306:-4|222:49,1,168.750006437302,0|0,0:2|0:2,0:2:0:0:
207,136,126281,5,0,0:0:0:0:
111,183,126367,1,0,0:0:0:0:
17,116,126453,2,0,P|45:13|177:16,1,225
232,55,126967,5,0,0:0:0:0:
293,150,127053,1,0,0:0:0:0:
268,268,127139,2,0,B|266:366|145:428|28:369|7:295|46:221|114:221|143:275,1,409.499981254578
137,260,127824,6,0,P|117:208|134:156,1,90
232,55,128167,5,0,0:0:0:0:
276,110,128253,1,0,0:0:0:0:
293,150,128339,1,0,0:0:0:0:
299,189,128424,1,0,0:0:0:0:
294,221,128510,2,0,B|291:252|270:271|270:271|286:334|405:334|417:267,1,236.250009012223
418,259,129196,1,0,0:0:0:0:
386,161,129367,1,0,0:0:0:0:
386,161,129452,1,0,0:0:0:0:
386,161,129538,2,0,L|382:183,2,16.8750006437302
453,99,129710,5,0,0:0:0:0:
460,72,129796,1,0,0:0:0:0:
458,45,129881,2,0,P|402:-12|329:104,1,253.125009655953
327,109,130567,2,0,P|290:213|193:160,1,253.125009655953
198,147,131253,2,0,P|216:173|139:342,1,236.250009012223
125,346,131939,1,0,0:0:0:0:
93,222,132110,1,0,0:0:0:0:
93,222,132195,1,0,0:0:0:0:
93,222,132281,2,0,L|115:226,2,16.8750006437302
21,259,132453,1,0,0:0:0:0:
368,347,132624,5,0,0:0:0:0:
384,323,133139,1,0,0:0:0:0:
387,293,133653,1,0,0:0:0:0:
377,269,134167,1,0,0:0:0:0:
367,255,134681,6,0,P|386:293|365:346,1,94.499997116089
246,355,135367,5,0,0:0:0:0:
221,338,135881,1,0,0:0:0:0:
192,331,136396,1,0,0:0:0:0:
160,338,136910,1,0,0:0:0:0:
141,356,137424,5,0,0:0:0:0:
154,337,137596,1,0,0:0:0:0:
168,300,137767,1,0,0:0:0:0:
148,227,137939,1,0,0:0:0:0:
201,92,138110,5,0,0:0:0:0:
213,114,138624,1,0,0:0:0:0:
216,138,139139,1,0,0:0:0:0:
210,163,139653,1,0,0:0:0:0:
194,182,140167,6,0,P|215:144|196:90,1,94.499997116089
319,30,140853,5,0,0:0:0:0:
312,56,141367,1,0,0:0:0:0:
312,82,141881,1,0,0:0:0:0:
323,105,142396,1,0,0:0:0:0:
346,120,142910,5,0,0:0:0:0:
323,105,143081,1,0,0:0:0:0:
282,101,143253,1,0,0:0:0:0:
208,139,143424,1,0,0:0:0:0:
100,124,143596,5,0,0:0:0:0:
107,144,144110,1,0,0:0:0:0:
108,166,144624,1,0,0:0:0:0:
101,187,145139,1,0,0:0:0:0:
88,207,145653,2,0,P|107:175|94:120,1,94.499997116089
225,180,146339,5,0,0:0:0:0:
250,197,146853,1,0,0:0:0:0:
282,200,147367,1,0,0:0:0:0:
315,189,147881,1,0,0:0:0:0:
342,158,148396,5,0,0:0:0:0:
315,189,148567,1,0,0:0:0:0:
302,241,148739,1,0,0:0:0:0:
343,318,148910,1,0,0:0:0:0:
425,325,149081,6,0,P|458:268|445:193,1,135.000005149842
153,159,149767,6,0,P|116:219|131:301,1,157.500001502037
425,298,150453,6,0,P|440:219|386:115,1,180
154,181,151139,6,0,P|135:281|194:385,1,225
312,361,151824,5,0,0:0:0:0:
352,285,151996,1,0,0:0:0:0:
171,120,152167,5,0,0:0:0:0:
155,198,152339,1,0,0:0:0:0:
358,261,152510,5,0,0:0:0:0:
332,141,152681,1,0,0:0:0:0:
163,221,152853,5,0,0:0:0:0:
208,340,153024,1,0,0:0:0:0:
470,181,153196,6,0,B|495:161|450:104|386:124|385:180|439:268|420:183|469:230|475:289|450:348|399:387|350:369|341:289|387:280|406:320,1,337.500012874604
384,303,154139,1,0,0:0:0:0:
384,303,154224,1,0,0:0:0:0:
384,303,154567,6,0,B|381:337|381:337|331:279|369:192|378:247|398:167|362:103,1,275.625002628565
348,86,154910,1,0,0:0:0:0:
384,303,155253,6,0,B|433:270|433:270|361:249|361:249|351:237|351:237|296:221|296:221|244:197|243:134|272:85|328:86,1,393.75
348,86,155596,1,0,0:0:0:0:
384,303,155939,5,0,0:0:0:0:
300,353,156110,1,0,0:0:0:0:
134,121,156281,2,0,B|184:105|184:105|282:131,1,135
203,260,156710,1,0,0:0:0:0:
188,262,156796,1,0,0:0:0:0:
215,259,156881,1,0,0:0:0:0:
145,265,156967,2,0,L|174:262,1,26.9999991760254
300,353,157310,6,0,B|337:364|337:364|324:332|284:323|253:348|253:348|222:340|222:340|106:355,1,242.999992584229
134,358,157653,2,0,B|99:334|54:336|54:336|77:322|101:318,1,112.5
215,259,157910,1,0,0:0:0:0:
215,259,157996,2,0,B|242:240|276:242|276:242|259:231|240:228,1,90
78,129,158167,2,0,B|60:158|68:194|68:194|107:156,1,67.5000025749208
306,39,158339,6,0,B|346:10|346:10|253:21|253:21|232:18|232:18|111:31,1,256.499993150711
111,46,158681,1,0,0:0:0:0:
247,88,158853,1,0,0:0:0:0:
58,235,159024,2,0,B|28:239|9:199|58:169|104:198|72:201|111:220|154:197,1,146.249993305207
153,199,159281,2,0,L|142:276,1,53.9999983520508
196,336,159539,5,0,0:0:0:0:
212,332,159624,1,0,0:0:0:0:
244,337,159710,2,0,L|268:331,1,18
421,344,159967,1,0,0:0:0:0:
403,355,160053,6,0,B|353:362|316:290|356:225|418:232|418:232|384:199|389:146|429:126,1,310.500005922318
436,119,160396,6,0,B|348:137|348:137|296:121,1,135.000005149842
198,74,160653,1,0,0:0:0:0:
184,83,160739,6,0,P|172:113|181:145,1,37.5
145,134,160853,6,0,P|149:165|173:189,1,45.0000017166138
131,221,160967,6,0,P|150:246|189:257,1,60
297,384,161081,6,0,B|354:377|361:333|295:260|213:310|261:328|190:365|116:321,1,270
108,306,161424,1,0,0:0:0:0:
254,198,161596,1,0,0:0:0:0:
40,64,161767,6,0,B|64:108|64:108|52:201,1,135
107,318,162196,1,0,2:0:0:0:
105,333,162282,1,0,2:0:0:0:
108,306,162367,1,0,2:0:0:0:
102,376,162453,2,0,L|105:347,1,26.9999991760254,0|0,2:0|2:0,2:0:0:0:
105,230,162796,6,0,B|86:278|86:278|151:254|151:254|220:257|220:257|199:199|199:199|189:187|189:187|173:121,1,310.500005922318
171,131,163139,6,0,B|139:119|139:119|48:133,1,90
37,25,163396,1,0,0:0:0:0:
37,25,163481,2,0,B|14:50|14:50|73:41|73:41|87:46|87:46|149:38,1,155.250002961159
151,36,163653,1,0,0:0:0:0:
325,217,163824,2,0,B|336:245|336:245|292:279|292:279|314:201|289:129|290:178|256:106|297:42,1,310.500005922318
293,51,164167,2,0,L|317:46,1,22.5
434,84,164467,1,0,0:0:0:0:
434,84,164510,2,0,L|446:172,1,78.7499975967408
341,128,164767,2,0,L|329:216,1,78.7499975967408
453,165,165024,2,0,L|465:253,1,78.7499975967408
323,209,165281,2,0,L|311:297,1,78.7499975967408
409,357,165539,6,0,P|431:339|376:335,1,135
408,369,165881,2,0,B|447:364|447:364|465:319|465:319|432:273|432:273|376:270|376:270|348:318|348:318|365:352,1,288
408,378,166224,2,0,B|361:373|361:373|316:299,1,90
183,219,166396,2,0,B|229:224|229:224|275:298,1,90
104,364,166567,5,0,0:0:0:0:
104,364,166910,5,0,0:0:0:0:
218,335,167081,1,0,0:0:0:0:
44,113,167253,6,0,B|68:157|68:157|56:250,1,135
213,277,167682,1,0,2:0:0:0:
215,292,167768,1,0,2:0:0:0:
212,265,167853,1,0,2:0:0:0:
218,335,167939,2,0,L|215:306,1,26.9999991760254,0|0,2:0|2:0,2:0:0:0:
266,211,168281,6,0,B|260:155|192:113|152:174|152:174|219:200|251:134|226:54|168:41,1,310.500005922318
194,61,168624,6,0,B|246:81|246:81|343:60,1,135
414,110,168881,1,0,0:0:0:0:
423,134,168967,6,0,P|421:168|404:197,1,37.5
424,214,169081,2,0,P|403:243|367:262,1,45.0000017166138
377,294,169196,2,0,P|323:306|282:293,1,60
149,281,169310,6,0,B|122:224|122:224|146:184|231:182|279:260|240:351|177:349,1,270
209,346,169653,1,0,0:0:0:0:
327,205,169824,1,0,0:0:0:0:
54,314,169996,2,0,B|90:349|90:349|41:227,1,168.750006437302
42,215,170253,2,0,P|65:172|88:153,1,53.9999983520508
185,125,170510,1,0,0:0:0:0:
200,123,170596,1,0,0:0:0:0:
236,136,170682,2,0,L|256:131,1,18
415,236,170939,1,0,0:0:0:0:
427,247,171024,6,0,B|418:297|379:338|379:338|405:293|418:247|415:181|377:136,1,310.500005922318
365,133,171367,6,0,B|324:116|324:116|228:137,1,135.000005149842
183,217,171624,1,0,0:0:0:0:
166,238,171710,6,0,P|136:245|115:243,1,37.5
89,257,171824,2,0,P|62:244|41:222,1,45.0000017166138
11,212,171939,2,0,P|0:169|8:134,1,60
50,18,172053,6,0,B|93:12|93:12|106:17|106:17|154:11|154:11|223:8|273:85|259:147|172:188,1,283.499991348267
214,161,172396,1,0,0:0:0:0:
311,43,172567,1,0,0:0:0:0:
380,338,172739,6,0,B|360:286|360:286|381:189,1,135
443,103,173167,1,0,2:0:0:0:
457,104,173253,1,0,2:0:0:0:
431,99,173338,1,0,2:0:0:0:
499,112,173424,2,0,L|470:107,1,26.9999991760254,0|0,2:0|2:0,2:0:0:0:
302,64,173767,2,0,B|277:59|277:59|324:24|324:24|334:89|334:89|329:99|329:99|335:141|335:141|270:129|270:129|246:136|246:136|174:118,1,364.500001390457
