osu file format v14

[General]
AudioFilename: Ferry Corsten - Many Ways (Radio Edit).mp3
AudioLeadIn: 0
PreviewTime: 7734
Countdown: 0
SampleSet: Soft
StackLeniency: 0.7
Mode: 3
LetterboxInBreaks: 0
SpecialStyle: 0
WidescreenStoryboard: 1

[Editor]
Bookmarks: 50741
DistanceSpacing: 0.8
BeatDivisor: 4
GridSize: 4
TimelineZoom: 2.799999

[Metadata]
Title:Many Ways (Radio Edit)
TitleUnicode:Many Ways (Radio Edit)
Artist:Ferry Corsten
ArtistUnicode:Ferry Corsten
Creator:[ Delores ]
Version:Normal
Source:
Tags:
BeatmapID:970623
BeatmapSetID:350514

[Difficulty]
HPDrainRate:9
CircleSize:4
OverallDifficulty:9
ApproachRate:5
SliderMultiplier:3.59999990463257
SliderTickRate:2

[Events]
//Background and Video events
0,0,"55d9380769401b09c67f0aef.jpg",0,0
//Break Periods
//Storyboard Layer 0 (Background)
//Storyboard Layer 1 (Fail)
//Storyboard Layer 2 (Pass)
//Storyboard Layer 3 (Foreground)
//Storyboard Sound Samples

[TimingPoints]
234,468.75,4,2,0,30,1,0

[HitObjects]
64,192,234,5,0,0:0:0:0:
64,192,1171,1,0,0:0:0:0:
64,192,2109,1,0,0:0:0:0:
64,192,3046,1,0,0:0:0:0:
64,192,3984,1,0,0:0:0:0:
64,192,4921,1,0,0:0:0:0:
320,192,5859,1,0,0:0:0:0:
320,192,6796,1,0,0:0:0:0:
64,192,7734,128,0,9609:0:0:0:0:
192,192,9609,128,0,11484:0:0:0:0:
320,192,11484,128,0,13359:0:0:0:0:
448,192,13359,128,0,15234:0:0:0:0:
64,192,15234,128,0,17109:0:0:0:0:
192,192,17109,128,0,18984:0:0:0:0:
320,192,18984,128,0,20859:0:0:0:0:
448,192,20859,128,0,22734:0:0:0:0:
192,192,22734,1,0,0:0:0:0:
64,192,23202,1,0,0:0:0:0:
320,192,23202,1,0,0:0:0:0:
192,192,23671,1,0,0:0:0:0:
64,192,24140,1,0,0:0:0:0:
320,192,24140,1,0,0:0:0:0:
64,192,24609,1,0,0:0:0:0:
192,192,25077,1,0,0:0:0:0:
448,192,25077,1,0,0:0:0:0:
64,192,25546,1,0,0:0:0:0:
192,192,26015,1,0,0:0:0:0:
448,192,26015,1,0,0:0:0:0:
320,192,26484,1,0,0:0:0:0:
192,192,26952,1,0,0:0:0:0:
448,192,26952,1,0,0:0:0:0:
320,192,27421,1,0,0:0:0:0:
192,192,27890,1,0,0:0:0:0:
448,192,27890,1,0,0:0:0:0:
448,192,28359,1,0,0:0:0:0:
64,192,28827,1,0,0:0:0:0:
320,192,28827,1,0,0:0:0:0:
448,192,29296,1,0,0:0:0:0:
64,192,29765,1,0,0:0:0:0:
320,192,29765,1,0,0:0:0:0:
192,192,30234,1,0,0:0:0:0:
192,192,30702,1,0,0:0:0:0:
448,192,30702,1,0,0:0:0:0:
192,192,31171,1,0,0:0:0:0:
192,192,31640,1,0,0:0:0:0:
448,192,31640,1,0,0:0:0:0:
64,192,32109,1,0,0:0:0:0:
64,192,32577,1,0,0:0:0:0:
320,192,32577,1,0,0:0:0:0:
64,192,33046,1,0,0:0:0:0:
64,192,33515,1,0,0:0:0:0:
320,192,33515,1,0,0:0:0:0:
320,192,33984,1,0,0:0:0:0:
192,192,34452,1,0,0:0:0:0:
448,192,34452,1,0,0:0:0:0:
64,192,34921,1,0,0:0:0:0:
64,192,35390,1,0,0:0:0:0:
320,192,35390,1,0,0:0:0:0:
448,192,35859,1,0,0:0:0:0:
192,192,36327,1,0,0:0:0:0:
448,192,36327,1,0,0:0:0:0:
192,192,36796,1,0,0:0:0:0:
64,192,37265,1,0,0:0:0:0:
320,192,37265,1,0,0:0:0:0:
320,192,37734,1,0,0:0:0:0:
192,192,38202,1,0,0:0:0:0:
448,192,38202,1,0,0:0:0:0:
192,192,38671,1,0,0:0:0:0:
64,192,39140,1,0,0:0:0:0:
320,192,39140,1,0,0:0:0:0:
192,192,39374,1,0,0:0:0:0:
64,192,42890,1,0,0:0:0:0:
448,192,42890,1,0,0:0:0:0:
192,192,43359,1,0,0:0:0:0:
192,192,43827,1,0,0:0:0:0:
192,192,44296,1,0,0:0:0:0:
192,192,44765,1,0,0:0:0:0:
320,192,45234,1,0,0:0:0:0:
320,192,45702,1,0,0:0:0:0:
320,192,46171,1,0,0:0:0:0:
320,192,46640,1,0,0:0:0:0:
64,192,47109,1,0,0:0:0:0:
192,192,47343,1,0,0:0:0:0:
320,192,47577,1,0,0:0:0:0:
448,192,47812,1,0,0:0:0:0:
320,192,48046,1,0,0:0:0:0:
192,192,48280,1,0,0:0:0:0:
64,192,48515,1,0,0:0:0:0:
192,192,48749,1,0,0:0:0:0:
64,192,48984,1,0,0:0:0:0:
192,192,49101,1,0,0:0:0:0:
320,192,49218,1,0,0:0:0:0:
448,192,49335,1,0,0:0:0:0:
320,192,49452,1,0,0:0:0:0:
192,192,49569,1,0,0:0:0:0:
64,192,49687,1,0,0:0:0:0:
192,192,49804,1,0,0:0:0:0:
320,192,49921,1,0,0:0:0:0:
448,192,50038,1,0,0:0:0:0:
320,192,50155,1,0,0:0:0:0:
192,192,50273,1,0,0:0:0:0:
64,192,50390,1,0,0:0:0:0:
320,192,50390,1,0,0:0:0:0:
448,192,50859,1,0,0:0:0:0:
320,192,51327,1,0,0:0:0:0:
192,192,51796,1,0,0:0:0:0:
64,192,52265,1,0,0:0:0:0:
192,192,52734,1,0,0:0:0:0:
320,192,53202,1,0,0:0:0:0:
448,192,53671,1,0,0:0:0:0:
320,192,54140,1,0,0:0:0:0:
192,192,54609,1,0,0:0:0:0:
64,192,55077,1,0,0:0:0:0:
192,192,55546,1,0,0:0:0:0:
320,192,56015,1,0,0:0:0:0:
448,192,56484,1,0,0:0:0:0:
320,192,56952,1,0,0:0:0:0:
192,192,57421,1,0,0:0:0:0:
64,192,57890,1,0,0:0:0:0:
448,192,58359,1,0,0:0:0:0:
320,192,58827,1,0,0:0:0:0:
192,192,59296,1,0,0:0:0:0:
64,192,59765,1,0,0:0:0:0:
192,192,60234,1,0,0:0:0:0:
320,192,60702,1,0,0:0:0:0:
448,192,61171,1,0,0:0:0:0:
320,192,61640,1,0,0:0:0:0:
192,192,62109,1,0,0:0:0:0:
64,192,62577,1,0,0:0:0:0:
192,192,63046,1,0,0:0:0:0:
448,192,63515,1,0,0:0:0:0:
320,192,63984,1,0,0:0:0:0:
192,192,64452,1,0,0:0:0:0:
64,192,64921,1,0,0:0:0:0:
192,192,65390,128,0,65859:0:0:0:0:
448,192,65859,1,0,0:0:0:0:
320,192,66327,1,0,0:0:0:0:
192,192,66796,1,0,0:0:0:0:
64,192,67265,1,0,0:0:0:0:
448,192,67734,1,0,0:0:0:0:
320,192,68202,1,0,0:0:0:0:
192,192,68671,1,0,0:0:0:0:
64,192,69140,1,0,0:0:0:0:
320,192,69609,1,0,0:0:0:0:
192,192,70077,1,0,0:0:0:0:
64,192,70546,1,0,0:0:0:0:
192,192,71015,1,0,0:0:0:0:
320,192,71484,1,0,0:0:0:0:
192,192,71952,1,0,0:0:0:0:
64,192,72421,1,0,0:0:0:0:
192,192,72890,1,0,0:0:0:0:
192,192,73359,1,0,0:0:0:0:
64,192,73827,1,0,0:0:0:0:
192,192,74296,1,0,0:0:0:0:
320,192,74765,1,0,0:0:0:0:
192,192,75234,1,0,0:0:0:0:
64,192,75702,1,0,0:0:0:0:
192,192,76171,1,0,0:0:0:0:
320,192,76640,1,0,0:0:0:0:
64,192,77109,1,0,0:0:0:0:
192,192,77577,1,0,0:0:0:0:
320,192,78046,1,0,0:0:0:0:
448,192,78515,1,0,0:0:0:0:
64,192,78984,1,0,0:0:0:0:
192,192,79452,1,0,0:0:0:0:
320,192,79921,1,0,0:0:0:0:
448,192,80390,1,0,0:0:0:0:
64,192,80859,128,0,82734:0:0:0:0:
192,192,82734,128,0,84609:0:0:0:0:
320,192,84609,128,0,86484:0:0:0:0:
448,192,86484,128,0,88359:0:0:0:0:
192,192,88359,128,0,90234:0:0:0:0:
320,192,90234,128,0,92109:0:0:0:0:
448,192,92109,128,0,93984:0:0:0:0:
64,192,93984,128,0,95859:0:0:0:0:
448,192,95859,1,0,0:0:0:0:
320,192,96327,1,0,0:0:0:0:
192,192,96796,1,0,0:0:0:0:
64,192,97265,1,0,0:0:0:0:
64,192,97734,1,0,0:0:0:0:
192,192,98202,1,0,0:0:0:0:
320,192,98671,1,0,0:0:0:0:
448,192,99140,1,0,0:0:0:0:
448,192,99609,1,0,0:0:0:0:
320,192,100077,1,0,0:0:0:0:
192,192,100546,1,0,0:0:0:0:
64,192,101015,1,0,0:0:0:0:
64,192,101484,1,0,0:0:0:0:
192,192,101952,1,0,0:0:0:0:
320,192,102421,1,0,0:0:0:0:
192,192,102890,1,0,0:0:0:0:
320,192,103359,1,0,0:0:0:0:
320,192,103827,1,0,0:0:0:0:
320,192,104296,1,0,0:0:0:0:
320,192,104765,1,0,0:0:0:0:
192,192,105234,1,0,0:0:0:0:
192,192,105702,1,0,0:0:0:0:
192,192,106171,1,0,0:0:0:0:
192,192,106640,1,0,0:0:0:0:
64,192,107109,1,0,0:0:0:0:
64,192,107577,1,0,0:0:0:0:
64,192,108046,1,0,0:0:0:0:
64,192,108515,1,0,0:0:0:0:
448,192,108984,1,0,0:0:0:0:
448,192,109452,1,0,0:0:0:0:
448,192,109921,1,0,0:0:0:0:
192,192,110859,1,0,0:0:0:0:
320,192,110859,1,0,0:0:0:0:
64,192,111327,1,0,0:0:0:0:
448,192,111327,1,0,0:0:0:0:
192,192,111796,1,0,0:0:0:0:
320,192,111796,1,0,0:0:0:0:
64,192,112265,1,0,0:0:0:0:
448,192,112265,1,0,0:0:0:0:
192,192,112734,1,0,0:0:0:0:
320,192,113202,1,0,0:0:0:0:
448,192,113671,1,0,0:0:0:0:
320,192,114140,1,0,0:0:0:0:
192,192,114609,1,0,0:0:0:0:
64,192,114843,1,0,0:0:0:0:
192,192,115077,1,0,0:0:0:0:
320,192,115312,1,0,0:0:0:0:
448,192,115546,1,0,0:0:0:0:
64,192,115780,1,0,0:0:0:0:
192,192,116015,1,0,0:0:0:0:
320,192,116249,1,0,0:0:0:0:
448,192,116484,1,0,0:0:0:0:
320,192,116601,1,0,0:0:0:0:
192,192,116718,1,0,0:0:0:0:
64,192,116835,1,0,0:0:0:0:
448,192,116952,1,0,0:0:0:0:
320,192,117069,1,0,0:0:0:0:
192,192,117187,1,0,0:0:0:0:
64,192,117304,1,0,0:0:0:0:
448,192,117421,1,0,0:0:0:0:
320,192,117538,1,0,0:0:0:0:
192,192,117655,1,0,0:0:0:0:
64,192,117773,1,0,0:0:0:0:
192,192,117890,1,0,0:0:0:0:
448,192,117890,1,0,0:0:0:0:
448,192,118359,1,0,0:0:0:0:
64,192,118593,1,0,0:0:0:0:
448,192,118827,1,0,0:0:0:0:
64,192,119062,1,0,0:0:0:0:
448,192,119296,1,0,0:0:0:0:
64,192,119530,1,0,0:0:0:0:
320,192,119765,1,0,0:0:0:0:
448,192,119999,128,0,120234:0:0:0:0:
192,192,120234,1,0,0:0:0:0:
320,192,120468,1,0,0:0:0:0:
192,192,120702,1,0,0:0:0:0:
320,192,120937,1,0,0:0:0:0:
192,192,121171,1,0,0:0:0:0:
320,192,121405,1,0,0:0:0:0:
192,192,121640,1,0,0:0:0:0:
64,192,121874,1,0,0:0:0:0:
192,192,122109,1,0,0:0:0:0:
320,192,122343,1,0,0:0:0:0:
192,192,122577,1,0,0:0:0:0:
320,192,122812,1,0,0:0:0:0:
192,192,123046,1,0,0:0:0:0:
320,192,123280,1,0,0:0:0:0:
192,192,123515,1,0,0:0:0:0:
448,192,123749,128,0,123984:0:0:0:0:
64,192,123984,1,0,0:0:0:0:
320,192,124218,1,0,0:0:0:0:
64,192,124452,1,0,0:0:0:0:
320,192,124687,1,0,0:0:0:0:
64,192,124921,1,0,0:0:0:0:
320,192,125155,1,0,0:0:0:0:
64,192,125390,1,0,0:0:0:0:
320,192,125624,1,0,0:0:0:0:
448,192,125859,1,0,0:0:0:0:
192,192,126093,1,0,0:0:0:0:
448,192,126327,1,0,0:0:0:0:
192,192,126562,1,0,0:0:0:0:
448,192,126796,1,0,0:0:0:0:
192,192,127030,1,0,0:0:0:0:
448,192,127265,1,0,0:0:0:0:
64,192,127499,128,0,127734:0:0:0:0:
192,192,127734,1,0,0:0:0:0:
320,192,127968,1,0,0:0:0:0:
448,192,128202,1,0,0:0:0:0:
64,192,128437,1,0,0:0:0:0:
192,192,128671,1,0,0:0:0:0:
320,192,128905,1,0,0:0:0:0:
448,192,129140,1,0,0:0:0:0:
320,192,129374,1,0,0:0:0:0:
192,192,129609,1,0,0:0:0:0:
64,192,129843,1,0,0:0:0:0:
448,192,130077,1,0,0:0:0:0:
320,192,130312,1,0,0:0:0:0:
192,192,130546,1,0,0:0:0:0:
64,192,130780,1,0,0:0:0:0:
192,192,131015,1,0,0:0:0:0:
448,192,131249,128,0,131484:0:0:0:0:
320,192,131484,1,0,0:0:0:0:
192,192,131718,1,0,0:0:0:0:
64,192,131952,1,0,0:0:0:0:
448,192,132187,1,0,0:0:0:0:
320,192,132421,1,0,0:0:0:0:
192,192,132655,1,0,0:0:0:0:
448,192,132890,128,0,133359:0:0:0:0:
192,192,133359,1,0,0:0:0:0:
64,192,133827,1,0,0:0:0:0:
448,192,133827,1,0,0:0:0:0:
320,192,134296,1,0,0:0:0:0:
64,192,134765,1,0,0:0:0:0:
448,192,134765,1,0,0:0:0:0:
448,192,135234,1,0,0:0:0:0:
64,192,135702,1,0,0:0:0:0:
320,192,135702,1,0,0:0:0:0:
320,192,136171,1,0,0:0:0:0:
64,192,136640,1,0,0:0:0:0:
448,192,136640,1,0,0:0:0:0:
192,192,137109,1,0,0:0:0:0:
64,192,137577,1,0,0:0:0:0:
448,192,137577,1,0,0:0:0:0:
64,192,138046,1,0,0:0:0:0:
192,192,138515,1,0,0:0:0:0:
448,192,138515,1,0,0:0:0:0:
192,192,138984,1,0,0:0:0:0:
64,192,139452,1,0,0:0:0:0:
448,192,139452,1,0,0:0:0:0:
320,192,139921,1,0,0:0:0:0:
64,192,140390,1,0,0:0:0:0:
448,192,140390,1,0,0:0:0:0:
64,192,140859,1,0,0:0:0:0:
64,192,141327,1,0,0:0:0:0:
320,192,141327,1,0,0:0:0:0:
192,192,141796,1,0,0:0:0:0:
192,192,142265,1,0,0:0:0:0:
448,192,142265,1,0,0:0:0:0:
320,192,142734,1,0,0:0:0:0:
320,192,143202,1,0,0:0:0:0:
448,192,143202,1,0,0:0:0:0:
448,192,143671,1,0,0:0:0:0:
64,192,144140,1,0,0:0:0:0:
192,192,144140,1,0,0:0:0:0:
320,192,144609,1,0,0:0:0:0:
320,192,145077,1,0,0:0:0:0:
64,192,145077,1,0,0:0:0:0:
192,192,145546,1,0,0:0:0:0:
64,192,146015,1,0,0:0:0:0:
192,192,146015,1,0,0:0:0:0:
320,192,146484,128,0,148359:0:0:0:0:
192,192,146484,1,0,0:0:0:0:
64,192,146952,1,0,0:0:0:0:
448,192,146952,1,0,0:0:0:0:
192,192,147421,1,0,0:0:0:0:
448,192,147890,1,0,0:0:0:0:
64,192,147890,1,0,0:0:0:0:
192,192,148359,128,0,150234:0:0:0:0:
320,192,150234,128,0,152109:0:0:0:0:
448,192,152109,128,0,153984:0:0:0:0:
320,192,153984,128,0,155859:0:0:0:0:
192,192,155859,128,0,157734:0:0:0:0:
64,192,157734,128,0,159609:0:0:0:0:
192,192,159609,128,0,161484:0:0:0:0:
320,192,161484,128,0,168984:0:0:0:0:
64,192,168984,1,0,0:0:0:0:
192,192,169452,1,0,0:0:0:0:
320,192,169921,1,0,0:0:0:0:
448,192,170390,1,0,0:0:0:0:
64,192,170859,1,0,0:0:0:0:
192,192,171327,1,0,0:0:0:0:
320,192,171796,1,0,0:0:0:0:
448,192,172265,1,0,0:0:0:0:
64,192,172734,1,0,0:0:0:0:
192,192,172968,1,0,0:0:0:0:
320,192,173202,1,0,0:0:0:0:
448,192,173437,1,0,0:0:0:0:
64,192,173671,1,0,0:0:0:0:
192,192,173905,1,0,0:0:0:0:
320,192,174140,1,0,0:0:0:0:
448,192,174374,1,0,0:0:0:0:
64,192,174609,1,0,0:0:0:0:
192,192,174726,1,0,0:0:0:0:
320,192,174843,1,0,0:0:0:0:
448,192,174960,1,0,0:0:0:0:
320,192,175077,1,0,0:0:0:0:
192,192,175194,1,0,0:0:0:0:
64,192,175312,1,0,0:0:0:0:
192,192,175429,1,0,0:0:0:0:
320,192,175546,1,0,0:0:0:0:
448,192,175663,1,0,0:0:0:0:
320,192,175780,1,0,0:0:0:0:
192,192,175898,1,0,0:0:0:0:
64,192,176015,1,0,0:0:0:0:
320,192,176015,1,0,0:0:0:0:
448,192,176484,128,0,176718:0:0:0:0:
448,192,176952,128,0,177187:0:0:0:0:
448,192,177421,128,0,177655:0:0:0:0:
448,192,177890,128,0,178124:0:0:0:0:
64,192,178124,128,0,178359:0:0:0:0:
320,192,178359,128,0,178593:0:0:0:0:
320,192,178827,128,0,179062:0:0:0:0:
320,192,179296,128,0,179530:0:0:0:0:
320,192,179765,128,0,179999:0:0:0:0:
192,192,180234,128,0,180468:0:0:0:0:
192,192,180702,128,0,180937:0:0:0:0:
192,192,181171,128,0,181405:0:0:0:0:
192,192,181640,128,0,181874:0:0:0:0:
448,192,181874,128,0,182109:0:0:0:0:
64,192,182109,128,0,182343:0:0:0:0:
64,192,182577,128,0,182812:0:0:0:0:
64,192,183046,128,0,183280:0:0:0:0:
64,192,183515,128,0,183749:0:0:0:0:
448,192,183984,128,0,184218:0:0:0:0:
448,192,184452,128,0,184687:0:0:0:0:
448,192,184921,128,0,185155:0:0:0:0:
448,192,185390,128,0,185624:0:0:0:0:
64,192,185624,128,0,185859:0:0:0:0:
320,192,185859,128,0,186093:0:0:0:0:
320,192,186327,128,0,186562:0:0:0:0:
320,192,186796,128,0,187030:0:0:0:0:
320,192,187265,128,0,187499:0:0:0:0:
192,192,187734,128,0,187968:0:0:0:0:
192,192,188202,128,0,188437:0:0:0:0:
192,192,188671,128,0,188905:0:0:0:0:
192,192,189140,128,0,189374:0:0:0:0:
448,192,189609,128,0,189843:0:0:0:0:
320,192,189843,128,0,190077:0:0:0:0:
192,192,190077,128,0,190312:0:0:0:0:
64,192,190312,128,0,190546:0:0:0:0:
448,192,190546,128,0,190780:0:0:0:0:
320,192,190780,128,0,191015:0:0:0:0:
192,192,191015,128,0,191249:0:0:0:0:
64,192,191249,128,0,192421:0:0:0:0:
