osu file format v14

[General]
AudioFilename: audio.mp3
AudioLeadIn: 0
PreviewTime: 20551
Countdown: 0
SampleSet: Soft
StackLeniency: 0.7
Mode: 0
LetterboxInBreaks: 0
WidescreenStoryboard: 1

[Editor]
Bookmarks: 11077
DistanceSpacing: 0.6
BeatDivisor: 4
GridSize: 16
TimelineZoom: 1.7

[Metadata]
Title:Backyard Beach (TV Size)
TitleUnicode:Backyard Beach (TV Size)
Artist:Ferb (CV: Danny Jacob)
ArtistUnicode:Ferb (CV: Danny Jacob)
Creator:AJT
Version:Moyai
Source:Phineas and Ferb
Tags:fletcher back yard disney channel cartoon & dan povenmire reggae hip hop hiphop english pop aistre alphabet venax
BeatmapID:3033142
BeatmapSetID:1478451

[Difficulty]
HPDrainRate:5
CircleSize:4.2
OverallDifficulty:8
ApproachRate:9
SliderMultiplier:3.2
SliderTickRate:1

[Events]
//Background and Video events
0,0,"bg.jpg",0,0
Video,99,"ferb.mp4"
//Break Periods
//Storyboard Layer 0 (Background)
//Storyboard Layer 1 (Fail)
//Storyboard Layer 2 (Pass)
//Storyboard Layer 3 (Foreground)
//Storyboard Layer 4 (Overlay)
//Storyboard Sound Samples

[TimingPoints]
5551,631.578947368421,4,2,1,85,1,0
5551,-100,4,2,1,85,0,0
17708,-83.3333333333333,4,2,1,85,0,0
20077,-57.1428571428571,4,2,1,85,0,0
20708,631.578947368421,4,2,1,100,1,0
20708,-66.6666666666667,4,2,1,100,0,1
25760,-76.9230769230769,4,2,1,85,0,0
30181,-57.1428571428571,4,2,1,85,0,0
30814,-76.9230769230769,4,2,1,85,0,0
33971,-90.9090909090909,4,2,1,85,0,0
35865,631.578947368421,4,2,1,100,1,0
35865,-66.6666666666667,4,2,1,100,0,1
43443,-90.9090909090909,4,2,1,100,0,0
44707,-76.9230769230769,4,2,1,100,0,1
45338,-76.9230769230769,4,2,1,100,0,0

[Colours]
Combo1 : 255,255,125
Combo2 : 128,255,255
Combo3 : 128,255,128
Combo4 : 0,128,192

[HitObjects]
32,96,5551,5,0,1:2:0:0:
169,74,5708,1,0,0:0:0:0:
51,94,5866,1,2,0:0:0:0:
480,96,6182,5,0,1:2:0:0:
343,74,6340,1,0,0:0:0:0:
360,79,6498,1,10,0:0:0:0:
461,94,6656,1,2,0:0:0:0:
512,57,6814,2,0,B|540:128|444:167|501:231,1,160,0|2,1:0|0:0,0:0:0:0:
486,209,7287,1,8,0:0:0:0:
364,223,7445,5,2,1:2:0:0:
264,286,7656,5,2,0:0:0:0:
264,286,7761,2,0,B|290:328|290:328|280:285,1,80,10|0,0:0|0:0,0:0:0:0:
60,153,8077,5,0,1:2:0:0:
128,128,8235,1,0,0:0:0:0:
160,32,8393,1,2,0:0:0:0:
256,64,8551,1,10,0:0:0:0:
332,98,8708,2,0,P|336:57|324:18,1,80,0|0,1:0|0:0,0:0:0:0:
256,64,9024,1,10,0:0:0:0:
160,32,9182,1,2,0:0:0:0:
266,189,9340,6,0,P|262:230|274:269,1,80,0|0,1:2|0:0,0:0:0:0:
461,134,9656,2,0,P|423:123|384:128,1,80,2|8,0:0|0:0,0:0:0:0:
50,134,9972,2,0,P|88:123|128:128,1,80,0|0,1:2|0:0,0:0:0:0:
246,189,10287,2,0,P|250:228|239:266,1,80,10|0,0:0|0:0,0:0:0:0:
250,35,10603,5,0,1:0:0:0:
250,35,10761,2,0,L|80:15,1,160,2|8,0:0|0:0,0:0:0:0:
256,128,11235,2,0,L|336:115,1,80,0|0,1:0|0:0,0:0:0:0:
420,153,11551,2,0,P|425:114|415:76,2,80,10|0|0,0:0|0:0|1:0,0:0:0:0:
354,224,12024,1,0,0:0:0:0:
344,335,12182,1,2,0:0:0:0:
233,324,12340,1,8,0:0:0:0:
242,214,12498,5,2,1:2:0:0:
116,188,12708,5,2,0:0:0:0:
199,90,12919,5,2,0:0:0:0:
242,214,13129,5,0,1:0:0:0:
242,214,13287,2,0,B|306:222|306:222|329:203|329:203|406:214,1,160,2|8,0:0|0:0,0:0:0:0:
169,249,13761,2,0,P|159:211|169:173,1,80,0|0,1:0|0:0,0:0:0:0:
471,180,14077,2,0,P|481:218|471:257,1,80,10|0,0:0|0:0,0:0:0:0:
352,128,14393,5,0,1:0:0:0:
438,91,14551,1,2,0:0:0:0:
288,192,14708,5,2,0:0:0:0:
202,155,14866,1,8,0:0:0:0:
288,32,15024,5,0,1:0:0:0:
310,125,15182,1,2,0:0:0:0:
335,217,15340,1,10,0:0:0:0:
357,310,15498,1,2,0:0:0:0:
384,192,15656,6,0,B|394:113,1,80,0|0,1:0|0:0,0:0:0:0:
256,96,15972,2,0,B|246:17,1,80,2|8,0:0|0:0,0:0:0:0:
128,192,16287,2,0,B|118:113,1,80,0|0,1:0|0:0,0:0:0:0:
100,17,16603,5,10,0:0:0:0:
256,96,16761,1,2,0:0:0:0:
128,192,16919,1,0,1:0:0:0:
86,262,17077,6,0,P|116:272|170:262,1,80,0|2,0:0|0:0,0:0:0:0:
128,192,17393,1,8,0:0:0:0:
256,256,17551,1,0,1:0:0:0:
384,192,17708,2,0,B|403:277|403:277|389:296,2,95.9999970703126,0|10|0,0:0|0:0|0:0,0:0:0:0:
434,99,18182,6,0,B|368:38|307:147|251:108,1,191.999994140625,0|2,1:0|0:0,0:0:0:0:
256,256,18656,1,8,0:0:0:0:
77,99,18814,2,0,B|142:38|203:147|259:108,1,191.999994140625,0|10,1:0|0:0,0:0:0:0:
128,192,19287,1,2,0:0:0:0:
384,192,19445,6,0,B|396:288,1,95.9999970703126,0|2,1:0|0:0,0:0:0:0:
128,192,19761,1,2,0:0:0:0:
256,272,19919,2,0,B|253:323,1,47.9999985351563,8|0,0:0|0:0,0:0:0:0:
304,384,20077,2,0,B|278:183|278:183|313:160|314:117,1,280.000002670288,0|2,1:0|0:0,0:0:0:0:
238,115,20551,1,0,0:0:0:0:
381,346,20708,6,0,L|363:224,1,120.000004577637,4|0,1:2|0:0,0:0:0:0:
238,115,21023,1,2,0:0:0:0:
276,51,21181,1,8,0:0:0:0:
224,144,21339,6,0,L|102:126,1,120.000004577637,0|0,1:0|0:0,0:0:0:0:
48,192,21655,1,8,0:0:0:0:
105,126,21813,1,2,0:0:0:0:
131,346,21971,6,0,L|149:224,1,120.000004577637,0|0,1:0|0:0,0:0:0:0:
274,115,22286,1,2,0:0:0:0:
236,51,22444,1,8,0:0:0:0:
288,144,22602,2,0,L|410:126,2,120.000004577637,0|0|8,1:0|0:0|0:0,0:0:0:0:
491,319,23076,6,0,B|458:192|458:192|505:152|475:71,1,240.000009155274,2|0,0:0|0:0,0:0:0:0:
387,220,23550,2,0,L|416:337,1,120.000004577637,2|8,0:0|0:0,0:0:0:0:
324,368,23865,1,0,1:0:0:0:
213,320,24023,1,2,0:0:0:0:
197,176,24181,1,10,0:0:0:0:
325,67,24339,1,2,0:0:0:0:
400,16,24497,6,0,B|498:42|498:42|507:24,1,120.000004577637,0|2,1:0|0:0,0:0:0:0:
112,16,24813,2,0,B|14:42|14:42|5:24,1,120.000004577637,2|8,0:0|0:0,0:0:0:0:
432,192,25129,5,2,1:0:0:0:
256,272,25339,5,2,0:0:0:0:
80,192,25550,5,2,0:0:0:0:
432,192,25760,5,0,1:0:0:0:
0,0,26076,5,2,0:1:0:0:
128,48,26234,1,8,0:0:0:0:
256,0,26392,1,0,1:0:0:0:
384,48,26550,1,2,0:0:0:0:
512,0,26708,1,10,0:1:0:0:
0,384,27023,5,0,1:0:0:0:
128,336,27181,1,2,0:0:0:0:
256,384,27339,1,2,0:1:0:0:
384,336,27497,1,8,0:0:0:0:
512,384,27655,1,0,1:0:0:0:
256,384,27813,2,0,L|256:280,2,103.999995239258,0|10|0,0:0|0:1|0:0,0:0:0:0:
241,121,28286,69,0,1:0:0:0:
311,153,28444,1,2,0:0:0:0:
196,232,28602,5,2,0:1:0:0:
180,162,28760,1,8,0:0:0:0:
320,223,28918,5,0,1:0:0:0:
262,265,29076,1,2,0:0:0:0:
173,87,29234,69,10,0:1:0:0:
297,68,29392,1,2,0:0:0:0:
203,307,29550,6,0,P|169:274|110:269,1,103.999995239258,0|2,1:0|0:0,0:0:0:0:
309,307,29865,2,0,P|342:274|401:269,1,103.999995239258,2|8,0:1|0:0,0:0:0:0:
266,384,30181,2,0,B|240:183|240:183|275:160|276:117,1,280.000002670288,0|10,1:0|0:1,0:0:0:0:
198,113,30655,1,2,0:0:0:0:
131,368,30813,5,0,1:0:0:0:
67,286,30971,1,2,0:0:0:0:
88,183,31129,1,2,0:1:0:0:
23,89,31286,1,8,0:0:0:0:
54,6,31444,2,0,B|61:107|61:107|50:113|50:113|61:220,1,207.999990478516,0|10,1:0|0:1,0:0:0:0:
381,336,32076,5,0,1:0:0:0:
445,254,32234,1,2,0:0:0:0:
424,151,32392,1,2,0:1:0:0:
489,69,32550,1,10,0:0:0:0:
506,195,32708,1,0,1:0:0:0:
430,291,32865,2,0,P|366:276|332:287,1,103.999995239258,2|10,0:0|0:1,0:0:0:0:
238,336,33181,1,0,0:0:0:0:
147,283,33339,6,0,P|69:311|48:311,2,103.999995239258,0|0|2,1:0|0:0|0:1,0:0:0:0:
147,283,33971,2,0,P|161:247|82:122,1,176.000005371094,0|10,1:0|0:1,0:0:0:0:
53,187,34444,1,2,0:0:0:0:
53,187,34602,2,0,P|89:230|73:262,1,88.000002685547,2|0,1:2|0:0,0:0:0:0:
93,384,34918,2,0,L|109:296,1,88.000002685547,2|8,0:0|0:0,0:0:0:0:
256,208,35234,6,0,P|228:198|199:193,1,58.6666684570313,2|0,1:0|0:0,0:0:0:0:
256,112,35444,6,0,P|276:105|323:97,1,58.6666684570313,2|8,0:0|0:0,0:0:0:0:
255,15,35655,6,0,P|228:6|199:1,1,58.6666684570313,2|0,0:0|0:0,0:0:0:0:
416,352,35865,6,0,L|294:334,1,120.000004577637,4|0,1:2|0:0,0:0:0:0:
185,209,36180,1,2,0:0:0:0:
113,198,36338,1,8,0:0:0:0:
288,144,36496,6,0,L|410:126,1,120.000004577637,0|0,1:0|0:0,0:0:0:0:
464,192,36812,1,10,0:0:0:0:
407,126,36970,1,2,0:0:0:0:
381,346,37128,6,0,L|363:224,1,120.000004577637,0|0,1:0|0:0,0:0:0:0:
304,64,37443,1,2,0:0:0:0:
384,32,37601,1,8,0:0:0:0:
224,144,37759,2,0,L|102:126,2,120.000004577637,0|0|8,1:0|0:0|0:0,0:0:0:0:
21,319,38233,6,0,B|54:192|54:192|7:152|37:71,1,240.000009155274,2|0,0:0|0:0,0:0:0:0:
125,220,38707,2,0,L|96:337,1,120.000004577637,2|8,0:0|0:0,0:0:0:0:
188,368,39022,1,0,1:0:0:0:
299,320,39180,1,2,0:0:0:0:
315,176,39338,1,10,0:0:0:0:
187,67,39496,1,2,0:0:0:0:
112,16,39654,6,0,B|14:42|14:42|5:24,1,120.000004577637,0|0,1:0|0:0,0:0:0:0:
400,16,39970,2,0,B|498:42|498:42|507:23,1,120.000004577637,2|8,0:0|0:0,0:0:0:0:
112,16,40286,5,2,1:2:0:0:
400,16,40496,5,2,0:0:0:0:
112,16,40707,5,2,0:0:0:0:
203,307,40917,5,0,1:0:0:0:
123,203,41075,1,2,0:0:0:0:
392,180,41233,5,2,0:0:0:0:
349,291,41391,1,8,0:0:0:0:
102,115,41549,5,0,1:0:0:0:
220,18,41707,1,2,0:0:0:0:
272,363,41865,69,10,0:0:0:0:
126,287,42022,1,2,0:0:0:0:
410,77,42180,5,0,1:0:0:0:
447,242,42338,1,2,0:0:0:0:
490,102,42496,5,2,0:0:0:0:
366,216,42654,1,2,0:0:0:0:
208,16,42812,6,0,P|188:9|124:0,1,80.0000030517579,10|0,1:0|0:0,0:0:0:0:
0,112,43022,6,0,P|20:105|82:101,1,80.0000030517579,10|0,0:1|0:0,0:0:0:0:
226,217,43233,6,0,P|190:200|151:193,1,80.0000030517579,10|0,0:1|0:0,0:0:0:0:
0,384,43443,5,6,1:2:0:0:
0,384,44707,5,12,1:0:0:0:
256,0,45022,1,12,1:0:0:0:
512,384,45338,1,12,1:0:0:0:
