osu file format v14

[General]
AudioFilename: audio.mp3
AudioLeadIn: 0
PreviewTime: 20551
Countdown: 0
SampleSet: Soft
StackLeniency: 0.7
Mode: 0
LetterboxInBreaks: 0
WidescreenStoryboard: 1

[Editor]
DistanceSpacing: 1
BeatDivisor: 4
GridSize: 32
TimelineZoom: 1

[Metadata]
Title:Backyard Beach (TV Size)
TitleUnicode:Backyard Beach (TV Size)
Artist:Ferb (CV: Danny Jacob)
ArtistUnicode:Ferb (CV: Danny Jacob)
Creator:AJT
Version:Hard
Source:Phineas and Ferb
Tags:fletcher back yard disney channel cartoon & dan povenmire reggae hip hop hiphop english pop aistre alphabet venax
BeatmapID:3033141
BeatmapSetID:1478451

[Difficulty]
HPDrainRate:4
CircleSize:3.5
OverallDifficulty:6
ApproachRate:7.5
SliderMultiplier:2.5
SliderTickRate:1

[Events]
//Background and Video events
0,0,"bg.jpg",0,0
Video,99,"ferb.mp4"
//Break Periods
//Storyboard Layer 0 (Background)
//Storyboard Layer 1 (Fail)
//Storyboard Layer 2 (Pass)
//Storyboard Layer 3 (Foreground)
//Storyboard Layer 4 (Overlay)
//Storyboard Sound Samples

[TimingPoints]
5551,631.578947368421,4,2,1,85,1,0
5551,-100,4,2,1,85,0,0
20708,631.578947368421,4,2,1,100,1,0
20708,-90.9090909090909,4,2,1,100,0,1
25760,-100,4,2,1,85,0,0
35865,631.578947368421,4,2,1,100,1,0
35865,-90.9090909090909,4,2,1,100,0,1
43443,-90.9090909090909,4,2,1,100,0,0
44707,-76.9230769230769,4,2,1,100,0,1
45338,-76.9230769230769,4,2,1,100,0,0

[Colours]
Combo1 : 255,255,125
Combo2 : 128,255,255
Combo3 : 128,255,128
Combo4 : 0,128,192

[HitObjects]
32,32,5551,6,0,L|42:102,1,62.5,0|0,1:2|0:0,0:0:0:0:
53,155,5866,1,2,0:0:0:0:
155,82,6182,1,0,1:2:0:0:
202,93,6340,1,0,0:0:0:0:
228,50,6498,1,10,0:0:0:0:
276,41,6656,1,2,0:0:0:0:
325,50,6814,2,0,L|336:181,1,125,0|2,1:0|0:0,0:0:0:0:
384,220,7287,1,8,0:0:0:0:
384,220,7445,2,0,L|467:213,2,83.3333333333333,2|2|2,1:2|0:0|0:0,0:0:0:0:
338,289,8077,5,0,1:2:0:0:
285,322,8235,1,0,0:0:0:0:
228,293,8393,1,2,0:0:0:0:
171,317,8551,1,10,0:0:0:0:
115,286,8708,1,0,1:0:0:0:
179,179,9024,2,0,P|176:148|187:119,1,62.5,10|2,0:0|0:0,0:0:0:0:
256,160,9340,1,0,1:2:0:0:
250,35,9656,1,2,0:0:0:0:
356,100,9972,1,0,1:2:0:0:
471,52,10287,1,10,0:0:0:0:
250,35,10603,5,0,1:0:0:0:
250,35,10761,2,0,L|122:26,1,125,2|8,0:0|0:0,0:0:0:0:
64,40,11235,2,0,P|52:74|61:108,1,62.5,0|0,1:0|0:0,0:0:0:0:
108,134,11551,2,0,P|120:168|111:202,1,62.5,10|0,0:0|0:0,0:0:0:0:
122,255,11866,1,0,1:0:0:0:
148,311,12024,1,0,0:0:0:0:
210,308,12182,1,2,0:0:0:0:
256,349,12340,1,8,0:0:0:0:
313,326,12498,1,2,1:2:0:0:
256,192,12814,5,10,0:0:0:0:
320,64,13129,5,0,1:0:0:0:
320,64,13287,2,0,L|448:53,1,125,2|8,0:0|0:0,0:0:0:0:
496,88,13761,2,0,P|508:122|499:156,1,62.5,0|0,1:0|0:0,0:0:0:0:
452,182,14077,2,0,P|440:216|449:250,1,62.5,10|0,0:0|0:0,0:0:0:0:
475,295,14393,1,0,1:0:0:0:
350,299,14708,1,2,0:0:0:0:
300,260,14866,1,8,0:0:0:0:
238,270,15024,1,0,1:0:0:0:
196,151,15340,6,0,P|166:141|132:145,1,62.5,10|2,0:0|0:0,0:0:0:0:
74,132,15656,2,0,L|67:63,2,62.5,0|0|2,1:0|0:0|0:0,0:0:0:0:
36,183,16129,1,8,0:0:0:0:
36,183,16287,1,0,1:0:0:0:
140,252,16603,6,0,P|170:242|204:246,1,62.5,10|2,0:0|0:0,0:0:0:0:
261,274,16919,1,0,1:0:0:0:
261,274,17077,1,0,0:0:0:0:
358,195,17393,1,8,0:0:0:0:
401,150,17551,1,0,1:0:0:0:
463,146,17708,2,0,P|473:111|469:79,2,62.5,0|10|0,0:0|0:0|0:0,0:0:0:0:
506,191,18182,5,0,1:0:0:0:
401,338,18498,2,0,P|431:348|476:351,2,62.5,2|8|0,0:0|0:0|1:0,0:0:0:0:
283,294,19129,1,10,0:0:0:0:
225,269,19287,1,2,0:0:0:0:
163,278,19445,5,0,1:0:0:0:
56,211,19761,1,2,0:0:0:0:
64,86,20077,1,0,1:0:0:0:
188,97,20393,1,2,0:0:0:0:
250,101,20551,1,0,0:0:0:0:
318,109,20708,5,4,1:2:0:0:
454,123,21023,1,2,0:0:0:0:
321,84,21339,1,0,1:0:0:0:
262,283,21813,1,2,0:0:0:0:
194,275,21971,5,0,1:0:0:0:
58,261,22286,1,2,0:0:0:0:
191,300,22602,1,0,1:0:0:0:
96,32,23076,6,0,P|85:86|107:169,1,137.500004196167,2|0,0:0|0:0,0:0:0:0:
173,174,23550,2,0,P|213:161|245:166,1,68.7500020980836,2|8,0:0|0:0,0:0:0:0:
301,194,23865,1,0,1:0:0:0:
368,179,24023,1,2,0:0:0:0:
389,113,24181,1,10,0:0:0:0:
351,55,24339,1,2,0:0:0:0:
283,69,24497,5,0,1:0:0:0:
151,30,24813,1,2,0:0:0:0:
22,78,25129,2,0,L|14:176,2,91.6666694641114,2|2|2,1:0|0:0|0:0,0:0:0:0:
98,45,25760,5,0,1:0:0:0:
161,152,26076,2,0,P|198:144|234:147,1,62.5,2|8,0:1|0:0,0:0:0:0:
257,196,26392,2,0,P|290:209|326:213,2,62.5,0|2|10,1:0|0:0|0:1,0:0:0:0:
222,316,27023,5,0,1:0:0:0:
160,326,27181,1,2,0:0:0:0:
98,336,27339,2,0,P|72:345|36:342,1,62.5,2|8,0:1|0:0,0:0:0:0:
23,281,27655,2,0,P|21:248|28:215,2,62.5,0|0|10,1:0|0:0|0:1,0:0:0:0:
256,192,28286,6,0,P|283:182|319:187,1,62.5,0|2,1:0|0:0,0:0:0:0:
360,230,28602,2,0,P|387:240|423:237,1,62.5,2|8,0:1|0:0,0:0:0:0:
483,235,28918,1,0,1:0:0:0:
511,289,29076,1,2,0:0:0:0:
492,348,29234,1,10,0:1:0:0:
429,356,29392,1,2,0:0:0:0:
381,314,29550,5,0,1:0:0:0:
245,248,29865,1,2,0:1:0:0:
98,279,30181,1,0,1:0:0:0:
96,128,30497,6,0,P|123:118|163:122,1,62.5,10|2,0:1|0:0,0:0:0:0:
211,149,30813,1,0,1:0:0:0:
270,168,30971,1,2,0:0:0:0:
331,155,31129,1,2,0:1:0:0:
372,107,31286,1,8,0:0:0:0:
358,45,31444,2,0,P|422:30|484:43,1,125,0|10,1:0|0:1,0:0:0:0:
270,168,32076,5,0,1:0:0:0:
211,187,32234,1,2,0:0:0:0:
150,174,32392,1,2,0:1:0:0:
109,126,32550,1,10,0:0:0:0:
123,64,32708,2,0,P|59:49|-3:62,1,125,0|10,1:0|0:1,0:0:0:0:
12,122,33181,1,0,0:0:0:0:
12,122,33339,6,0,L|0:190,2,62.5,0|0|2,1:0|0:0|0:1,0:0:0:0:
53,248,33971,2,0,P|117:233|179:246,1,125,0|10,1:0|0:1,0:0:0:0:
227,277,34444,1,2,0:0:0:0:
266,325,34602,2,0,P|297:336|337:332,1,62.5,2|0,1:2|0:0,0:0:0:0:
373,293,34918,2,0,P|401:285|437:288,1,62.5,2|8,0:0|0:0,0:0:0:0:
482,247,35234,2,0,L|483:161,2,83.3333333333333,2|2|2,1:0|0:0|0:0,0:0:0:0:
509,334,35865,5,4,1:2:0:0:
373,359,36180,1,2,0:0:0:0:
509,334,36496,1,0,1:0:0:0:
0,264,36970,1,2,0:0:0:0:
3,334,37128,5,0,1:0:0:0:
139,359,37443,1,2,0:0:0:0:
3,334,37759,1,0,1:0:0:0:
256,192,38233,6,0,L|256:54,1,137.500004196167,2|0,0:0|0:0,0:0:0:0:
193,25,38707,2,0,P|159:13|124:18,1,68.7500020980836,2|8,0:0|0:0,0:0:0:0:
75,63,39022,1,0,1:0:0:0:
93,129,39180,1,2,0:0:0:0:
66,192,39338,1,10,0:0:0:0:
83,258,39496,1,2,0:0:0:0:
62,323,39654,5,0,1:0:0:0:
196,293,39970,1,2,0:0:0:0:
324,341,40286,2,0,L|426:335,2,91.6666694641114,2|2|2,1:2|0:0|0:0,0:0:0:0:
311,249,40917,5,0,1:0:0:0:
326,112,41233,1,2,0:0:0:0:
456,69,41549,1,0,1:0:0:0:
256,288,42022,1,2,0:0:0:0:
201,249,42180,5,0,1:0:0:0:
186,112,42496,1,2,0:0:0:0:
134,51,42654,1,2,0:0:0:0:
56,69,42812,2,0,L|48:160,2,91.6666694641114,10|10|10,1:0|0:1|0:1,0:0:0:0:
134,51,43443,5,6,1:2:0:0:
480,192,44707,5,12,1:0:0:0:
256,192,45022,1,12,1:0:0:0:
32,192,45338,1,12,1:0:0:0:
