osu file format v14

[General]
AudioFilename: audio.mp3
AudioLeadIn: 0
PreviewTime: 20551
Countdown: 0
SampleSet: Soft
StackLeniency: 0.7
Mode: 0
LetterboxInBreaks: 0
WidescreenStoryboard: 1

[Editor]
DistanceSpacing: 1.1
BeatDivisor: 2
GridSize: 32
TimelineZoom: 1

[Metadata]
Title:Backyard Beach (TV Size)
TitleUnicode:Backyard Beach (TV Size)
Artist:Ferb (CV: Danny Jacob)
ArtistUnicode:Ferb (CV: Danny Jacob)
Creator:AJT
Version:Easy
Source:Phineas and Ferb
Tags:fletcher back yard disney channel cartoon & dan povenmire reggae hip hop hiphop english pop aistre alphabet venax
BeatmapID:3033140
BeatmapSetID:1478451

[Difficulty]
HPDrainRate:2
CircleSize:2.5
OverallDifficulty:3
ApproachRate:4
SliderMultiplier:1.6
SliderTickRate:1

[Events]
//Background and Video events
0,0,"bg.jpg",0,0
Video,99,"ferb.mp4"
//Break Periods
//Storyboard Layer 0 (Background)
//Storyboard Layer 1 (Fail)
//Storyboard Layer 2 (Pass)
//Storyboard Layer 3 (Foreground)
//Storyboard Layer 4 (Overlay)
//Storyboard Sound Samples

[TimingPoints]
5551,631.578947368421,4,2,1,85,1,0
5551,-100,4,2,1,85,0,0
20708,631.578947368421,4,2,1,100,1,0
20708,-90.9090909090909,4,2,1,100,0,1
25760,-100,4,2,1,85,0,0
35865,631.578947368421,4,2,1,100,1,0
35865,-90.9090909090909,4,2,1,100,0,1
43443,-90.9090909090909,4,2,1,100,0,0
44707,-83.3333333333333,4,2,1,100,0,1
45338,-76.9230769230769,4,2,1,100,0,0

[Colours]
Combo1 : 255,255,125
Combo2 : 128,255,255
Combo3 : 128,255,128
Combo4 : 0,128,192

[HitObjects]
32,32,5551,5,0,1:2:0:0:
116,55,5866,1,2,0:0:0:0:
191,100,6182,1,0,1:2:0:0:
167,184,6498,1,10,0:0:0:0:
241,230,6814,2,0,P|251:262|243:325,1,80,0|2,1:0|0:0,0:0:0:0:
79,358,7761,1,10,0:0:0:0:
33,282,8077,6,0,P|21:248|30:196,2,80,0|2|0,1:2|0:0|1:0,0:0:0:0:
108,236,9024,1,10,0:0:0:0:
181,284,9340,2,0,L|269:274,1,80,0|2,1:2|0:0,0:0:0:0:
285,190,9972,2,0,L|364:199,1,80,0|10,1:2|0:0,0:0:0:0:
329,71,10761,6,0,L|197:52,1,120,2|0,0:0|1:0,0:0:0:0:
136,102,11551,2,0,P|106:92|52:92,1,80,10|0,0:0|1:0,0:0:0:0:
11,166,12182,1,2,0:0:0:0:
52,243,12498,1,2,1:2:0:0:
139,247,12814,1,10,0:0:0:0:
252,313,13287,6,0,L|380:326,1,120,2|0,0:0|1:0,0:0:0:0:
449,285,14077,1,10,0:0:0:0:
494,209,14393,2,0,L|489:124,1,80,0|2,1:0|0:0,0:0:0:0:
430,62,15024,1,0,1:0:0:0:
346,35,15340,1,10,0:0:0:0:
261,59,15656,6,0,L|179:43,2,80,0|2|0,1:0|0:0|1:0,0:0:0:0:
325,119,16603,1,10,0:0:0:0:
311,206,16919,1,0,1:0:0:0:
155,178,17551,1,0,1:0:0:0:
105,251,17866,6,0,P|75:261|24:262,1,80,10|0,0:0|1:0,0:0:0:0:
16,350,18498,2,0,P|46:360|97:361,1,80,2|0,0:0|1:0,0:0:0:0:
173,322,19129,1,10,0:0:0:0:
254,289,19445,2,0,L|333:301,2,80,0|2|0,1:0|0:0|1:0,0:0:0:0:
184,235,20393,1,2,0:0:0:0:
237,154,20708,5,4,1:2:0:0:
329,124,21023,1,2,0:0:0:0:
420,91,21339,1,0,1:0:0:0:
227,69,21971,5,0,1:0:0:0:
131,53,22286,1,2,0:0:0:0:
35,37,22602,1,0,1:0:0:0:
78,177,23076,6,0,P|132:166|226:182,1,132.00000402832,2|2,0:0|0:0,0:0:0:0:
275,245,23865,1,0,1:0:0:0:
371,236,24181,1,10,0:0:0:0:
446,296,24497,2,0,L|463:407,2,88.000002685547,0|2|2,1:0|0:0|1:0,0:0:0:0:
350,147,25760,5,0,1:0:0:0:
272,188,26076,1,2,0:1:0:0:
189,158,26392,2,0,P|148:146|101:152,1,80,0|10,1:0|0:1,0:0:0:0:
26,173,27023,2,0,P|14:132|20:85,1,80,0|2,1:0|0:1,0:0:0:0:
69,24,27655,1,0,1:0:0:0:
155,42,27971,1,10,0:1:0:0:
241,26,28286,6,0,P|268:16|320:19,1,80,0|2,1:0|0:1,0:0:0:0:
401,48,28918,1,0,1:0:0:0:
438,127,29234,1,10,0:1:0:0:
413,211,29550,2,0,P|386:221|334:218,2,80,0|2|0,1:0|0:1|1:0,0:0:0:0:
333,370,30813,6,0,L|419:383,2,80,0|2|0,1:0|0:1|1:0,0:0:0:0:
256,320,31760,1,10,0:1:0:0:
179,370,32076,2,0,L|93:383,2,80,0|2|0,1:0|0:1|1:0,0:0:0:0:
256,320,33023,1,10,0:1:0:0:
301,244,33339,2,0,P|328:234|380:237,1,80,0|2,1:0|0:1,0:0:0:0:
456,277,33971,1,0,1:0:0:0:
496,198,34286,1,10,0:1:0:0:
451,122,34602,2,0,L|352:110,2,80,2|2|2,1:2|0:0|1:0,0:0:0:0:
320,256,35865,5,4,1:2:0:0:
224,256,36180,1,2,0:0:0:0:
128,256,36496,1,0,1:0:0:0:
256,128,37128,5,0,1:0:0:0:
352,128,37443,1,2,0:0:0:0:
448,128,37759,1,0,1:0:0:0:
364,9,38233,6,0,P|310:-2|216:14,1,132.00000402832,2|2,0:0|0:0,0:0:0:0:
183,90,39022,1,0,1:0:0:0:
133,173,39338,1,10,0:0:0:0:
45,215,39654,2,0,L|62:326,2,88.000002685547,0|2|2,1:0|0:0|1:2,0:0:0:0:
133,173,40601,1,10,0:0:0:0:
196,246,40917,5,0,1:0:0:0:
290,268,41233,1,2,0:0:0:0:
384,287,41549,1,0,1:0:0:0:
302,111,42180,5,0,1:0:0:0:
208,89,42496,1,2,0:0:0:0:
114,70,42812,1,10,1:0:0:0:
256,192,43443,5,6,1:2:0:0:
448,64,44707,5,12,1:0:0:0:
456,168,45022,1,12,1:0:0:0:
466,282,45338,1,12,1:0:0:0:
