osu file format v14

[General]
AudioFilename: audio.mp3
AudioLeadIn: 0
PreviewTime: 137775
Countdown: 0
SampleSet: Soft
StackLeniency: 0.5
Mode: 0
LetterboxInBreaks: 0
WidescreenStoryboard: 1

[Editor]
DistanceSpacing: 0.6
BeatDivisor: 4
GridSize: 8
TimelineZoom: 1.5

[Metadata]
Title:Plumas
TitleUnicode:Plumas
Artist:Femina
ArtistUnicode:FĂ©mina
Creator:Krisom
Version:Intermedio
Source:
Tags:Spanish House Perlas & Conchas Electronic Pop
BeatmapID:2447245
BeatmapSetID:1173374

[Difficulty]
HPDrainRate:4
CircleSize:3.5
OverallDifficulty:4
ApproachRate:5
SliderMultiplier:1.6
SliderTickRate:1

[Events]
//Background and Video events
0,0,"Plumas - Femina.png",0,0
//Break Periods
2,84495,106095
2,123095,136815
2,169175,175215
//Storyboard Layer 0 (Background)
//Storyboard Layer 1 (Fail)
//Storyboard Layer 2 (Pass)
//Storyboard Layer 3 (Foreground)
//Storyboard Layer 4 (Overlay)
//Storyboard Sound Samples

[TimingPoints]
15,480,4,2,1,80,1,0
107535,-111.111111111111,4,2,1,65,0,0
138255,-95.2380952380952,4,2,1,80,0,1
138495,-95.2380952380952,4,2,1,80,0,1
168975,-100,4,1,1,70,0,0
176175,-100,4,2,1,70,0,0
207255,-100,4,2,2,40,0,0

[Colours]
Combo1 : 114,184,241
Combo2 : 4,198,48
Combo3 : 20,101,252
Combo4 : 252,44,14
Combo5 : 255,192,0
Combo6 : 240,120,0
Combo7 : 194,55,240
Combo8 : 137,237,209

[HitObjects]
64,136,23055,5,0,1:0:0:0:
120,212,23535,1,8,0:1:0:0:
176,288,24015,2,0,B|232:288|232:288|272:304|272:304|336:304,1,160,2|8,0:0|0:1,0:0:0:0:
420,264,24975,1,0,1:0:0:0:
444,172,25455,1,8,0:1:0:0:
408,84,25935,2,0,P|352:36|264:56,1,160,2|8,0:0|0:1,0:0:0:0:
196,107,26895,6,0,P|268:295|444:171,1,480,0|8,1:0|0:1,0:0:0:0:
392,88,28815,2,0,B|352:40|304:32|256:56|256:88|256:120|208:144|160:136|120:88,1,320,0|2,1:0|0:0,0:0:0:0:
40,264,30735,5,0,1:0:0:0:
112,328,31215,1,8,0:1:0:0:
208,328,31695,2,0,B|272:328|272:328|320:328|344:272,1,160,2|8,0:0|0:1,0:0:0:0:
376,184,32655,2,0,L|464:200,2,80,0|2|8,1:0|0:0|0:1,0:0:0:0:
396,92,33615,2,0,P|328:64|256:104,1,160,2|8,0:0|0:1,0:0:0:0:
176,160,34575,6,0,B|152:240|152:240|168:336|240:348|272:348|344:336|360:240|360:240|336:160,1,480,0|8,1:0|0:1,0:0:0:0:
256,104,36495,2,0,B|204:44|116:56|88:128|88:128|48:248,1,320,0|2,1:0|0:0,0:0:0:0:
216,336,38415,6,0,B|336:336|336:336|360:304|360:304|440:304,2,240,0|0|8,1:0|1:0|0:1,0:0:0:0:
296,248,40335,2,0,B|176:248|176:248|152:216|152:216|72:216,2,240,0|0|8,1:0|1:0|0:1,0:0:0:0:
392,224,42255,5,0,1:0:0:0:
392,128,42735,1,8,0:1:0:0:
304,96,43215,2,0,L|360:40,2,80,2|0|8,0:0|0:0|0:1,0:0:0:0:
208,96,44175,1,0,1:0:0:0:
120,128,44655,1,8,0:1:0:0:
120,224,45135,2,0,L|40:248,2,80,2|0|8,0:0|0:0|0:1,0:0:0:0:
160,312,46095,38,0,P|256:373|352:312,2,240,0|0|8,1:0|1:0|0:1,0:0:0:0:
160,216,48015,2,0,P|256:155|352:216,2,240,0|0|8,1:0|1:0|0:1,0:0:0:0:
96,144,49935,5,0,1:0:0:0:
164,76,50415,1,8,0:1:0:0:
256,48,50895,1,2,0:0:0:0:
348,76,51375,1,8,0:1:0:0:
416,144,51855,1,0,1:0:0:0:
80,336,53775,6,0,P|160:360|208:304,1,160,0|8,1:0|0:1,0:0:0:0:
208,216,54735,1,2,0:0:0:0:
304,216,55215,1,8,0:1:0:0:
305,310,55695,2,0,P|360:362|432:336,2,160,0|8|2,1:0|0:1|0:0,0:0:0:0:
160,184,57615,5,0,1:0:0:0:
208,104,58095,1,8,0:1:0:0:
304,104,58575,1,2,0:0:0:0:
352,184,59055,1,8,0:1:0:0:
336,280,59535,2,0,L|176:280,1,160,0|8,1:0|0:1,0:0:0:0:
87,244,60495,6,0,B|80:176|160:136|224:192|312:168|328:120|315:85,1,320,2|0,0:0|1:0,0:0:0:0:
256,8,61935,1,8,0:1:0:0:
196,85,62415,2,0,B|184:120|200:168|288:192|352:136|432:176|424:248,2,320,2|0|2,0:0|1:0|0:0,0:0:0:0:
256,192,65295,12,2,67215,0:0:0:0:
432,48,69135,6,0,P|352:24|304:80,1,160,0|8,1:0|0:1,0:0:0:0:
304,168,70095,1,2,0:0:0:0:
208,168,70575,1,8,0:1:0:0:
206,73,71055,2,0,P|151:21|80:48,2,160,0|8|2,1:0|0:1|0:0,0:0:0:0:
160,246,72975,37,0,1:0:0:0:
208,166,73455,1,8,0:1:0:0:
304,166,73935,1,2,0:0:0:0:
352,246,74415,1,8,0:1:0:0:
304,326,74895,2,0,B|284:374|284:374|256:374|228:374|228:374|208:326,1,160,0|8,1:0|0:1,0:0:0:0:
184,248,75855,6,0,B|184:208|184:208|184:168|216:120|280:120|320:136|360:88|360:48|352:18,1,320,2|0,0:0|1:0,0:0:0:0:
256,16,77295,1,8,0:1:0:0:
159,18,77775,2,0,B|152:48|152:88|192:136|232:120|296:120|328:168|328:208|328:208|328:248,2,320,2|0|2,0:0|1:0|0:0,0:0:0:0:
256,192,80655,12,2,82575,0:0:0:0:
40,40,107535,70,0,P|104:136|128:128,1,143.999995605469,2|0,0:0|0:0,0:0:0:0:
192,128,108495,2,0,L|168:272,1,143.999995605469
120,344,109455,2,0,B|152:376|192:368|216:344|216:344|240:320|280:312|312:344,2,215.999993408203,2|0|0,0:0|0:0|0:0,0:0:0:0:
72,272,111375,6,0,P|16:184|48:80,2,215.999993408203,2|0|0,0:0|0:0|0:0,0:0:0:0:
152,240,113295,2,0,P|149:135|230:63,2,215.999993408203,2|0|0,0:0|0:0|0:0,0:0:0:0:
232,272,115215,102,0,P|271:201|334:167,1,143.999995605469,2|0,0:0|0:0,0:0:0:0:
408,152,116175,2,0,L|464:296,1,143.999995605469
392,336,117135,2,0,B|360:368|320:360|296:336|296:336|272:312|232:304|200:336,2,215.999993408203,2|0|0,0:0|0:0|0:0,0:0:0:0:
440,272,119055,6,0,P|496:184|464:80,2,215.999993408203,2|0|0,0:0|0:0|0:0,0:0:0:0:
360,240,120975,2,0,P|363:135|282:63,2,215.999993408203,2|0|0,0:0|0:0|0:0,0:0:0:0:
256,192,122895,101,2,0:0:0:0:
128,48,138255,21,4,0:0:0:0:
80,192,138735,1,8,0:1:0:0:
128,336,139215,2,0,L|32:336,2,83.9999974365235,0|0|8,1:0|1:0|0:1,0:0:0:0:
256,248,140175,1,0,1:0:0:0:
384,336,140655,1,8,0:1:0:0:
432,192,141135,2,0,L|320:192,2,83.9999974365235,0|0|8,1:0|1:0|0:1,0:0:0:0:
376,48,142095,6,0,P|256:16|136:48,1,251.999992309571,0|2,1:0|0:0,0:0:0:0:
136,128,143055,2,0,P|256:160|376:128,1,251.999992309571,0|2,1:0|0:0,0:0:0:0:
424,192,144015,1,0,1:0:0:0:
328,312,144495,1,8,0:1:0:0:
184,312,144975,1,0,1:0:0:0:
136,252,145215,1,0,1:0:0:0:
88,192,145455,1,8,0:1:0:0:
184,72,145935,5,0,1:0:0:0:
328,72,146415,1,8,0:1:0:0:
416,192,146895,2,0,L|512:192,2,83.9999974365235,0|0|8,1:0|1:0|0:1,0:0:0:0:
328,312,147855,2,0,P|256:349|184:312,1,167.999994873047,0|8,1:0|0:1,0:0:0:0:
96,192,148815,2,0,L|0:192,2,83.9999974365235,0|0|8,1:0|1:0|0:1,0:0:0:0:
216,96,149775,6,0,P|168:96|144:64,2,83.9999974365235,4|2|8,1:0|0:0|0:1,0:0:0:0:
296,96,150495,2,0,P|344:96|368:128,2,83.9999974365235,0|2|8,1:0|0:0|0:1,0:0:0:0:
312,176,151215,2,4,P|256:298|200:176,2,335.999989746094,0|2|8,1:0|0:0|0:1,0:0:0:0:
392,48,153615,5,0,1:0:0:0:
448,192,154095,2,0,B|448:270|448:270|448:302|424:334|394:327,1,167.999994873047,8|2,0:1|0:0,0:0:0:0:
336,280,154815,1,0,0:0:0:0:
288,224,155055,2,0,B|258:217|234:249|234:281|234:281|234:361,2,167.999994873047,8|0|8,0:1|1:0|0:1,0:0:0:0:
440,192,156495,1,2,0:0:0:0:
480,128,156735,1,0,0:0:0:0:
432,72,156975,1,8,0:1:0:0:
288,104,157455,6,0,P|224:192|104:144,1,251.999992309571,0|2,1:0|0:0,0:0:0:0:
96,72,158415,2,0,B|32:88|24:144|24:176|24:176|24:296,1,251.999992309571,0|2,1:0|0:0,0:0:0:0:
96,312,159375,1,0,1:0:0:0:
256,296,159855,1,8,0:1:0:0:
416,280,160335,1,2,0:0:0:0:
120,48,161295,37,0,1:0:0:0:
64,192,161775,2,0,B|64:270|64:270|64:302|88:334|118:327,1,167.999994873047,8|2,0:1|0:0,0:0:0:0:
176,280,162495,1,0,0:0:0:0:
224,224,162735,2,0,B|254:217|278:249|278:281|278:281|278:361,2,167.999994873047,8|0|8,0:1|1:0|0:1,0:0:0:0:
72,192,164175,1,2,0:0:0:0:
32,128,164415,1,0,0:0:0:0:
80,72,164655,1,8,0:1:0:0:
224,104,165135,6,0,P|288:192|408:144,1,251.999992309571,0|2,1:0|0:0,0:0:0:0:
416,72,166095,2,0,B|480:88|488:144|488:176|488:176|488:296,1,251.999992309571,0|2,1:0|0:0,0:0:0:0:
416,312,167055,1,0,1:0:0:0:
256,296,167535,1,8,0:1:0:0:
96,280,168015,1,2,0:0:0:0:
256,40,168975,5,4,0:0:0:0:
360,208,176655,5,2,0:0:0:0:
256,168,177135,1,8,0:1:0:0:
152,208,177615,2,0,L|152:304,2,80,0|0|8,0:0|0:0|0:1,0:0:0:0:
184,104,178575,2,0,P|256:72|328:104,1,160,2|8,0:0|0:1,0:0:0:0:
88,344,180495,5,2,0:0:0:0:
120,240,180975,1,8,0:1:0:0:
200,160,181455,2,0,L|136:96,2,80,0|0|8,0:0|0:0|0:1,0:0:0:0:
312,160,182415,2,0,P|384:160|424:80,1,160,2|8,0:0|0:1,0:0:0:0:
152,208,184335,5,2,0:0:0:0:
256,168,184815,1,8,0:1:0:0:
360,208,185295,2,0,L|360:304,2,80,0|0|8,0:0|0:0|0:1,0:0:0:0:
328,104,186255,2,0,P|256:72|184:104,1,160,2|8,0:0|0:1,0:0:0:0:
424,344,188175,37,2,0:0:0:0:
392,240,188655,1,8,0:1:0:0:
312,160,189135,2,0,L|376:96,2,80,0|0|8,0:0|0:0|0:1,0:0:0:0:
200,160,190095,2,0,P|128:160|88:80,1,160,2|8,0:0|0:1,0:0:0:0:
256,376,192015,5,2,0:0:0:0:
328,288,192495,1,8,0:1:0:0:
328,176,192975,1,0,0:0:0:0:
256,192,193215,1,0,0:0:0:0:
184,208,193455,1,8,0:1:0:0:
184,96,193935,1,2,0:0:0:0:
256,8,194415,1,8,0:1:0:0:
256,376,195855,5,2,0:0:0:0:
184,288,196335,1,8,0:1:0:0:
184,176,196815,1,0,0:0:0:0:
256,192,197055,1,0,0:0:0:0:
328,208,197295,1,8,0:1:0:0:
328,96,197775,1,2,0:0:0:0:
256,8,198255,1,8,0:1:0:0:
256,192,199695,12,4,207375,0:0:0:0:
