osu file format v14

[General]
AudioFilename: audio.mp3
AudioLeadIn: 0
PreviewTime: -1
Countdown: 1
SampleSet: Normal
StackLeniency: 0.7
Mode: 0
LetterboxInBreaks: 0
WidescreenStoryboard: 0

[Editor]
Bookmarks: 80706,81595,83817
DistanceSpacing: 0.7
BeatDivisor: 8
GridSize: 4
TimelineZoom: 1.9

[Metadata]
Title:O Canada
TitleUnicode:O Canada
Artist:FemX
ArtistUnicode:FemX
Creator:Evrien
Version:Sorry Not Sorry
Source:
Tags:maple leaf best north american country sorry USA Suck it igloo polar bears syrup
BeatmapID:1124774
BeatmapSetID:530633

[Difficulty]
HPDrainRate:0
CircleSize:5
OverallDifficulty:7
ApproachRate:8
SliderMultiplier:1.337
SliderTickRate:0.5

[Events]
//Background and Video events
0,0,"canadaowcwarmup2.jpg",0,0
//Break Periods
2,60093,67068
//Storyboard Layer 0 (Background)
//Storyboard Layer 1 (Fail)
//Storyboard Layer 2 (Pass)
//Storyboard Layer 3 (Foreground)
//Storyboard Sound Samples

[TimingPoints]
3933,288.461538461538,4,1,1,100,1,0
3933,-125,4,1,1,100,0,0
4005,2307.69230769231,4,1,1,100,1,0
4005,-119.760479041916,4,1,1,100,0,0
4149,-128.369704749679,4,1,1,100,0,0
12009,288.461538461538,4,1,1,100,1,0
12585,-71.4285714285714,4,1,1,100,0,0
17201,-100,4,1,1,100,0,0
17489,-200,4,1,1,100,0,0
22393,-200,4,1,1,100,0,0
27008,-100,4,1,1,100,0,0
35662,-50,4,1,1,100,0,0
43162,-66.6666666666667,4,1,1,100,0,0
43262,-57.1428571428571,4,1,1,100,0,0
48210,-60.6060606060606,4,1,1,100,0,0
48355,-57.1428571428571,4,1,1,100,0,0
48499,-54.054054054054,4,1,1,100,0,0
48643,-51.2820512820513,4,1,1,100,0,0
48787,-50,4,1,1,100,0,0
50888,-66.6666666666667,4,1,1,100,0,0
50951,-50,4,1,1,100,0,0
51167,-50,4,1,1,100,0,0
51528,-66.6666666666667,4,1,1,100,0,0
67818,888.888888888889,4,1,1,30,1,0
67818,-50,4,1,1,30,0,0
69595,888.888888888889,4,1,1,40,1,0
69595,-128.205128205128,4,1,1,40,0,0
69817,-66.6666666666667,4,1,1,40,0,0
80706,-24.4,4,1,1,40,0,0
81150,-66.6666666666667,4,1,1,40,0,0
81595,-24.4,4,1,1,40,0,0
82928,-66.6666666666667,4,1,1,40,0,0
83817,-66.6666666666667,4,1,69,80,0,0

[Colours]
Combo1 : 255,255,255
Combo2 : 244,0,0

[HitObjects]
80,108,3933,6,0,B|80:328|256:388|256:388|432:328|432:108|432:108|256:-36|80:108|80:108|100:72|100:72|100:18|140:-4|140:-4|136:12|136:12|168:-16|200:-20|200:-20|180:-4|180:-4|224:-28|292:-32|292:-32|256:-4|256:-4|149:28|149:28|257:10|404:32|404:32|256:15|256:15|257:-3|257:171|240:199|240:199|257:193|274:199|274:199|257:170|256:-4|256:-4|292:-28|336:-28|336:-28|308:-12|308:-12|374:-28|374:-28|352:-12|352:-12|340:8|340:8|360:8|360:8|394:-28|419:-20|419:-20|404:48|404:48|392:12|392:12|440:-20|476:-21|472:8|472:8|459:40|445:38|445:38|444:41|424:64|432:108|432:108|432:108,1,3101.84
208,282,4005,2,0,B|254:276|282:266|286:266|292:276|306:283|306:283|282:271|246:279|205:282,2,200.55
165,146,4149,2,0,B|145:145|145:145|164:137|185:145|185:145|164:153|145:145|145:145|165:145,3,122.558333333333
347,146,4149,2,0,B|367:145|367:145|348:137|327:145|327:145|348:153|367:145|367:145|347:145,3,122.558333333333
104,92,12585,6,0,B|200:120|200:120|108:92|108:92|368:176,1,467.9499857193
384,184,13379,1,0,0:0:0:0:
452,248,13451,6,0,L|436:296,1,46.79499857193
404,256,13595,2,0,L|384:304,1,46.79499857193
352,260,13739,2,0,L|324:300,1,46.79499857193
304,252,13883,2,0,L|264:276,1,46.79499857193
276,224,14028,6,0,L|228:232,1,46.79499857193
264,192,14172,2,0,L|220:172,1,46.79499857193
272,160,14316,2,0,L|208:116,1,46.79499857193
288,120,14460,2,0,L|252:88,1,46.79499857193
256,192,14605,12,0,15182,0:0:0:0:
300,160,15470,5,0,0:0:0:0:
400,248,15614,1,0,0:0:0:0:
272,280,15758,1,0,0:0:0:0:
309,181,15903,5,0,0:0:0:0:
362,303,16047,1,0,0:0:0:0:
233,278,16191,1,0,0:0:0:0:
308,205,16335,5,0,0:0:0:0:
305,338,16479,1,0,0:0:0:0:
198,260,16623,1,0,0:0:0:0:
298,226,16768,5,0,0:0:0:0:
239,345,16912,1,0,0:0:0:0:
175,230,17056,1,0,0:0:0:0:
256,40,17201,6,0,B|64:352|64:352|456:352|456:352|296:80,1,1069.6
168,276,17489,2,0,B|188:256|200:236|220:228|240:224|272:224|288:228|316:240|336:252|344:264|356:276|356:276|336:296|328:304|320:308|308:312|288:316|264:320|208:312|184:300|176:288|176:268|192:252|172:272|172:272|208:244,1,467.95
260,268,19508,1,0,0:0:0:0:
256,192,19797,12,0,21672,0:0:0:0:
12,376,22393,6,0,B|16:228|24:128|48:76|184:8|276:4|276:4|344:4|408:16|428:32|508:132|496:376,1,1002.75
96,184,22465,6,0,B|104:152|120:116|144:104|196:100|216:112|248:140|252:180|256:220|252:240|232:264|200:276|148:272|124:260|100:232|96:208|92:188|92:188|96:164|128:124|136:116|148:116|184:116|192:116|200:120|216:132|224:136|228:148|232:156|240:176|244:184|248:196|248:196|248:212|244:236|232:244|216:260|176:260|112:252|112:252|92:212|88:212|92:180|92:180|104:160|104:160|152:168,1,986.0375
436,160,22501,6,0,B|428:128|412:92|388:80|336:76|316:88|284:116|280:156|276:196|280:216|300:240|332:252|384:248|408:236|432:208|436:184|440:164|440:164|436:140|404:100|396:92|384:92|348:92|340:92|332:96|316:108|308:112|304:124|300:132|292:152|288:160|284:172|284:172|284:188|288:212|300:220|316:236|356:236|420:228|420:228|440:188|444:188|440:156|440:156|428:136|428:136|380:144,1,986.0375
204,324,22537,6,0,B|212:336|232:352|256:360|280:360|304:356|320:344|348:316|340:328|340:324|340:324|324:348|312:352|288:352|276:360|264:356|256:356|232:348|216:336|216:336|248:352|264:360|288:364|296:352|324:344|336:336|344:324|344:324|312:344|296:356|288:356|264:352|252:348|232:340|236:348|224:340|208:328|208:328|240:344|240:344|248:356|272:356|288:348|300:356|320:352|328:344|328:336|328:336|344:336|332:332|300:352|272:352|260:352|260:352|224:348|224:328|208:332|204:332|228:344|244:352|276:348|304:352|312:348|344:328,1,969.325
152,28,27008,6,0,B|20:232|20:232|220:232|220:232|140:232|140:232|148:32|148:32|132:384,1,1069.6
256,32,29605,2,0,B|208:32|176:56|144:112|148:144|160:156|208:192|244:196|268:200|288:188|296:176|320:152|320:96|320:60|300:40|268:32|260:32|260:32|304:56|316:72|316:72|296:360,1,802.2
440,24,31624,2,0,B|308:228|308:228|508:228|508:228|428:228|428:228|436:28|436:28|420:380,1,1069.6
256,192,34220,12,0,35374,0:0:0:0:
116,84,35662,6,0,B|72:144|72:144|132:164|132:164|128:96,1,200.55
140,64,36239,6,0,B|104:72|88:88|72:128|76:168|104:204|172:212|248:168|256:56|168:48,1,367.675
296,24,36816,2,0,B|256:216|256:216|276:120|276:120|404:64|404:64|280:120|280:120|360:208,1,668.5
120,232,37826,2,0,B|88:344|88:344|136:344|180:296|192:268|152:228|132:220,1,300.825
264,288,38258,2,0,B|224:292|208:320|240:352|292:340|280:296|292:308|304:340,1,133.7
400,232,38547,2,0,B|368:344|368:344|416:344|460:296|472:268|432:228|412:220,1,300.825
256,192,38980,12,0,40566,0:0:0:0:
208,200,40855,5,0,0:0:0:0:
284,200,41143,1,0,0:0:0:0:
200,200,41432,1,0,0:0:0:0:
292,200,41720,1,0,0:0:0:0:
248,112,42008,5,0,0:0:0:0:
248,276,42297,1,0,0:0:0:0:
248,72,42585,1,0,0:0:0:0:
248,312,42838,1,0,0:0:0:0:
392,100,43162,6,0,L|348:128,1,50.1375019125939
132,288,43451,2,0,L|172:256,1,50.1375019125939
408,88,43739,2,0,L|364:116,1,50.1375019125939
120,300,44028,2,0,L|160:268,1,50.1375019125939
256,192,44316,12,0,46047,0:0:0:0:
128,240,46335,5,0,0:0:0:0:
192,240,46408,1,0,0:0:0:0:
160,216,46480,2,0,L|160:116,1,100.275003825188
344,68,46912,5,0,0:0:0:0:
408,68,46985,1,0,0:0:0:0:
376,92,47057,2,0,L|376:192,1,100.275003825188
364,308,47489,5,0,0:0:0:0:
404,264,47561,1,0,0:0:0:0:
368,272,47633,2,0,L|324:244,1,50.1375019125939
248,144,47778,5,0,0:0:0:0:
188,128,47850,1,0,0:0:0:0:
212,160,47922,2,0,L|188:216,1,58.4937505578399
232,316,48066,5,0,0:0:0:0:
188,356,48138,1,0,0:0:0:0:
192,316,48210,2,0,L|140:272,1,55.1512505259633
136,264,48355,2,0,P|112:236|104:216,1,58.4937505578399
96,184,48499,2,0,P|100:152|116:124,1,61.8362497641134
132,100,48643,2,0,P|160:76|192:64,1,65.1787502486372
216,52,48787,2,0,P|256:44|292:44,1,66.85
304,44,48932,2,0,P|340:48|384:64,1,66.85
396,72,49076,1,0,0:0:0:0:
424,96,49112,1,0,0:0:0:0:
256,192,49220,12,0,50662,0:0:0:0:
36,40,50879,6,0,B|196:40|192:40|192:40|92:336,1,467.95
264,32,50915,6,0,P|264:340|264:336,1,300.825011475563
360,56,50951,6,0,B|408:36|440:52|460:104|444:156|388:172|380:172|380:172|396:176|436:204|460:236|464:268|408:300|364:308,1,401.1
112,128,51095,6,0,L|444:128,1,300.825
108,20,51528,6,0,B|60:28|32:40|8:68|0:108|0:168|12:184|36:188|60:188|112:204|152:216|180:240|200:284|188:316|176:344|160:356|128:364|100:364|60:364|40:360|16:348|0:308|-8:252|-16:232|4:216|68:192|124:156|160:124|180:104|168:68|152:44|128:32|104:16,1,877.406283470393
252,32,52970,2,0,B|208:44|176:116|172:184|176:272|204:324|240:348|256:344|280:344|312:344|332:308|344:288|368:236|332:64|292:24|260:24,1,701.925026776315
400,32,54124,2,0,B|356:44|324:116|320:184|324:272|352:324|388:348|404:344|428:344|460:344|480:308|492:288|516:236|480:64|440:24|408:24,1,701.925026776315
256,192,55278,12,0,59893,0:0:0:0:
232,23,67818,22,0,P|234:85|272:129,1,100.275,0|0,0:0|2:0,0:0:0:0:
412,254,68262,2,0,P|357:226|300:236,1,100.275,0|0,0:0|2:0,0:0:0:0:
122,296,68706,2,0,P|148:283|165:269,1,33.425,0|0,0:0|2:0,0:0:0:0:
255,116,68929,2,0,P|256:86|253:64,1,33.425,0|0,0:0|2:0,0:0:0:0:
68,177,69151,2,0,L|104:213,1,33.425,0|0,0:0|2:0,0:0:0:0:
320,229,69373,2,0,L|367:214,1,33.425,0|0,0:0|2:0,0:0:0:0:
256,382,69595,6,0,B|256:299|256:299|149:314|149:314|172:270|172:270|60:183|60:183|92:171|92:171|78:113|78:113|133:128|133:128|145:97|145:97|198:150|198:150|177:38|177:38|219:56|219:56|256:-10|256:-10|294:56|294:56|337:37|337:37|311:151|311:151|367:97|367:97|377:127|377:127|432:113|432:113|418:171|418:171|450:183|450:183|338:270|338:270|357:313|357:313|256:299,1,1668.57605601299
199,151,69817,6,0,P|214:95|246:62,1,100.275003825188,0|0,0:0|2:0,0:0:0:0:
311,152,70483,2,0,P|341:158|379:159,1,50.1375019125939,0|0,0:0|2:0,0:0:0:0:
410,325,70928,2,0,P|385:330|360:333,1,50.1375019125939,0|0,0:0|2:0,0:0:0:0:
150,314,71372,5,0,0:0:0:0:
257,128,71817,6,0,P|265:155|270:189,1,50.1375019125939,0|0,0:0|2:0,0:0:0:0:
187,28,72261,2,0,P|233:43|277:42,1,75.2062528688909,0|0,0:0|2:0,0:0:0:0:
333,11,72706,2,0,P|338:40|336:68,1,50.1375019125939,0|0,0:0|2:0,0:0:0:0:
93,171,73150,5,0,0:0:0:0:
262,236,73372,6,0,L|370:223,1,100.275003825188,0|0,0:0|2:0,0:0:0:0:
216,322,74039,1,0,0:0:0:0:
302,146,74261,1,0,2:0:0:0:
331,346,74483,1,0,0:0:0:0:
95,234,74706,1,0,2:0:0:0:
199,151,74928,5,0,0:0:0:0:
208,199,75372,6,0,P|199:158|201:129,1,50.1375019125939,0|0,0:0|2:0,0:0:0:0:
274,268,75817,2,0,P|233:289|187:295,1,75.2062528688909,0|0,0:0|2:0,0:0:0:0:
302,175,76261,2,0,L|360:184,1,50.1375019125939,0|0,0:0|2:0,0:0:0:0:
237,27,76706,5,0,0:0:0:0:
274,268,76928,5,0,2:0:0:0:
203,115,77150,1,0,0:0:0:0:
386,287,77372,1,0,2:0:0:0:
104,244,77595,1,0,0:0:0:0:
302,175,77817,1,0,2:0:0:0:
105,58,78039,1,0,0:0:0:0:
194,353,78261,1,0,2:0:0:0:
328,89,78483,5,0,0:0:0:0:
223,43,78817,5,0,2:0:0:0:
223,43,78928,2,0,L|215:95,1,50.1375019125939,0|0,0:0|2:0,0:0:0:0:
184,271,79372,2,0,P|155:222|155:188,1,75.2062528688909,0|0,0:0|2:0,0:0:0:0:
164,349,79817,2,0,P|191:349|228:342,1,50.1375019125939
431,113,80261,5,0,0:0:0:0:
285,322,80483,5,0,2:0:0:0:
0,384,80706,6,0,B|0:-16|0:-16|-148:-16|-148:-16|-148:384|-148:384|0:384,1,1095.90165647759
256,192,80928,5,0,2:0:0:0:
512,0,81150,2,0,L|512:88,1,75.2062528688909,0|0,0:0|2:0,0:0:0:0:
512,0,81595,6,0,B|660:0|660:0|660:400|660:400|512:400|512:400|512:0,1,1095.90165647759
385,234,82039,5,0,0:0:0:0:
127,150,82261,1,0,2:0:0:0:
256,192,82706,1,0,2:0:0:0:
512,384,82928,2,0,L|512:292,1,75.2062528688909,0|0,0:0|2:0,0:0:0:0:
255,298,83817,5,0,0:0:0:0:
