osu file format v14

[General]
AudioFilename: audio.mp3
AudioLeadIn: 0
PreviewTime: 177406
Countdown: 1
SampleSet: None
StackLeniency: 0.7
Mode: 0
LetterboxInBreaks: 0
WidescreenStoryboard: 0

[Editor]
DistanceSpacing: 0.6
BeatDivisor: 4
GridSize: 4
TimelineZoom: 1

[Metadata]
Title:Time and again
TitleUnicode:Time and again
Artist:FELT
ArtistUnicode:FELT
Creator:Jounzan
Version:Egats Artxe
Source:
Tags:
BeatmapID:1864972
BeatmapSetID:892124

[Difficulty]
HPDrainRate:7
CircleSize:4
OverallDifficulty:8
ApproachRate:9
SliderMultiplier:1.7
SliderTickRate:1

[Events]
//Background and Video events
0,0,"accordeon.jpg",0,0
//Break Periods
2,159640,169687
//Storyboard Layer 0 (Background)
//Storyboard Layer 1 (Fail)
//Storyboard Layer 2 (Pass)
//Storyboard Layer 3 (Foreground)
//Storyboard Sound Samples

[TimingPoints]
796,338.983050847458,4,1,0,70,1,0
796,-200,4,1,0,70,0,0
11643,-100,4,1,0,70,0,0
22151,-333.333333333333,4,1,0,70,0,0
22490,-50,4,1,0,70,0,0
23168,-76.9230769230769,4,1,0,70,0,0
23507,-50,4,1,0,70,0,0
24016,-50,4,1,0,70,0,0
24524,-133.333333333333,4,1,0,70,0,0
25202,-50,4,1,0,70,0,0
27067,-333.333333333333,4,1,0,70,0,0
27914,-50,4,1,0,70,0,0
29948,-333.333333333333,4,1,0,70,0,0
30626,-50,4,1,0,70,0,0
32999,-333.333333333333,4,1,0,70,0,0
33338,-133.333333333333,4,1,0,70,0,0
38762,-133.333333333333,4,1,0,70,0,0
44185,-100,4,1,0,70,0,0
44688,-76.9230769230769,4,1,0,70,0,0
45541,-50,4,1,0,70,0,0
45711,-100,4,1,0,70,0,0
47406,-76.9230769230769,4,1,0,70,0,0
48253,-50,4,1,0,70,0,0
48762,-76.9230769230769,4,1,0,70,0,0
49270,-33.3333333333333,4,1,0,70,0,0
49609,-100,4,1,0,70,0,0
50118,-76.9230769230769,4,1,0,70,0,0
50965,-33.3333333333333,4,1,0,70,0,0
51473,-76.9230769230769,4,1,0,70,0,0
52321,-100,4,1,0,70,0,0
52829,-76.9230769230769,4,1,0,70,0,0
54355,-100,4,1,0,70,0,0
60118,-333.333333333333,4,1,0,70,0,0
60457,-50,4,1,0,70,0,0
84694,-100,4,1,0,70,0,0
84863,-133.333333333333,4,1,0,70,0,0
93507,-100,4,1,0,70,0,0
93677,-133.333333333333,4,1,0,70,0,0
94016,-100,4,1,0,70,0,0
94524,-133.333333333333,4,1,0,70,0,0
95711,-100,4,1,0,70,0,0
97067,-50,4,1,0,70,0,0
97575,-100,4,1,0,70,0,0
99779,-50,4,1,0,70,0,0
100287,-100,4,1,0,70,0,0
100796,-33.3333333333333,4,1,0,70,0,0
101134,-100,4,1,0,70,0,0
102490,-33.3333333333333,4,1,0,70,0,0
102999,-100,4,1,0,70,0,0
108931,-333.333333333333,4,1,0,70,0,0
109270,-50,4,1,0,70,0,0
128423,-66.6666666666667,4,1,0,70,0,0
129779,-133.333333333333,4,1,0,70,0,0
130287,-33.3333333333333,4,1,0,70,0,0
130965,-133.333333333333,4,1,0,70,0,0
131643,-33.3333333333333,4,1,0,70,0,0
132321,-66.6666666666667,4,1,0,70,0,0
132490,-133.333333333333,4,1,0,70,0,0
132999,-33.3333333333333,4,1,0,70,0,0
133677,-66.6666666666667,4,1,0,70,0,0
133846,-133.333333333333,4,1,0,70,0,0
134185,-25,4,1,0,70,0,0
134355,-50,4,1,0,70,0,0
134694,-33.3333333333333,4,1,0,70,0,0
135033,-66.6666666666667,4,1,0,70,0,0
135202,-133.333333333333,4,1,0,70,0,0
135711,-33.3333333333333,4,1,0,70,0,0
136389,-133.333333333333,4,1,0,70,0,0
137067,-33.3333333333333,4,1,0,70,0,0
137745,-66.6666666666667,4,1,0,70,0,0
137914,-133.333333333333,4,1,0,70,0,0
138423,-33.3333333333333,4,1,0,70,0,0
139609,-133.333333333333,4,1,0,70,0,0
139779,-100,4,1,0,70,0,0
140118,-66.6666666666667,4,1,0,70,0,0
140457,-100,4,1,0,70,0,0
146050,-50,4,1,0,70,0,0
147236,-133.333333333333,4,1,0,70,0,0
147914,-50,4,1,0,70,0,0
148592,-100,4,1,0,70,0,0
148762,-133.333333333333,4,1,0,70,0,0
151304,-66.6666666666667,4,1,0,70,0,0
178084,-333.333333333333,4,1,0,70,0,0
178423,-43.4782608695652,4,1,0,70,0,0
189270,-133.333333333333,4,1,0,70,0,0
194524,-100,4,1,0,70,0,0
194694,-33.3333333333333,4,1,0,70,0,0

[Colours]
Combo1 : 198,198,198
Combo2 : 164,32,88
Combo3 : 23,137,147
Combo4 : 219,98,129
Combo5 : 34,179,132

[HitObjects]
432,275,11643,6,0,B|345:242|343:317|241:292,1,170
223,235,12151,1,0,0:0:0:0:
294,222,12321,1,0,0:0:0:0:
487,331,12490,1,0,0:0:0:0:
413,347,12660,1,0,0:0:0:0:
447,55,12829,6,0,B|486:97|486:97|483:231,1,170
383,205,13338,2,0,L|388:108,1,85
387,120,13592,1,0,0:0:0:0:
387,120,13677,1,0,0:0:0:0:
343,49,13846,1,0,0:0:0:0:
260,73,14016,2,0,L|223:67,4,21.25
139,109,14355,5,0,0:0:0:0:
36,52,14524,2,0,P|52:137|66:235,1,170
29,342,15033,1,0,0:0:0:0:
158,322,15202,1,0,0:0:0:0:
64,219,15372,1,0,0:0:0:0:
234,283,15541,6,0,B|304:258|316:324|404:303,1,170
278,186,16050,1,0,0:0:0:0:
378,161,16219,1,0,0:0:0:0:
378,161,16304,1,0,0:0:0:0:
378,161,16389,2,0,B|368:117|368:117|376:66,1,85
454,30,16728,2,0,L|487:29,4,21.25
296,89,17067,6,0,L|205:85,1,85
117,143,17406,1,0,0:0:0:0:
50,105,17575,1,0,0:0:0:0:
50,105,17660,1,0,0:0:0:0:
50,105,17745,1,0,0:0:0:0:
100,180,17914,2,0,P|110:245|110:359,1,170
33,264,18423,5,0,0:0:0:0:
192,197,18592,1,0,0:0:0:0:
178,279,18762,5,0,0:0:0:0:
45,169,18931,1,0,0:0:0:0:
186,109,19101,1,0,0:0:0:0:
96,232,19270,2,0,P|45:240|2:250,1,85
246,171,19609,2,0,P|260:110|289:13,1,148.75
315,312,20118,6,0,P|331:323|363:347,2,42.5
177,229,20457,2,0,P|157:232|119:242,2,42.5
326,142,20796,2,0,P|345:145|383:155,2,42.5
78,136,22151,6,0,P|52:138|34:146,1,44.6249986381531,0|0,0:0|2:0,0:0:0:0:
35,145,22490,6,0,B|218:80|176:257|363:219,1,340
362,331,22999,5,0,0:0:0:0:
485,278,23168,2,0,P|449:239|412:180,1,110.499994941712
456,0,23507,6,0,P|395:94|335:165,2,170
185,154,24016,2,0,P|246:248|306:319,2,170
81,335,24524,6,0,L|-17:353,1,95.6250036478044,0|0,0:0|2:0,0:0:0:0:
416,235,24863,2,0,L|486:249,1,63.7500024318696
478,247,25118,1,0,0:0:0:0:
486,255,25202,6,0,P|404:264|308:320,2,170
272,119,25711,1,0,0:0:0:0:
15,150,25880,2,0,P|96:153|193:215,1,170
442,85,26219,5,0,0:0:0:0:
241,103,26389,1,0,0:0:0:0:
386,201,26558,1,0,0:0:0:0:
324,29,26728,2,0,P|277:102|265:183,1,170
495,243,27067,6,0,P|491:226|487:214,1,25.4999992218018
481,194,27321,5,0,0:0:0:0:
452,171,27406,5,0,0:0:0:0:
403,161,27490,5,0,0:0:0:0:
357,178,27575,5,0,0:0:0:0:
334,234,27660,5,0,0:0:0:0:
361,311,27745,5,0,0:0:0:0:
447,319,27829,5,0,0:0:0:0:
505,246,27914,6,0,P|499:156|472:68,1,170
421,23,28253,1,0,0:0:0:0:
123,127,28423,2,0,P|129:217|156:305,1,170
207,350,28762,1,0,0:0:0:0:
418,202,28931,5,0,0:0:0:0:
331,118,29101,1,0,0:0:0:0:
220,170,29270,1,0,0:0:0:0:
5,35,29440,5,0,0:0:0:0:
92,119,29610,1,0,0:0:0:0:
203,67,29779,1,0,0:0:0:0:
503,278,29948,6,0,P|488:289|471:298,1,38.2499988327027
64,346,30287,2,0,P|47:337|32:327,1,38.2499988327027
38,150,30626,5,0,0:0:0:0:
64,106,30711,1,0,0:0:0:0:
113,94,30796,1,0,0:0:0:0:
161,108,30880,1,0,0:0:0:0:
187,151,30965,1,0,0:0:0:0:
194,146,31050,1,0,0:0:0:0:
221,188,31134,5,0,0:0:0:0:
267,208,31219,1,0,0:0:0:0:
317,200,31304,1,0,0:0:0:0:
348,159,31389,1,0,0:0:0:0:
350,108,31473,1,0,0:0:0:0:
320,66,31558,1,0,0:0:0:0:
269,56,31643,1,0,0:0:0:0:
265,64,31728,1,0,0:0:0:0:
224,81,31812,5,0,0:0:0:0:
201,153,31982,1,0,0:0:0:0:
256,208,32151,1,0,0:0:0:0:
332,189,32321,2,0,P|332:149|328:90,1,85
132,27,32490,2,0,P|132:67|136:126,1,85
241,12,32660,5,0,0:0:0:0:
228,180,32829,1,0,0:0:0:0:
212,348,32999,2,0,P|197:348|184:349,1,25.4999992218018
352,215,33338,6,0,B|425:204|433:252|525:238,1,159.375006079674,0|0,0:0|2:0,0:0:0:0:
101,193,33846,2,0,P|50:194|22:198,1,63.7500024318696,0|0,0:0|2:0,0:0:0:0:
175,177,34185,1,0,0:0:0:0:
248,17,34355,6,0,P|249:137|254:229,1,191.250007295609,0|0,0:0|2:0,0:0:0:0:
252,208,35202,1,0,0:0:0:0:
252,208,35541,1,0,0:0:0:0:
483,360,35711,2,0,P|483:319|482:286,1,63.7500024318696
482,296,35965,1,0,0:0:0:0:
482,296,36050,1,0,0:0:0:0:
246,117,36558,5,0,0:0:0:0:
246,117,36897,2,0,L|280:114,2,31.8750012159348
94,180,37236,2,0,L|126:181,1,31.8750012159348
247,230,37406,1,0,0:0:0:0:
177,260,37575,1,0,0:0:0:0:
175,334,37745,6,0,L|179:356,4,15.9375006079674
172,179,38253,1,0,0:0:0:0:
136,111,38423,2,0,P|133:71|133:24,1,63.7500024318696
440,27,38762,6,0,P|443:76|445:178,1,127.500004863739
292,287,39270,1,0,0:0:0:0:
292,287,39440,2,0,P|289:251|289:212,1,63.7500024318696
228,33,39779,1,0,0:0:0:0:
228,33,39948,2,0,P|231:82|233:184,2,127.500004863739
228,33,40965,1,0,0:0:0:0:
118,155,41134,2,0,P|83:156|36:161,1,63.7500024318696
268,281,41473,6,0,P|179:264|120:240,1,127.500004863739
435,214,41982,1,0,0:0:0:0:
500,175,42151,2,0,P|514:130|516:103,1,63.7500024318696
474,295,42490,1,0,0:0:0:0:
360,210,42660,1,0,0:0:0:0:
360,210,42745,1,0,0:0:0:0:
360,210,42829,1,0,0:0:0:0:
242,289,42999,1,0,0:0:0:0:
177,251,43168,2,0,L|149:252,4,15.9375006079674
63,217,43677,5,0,0:0:0:0:
289,216,43846,2,0,P|328:216|361:219,1,63.7500024318696
485,316,44185,6,0,P|484:245|486:134,1,170
234,17,44694,6,0,P|240:108|246:379,1,331.499984825135
176,312,45372,1,0,0:0:0:0:
408,207,45541,6,0,P|446:206|493:207,1,85
334,207,45711,5,0,0:0:0:0:
334,207,45796,1,0,0:0:0:0:
334,207,45880,1,0,0:0:0:0:
324,37,46050,2,0,P|325:79|328:121,1,85
328,121,46389,1,0,0:0:0:0:
342,367,46558,2,0,P|340:324|337:282,1,85
233,194,46897,6,0,B|154:165|148:230|33:212,1,170
415,360,47406,6,0,P|490:290|356:113,1,331.499984825135
342,71,48084,1,0,0:0:0:0:
333,62,48168,1,0,0:0:0:0:
326,84,48253,6,0,L|311:140,1,42.5
286,79,48338,2,0,L|296:146,1,42.5
257,89,48423,2,0,L|285:142,1,42.5
227,84,48507,6,0,L|212:28,1,42.5
187,89,48592,2,0,L|197:22,1,42.5
158,79,48677,2,0,L|186:26,1,42.5
88,74,48762,6,0,P|78:134|84:204,1,110.499994941712
72,257,49101,2,0,L|138:261,1,55.2499974708558
484,366,49270,6,0,L|245:357,1,191.250007295609
258,340,49440,2,0,L|175:344,2,63.7500024318696
300,271,49609,6,0,P|300:199|292:97,1,170
512,23,50118,6,0,P|508:137|502:361,1,331.499984825135
480,313,50796,2,0,P|482:273|484:249,1,55.2499974708558
378,47,50965,6,0,B|185:130|185:130|151:261|151:261|-6:349,1,510.000019454957
320,344,51473,6,0,P|288:300|234:254,1,110.499994941712
275,194,51812,1,0,0:0:0:0:
42,131,51982,2,0,P|90:105|143:58,1,110.499994941712
422,99,52321,6,0,P|346:72|264:24,1,170
245,180,52829,6,0,P|236:218|200:301,1,110.499994941712
222,359,53168,1,0,0:0:0:0:
473,264,53338,2,0,P|413:239|363:209,1,110.499994941712
373,216,53592,1,0,0:0:0:0:
373,216,53677,1,0,0:0:0:0:
298,273,53846,1,0,0:0:0:0:
349,361,54016,1,0,0:0:0:0:
434,319,54185,1,0,0:0:0:0:
299,179,54355,6,0,B|169:140|177:253|45:232,1,255
22,171,55033,5,0,0:0:0:0:
45,103,56389,1,0,0:0:0:0:
114,73,57745,1,0,0:0:0:0:
256,192,57787,12,0,59101,0:0:0:0:
459,48,60118,6,0,P|458:71|459:97,1,44.6249986381531
470,133,60457,6,0,P|468:217|245:318,1,340
361,189,60965,1,0,0:0:0:0:
212,206,61134,2,0,P|107:193|54:155,1,170
234,133,61473,5,0,0:0:0:0:
355,343,61643,1,0,0:0:0:0:
362,121,61812,1,0,0:0:0:0:
214,291,61982,2,0,P|109:304|56:342,1,170
287,265,62321,1,0,0:0:0:0:
7,145,62490,6,0,B|138:112|114:221|269:199,1,255
293,178,62829,1,0,0:0:0:0:
344,170,62914,1,0,0:0:0:0:
393,186,62999,1,0,0:0:0:0:
431,220,63084,1,0,0:0:0:0:
433,169,63168,6,0,P|431:115|440:-4,1,170
273,101,63507,1,0,0:0:0:0:
211,356,63677,2,0,P|212:271|204:186,2,170
100,218,64185,1,0,0:0:0:0:
302,166,64355,1,0,0:0:0:0:
177,100,64524,5,0,0:0:0:0:
385,26,64694,2,0,B|225:89|225:89|56:11,1,340
43,187,65202,1,0,0:0:0:0:
102,181,65287,1,0,0:0:0:0:
161,178,65372,1,0,0:0:0:0:
220,182,65457,1,0,0:0:0:0:
278,189,65541,1,0,0:0:0:0:
337,196,65626,1,0,0:0:0:0:
396,197,65711,1,0,0:0:0:0:
454,188,65796,1,0,0:0:0:0:
399,165,65880,6,0,P|284:167|159:264,1,255
151,314,66219,1,0,0:0:0:0:
316,254,66389,1,0,0:0:0:0:
145,122,66558,1,0,0:0:0:0:
512,8,66897,6,0,P|502:68|496:179,1,170
494,257,67236,1,0,0:0:0:0:
206,344,67406,2,0,P|202:259|189:175,1,170
356,71,67745,1,0,0:0:0:0:
275,237,67914,1,0,0:0:0:0:
254,49,68084,1,0,0:0:0:0:
475,170,68253,5,0,0:0:0:0:
450,161,68338,1,0,0:0:0:0:
425,167,68423,1,0,0:0:0:0:
399,163,68507,1,0,0:0:0:0:
399,163,68592,6,0,P|397:212|402:275,1,85
243,342,68762,1,0,0:0:0:0:
278,325,68846,1,0,0:0:0:0:
287,285,68931,1,0,0:0:0:0:
273,251,69016,1,0,0:0:0:0:
273,251,69101,6,0,P|270:186|271:154,1,85
153,15,69270,1,0,0:0:0:0:
185,64,69355,1,0,0:0:0:0:
178,123,69440,1,0,0:0:0:0:
135,163,69524,1,0,0:0:0:0:
135,163,69609,6,0,P|135:224|137:250,1,85
16,337,69779,5,0,0:0:0:0:
129,325,69948,1,0,0:0:0:0:
231,346,70118,1,0,0:0:0:0:
337,325,70287,1,0,0:0:0:0:
441,350,70457,1,0,0:0:0:0:
415,239,70626,6,0,L|310:195,1,85
253,19,70796,2,0,L|230:105,1,85
106,253,70965,2,0,L|224:235,1,85
214,219,71134,1,0,0:0:0:0:
180,210,71219,1,0,0:0:0:0:
210,181,71304,6,0,B|372:118|332:323|543:288,1,340
283,340,71812,2,0,P|274:298|276:239,1,85
300,101,71982,1,0,0:0:0:0:
260,33,72151,1,0,0:0:0:0:
0,62,72321,6,0,L|176:122,1,170
111,20,72660,1,0,0:0:0:0:
512,227,72829,2,0,P|415:279|221:161,1,340
224,102,73338,1,0,0:0:0:0:
219,81,73423,1,0,0:0:0:0:
221,55,73507,1,0,0:0:0:0:
230,11,73592,1,0,0:0:0:0:
257,58,73677,1,0,0:0:0:0:
250,115,73762,1,0,0:0:0:0:
241,163,73846,2,0,P|243:234|241:258,1,85
24,348,74016,6,0,P|20:244|33:63,1,255
34,21,74355,1,0,0:0:0:0:
330,99,74524,2,0,P|371:103|435:102,1,85
158,139,74694,1,0,0:0:0:0:
243,16,74863,1,0,0:0:0:0:
261,189,75033,2,0,P|264:289|264:360,1,170
167,229,75372,5,0,0:0:0:0:
331,106,75541,1,0,0:0:0:0:
353,233,75711,5,0,0:0:0:0:
185,105,75880,1,0,0:0:0:0:
260,23,76050,5,0,0:0:0:0:
258,44,76134,1,0,0:0:0:0:
262,65,76219,1,0,0:0:0:0:
260,86,76304,1,0,0:0:0:0:
264,107,76389,5,0,0:0:0:0:
322,119,76473,1,0,0:0:0:0:
337,176,76558,1,0,0:0:0:0:
304,225,76643,1,0,0:0:0:0:
218,351,76728,6,0,P|183:290|205:155,1,170
82,347,77067,1,0,0:0:0:0:
435,77,77236,2,0,P|491:149|480:263,1,170
299,126,77575,1,0,0:0:0:0:
75,190,77745,2,0,P|84:131|155:41,1,170
154,24,77999,5,0,0:0:0:0:
148,45,78084,1,0,0:0:0:0:
155,63,78168,1,0,0:0:0:0:
182,94,78253,5,0,0:0:0:0:
231,106,78338,1,0,0:0:0:0:
281,96,78423,1,0,0:0:0:0:
320,64,78507,1,0,0:0:0:0:
368,48,78592,1,0,0:0:0:0:
418,56,78677,1,0,0:0:0:0:
450,95,78762,5,0,0:0:0:0:
424,95,78846,1,0,0:0:0:0:
405,113,78931,1,0,0:0:0:0:
406,138,79016,1,0,0:0:0:0:
420,159,79101,1,0,0:0:0:0:
442,170,79185,1,0,0:0:0:0:
465,160,79270,1,0,0:0:0:0:
477,137,79355,1,0,0:0:0:0:
475,111,79440,5,0,0:0:0:0:
423,61,79779,1,0,0:0:0:0:
356,45,79948,1,0,0:0:0:0:
315,76,80118,1,0,0:0:0:0:
312,106,80287,1,0,0:0:0:0:
317,122,80457,1,0,0:0:0:0:
379,173,80626,1,0,0:0:0:0:
379,173,81473,5,0,0:0:0:0:
453,202,81643,1,0,0:0:0:0:
471,234,81812,1,0,0:0:0:0:
463,343,82151,5,0,0:0:0:0:
463,343,82660,1,0,0:0:0:0:
387,368,82829,1,0,0:0:0:0:
346,349,82999,1,0,0:0:0:0:
318,360,83168,1,0,0:0:0:0:
206,301,83507,5,0,0:0:0:0:
139,273,83677,1,0,0:0:0:0:
71,300,83846,1,0,0:0:0:0:
71,300,84016,1,0,0:0:0:0:
195,339,84185,5,0,0:0:0:0:
262,311,84355,1,0,0:0:0:0:
332,344,84524,2,0,L|399:337,1,42.5,0|0,0:0|2:0,0:0:0:0:
454,343,84694,6,0,L|485:340,1,21.25,0|0,0:0|2:0,0:0:0:0:
280,223,84863,6,0,P|329:222|486:224,1,191.250007295609
469,20,85880,1,0,0:0:0:0:
469,20,86728,1,0,0:0:0:0:
469,20,87067,1,0,0:0:0:0:
329,24,87236,1,0,0:0:0:0:
340,107,87406,1,0,0:0:0:0:
340,107,87490,1,0,0:0:0:0:
340,107,87575,6,0,P|340:169|347:307,1,191.250007295609
295,351,88423,1,0,0:0:0:0:
174,273,88592,1,0,0:0:0:0:
174,273,88762,2,0,L|176:232,1,31.8750012159348
174,168,88931,1,0,0:0:0:0:
146,43,89101,2,0,P|147:88|147:103,1,47.8125018239022,0|0,0:0|2:0,0:0:0:0:
129,108,89270,2,0,L|128:91,4,15.9375006079674
128,182,89609,1,0,0:0:0:0:
128,261,89779,1,0,0:0:0:0:
143,344,89948,6,0,L|107:348,1,31.8750012159348
112,335,90118,2,0,L|143:338,1,31.8750012159348
216,307,90287,6,0,P|257:306|407:312,1,191.250007295609
404,120,91304,1,0,0:0:0:0:
404,120,91812,1,0,0:0:0:0:
404,120,92151,1,0,0:0:0:0:
404,120,92490,1,0,0:0:0:0:
271,117,92660,1,0,0:0:0:0:
26,221,92999,6,0,P|61:218|86:218,1,47.8125018239022,0|0,0:0|2:0,0:0:0:0:
122,192,93168,2,0,L|149:193,1,15.9375006079674,0|0,0:0|2:0,0:0:0:0:
228,172,93338,2,0,L|201:173,1,15.9375006079674,0|0,0:0|2:0,0:0:0:0:
297,197,93507,6,0,L|330:198,1,21.25,0|0,0:0|2:0,0:0:0:0:
403,217,93677,6,0,L|376:218,1,15.9375006079674,0|0,0:0|2:0,0:0:0:0:
297,197,93847,2,0,L|324:198,1,15.9375006079674,0|0,0:0|2:0,0:0:0:0:
228,222,94016,6,0,L|195:223,1,21.25,0|0,0:0|2:0,0:0:0:0:
137,203,94185,1,0,0:0:0:0:
137,203,94270,1,0,0:0:0:0:
137,203,94355,2,0,P|134:168|133:143,1,42.5
97,25,94524,6,0,P|97:56|96:74,1,47.8125018239022
67,106,94694,2,0,L|48:104,4,15.9375006079674
67,106,95202,1,0,0:0:0:0:
107,166,95372,2,0,L|174:174,1,63.7500024318696
170,173,95626,1,0,0:0:0:0:
177,180,95711,6,0,P|87:180|12:224,1,170
282,300,96219,2,0,P|251:258|217:235,1,85
249,372,96558,1,0,0:0:0:0:
275,160,96728,2,0,L|266:21,1,127.5
266,32,97067,6,0,L|350:28,1,85
431,29,97236,1,0,0:0:0:0:
431,29,97321,1,0,0:0:0:0:
431,29,97406,1,0,0:0:0:0:
425,247,97575,6,0,P|435:212|422:159,1,85
301,297,97914,1,0,0:0:0:0:
297,66,98084,2,0,P|289:109|300:154,1,85
298,149,98338,1,0,0:0:0:0:
305,156,98423,6,0,B|243:136|245:184|163:173,1,127.5
137,162,98762,1,0,0:0:0:0:
47,41,98931,1,0,0:0:0:0:
154,51,99101,1,0,0:0:0:0:
30,157,99270,1,0,0:0:0:0:
196,258,99440,1,0,0:0:0:0:
225,274,99524,1,0,0:0:0:0:
230,307,99609,1,0,0:0:0:0:
263,310,99694,1,0,0:0:0:0:
263,310,99779,6,0,L|200:326,1,42.5
293,305,99863,2,0,L|251:294,1,42.5
328,318,99948,2,0,L|286:328,1,42.5
352,300,100033,2,0,L|310:289,1,42.5
376,321,100118,1,0,0:0:0:0:
150,313,100287,6,0,L|53:319,1,85
5,255,100626,2,0,L|51:251,1,42.5
270,213,100796,6,0,B|311:191|311:191|294:35,1,191.250007295609
264,41,100965,2,0,L|178:51,2,63.7500024318696
414,86,101134,6,0,B|426:44|426:44|415:4,1,85
477,138,101473,1,0,0:0:0:0:
386,301,101643,2,0,B|258:222|279:370|142:335,1,255
132,319,102321,2,0,P|160:320|176:326,1,42.5
464,18,102490,6,0,P|415:137|77:125,1,510.000019454957
67,261,102999,6,0,P|71:301|70:346,1,85
8,204,103338,1,0,0:0:0:0:
170,84,103507,2,0,P|166:44|167:-1,1,85
251,246,103846,6,0,B|327:216|331:286|429:275,1,170
437,47,104355,2,0,P|430:100|430:146,1,85
494,170,104694,1,0,0:0:0:0:
333,337,104863,1,0,0:0:0:0:
266,304,105033,1,0,0:0:0:0:
266,304,105118,1,0,0:0:0:0:
266,304,105202,1,0,0:0:0:0:
158,231,105372,5,0,0:0:0:0:
263,186,105541,1,0,0:0:0:0:
144,92,105711,5,0,0:0:0:0:
184,152,105880,1,0,0:0:0:0:
167,102,106050,5,0,0:0:0:0:
162,141,106219,1,0,0:0:0:0:
256,192,106558,12,0,107914,0:0:0:0:
68,328,108931,6,0,P|68:296|67:280,1,44.6249986381531
82,242,109270,6,0,P|77:140|291:43,1,340
315,331,109779,2,0,P|226:295|171:212,1,170
169,351,110118,1,0,0:0:0:0:
509,165,110287,2,0,P|477:242|399:300,1,170
296,105,110626,1,0,0:0:0:0:
374,15,110796,2,0,P|408:136|212:190,1,340
18,366,111304,6,0,P|13:281|13:197,1,170
0,16,111643,1,0,0:0:0:0:
8,66,111728,1,0,0:0:0:0:
42,103,111812,1,0,0:0:0:0:
92,111,111897,1,0,0:0:0:0:
142,101,111982,6,0,B|327:30|263:237|453:197,1,340
142,252,112490,1,0,0:0:0:0:
175,323,112660,1,0,0:0:0:0:
31,225,112829,1,0,0:0:0:0:
224,166,112999,2,0,P|252:250|247:349,1,170
182,368,113338,1,0,0:0:0:0:
5,64,113507,2,0,L|224:101,1,170
221,40,113846,1,0,0:0:0:0:
330,118,114016,1,0,0:0:0:0:
365,142,114101,1,0,0:0:0:0:
407,139,114185,1,0,0:0:0:0:
447,126,114270,1,0,0:0:0:0:
447,126,114355,2,0,P|409:173|393:220,1,85
348,7,114524,2,0,P|386:25|427:33,1,85
288,110,114694,6,0,B|163:56|174:201|10:152,1,255
19,189,115033,1,0,0:0:0:0:
214,282,115202,1,0,0:0:0:0:
156,348,115372,2,0,P|92:291|0:263,1,170
418,275,115711,2,0,P|338:302|275:358,1,170
486,336,116050,5,0,0:0:0:0:
424,158,116219,1,0,0:0:0:0:
497,150,116389,5,0,0:0:0:0:
409,359,116558,1,0,0:0:0:0:
270,140,116728,5,0,0:0:0:0:
332,24,116897,1,0,0:0:0:0:
229,48,117067,1,0,0:0:0:0:
361,119,117236,1,0,0:0:0:0:
193,337,117406,5,0,0:0:0:0:
172,322,117490,1,0,0:0:0:0:
150,308,117575,1,0,0:0:0:0:
128,294,117660,1,0,0:0:0:0:
128,294,117745,6,0,L|230:288,1,85
303,234,117914,1,0,0:0:0:0:
352,216,117999,1,0,0:0:0:0:
401,201,118084,1,0,0:0:0:0:
450,186,118168,1,0,0:0:0:0:
450,186,118253,6,0,L|357:176,1,85
122,72,118423,5,0,0:0:0:0:
199,50,118592,1,0,0:0:0:0:
313,50,118762,1,0,0:0:0:0:
390,72,118931,1,0,0:0:0:0:
226,193,119101,6,0,P|206:163|176:110,1,85
342,263,119270,2,0,P|383:273|442:292,1,85
202,322,119440,2,0,P|174:349|136:393,1,85
263,269,119609,1,0,0:0:0:0:
263,269,119694,1,0,0:0:0:0:
263,269,119779,1,0,0:0:0:0:
263,269,119948,1,0,0:0:0:0:
475,56,120118,6,0,P|476:175|485:358,1,255
479,354,120457,1,0,0:0:0:0:
318,147,120626,2,0,P|322:204|323:252,1,85
246,61,120796,1,0,0:0:0:0:
377,39,120965,1,0,0:0:0:0:
266,323,121134,5,0,0:0:0:0:
135,345,121303,1,0,0:0:0:0:
206,368,121473,1,0,0:0:0:0:
308,152,121643,6,0,B|182:91|196:227|29:189,1,255
28,191,121982,1,0,0:0:0:0:
344,338,122151,1,0,0:0:0:0:
377,299,122236,1,0,0:0:0:0:
368,248,122321,1,0,0:0:0:0:
452,24,122490,1,0,0:0:0:0:
419,63,122575,1,0,0:0:0:0:
428,114,122660,1,0,0:0:0:0:
122,315,122829,6,0,P|231:309|292:160,1,255
290,143,123168,1,0,0:0:0:0:
32,169,123338,2,0,L|148:187,1,85
9,91,123507,1,0,0:0:0:0:
85,255,123677,1,0,0:0:0:0:
235,75,123846,5,0,0:0:0:0:
328,240,124016,1,0,0:0:0:0:
169,149,124185,1,0,0:0:0:0:
375,137,124355,2,0,P|456:195|505:308,1,170
468,330,124694,1,0,0:0:0:0:
216,286,124863,5,0,0:0:0:0:
204,263,124948,1,0,0:0:0:0:
207,237,125033,1,0,0:0:0:0:
226,220,125118,1,0,0:0:0:0:
250,215,125202,5,0,0:0:0:0:
317,251,125287,1,0,0:0:0:0:
315,328,125372,1,0,0:0:0:0:
245,356,125457,1,0,0:0:0:0:
176,321,125541,6,0,L|166:116,1,170
99,358,125880,1,0,0:0:0:0:
336,63,126050,2,0,L|346:268,1,170
418,26,126389,5,0,0:0:0:0:
257,206,126558,1,0,0:0:0:0:
99,358,126728,1,0,0:0:0:0:
170,97,126897,5,0,0:0:0:0:
194,104,126982,1,0,0:0:0:0:
218,109,127067,1,0,0:0:0:0:
242,114,127151,1,0,0:0:0:0:
266,119,127236,1,0,0:0:0:0:
291,123,127321,1,0,0:0:0:0:
315,128,127406,5,0,0:0:0:0:
265,138,127490,1,0,0:0:0:0:
214,145,127575,1,0,0:0:0:0:
163,152,127660,5,0,0:0:0:0:
178,158,127745,1,0,0:0:0:0:
193,164,127829,1,0,0:0:0:0:
175,168,127914,6,0,B|130:161|130:161|84:182,1,85
340,202,128084,6,0,B|382:195|382:195|431:216,1,85
236,328,128253,5,0,0:0:0:0:
255,29,128423,6,0,B|351:155|165:212|246:347,1,318.750012159348,0|0,0:0|2:0,0:0:0:0:
244,337,129440,1,0,0:0:0:0:
244,337,129524,1,0,0:0:0:0:
244,337,129609,2,0,L|357:322,1,63.7500024318696
352,204,129779,6,0,P|424:220|481:249,1,127.500004863739
472,243,130287,6,0,B|230:117|125:271|216:390|382:356|337:211,1,510.000019454957
326,58,130796,1,0,0:0:0:0:
336,41,130880,1,0,0:0:0:0:
318,35,130965,6,0,P|321:110|328:146,2,95.6250036478044
318,35,131643,6,0,B|477:-25|535:101|437:194|271:189|291:-24|156:27|83:151,1,510.000019454957
58,192,132151,1,0,0:0:0:0:
39,208,132236,1,0,0:0:0:0:
65,214,132321,6,0,L|128:216,1,63.7500024318696
331,226,132490,6,0,L|193:232,1,127.500004863739
338,314,132999,6,0,B|300:354|300:354|529:334|529:334|423:235,1,382.500014591218
493,63,133338,2,0,B|453:71|453:71|429:179,1,127.500004863739
340,231,133507,5,0,0:0:0:0:
377,219,133592,1,0,0:0:0:0:
332,199,133677,2,0,L|229:198,1,63.7500024318696
169,216,133846,5,0,0:0:0:0:
169,216,133931,2,0,L|83:224,1,63.7500024318696
64,206,134185,6,0,B|87:143|87:143|12:152|12:152|36:168,1,170
234,131,134355,6,0,B|224:89|224:89|139:66|139:66|118:10,1,170
146,13,134609,1,0,0:0:0:0:
144,48,134694,6,0,L|5:66,3,127.500004863739
234,131,135033,6,0,L|323:145,1,63.7500024318696
155,225,135202,6,0,P|156:261|155:306,2,63.7500024318696
153,93,135711,6,0,B|143:136|136:254|170:322|297:330|342:250|337:178|270:117|195:134|151:235,1,510.000019454957
372,221,136219,5,0,0:0:0:0:
402,205,136304,1,0,0:0:0:0:
369,189,136389,2,0,P|365:147|365:121,1,63.7500024318696
368,23,136643,1,0,0:0:0:0:
392,54,136728,1,0,0:0:0:0:
402,294,136897,1,0,0:0:0:0:
378,325,136982,1,0,0:0:0:0:
351,292,137067,6,0,B|265:200|309:42|430:41|488:200|340:379,1,510.000019454957
246,274,137575,5,0,0:0:0:0:
229,296,137660,1,0,0:0:0:0:
213,268,137745,2,0,L|128:278,1,63.7500024318696
34,286,137914,6,0,P|40:326|43:353,2,63.7500024318696
321,152,138423,6,0,B|181:11|181:11|100:208,1,382.500014591218
388,294,138762,2,0,B|445:323|445:323|492:277,1,127.500004863739
189,266,138931,6,0,B|115:217|-22:281|86:424|241:412|213:152,1,446.250017023087
190,99,139355,1,0,0:0:0:0:
123,71,139609,2,0,L|80:71,1,31.8750012159348
9,105,139779,6,0,B|17:78|17:78|84:79,1,85
331,28,140118,6,0,B|331:32|331:32|327:28|327:28|327:32|327:32|323:28|323:28|323:32|323:32|319:28|319:28|319:32|319:32|315:28|315:28|315:32|315:32|311:28|311:28|311:32|311:32|307:28|307:28|307:32|307:32|303:28|303:28|303:32|303:32|299:28|299:28|299:32|299:32|295:28|295:28|295:32|295:32|291:28|291:28|291:32|291:32|287:28|287:28|287:32|287:32|283:28|283:28|283:32|283:32|279:28|279:28|279:32|279:32|275:28|275:28|275:32|275:32|271:28|271:28|271:32|271:32|267:28|267:28|267:32|267:32|263:28|263:28|263:32|263:32|259:28|259:28|259:32|259:32|226:31,1,191.250007295609
222,140,140457,6,0,P|222:201|227:326,2,170
359,158,141473,1,0,0:0:0:0:
429,120,141643,1,0,0:0:0:0:
429,120,141728,1,0,0:0:0:0:
429,120,141812,6,0,P|428:65|426:24,1,85
414,204,142321,1,0,0:0:0:0:
439,280,142660,1,0,0:0:0:0:
425,314,142829,2,0,P|387:322|326:326,1,85
326,329,143084,1,0,0:0:0:0:
342,338,143168,6,0,B|257:368|251:302|172:333,1,170
106,266,143677,1,0,0:0:0:0:
106,266,144016,1,0,0:0:0:0:
38,252,144185,1,0,0:0:0:0:
198,177,144355,6,0,P|200:141|194:67,2,85
20,12,144863,2,0,P|17:54|19:96,1,85
36,125,145118,1,0,0:0:0:0:
4,126,145202,1,0,0:0:0:0:
27,144,145287,1,0,0:0:0:0:
0,150,145372,1,0,0:0:0:0:
10,173,145457,5,0,0:0:0:0:
42,174,145541,1,0,0:0:0:0:
19,192,145626,1,0,0:0:0:0:
47,202,145711,2,0,L|-33:212,1,42.5
194,204,145880,6,0,L|151:198,1,42.5
357,200,146050,6,0,B|268:164|184:214|184:214|260:280|358:239,1,340
512,187,146558,6,0,B|510:126|484:7|352:23|221:65|378:363,1,510
367,311,147151,1,0,0:0:0:0:
373,303,147236,6,0,P|336:344|327:361,1,63.7500024318696
214,276,147490,2,0,P|229:305|235:339,1,63.7500024318696
111,340,147745,2,0,P|131:347|150:360,1,31.8750012159348
340,218,147914,6,0,L|293:134,1,85
225,29,148084,2,0,L|188:105,1,85
120,207,148253,2,0,L|215:213,1,85
281,304,148423,5,0,0:0:0:0:
318,329,148507,1,0,0:0:0:0:
287,356,148592,2,0,L|217:355,1,42.5
365,258,148762,6,0,P|431:258|498:262,1,127.500004863739
285,41,149270,5,0,0:0:0:0:
170,177,149440,1,0,0:0:0:0:
356,121,149609,1,0,0:0:0:0:
168,70,149779,1,0,0:0:0:0:
59,207,149948,5,0,0:0:0:0:
279,297,150118,1,0,0:0:0:0:
240,311,150202,1,0,0:0:0:0:
206,323,150287,1,0,0:0:0:0:
460,102,150457,5,0,0:0:0:0:
240,192,150627,1,0,0:0:0:0:
279,206,150711,1,0,0:0:0:0:
313,218,150796,1,0,0:0:0:0:
216,86,150965,5,0,0:0:0:0:
287,29,151134,1,0,0:0:0:0:
287,29,151219,1,0,0:0:0:0:
287,29,151304,2,0,B|340:329,1,255.000009727478
113,351,151812,2,0,L|80:184,1,127.500004863739
67,155,152151,1,0,0:0:0:0:
399,33,152321,2,0,L|432:200,2,127.500004863739
307,350,152829,6,0,P|346:306|358:217,1,127.500004863739
209,16,153168,1,0,0:0:0:0:
137,29,153338,2,0,P|98:73|156:221,1,191.250007295609
150,220,153677,2,0,L|235:199,1,63.7500024318696
302,140,153846,2,0,L|218:102,1,63.7500024318696
225,29,154016,6,0,B|172:329,1,255.000009727478
399,351,154524,2,0,L|432:184,1,127.500004863739
445,155,154863,1,0,0:0:0:0:
113,33,155033,2,0,L|80:200,2,127.500004863739
205,350,155541,6,0,P|166:306|154:217,1,127.500004863739
303,16,155880,1,0,0:0:0:0:
376,31,156050,2,0,P|415:75|427:164,1,127.500004863739
342,106,156389,1,0,0:0:0:0:
484,56,156558,1,0,0:0:0:0:
334,350,156728,5,0,0:0:0:0:
256,192,156812,12,0,159440,0:0:0:0:
424,182,170287,5,0,0:0:0:0:
290,170,170541,1,0,0:0:0:0:
271,166,170626,1,0,0:0:0:0:
252,172,170711,1,0,0:0:0:0:
252,152,170796,1,0,0:0:0:0:
270,148,170880,1,0,0:0:0:0:
287,155,170965,1,0,0:0:0:0:
129,174,171304,1,0,0:0:0:0:
20,96,171643,5,0,0:0:0:0:
13,78,171728,1,0,0:0:0:0:
10,59,171812,1,0,0:0:0:0:
11,39,171897,1,0,0:0:0:0:
19,21,171982,1,0,0:0:0:0:
95,17,172151,1,0,0:0:0:0:
102,35,172236,1,0,0:0:0:0:
105,54,172320,1,0,0:0:0:0:
104,74,172405,1,0,0:0:0:0:
96,92,172490,1,0,0:0:0:0:
56,157,172660,1,0,0:0:0:0:
19,222,172829,1,0,0:0:0:0:
9,238,172914,1,0,0:0:0:0:
11,257,172999,1,0,0:0:0:0:
126,346,173253,5,0,0:0:0:0:
134,328,173338,1,0,0:0:0:0:
130,309,173423,1,0,0:0:0:0:
148,309,173507,1,0,0:0:0:0:
154,327,173592,1,0,0:0:0:0:
148,345,173677,1,0,0:0:0:0:
63,303,173846,1,0,0:0:0:0:
116,214,174016,1,0,0:0:0:0:
94,136,174185,1,0,0:0:0:0:
106,65,174355,5,0,0:0:0:0:
116,80,174440,1,0,0:0:0:0:
119,98,174524,1,0,0:0:0:0:
118,117,174609,1,0,0:0:0:0:
113,135,174694,1,0,0:0:0:0:
15,139,174863,1,0,0:0:0:0:
10,121,174948,1,0,0:0:0:0:
9,102,175033,1,0,0:0:0:0:
12,84,175117,1,0,0:0:0:0:
22,69,175202,1,0,0:0:0:0:
74,20,175372,1,0,0:0:0:0:
150,25,175541,1,0,0:0:0:0:
167,16,175626,1,0,0:0:0:0:
420,189,178084,6,0,P|436:187|466:192,1,44.6249986381531,0|0,0:0|2:0,0:0:0:0:
463,191,178423,6,0,P|368:190|137:375,1,391.000007457733
425,280,178931,1,0,0:0:0:0:
190,163,179101,2,0,P|107:114|40:18,1,195.500003728867
293,346,179440,1,0,0:0:0:0:
308,133,179609,1,0,0:0:0:0:
145,274,179779,1,0,0:0:0:0:
417,265,179948,2,0,B|228:130|247:420|-17:304,1,391.000007457733
469,201,180457,2,0,P|509:135|507:-3,1,195.500003728867
191,161,180796,1,0,0:0:0:0:
145,178,180880,1,0,0:0:0:0:
96,180,180965,1,0,0:0:0:0:
47,171,181050,1,0,0:0:0:0:
5,146,181134,6,0,P|131:166|249:294,1,293.2500055933
249,328,181473,1,0,0:0:0:0:
115,263,181643,5,0,0:0:0:0:
82,333,181812,1,0,0:0:0:0:
319,352,181982,1,0,0:0:0:0:
41,209,182151,6,0,P|5:122|-1:8,1,195.500003728867
174,311,182490,1,0,0:0:0:0:
306,242,182660,2,0,P|356:143|429:80,1,195.500003728867
431,355,182999,1,0,0:0:0:0:
176,324,183168,5,0,0:0:0:0:
148,272,183253,1,0,0:0:0:0:
137,214,183338,1,0,0:0:0:0:
144,155,183423,1,0,0:0:0:0:
152,172,183507,1,0,0:0:0:0:
157,190,183592,1,0,0:0:0:0:
155,209,183677,1,0,0:0:0:0:
148,227,183762,1,0,0:0:0:0:
137,242,183846,6,0,P|127:116|147:41,1,195.500003728867
316,162,184185,1,0,0:0:0:0:
480,65,184355,2,0,P|498:160|486:256,2,195.500003728867
257,265,184863,1,0,0:0:0:0:
382,309,185033,1,0,0:0:0:0:
309,206,185202,5,0,0:0:0:0:
311,345,185372,1,0,0:0:0:0:
213,151,185541,5,0,0:0:0:0:
112,290,185711,1,0,0:0:0:0:
106,61,185880,5,0,0:0:0:0:
35,92,186050,1,0,0:0:0:0:
91,39,186219,1,0,0:0:0:0:
25,66,186389,1,0,0:0:0:0:
91,162,186558,6,0,B|69:207|69:207|87:276,1,97.7500018644333
171,338,186728,1,0,0:0:0:0:
225,359,186812,1,0,0:0:0:0:
283,353,186897,1,0,0:0:0:0:
331,319,186982,1,0,0:0:0:0:
347,262,187067,1,0,0:0:0:0:
328,206,187151,1,0,0:0:0:0:
185,158,187236,6,0,B|191:207|191:207|243:255,1,97.7500018644333
347,262,187406,1,0,0:0:0:0:
404,250,187490,1,0,0:0:0:0:
450,213,187575,1,0,0:0:0:0:
471,158,187660,1,0,0:0:0:0:
454,102,187745,1,0,0:0:0:0:
407,65,187829,1,0,0:0:0:0:
257,104,187914,6,0,B|282:147|282:147|349:171,1,97.7500018644333
386,339,188084,6,0,B|411:296|411:296|399:225,1,97.7500018644333
479,146,188253,5,0,0:0:0:0:
479,146,188592,1,0,0:0:0:0:
283,268,188762,1,0,0:0:0:0:
283,268,188846,1,0,0:0:0:0:
283,268,188931,1,0,0:0:0:0:
497,362,189101,1,0,0:0:0:0:
414,243,189270,6,0,P|380:174|327:51,1,191.250007295609
135,268,189948,2,0,P|147:297|160:327,1,63.7500024318696
268,242,190287,1,0,0:0:0:0:
208,121,190457,1,0,0:0:0:0:
90,158,190626,1,0,0:0:0:0:
389,346,190796,6,0,P|422:330|457:313,1,63.7500024318696
212,248,191134,1,0,0:0:0:0:
460,129,191304,1,0,0:0:0:0:
460,129,191389,1,0,0:0:0:0:
460,129,191473,2,0,L|438:95,1,31.8750012159348
262,37,191643,1,0,0:0:0:0:
262,37,191728,1,0,0:0:0:0:
262,37,191812,2,0,L|284:71,1,31.8750012159348
300,288,191982,6,0,P|351:266|494:214,1,191.250007295609
196,145,192660,2,0,P|138:164|109:174,1,63.7500024318696
349,69,192999,1,0,0:0:0:0:
275,205,193168,1,0,0:0:0:0:
250,44,193338,1,0,0:0:0:0:
374,180,193507,6,0,P|395:183|412:187,1,31.8750012159348
479,205,193677,1,0,0:0:0:0:
486,214,193762,1,0,0:0:0:0:
482,222,193846,1,0,0:0:0:0:
473,214,193931,1,0,0:0:0:0:
468,155,194016,1,0,0:0:0:0:
418,105,194101,1,0,0:0:0:0:
340,95,194185,1,0,0:0:0:0:
270,134,194270,1,0,0:0:0:0:
231,206,194355,1,0,0:0:0:0:
152,255,194440,1,0,0:0:0:0:
55,238,194524,2,0,P|47:214|40:187,1,42.5
220,29,194694,6,0,P|249:149|278:296,1,255.000009727478
220,29,195033,1,0,0:0:0:0:
266,361,195202,2,0,P|290:235|320:112,1,255.000009727478
345,37,195541,1,0,0:0:0:0:
431,259,195711,5,0,0:0:0:0:
403,331,195880,1,0,0:0:0:0:
368,205,196050,5,0,0:0:0:0:
379,192,196134,1,0,0:0:0:0:
418,180,196219,1,0,0:0:0:0:
486,200,196304,1,0,0:0:0:0:
511,277,196389,1,0,0:0:0:0:
476,352,196473,1,0,0:0:0:0:
385,358,196558,1,0,0:0:0:0:
327,283,196643,1,0,0:0:0:0:
258,220,196728,1,0,0:0:0:0:
161,249,196812,1,0,0:0:0:0:
127,343,196897,1,0,0:0:0:0:
138,359,196982,1,0,0:0:0:0:
157,357,197067,5,0,0:0:0:0:
220,312,197236,1,0,0:0:0:0:
132,24,197406,6,0,P|57:157|3:255,1,255.000009727478
265,197,197745,1,0,0:0:0:0:
380,360,197914,2,0,P|455:227|509:129,1,255.000009727478
482,66,198253,1,0,0:0:0:0:
241,274,198423,5,0,0:0:0:0:
266,347,198592,1,0,0:0:0:0:
266,347,198931,1,0,0:0:0:0:
266,347,199270,5,0,0:0:0:0:
302,338,199355,1,0,0:0:0:0:
326,292,199440,1,0,0:0:0:0:
289,223,199524,1,0,0:0:0:0:
229,165,199609,5,0,0:0:0:0:
173,80,199694,1,0,0:0:0:0:
249,15,199779,1,0,0:0:0:0:
345,58,199863,1,0,0:0:0:0:
317,150,199948,1,0,0:0:0:0:
229,165,200033,1,0,0:0:0:0:
260,92,200118,5,0,0:0:0:0:
