osu file format v14

[General]
AudioFilename: audio.ogg
AudioLeadIn: 0
PreviewTime: 88323
Countdown: 0
SampleSet: Soft
StackLeniency: 0.8
Mode: 0
LetterboxInBreaks: 0
WidescreenStoryboard: 1

[Editor]
Bookmarks: 55214,88323,121421,154524,187628,220731
DistanceSpacing: 0.8
BeatDivisor: 4
GridSize: 16
TimelineZoom: 2.699999

[Metadata]
Title:Name In Ya Mouth
TitleUnicode:Name In Ya Mouth
Artist:Felt
ArtistUnicode:Felt
Creator:ent
Version:Felt 4 U
Source:
Tags:MURS & And Slug Ant Felt For You Your Rhymesayers Entertainment Hip-Hop Rap English semaphore
BeatmapID:4086190
BeatmapSetID:1969634

[Difficulty]
HPDrainRate:6
CircleSize:4
OverallDifficulty:7
ApproachRate:9
SliderMultiplier:2.4
SliderTickRate:1

[Events]
//Background and Video events
0,0,"edan-cohen-gjmbiBK9kI4-unsplash edit ver.jpg",0,0
//Break Periods
//Storyboard Layer 0 (Background)
//Storyboard Layer 1 (Fail)
//Storyboard Layer 2 (Pass)
//Storyboard Layer 3 (Foreground)
//Storyboard Layer 4 (Overlay)
//Storyboard Sound Samples

[TimingPoints]
48,689.655172413793,4,2,1,70,1,0
22116,-100,4,2,1,70,0,1
22806,-100,4,2,1,70,0,0
28582,-100,4,2,1,5,0,0
28668,-100,4,2,1,70,0,0
33151,-200,4,2,1,70,0,1
33754,-100,4,2,1,5,0,1
33841,-100,4,2,1,70,0,0
36168,-100,4,2,1,5,0,0
36254,-100,4,2,1,70,0,0
44185,-200,4,2,1,70,0,1
44789,-100,4,2,1,5,0,1
44875,-100,4,2,1,70,0,0
48065,-100,4,2,1,5,0,0
48151,-100,4,2,1,70,0,0
51341,-100,4,2,1,5,0,0
51427,-100,4,2,1,70,0,0
51685,-100,4,2,1,5,0,0
51772,-100,4,2,1,70,0,0
54530,-100,4,2,1,35,0,1
54616,-100,4,2,1,70,0,0
55220,-100,4,2,1,70,0,1
55910,-100,4,2,1,70,0,0
59099,-100,4,2,1,5,0,0
59185,-100,4,2,1,70,0,0
60047,-100,4,2,1,70,0,1
60737,-100,4,2,1,70,0,0
61685,-100,4,2,1,5,0,0
61772,-100,4,2,1,70,0,0
66254,-100,4,2,1,70,0,1
66944,-100,4,2,1,70,0,0
67892,-100,4,2,1,5,0,0
67979,-100,4,2,1,70,0,0
68237,-100,4,2,1,5,0,0
68323,-100,4,2,1,70,0,0
72720,-100,4,2,1,5,0,0
72806,-100,4,2,1,70,0,0
77289,-100,4,2,1,70,0,1
77979,-100,4,2,1,70,0,0
84444,-100,4,2,1,5,0,0
84530,-100,4,2,1,70,0,0
84789,-100,4,2,1,5,0,0
84875,-100,4,2,1,70,0,0
85565,-100,4,2,1,70,0,1
85823,-100,4,2,1,5,0,1
85910,-100,4,2,1,70,0,1
86168,-100,4,2,1,5,0,1
86254,-100,4,2,1,70,0,1
86944,-100,4,2,1,70,0,0
87634,-200,4,2,0,30,0,0
87979,-100,4,2,0,66,0,0
88323,-90.9090909090909,4,2,1,90,0,1
89013,-90.9090909090909,4,2,1,90,0,0
99358,-90.9090909090909,4,2,1,90,0,1
100047,-90.9090909090909,4,2,1,90,0,0
100996,-90.9090909090909,4,2,1,5,0,0
101082,-90.9090909090909,4,2,1,90,0,0
101341,-90.9090909090909,4,2,1,5,0,0
101427,-90.9090909090909,4,2,1,90,0,0
105134,-90.9090909090909,4,2,1,5,0,0
105220,-90.9090909090909,4,2,1,90,0,0
105479,-90.9090909090909,4,2,1,5,0,0
105565,-90.9090909090909,4,2,1,90,0,0
110392,-117.647058823529,4,2,1,80,0,1
110996,-117.647058823529,4,2,1,5,0,1
111082,-117.647058823529,4,2,1,80,0,1
118237,-117.647058823529,4,2,1,5,0,1
118323,-117.647058823529,4,2,1,80,0,1
121341,-117.647058823529,4,2,1,80,0,0
121427,-100,4,2,1,70,0,1
123496,-100,4,2,1,70,0,0
128582,-100,4,2,1,5,0,0
128668,-100,4,2,1,70,0,0
128927,-100,4,2,1,5,0,0
129013,-100,4,2,1,70,0,0
132461,-100,4,2,1,70,0,1
133151,-100,4,2,1,70,0,0
138582,-100,4,2,1,5,0,0
138668,-100,4,2,1,70,0,0
141341,-100,4,2,1,5,0,0
141427,-100,4,2,1,70,0,0
142375,-100,4,2,1,5,0,0
142461,-100,4,2,1,70,0,0
142720,-100,4,2,1,5,0,0
142806,-100,4,2,1,70,0,0
143496,-100,4,2,1,70,0,1
144185,-100,4,2,1,70,0,0
149272,-100,4,2,1,5,0,0
149358,-100,4,2,1,70,0,0
150651,-100,4,2,1,5,0,0
150737,-100,4,2,1,70,0,0
150996,-100,4,2,1,5,0,0
151082,-100,4,2,1,70,0,0
154013,-100,4,2,1,35,0,1
154444,-100,4,2,1,70,0,0
154530,-100,4,2,1,70,0,1
155220,-100,4,2,1,70,0,0
165565,-100,4,2,1,70,0,1
166254,-100,4,2,1,70,0,0
174099,-100,4,2,1,5,0,0
174185,-100,4,2,1,70,0,0
174444,-100,4,2,1,5,0,0
174530,-100,4,2,1,70,0,0
176599,-200,4,2,1,70,0,1
177203,-100,4,2,1,5,0,1
177289,-100,4,2,1,70,0,0
186944,-100,4,2,0,30,0,1
187289,-100,4,2,0,66,0,1
187547,-100,4,2,0,66,0,0
187634,-90.9090909090909,4,2,1,90,0,1
188323,-90.9090909090909,4,2,1,90,0,0
198582,-90.9090909090909,4,2,1,90,0,0
198668,-90.9090909090909,4,2,1,90,0,1
199358,-90.9090909090909,4,2,1,90,0,0
209703,-117.647058823529,4,2,1,80,0,1
210306,-117.647058823529,4,2,1,5,0,1
210392,-117.647058823529,4,2,1,80,0,1
217548,-117.647058823529,4,2,1,5,0,1
217634,-117.647058823529,4,2,1,80,0,1
220651,-117.647058823529,4,2,1,80,0,0
220737,-100,4,2,1,70,0,1
221427,-100,4,2,1,70,0,0
231772,-100,4,2,1,70,0,1
232461,-100,4,2,1,70,0,0
239530,-90.9090909090909,4,2,1,75,0,1
240048,-90.9090909090909,4,2,1,80,0,1
240737,-90.9090909090909,4,2,1,85,0,1
241427,-90.9090909090909,4,2,1,90,0,1
241685,-90.9090909090909,4,2,1,5,0,1
241772,-90.9090909090909,4,2,1,90,0,1
242030,-90.9090909090909,4,2,1,5,0,1
242116,-90.9090909090909,4,2,1,95,0,1
242461,-90.9090909090909,4,2,1,100,0,1
242720,-100,4,2,1,100,0,0
242806,-303.030303030303,4,2,66,66,0,1
243496,-303.030303030303,4,2,0,5,0,1
248582,-303.030303030303,4,2,0,5,0,0

[Colours]
Combo1 : 17,254,176
Combo2 : 173,255,95
Combo3 : 255,88,100
Combo4 : 255,94,55

[HitObjects]
104,94,22116,6,0,L|86:240,1,120,14|0,1:0|0:3,0:1:0:0:
89,213,22806,2,0,L|162:222,1,60,8|2,0:0|0:3,0:0:0:0:
276,139,23151,2,0,L|216:131,1,60,2|0,0:3|3:0,0:0:0:0:
216,131,23496,1,0,1:0:0:0:
266,299,23668,1,2,0:3:0:0:
266,299,23841,2,0,P|318:309|384:295,1,120,0|8,1:0|0:0,0:0:0:0:
461,120,24358,2,0,P|468:166|461:202,1,60,2|2,0:0|0:3,0:0:0:0:
440,248,24703,1,0,3:2:0:0:
461,120,24875,6,0,P|458:69|477:-7,1,120,0|2,1:0|0:3,0:0:0:0:
380,175,25392,1,2,0:3:0:0:
380,175,25565,2,0,P|319:169|252:176,1,120,8|2,0:0|0:0,0:0:0:0:
180,261,26082,1,0,3:0:0:0:
293,60,26254,6,0,L|286:-4,1,60,0|2,1:0|0:3,0:0:0:0:
187,202,26599,2,0,L|180:261,1,60,0|2,1:0|0:3,0:0:0:0:
223,329,26944,1,8,0:0:0:0:
106,295,27116,2,0,L|42:302,2,60,0|2|0,1:0|0:3|3:2,0:0:0:0:
187,202,27634,1,2,1:0:0:0:
187,202,28151,5,2,0:3:0:0:
114,73,28323,2,0,P|98:116|94:160,1,90,8|0,0:0|0:0,0:0:0:0:
187,202,28668,2,0,L|250:198,1,60,2|0,0:3|3:0,0:0:0:0:
94,160,29013,2,0,L|100:279,1,120,0|0,1:0|1:0,0:0:0:0:
241,276,29530,1,2,0:3:0:0:
241,276,29703,2,0,L|304:272,1,60,8|2,0:0|0:3,0:0:0:0:
143,320,30047,2,0,P|119:303|101:280,1,60,2|0,0:3|3:0,0:0:0:0:
301,272,30392,6,0,L|445:280,2,120,0|2|8,1:0|0:3|0:0,0:0:0:0:
485,341,31254,1,2,0:3:0:0:
485,341,31599,1,0,3:0:0:0:
387,201,31772,2,0,P|391:166|391:124,1,60,0|2,1:0|0:3,0:0:0:0:
391,141,32030,1,0,0:0:0:0:
391,141,32116,1,0,1:0:0:0:
333,63,32289,1,2,0:3:0:0:
333,63,32461,2,0,P|298:59|256:59,1,60,8|0,0:0|1:0,0:0:0:0:
195,117,32806,2,0,P|191:152|191:194,1,60,2|0,0:3|3:0,0:0:0:0:
387,201,33151,6,0,P|444:205|500:219,1,105,6|0,1:0|0:0,0:0:0:0:
508,226,33841,1,8,0:0:0:0:
430,302,34013,1,2,0:3:0:0:
309,277,34185,2,0,P|259:275|226:276,1,60,2|0,0:3|3:0,0:0:0:0:
387,201,34530,6,0,L|398:74,1,120,0|0,1:0|1:0,0:0:0:0:
397,81,35047,1,2,0:3:0:0:
309,277,35220,2,0,L|314:340,1,60,8|2,0:0|0:3,0:0:0:0:
434,361,35565,2,0,L|430:302,1,60,2|0,0:3|3:0,0:0:0:0:
309,277,35910,6,0,P|259:276|204:282,1,90,0|0,1:0|0:0,0:0:0:0:
195,293,36254,1,2,0:3:0:0:
42,293,36427,2,0,P|34:257|31:232,2,60,2|8|2,0:3|0:0|0:3,0:0:0:0:
42,293,36858,1,0,0:0:0:0:
42,293,36944,1,2,0:0:0:0:
86,145,37116,1,0,3:0:0:0:
86,145,37289,2,0,P|87:104|75:4,2,120,0|0|8,1:0|1:0|0:0,0:0:0:0:
79,25,38151,1,0,1:0:0:0:
79,25,38496,1,0,3:0:0:0:
31,234,38668,6,0,P|33:283|49:371,2,120,2|2|8,1:0|0:3|0:0,0:0:0:0:
86,145,39530,1,2,0:3:0:0:
236,232,39703,1,2,0:3:0:0:
291,143,39875,2,0,P|283:115|279:78,1,60,0|0,3:0|1:0,0:0:0:0:
286,326,40220,1,2,0:3:0:0:
286,326,40392,2,0,P|278:354|274:390,1,60,0|2,1:0|0:3,0:0:0:0:
355,240,40737,2,0,P|307:233|222:233,1,120,8|2,0:0|0:3,0:0:0:0:
235,231,41254,1,0,3:0:0:0:
279,84,41427,6,0,P|327:91|412:91,1,120,0|2,1:0|0:3,0:0:0:0:
221,29,41944,1,2,0:3:0:0:
221,29,42116,2,0,P|173:36|35:32,1,180,8|0,0:0|3:0,0:0:0:0:
279,84,42806,6,0,L|283:163,1,60,0|2,1:0|0:3,0:0:0:0:
398,92,43151,2,0,L|402:13,1,60,0|2,1:0|0:3,0:0:0:0:
291,234,43496,1,8,0:0:0:0:
291,234,43582,1,0,0:0:0:0:
291,234,43668,2,0,L|287:313,2,60,0|2|0,1:0|0:3|3:0,0:0:0:0:
428,384,44185,6,0,P|430:326|425:269,1,105,6|0,1:0|0:0,0:1:0:0:
420,261,44875,1,8,0:0:0:0:
287,293,45047,1,2,0:3:0:0:
420,261,45220,1,2,0:3:0:0:
287,293,45392,1,0,3:0:0:0:
420,261,45565,2,0,L|429:134,2,120,0|0|8,1:0|1:0|0:0,0:0:0:0:
420,261,46341,1,0,0:0:0:0:
420,261,46427,1,2,0:3:0:0:
428,141,46599,2,0,P|426:102|422:80,1,60,2|0,0:3|3:0,0:0:0:0:
282,233,46944,6,0,L|286:292,1,60,0|2,1:0|0:3,0:0:0:0:
325,160,47289,2,0,L|320:100,1,60,2|2,0:3|0:3,0:0:0:0:
251,366,47634,2,0,P|186:362|98:367,1,150,8|0,0:0|0:0,0:0:0:0:
78,377,48151,1,0,3:0:0:0:
21,193,48323,5,0,1:0:0:0:
107,156,48496,1,2,0:3:0:0:
152,233,48668,1,0,1:0:0:0:
72,268,48841,1,2,0:3:0:0:
21,193,49013,1,8,0:0:0:0:
107,156,49185,1,0,1:0:0:0:
152,233,49358,2,0,P|155:276|150:314,1,60,2|0,0:3|3:0,0:0:0:0:
21,193,49703,6,0,P|15:133|16:73,1,120,2|2,1:0|0:3,0:0:0:0:
16,73,50134,1,0,0:0:0:0:
16,73,50220,1,2,0:3:0:0:
152,233,50392,2,0,P|160:292|158:352,1,120,8|2,0:0|0:3,0:0:0:0:
158,352,50910,1,0,3:0:0:0:
239,183,51082,6,0,P|246:133|242:82,1,90,0|0,1:0|0:0,0:0:0:0:
237,0,51427,2,0,P|230:50|234:101,1,90,0|0,1:0|0:0,0:0:0:0:
239,183,51772,1,8,0:0:0:0:
414,217,51944,2,0,P|456:218|481:221,2,60,2|2|0,0:3|0:3|3:0,0:0:0:0:
342,262,52461,6,0,P|336:319|333:381,2,120,0|2|8,1:0|0:3|0:0,0:0:0:0:
342,262,53668,1,0,3:0:0:0:
512,119,53841,2,0,P|510:59|503:0,2,120,0|0|4,1:0|1:0|0:2,0:0:0:0:
512,119,55220,6,0,L|381:131,1,120,14|0,1:0|0:0,0:0:0:0:
392,129,55651,1,0,0:0:0:0:
392,129,55737,1,2,0:2:0:0:
351,332,55910,2,0,L|410:326,1,60,8|2,0:0|0:3,0:0:0:0:
310,221,56254,2,0,L|250:226,1,60,2|0,0:3|3:0,0:0:0:0:
392,129,56599,6,0,P|385:86|378:2,1,120,0|0,1:0|1:0,0:0:0:0:
264,107,57116,1,2,0:3:0:0:
264,107,57289,2,0,P|259:166|250:226,1,120,8|2,0:0|0:3,0:0:0:0:
250,226,57720,1,0,0:0:0:0:
250,226,57806,1,0,3:0:0:0:
158,234,57979,6,0,P|154:180|152:164,1,60,0|2,1:0|0:3,0:0:0:0:
166,326,58323,2,0,P|112:330|96:332,1,60,2|2,0:3|0:3,0:0:0:0:
258,318,58668,2,0,P|328:320|411:319,1,150,8|0,0:0|0:0,0:0:0:0:
436,314,59185,1,0,3:0:0:0:
512,192,59358,5,0,1:0:0:0:
512,192,59703,1,0,1:0:0:0:
0,192,60737,5,2,1:0:0:0:
0,192,61427,2,0,P|0:238|12:299,1,90,8|0,0:0|0:0,0:0:0:0:
87,327,61772,2,0,L|158:319,1,60,2|0,0:3|3:0,0:0:0:0:
211,154,62116,2,0,L|226:275,2,120,0|0|8,1:0|1:0|0:0,0:0:0:0:
211,154,62979,1,2,0:3:0:0:
288,45,63151,2,0,L|295:105,1,60,2|0,0:3|3:0,0:0:0:0:
126,105,63496,6,0,P|68:92|8:90,1,120,0|2,1:0|0:3,0:0:0:0:
8,90,63927,1,0,0:0:0:0:
8,90,64013,1,2,0:3:0:0:
169,30,64185,2,0,P|227:43|287:44,1,120,8|2,0:0|0:0,0:0:0:0:
287,44,64703,1,0,3:0:0:0:
126,105,64875,6,0,P|94:96|66:95,1,60,0|2,1:0|0:3,0:0:0:0:
169,30,65220,2,0,P|201:39|229:40,1,60,0|2,1:0|0:3,0:0:0:0:
185,206,65565,1,8,0:0:0:0:
185,206,65651,1,0,0:0:0:0:
185,206,65737,2,0,P|181:265|181:349,1,120,0|0,1:0|3:0,0:0:0:0:
228,131,66254,1,6,1:0:0:0:
228,131,66944,6,0,P|279:129|355:134,1,120,8|2,0:0|0:3,0:0:0:0:
347,133,67461,1,0,3:0:0:0:
511,129,67634,2,0,P|514:170|512:226,1,90,0|0,1:0|0:0,0:0:0:0:
498,122,67979,2,0,P|495:81|497:25,1,90,0|0,1:0|0:0,0:0:0:0:
505,5,68323,1,8,0:0:0:0:
505,5,68668,2,0,P|460:-3|430:0,1,60,2|0,0:3|3:0,0:0:0:0:
347,133,69013,6,0,L|355:268,1,120,0|2,1:0|0:3,0:0:0:0:
417,384,69530,2,0,L|413:324,2,60,2|8|2,0:3|0:0|0:3,0:0:0:0:
417,384,70220,1,0,3:0:0:0:
354,252,70392,2,0,P|307:248|279:250,1,60,0|2,1:0|0:3,0:0:0:0:
347,133,70737,2,0,P|394:129|422:131,1,60,0|2,1:0|0:3,0:0:0:0:
239,310,71082,1,8,0:0:0:0:
239,310,71254,2,0,P|220:277|243:188,1,120,0|0,1:0|3:0,0:0:0:0:
347,133,71772,6,0,L|343:73,1,60,2|2,1:0|0:3,0:0:0:0:
354,252,72116,2,0,L|357:311,1,60,2|2,0:3|0:3,0:0:0:0:
338,0,72461,2,0,P|294:-6|250:1,1,90,8|0,0:0|0:0,0:0:0:0:
202,59,72806,2,0,L|205:118,1,60,2|0,0:3|3:0,0:0:0:0:
40,166,73151,6,0,P|112:183|156:175,2,120,0|0|8,1:0|1:0|0:0,0:0:0:0:
40,166,73927,1,0,0:0:0:0:
40,166,74013,1,2,0:3:0:0:
0,246,74185,2,0,P|-2:281|1:311,1,60,2|0,0:3|3:0,0:0:0:0:
157,384,74530,6,0,P|229:387|300:381,1,120,0|2,1:0|0:3,0:0:0:0:
361,325,75047,1,2,0:3:0:0:
276,383,75220,1,8,0:0:0:0:
361,325,75392,2,0,L|355:228,1,90,2|2,0:3|0:0,0:0:0:0:
341,208,75737,1,0,3:0:0:0:
394,0,75910,6,0,L|386:119,1,120,0|0,1:0|1:0,0:0:0:0:
386,119,76427,1,2,0:3:0:0:
512,294,76599,2,0,L|506:212,1,60,8|0,0:0|1:0,0:0:0:0:
361,325,76944,2,0,L|364:384,1,60,2|0,0:3|3:0,0:0:0:0:
507,234,77289,6,0,P|512:174|512:114,1,120,6|0,1:0|0:0,0:0:0:0:
512,114,77979,2,0,L|452:104,1,60,8|2,0:0|0:3,0:0:0:0:
328,194,78323,2,0,L|388:204,1,60,2|0,0:3|3:0,0:0:0:0:
333,19,78668,2,0,L|208:-2,2,120,0|0|8,1:0|1:0|0:0,0:0:0:0:
421,0,79530,1,2,0:3:0:0:
272,87,79703,1,2,0:3:0:0:
421,0,79875,1,0,3:0:0:0:
272,87,80047,6,0,P|261:146|260:205,1,120,0|2,1:0|0:3,0:0:0:0:
148,140,80565,1,2,0:3:0:0:
148,140,80737,2,0,P|146:73|133:8,1,120,8|2,0:0|0:2,0:0:0:0:
136,21,81168,1,0,0:0:0:0:
136,21,81254,1,0,3:0:0:0:
87,207,81427,2,0,P|89:259|94:289,1,60,0|2,1:0|0:3,0:0:0:0:
11,159,81772,2,0,P|9:107|4:77,1,60,0|2,1:0|0:3,0:0:0:0:
119,347,82116,1,8,0:0:0:0:
119,347,82289,2,0,L|182:342,2,60,0|2|0,1:0|0:3|3:2,0:0:0:0:
309,375,82806,6,0,L|428:384,2,120,2|2|8,1:0|0:3|0:0,0:0:0:0:
309,375,83582,1,0,0:0:0:0:
309,375,83668,1,2,0:3:0:0:
260,301,83841,2,0,L|264:241,1,60,2|0,0:3|3:0,0:0:0:0:
488,233,84185,2,0,L|479:342,1,90,0|0,1:0|0:0,0:0:0:0:
505,221,84530,2,0,L|513:111,1,90,0|0,1:0|0:0,0:0:0:0:
481,323,84875,2,0,L|421:319,2,60,8|2|2,0:0|0:3|0:3,0:0:0:0:
481,323,85392,1,0,3:0:0:0:
263,241,85565,6,0,P|211:230|149:233,1,90,2|0,1:0|0:0,0:0:0:0:
127,325,85910,2,0,P|162:285|190:230,1,90,2|0,0:1|0:0,0:0:0:0:
123,76,86254,2,2,P|139:216|173:268,1,180,8|0,0:0|3:0,0:1:0:0:
263,241,86944,2,0,L|387:231,1,120,0|0,1:0|1:0,0:0:0:0:
477,322,87461,1,2,0:3:0:0:
477,322,87634,6,0,L|417:326,1,60,4|2,0:0|0:0,0:0:0:0:
393,328,88065,1,2,0:0:0:0:
369,329,88151,1,2,0:0:0:0:
345,330,88237,1,2,0:0:0:0:
320,330,88323,6,0,P|242:324|163:344,1,132.00000402832,14|2,1:0|0:0,0:0:0:0:
189,334,88754,1,0,0:0:0:0:
189,334,88841,1,2,0:0:0:0:
382,231,89013,2,0,L|463:236,1,66.0000020141602,8|2,0:0|0:3,0:0:0:0:
189,334,89358,2,0,P|181:288|186:249,1,66.0000020141602,2|0,0:3|3:0,0:0:0:0:
266,144,89703,5,0,1:0:0:0:
183,270,89875,1,2,0:3:0:0:
266,144,90047,1,0,1:0:0:0:
183,270,90220,1,2,0:3:0:0:
266,144,90392,2,0,P|268:79|253:5,1,132.00000402832,8|2,0:0|0:3,0:0:0:0:
255,13,90823,1,0,0:0:0:0:
255,13,90910,1,0,3:0:0:0:
187,112,91082,6,0,P|183:150|191:186,1,66.0000020141602,0|2,1:0|0:3,0:0:0:0:
324,356,91427,1,2,0:3:0:0:
217,383,91599,1,2,0:3:0:0:
191,278,91772,1,8,0:0:0:0:
297,252,91944,2,0,L|447:266,1,132.00000402832,2|0,0:3|3:0,0:0:0:0:
504,181,92461,6,0,L|438:174,1,66.0000020141602,0|2,1:0|0:3,0:0:0:0:
423,352,92806,2,0,L|488:358,1,66.0000020141602,0|2,1:0|0:3,0:0:0:0:
504,181,93151,1,8,0:0:0:0:
403,29,93323,1,0,1:2:0:0:
376,109,93496,1,2,0:3:0:0:
459,92,93668,1,0,3:0:0:0:
319,45,93841,6,0,P|228:40|166:44,1,132.00000402832,2|2,1:0|0:3,0:0:0:0:
187,41,94272,1,0,0:0:0:0:
187,41,94358,1,2,0:3:0:0:
376,109,94530,2,0,L|385:195,1,66.0000020141602,8|2,0:0|0:3,0:0:0:0:
139,227,94875,1,2,0:3:0:0:
139,227,94961,1,0,0:0:0:0:
139,227,95047,1,0,3:0:0:0:
172,146,95220,6,0,P|209:182|209:276,1,132.00000402832,0|0,1:0|1:0,0:0:0:0:
216,258,95737,1,2,0:3:0:0:
61,194,95910,2,0,P|63:259|106:308,1,132.00000402832,8|2,0:0|0:3,0:0:0:0:
105,307,96341,1,0,0:0:0:0:
105,307,96427,1,0,3:0:0:0:
172,146,96599,6,0,L|163:3,2,132.00000402832,0|2|8,1:0|0:3|0:0,0:0:0:0:
61,194,97461,1,2,0:3:0:0:
61,194,97806,1,0,3:0:0:0:
273,212,97979,2,0,P|305:212|344:216,1,66.0000020141602,0|2,1:0|0:3,0:0:0:0:
455,376,98323,2,0,P|423:376|383:371,1,66.0000020141602,0|2,1:0|0:3,0:0:0:0:
339,215,98668,1,8,0:0:0:0:
389,372,98841,1,0,1:0:0:0:
339,215,99013,1,2,0:3:0:0:
389,372,99185,1,0,3:0:0:0:
275,153,99358,6,0,P|316:129|398:149,1,132.00000402832,14|2,1:0|0:0,0:0:0:0:
339,215,99875,2,0,L|347:305,1,66.0000020141602,2|8,0:0|0:0,0:0:0:0:
455,376,100220,1,2,0:3:0:0:
455,376,100392,2,0,L|449:310,1,66.0000020141602,2|0,0:3|3:0,0:0:0:0:
240,311,100737,2,0,P|175:313|135:310,1,99.0000030212403,0|0,1:0|0:0,0:0:0:0:
24,296,101082,2,0,P|89:294|129:297,1,99.0000030212403,0|0,1:0|0:0,0:0:0:0:
240,311,101427,1,8,0:0:0:0:
339,215,101599,1,2,0:3:0:0:
240,311,101772,1,2,0:3:0:0:
339,215,101944,1,0,3:0:0:0:
339,215,102030,1,0,0:0:0:0:
339,215,102116,6,0,L|479:220,2,132.00000402832,0|2|8,1:0|0:3|0:0,0:0:0:0:
381,305,102979,2,0,L|446:307,1,66.0000020141602,2|2,0:3|0:3,0:0:0:0:
363,128,103323,1,0,3:0:0:0:
363,128,103496,2,0,L|297:125,1,66.0000020141602,0|2,1:0|0:3,0:0:0:0:
447,307,103841,2,0,L|512:309,1,66.0000020141602,0|2,1:0|0:3,0:0:0:0:
297,125,104185,1,8,0:0:0:0:
297,125,104358,2,0,P|263:163|266:250,1,132.00000402832,0|0,1:0|3:0,0:0:0:0:
110,335,104875,6,0,P|39:334|-1:317,1,99.0000030212403,2|0,1:0|0:0,0:0:0:0:
127,325,105220,2,0,P|198:326|238:343,1,99.0000030212403,2|0,0:3|0:0,0:0:0:0:
239,350,105565,1,8,0:0:0:0:
172,242,105737,2,0,L|179:166,2,66.0000020141602,2|2|0,0:3|0:3|3:0,0:0:0:0:
26,192,106254,6,0,L|14:324,2,132.00000402832,0|0|8,1:0|1:0|0:0,0:0:0:0:
26,192,107030,1,0,0:0:0:0:
26,192,107116,1,2,0:3:0:0:
0,70,107289,1,2,0:3:0:0:
26,192,107461,1,0,3:0:0:0:
0,70,107634,6,0,P|39:59|144:67,1,132.00000402832,0|2,1:0|0:3,0:0:0:0:
178,176,108151,2,0,L|172:242,1,66.0000020141602,2|8,0:0|0:0,0:0:0:0:
130,62,108496,1,2,0:3:0:0:
130,62,108841,1,0,3:0:0:0:
172,242,109013,6,0,L|165:307,1,66.0000020141602,0|2,1:0|0:3,0:0:0:0:
340,142,109358,2,0,L|346:76,1,66.0000020141602,0|2,1:0|0:3,0:0:0:0:
172,242,109703,1,8,0:0:0:0:
340,142,109875,1,0,1:0:0:0:
172,242,110047,1,6,0:0:0:0:
340,142,110220,1,0,3:0:0:0:
256,192,110392,6,0,L|272:369,1,178.500003404617,14|0,1:0|0:0,0:0:0:0:
176,292,111082,2,0,L|171:241,1,51.0000009727478,8|2,0:0|0:3,0:0:0:0:
353,241,111427,5,6,0:0:0:0:
497,256,111599,1,0,3:0:0:0:
353,241,111772,2,0,L|404:246,1,51.0000009727478,0|2,1:0|0:3,0:0:0:0:
500,338,112116,2,0,L|449:333,1,51.0000009727478,0|2,1:0|0:3,0:0:0:0:
356,159,112461,1,8,0:0:0:0:
356,159,112806,5,6,0:0:0:0:
250,124,112979,1,0,3:0:0:0:
357,78,113151,1,0,1:0:0:0:
237,46,113323,5,4,0:0:0:0:
237,46,113496,2,0,L|163:54,1,51.0000009727478,2|2,0:3|0:3,0:0:0:0:
357,78,113841,2,0,L|431:70,1,51.0000009727478,8|2,0:0|0:3,0:0:0:0:
186,51,114185,5,4,0:0:0:0:
159,195,114358,1,0,3:0:0:0:
186,51,114530,2,0,L|82:39,2,102.000001945496,0|0|8,1:0|1:0|0:0,0:0:0:0:
159,195,115392,1,0,1:0:0:0:
113,127,115565,5,6,0:0:0:0:
113,127,115737,1,0,3:0:0:0:
159,195,115910,2,0,P|163:246|158:297,1,102.000001945496,2|2,1:0|0:3,0:0:0:0:
113,127,116427,1,2,0:3:0:0:
113,127,116599,2,0,P|110:76|111:55,1,51.0000009727478,8|2,0:0|0:3,0:0:0:0:
158,297,116944,6,0,L|94:306,1,51.0000009727478,6|0,0:0|3:0,0:0:0:0:
255,283,117289,2,0,L|319:274,1,51.0000009727478,0|2,1:0|0:3,0:0:0:0:
107,304,117634,2,0,L|43:313,1,51.0000009727478,0|2,1:0|0:3,0:0:0:0:
306,276,117979,2,0,P|347:280|401:289,1,76.5000014591217,8|0,0:0|0:0,0:0:0:0:
411,301,118323,5,4,0:0:0:0:
434,157,118496,1,0,3:0:0:0:
411,301,118668,1,0,1:0:0:0:
434,157,118841,6,0,P|428:114|424:44,1,102.000001945496,6|2,0:0|0:3,0:0:0:0:
512,0,119358,1,8,0:0:0:0:
512,0,119530,1,2,0:3:0:0:
424,55,119703,6,0,L|364:51,2,51.0000009727478,6|0|0,0:0|3:0|1:0,0:0:0:0:
285,3,120220,2,0,L|235:0,2,51.0000009727478,2|0|2,0:3|1:0|0:3,0:0:0:0:
285,3,120737,1,8,0:0:0:0:
424,55,120910,2,0,P|438:106|438:176,1,102.000001945496,0|0,1:0|3:0,0:0:0:0:
276,308,121427,6,0,L|156:321,1,120,14|0,1:0|0:0,0:0:0:0:
157,321,123496,1,8,0:0:0:0:
81,282,123668,1,2,0:3:0:0:
147,227,123841,1,2,0:3:0:0:
223,266,124013,1,0,3:0:0:0:
81,282,124185,6,0,P|61:228|85:165,1,120,0|2,1:0|0:3,0:0:0:0:
223,266,124703,1,2,0:3:0:0:
80,171,124875,2,0,P|99:113|45:9,1,180,8|0,0:0|3:0,0:0:0:0:
215,116,125565,2,0,L|357:110,2,120,0|0|8,1:0|1:0|0:0,0:0:0:0:
405,171,126427,2,0,L|464:168,1,60,0|2,1:0|0:3,0:0:0:0:
215,116,126772,1,0,3:0:0:0:
215,116,126944,6,0,P|209:159|215:251,1,120,0|2,1:0|0:3,0:0:0:0:
284,325,127461,1,2,0:3:0:0:
212,235,127634,2,0,P|209:192|211:159,1,60,8|2,0:0|0:3,0:0:0:0:
284,325,127979,2,0,P|289:357|292:394,1,60,2|0,0:3|3:0,0:0:0:0:
420,275,128323,6,0,L|513:280,1,90,0|0,1:0|0:0,0:0:0:0:
409,254,128668,2,0,L|319:249,1,90,0|0,1:0|0:0,0:0:0:0:
510,280,129013,2,0,P|512:226|497:154,1,120,8|2,0:0|0:3,0:0:0:0:
499,161,129444,1,0,0:0:0:0:
499,161,129530,1,0,3:0:0:0:
319,249,129703,6,0,P|313:285|319:371,2,120,0|2|8,1:0|0:3|0:0,0:0:0:0:
411,132,130565,2,0,L|405:63,2,60,2|2|0,0:3|0:0|3:0,0:0:0:0:
472,21,131082,2,0,P|423:-9|365:0,1,120,0|0,1:0|1:0,0:0:0:0:
363,0,131513,1,0,0:0:0:0:
363,0,131599,1,2,0:3:0:0:
313,189,131772,2,0,L|319:249,1,60,8|0,0:0|1:0,0:0:0:0:
405,72,132116,2,0,L|411:132,1,60,2|0,0:3|3:0,0:0:0:0:
200,159,132461,6,0,L|187:29,2,120,6|2|8,1:0|0:0|0:0,0:0:0:0:
213,285,133323,1,2,0:3:0:0:
87,298,133496,1,2,0:3:0:0:
74,172,133668,1,0,3:0:0:0:
213,285,133841,6,0,P|212:319|206:349,1,60,0|2,1:0|0:3,0:0:0:0:
200,159,134185,2,0,P|200:124|206:94,1,60,0|2,1:0|0:3,0:0:0:0:
208,344,134530,1,8,0:0:0:0:
87,298,134703,1,2,0:3:0:0:
208,344,134875,1,2,0:3:0:0:
87,298,135047,1,0,3:0:0:0:
298,325,135220,6,0,P|364:323|438:327,1,120,0|2,1:0|0:3,0:0:0:0:
417,325,135737,1,2,0:3:0:0:
208,344,135910,1,8,0:0:0:0:
208,344,136082,2,0,P|156:347|68:342,1,120,2|0,0:3|3:0,0:0:0:0:
298,325,136599,2,0,L|302:247,1,60,0|2,1:0|0:3,0:0:0:0:
503,325,136944,2,0,L|499:403,1,60,0|2,1:0|0:3,0:0:0:0:
301,265,137289,1,8,0:0:0:0:
301,265,137461,2,0,L|293:119,1,120,0|0,1:0|3:0,0:0:0:0:
287,0,137979,6,0,L|291:78,1,60,0|2,1:0|0:2,0:0:0:0:
301,265,138323,2,0,L|296:354,1,90,2|0,0:3|3:0,0:0:0:0:
205,348,138668,2,0,L|127:344,1,60,8|2,0:0|0:3,0:0:0:0:
89,203,139013,1,2,0:3:0:0:
145,344,139185,1,0,3:0:0:0:
89,203,139358,2,0,P|98:132|115:70,2,120,0|0|8,1:0|1:0|0:0,0:0:0:0:
187,47,140220,1,2,0:3:0:0:
110,9,140392,1,2,0:3:0:0:
33,47,140565,1,0,3:0:0:0:
89,203,140737,6,0,L|99:282,1,60,0|2,1:0|0:3,0:0:0:0:
0,384,141082,2,0,P|7:334|31:298,1,90,2|0,0:3|0:0,0:0:0:0:
96,262,141427,2,0,L|175:272,1,60,8|2,0:0|0:3,0:0:0:0:
155,269,141944,1,0,3:0:0:0:
382,253,142116,6,0,P|377:298|380:343,1,90,0|0,1:0|0:0,0:0:0:0:
399,241,142461,2,0,P|404:196|402:152,1,90,0|0,1:0|0:0,0:0:0:0:
389,126,142806,1,8,0:0:0:0:
392,368,142979,2,0,L|512:384,1,120,0|0,1:0|3:0,0:0:0:0:
389,126,143496,1,6,1:0:0:0:
389,126,144185,5,8,0:0:0:0:
288,91,144358,1,2,0:3:0:0:
246,189,144530,1,2,0:3:0:0:
347,224,144703,1,0,3:0:0:0:
288,91,144875,2,0,P|232:81|154:83,1,120,0|0,1:0|1:0,0:0:0:0:
347,224,145392,1,2,0:3:0:0:
347,224,145565,2,0,P|406:224|465:214,1,120,8|2,0:0|0:3,0:0:0:0:
465,214,145996,1,0,0:0:0:0:
465,214,146082,1,0,3:0:0:0:
246,189,146254,6,0,L|236:258,1,60,0|2,1:0|0:3,0:0:0:0:
169,81,146599,2,0,L|159:150,1,60,2|2,0:3|0:3,0:0:0:0:
160,140,146944,1,8,0:0:0:0:
237,248,147116,1,2,0:3:0:0:
237,248,147461,1,0,3:0:0:0:
314,356,147634,2,0,L|443:337,2,120,0|0|8,1:0|1:0|0:0,0:0:0:0:
126,316,148496,2,0,L|-3:334,1,120,0|0,1:0|3:0,0:0:0:0:
205,354,149013,6,0,P|211:298|183:249,1,90,2|0,1:0|0:0,0:0:0:0:
178,248,149358,1,2,0:3:0:0:
314,356,149530,1,2,0:3:0:0:
178,248,149703,2,0,L|50:243,1,120,8|2,0:0|0:3,0:0:0:0:
58,243,150220,1,0,3:0:0:0:
139,56,150392,6,0,P|190:56|238:64,1,90,0|0,1:0|0:0,0:0:0:0:
128,68,150737,2,0,P|77:68|29:60,1,90,0|0,1:0|0:0,0:0:0:0:
228,61,151082,2,0,L|232:180,1,120,8|2,0:0|0:3,0:0:0:0:
232,180,151513,1,0,0:0:0:0:
232,180,151599,1,0,3:0:0:0:
357,360,151772,6,0,L|353:241,2,120,0|2|8,1:0|0:3|0:0,0:0:0:0:
357,360,152547,1,0,3:0:0:0:
357,360,152634,1,2,0:3:0:0:
349,152,152806,2,0,L|347:92,1,60,2|0,0:2|3:0,0:0:0:0:
353,240,153151,2,0,P|262:242|224:248,1,120,0|0,1:0|1:0,0:0:0:0:
233,246,153668,1,2,0:3:0:0:
25,384,154013,5,6,0:0:0:0:
0,309,154185,1,2,0:0:0:0:
25,384,154358,1,2,0:0:0:0:
0,309,154530,6,0,L|8:189,1,120,14|0,1:0|0:0,0:0:0:0:
8,189,155220,2,0,L|75:184,1,60,8|2,0:0|0:3,0:0:0:0:
160,283,155565,2,0,L|93:288,1,60,2|0,0:3|3:0,0:0:0:0:
100,287,155910,1,0,1:0:0:0:
198,120,156082,1,2,0:3:0:0:
198,120,156254,2,0,P|241:117|338:138,1,120,0|8,1:0|0:0,0:0:0:0:
316,129,156685,1,0,0:0:0:0:
316,129,156772,1,2,0:3:0:0:
220,278,156944,2,0,L|161:283,1,60,2|0,0:3|3:0,0:0:0:0:
358,271,157289,6,0,P|376:330|382:393,1,120,0|2,1:0|0:3,0:0:0:0:
450,219,157806,1,2,0:3:0:0:
450,219,157979,2,0,P|456:159|504:48,1,180,8|0,0:0|3:0,0:0:0:0:
358,271,158668,2,0,P|367:297|375:329,1,60,0|2,1:0|0:3,0:0:0:0:
450,219,159013,2,0,P|452:187|457:158,1,60,0|2,1:0|0:3,0:0:0:0:
456,159,159272,1,0,0:0:0:0:
456,159,159358,1,8,0:0:0:0:
375,329,159530,2,0,L|241:339,1,120,0|0,1:0|3:0,0:0:0:0:
94,240,160047,6,0,L|228:230,1,120,2|2,1:0|0:3,0:0:0:0:
375,329,160565,2,0,L|308:334,2,60,2|8|2,0:3|0:0|0:3,0:0:0:0:
213,231,161082,2,0,L|153:235,1,60,2|0,0:3|3:0,0:0:0:0:
328,224,161427,2,0,P|333:179|325:99,1,120,0|0,1:0|1:0,0:0:0:0:
326,104,161858,1,0,0:0:0:0:
326,104,161944,1,2,0:3:0:0:
235,57,162116,1,8,0:0:0:0:
402,32,162289,1,2,0:3:0:0:
235,57,162461,1,2,0:3:0:0:
402,32,162634,1,0,3:0:0:0:
235,57,162806,6,0,P|161:63|94:63,1,120,0|2,1:0|0:3,0:0:0:0:
115,63,163323,1,2,0:3:0:0:
0,0,163496,1,8,0:0:0:0:
37,75,163668,1,2,0:3:0:0:
37,75,164013,1,0,3:0:0:0:
155,245,164185,6,0,P|215:239|237:240,1,60,0|2,1:0|0:3,0:0:0:0:
120,153,164530,2,0,P|60:159|38:158,1,60,0|2,1:0|0:3,0:0:0:0:
214,239,164875,1,8,0:0:0:0:
60,158,165047,1,0,1:0:0:0:
214,239,165220,1,2,0:3:0:0:
60,158,165392,1,0,3:0:0:0:
214,239,165565,6,0,L|300:250,1,60,6|0,1:0|0:0,0:0:0:0:
347,384,165910,2,0,L|261:373,1,60,2|0,0:0|0:0,0:0:0:0:
308,160,166254,2,0,P|350:194|364:266,1,120,8|2,0:0|0:3,0:0:0:0:
365,255,166685,1,0,0:0:0:0:
365,255,166772,1,0,3:0:0:0:
512,163,166944,2,0,P|470:129|456:57,1,120,0|0,1:0|1:0,0:0:0:0:
454,67,167375,1,0,0:0:0:0:
454,67,167461,1,2,0:3:0:0:
308,160,167634,2,0,L|186:144,1,120,8|2,0:0|0:3,0:0:0:0:
115,182,168151,1,0,3:0:0:0:
381,122,168323,6,0,L|373:61,1,60,0|2,1:0|0:3,0:0:0:0:
181,84,168668,2,0,L|189:144,1,60,2|2,0:3|0:3,0:0:0:0:
116,360,169013,2,0,P|104:270|114:181,1,180,8|0,0:0|3:0,0:0:0:0:
181,84,169703,1,0,1:0:0:0:
278,151,169875,1,2,0:3:0:0:
211,248,170047,1,0,1:0:0:0:
114,181,170220,1,2,0:3:0:0:
278,151,170392,1,8,0:0:0:0:
278,151,170479,1,0,0:0:0:0:
278,151,170565,2,0,P|322:154|345:158,2,60,0|2|0,1:0|0:3|3:0,0:0:0:0:
453,180,171082,6,0,L|466:314,1,120,2|2,1:0|0:3,0:0:0:0:
337,156,171599,1,2,0:3:0:0:
337,156,171772,2,0,L|324:22,1,120,8|2,0:0|0:3,0:0:0:0:
453,180,172289,1,0,3:0:0:0:
453,180,172461,2,0,L|459:247,1,60,0|2,1:0|0:3,0:0:0:0:
332,96,172806,2,0,L|325:36,1,60,0|2,1:0|0:3,0:0:0:0:
458,240,173151,2,0,P|450:292|447:363,1,120,8|2,0:0|0:3,0:0:0:0:
446,359,173668,1,0,3:0:0:0:
313,299,173841,6,0,P|265:305|214:303,1,90,0|0,1:0|0:0,0:0:0:0:
126,295,174185,2,0,P|174:289|225:291,1,90,2|0,0:3|0:0,0:0:0:0:
313,299,174530,2,0,L|319:380,1,60,8|2,0:0|0:3,0:0:0:0:
317,358,175047,1,0,3:0:0:0:
230,184,175220,5,0,1:0:0:0:
269,71,175392,1,2,0:3:0:0:
389,98,175565,1,0,1:0:0:0:
351,218,175737,1,2,0:3:0:0:
230,184,175910,1,8,0:0:0:0:
389,98,176082,1,0,1:0:0:0:
230,184,176254,1,6,0:2:0:0:
389,98,176427,1,0,3:0:0:0:
230,184,176599,6,0,P|180:180|120:179,1,105,6|0,1:0|0:0,0:0:0:0:
96,184,177289,1,8,0:0:0:0:
131,272,177461,1,2,0:3:0:0:
195,96,177634,2,0,P|190:52|182:26,1,60,2|0,0:3|3:0,0:0:0:0:
230,184,177979,6,0,L|358:180,1,120,0|0,1:0|1:0,0:0:0:0:
131,272,178496,1,2,0:3:0:0:
131,272,178668,2,0,L|11:275,1,120,8|2,0:0|0:3,0:0:0:0:
11,274,179099,1,0,0:0:0:0:
11,274,179185,1,0,3:0:0:0:
185,358,179358,6,0,P|222:317|227:243,1,120,0|2,1:0|0:3,0:0:0:0:
229,254,179875,1,2,0:3:0:0:
96,184,180047,1,8,0:0:0:0:
96,184,180565,1,0,3:0:0:0:
275,122,180737,2,0,L|339:124,1,60,0|2,1:0|0:3,0:0:0:0:
185,36,181082,2,0,L|121:34,1,60,0|2,1:0|0:3,0:0:0:0:
334,123,181427,1,8,0:0:0:0:
334,123,181599,2,0,P|345:92|344:1,1,120,0|0,1:0|3:0,0:0:0:0:
452,125,182116,6,0,L|458:199,1,60,2|0,1:0|0:0,0:0:0:0:
334,123,182461,2,0,L|340:197,1,60,2|2,0:3|0:3,0:0:0:0:
225,300,182806,2,0,P|220:250|221:167,1,120,8|2,0:0|0:3,0:0:0:0:
220,180,183237,1,0,0:0:0:0:
220,180,183323,1,0,3:0:0:0:
88,265,183496,6,0,P|88:324|83:384,2,120,0|0|8,1:0|1:0|0:0,0:0:0:0:
220,180,184358,1,2,0:3:0:0:
88,265,184530,1,2,0:3:0:0:
220,180,184703,1,0,3:0:0:0:
18,227,184875,6,0,P|47:198|136:198,1,120,0|2,1:0|0:3,0:0:0:0:
122,191,185306,1,0,0:0:0:0:
122,191,185392,1,2,0:3:0:0:
348,252,185565,2,0,P|282:284|181:264,1,180,8|0,0:0|3:0,0:0:0:0:
392,179,186254,2,0,L|512:192,1,120,0|0,1:0|1:0,0:0:0:0:
512,192,187289,5,2,0:0:0:0:
482,188,187375,1,2,0:0:0:0:
452,185,187461,1,2,0:0:0:0:
422,182,187547,1,2,0:0:0:0:
392,179,187634,6,0,L|248:194,1,132.00000402832,14|2,1:0|0:0,0:0:0:0:
260,192,188065,1,0,0:0:0:0:
260,192,188151,1,2,0:0:0:0:
65,198,188323,2,0,L|0:192,1,66.0000020141602,8|2,0:0|0:3,0:0:0:0:
260,192,188668,2,0,P|276:231|284:266,1,66.0000020141602,2|0,0:3|3:0,0:0:0:0:
222,384,189013,5,0,1:0:0:0:
281,254,189185,1,2,0:3:0:0:
222,384,189358,1,0,1:0:0:0:
281,254,189530,1,2,0:3:0:0:
222,384,189703,2,0,P|153:386|86:380,1,132.00000402832,8|2,0:0|0:3,0:0:0:0:
90,380,190134,1,0,0:0:0:0:
90,380,190220,1,0,3:0:0:0:
0,192,190392,6,0,P|51:194|72:194,1,66.0000020141602,0|2,1:0|0:3,0:0:0:0:
293,93,190737,1,2,0:3:0:0:
374,177,190910,1,2,0:3:0:0:
289,261,191082,1,8,0:0:0:0:
206,174,191254,2,0,L|198:37,1,132.00000402832,2|0,0:3|3:0,0:0:0:0:
374,177,191772,6,0,L|377:242,1,66.0000020141602,0|2,1:0|0:3,0:0:0:0:
202,108,192116,2,0,L|198:42,1,66.0000020141602,0|2,1:0|0:3,0:0:0:0:
374,177,192461,1,8,0:0:0:0:
222,340,192634,1,0,1:0:0:0:
186,240,192806,1,2,0:3:0:0:
289,260,192979,1,0,3:0:0:0:
118,320,193151,6,0,P|53:316|-12:319,2,132.00000402832,2|2|8,1:0|0:3|0:0,0:0:0:0:
118,320,193927,1,0,0:0:0:0:
118,320,194013,1,2,0:3:0:0:
289,260,194185,2,0,P|354:264|384:263,1,66.0000020141602,2|0,0:3|3:0,0:0:0:0:
512,192,194530,6,0,L|501:55,1,132.00000402832,0|0,1:0|1:0,0:0:0:0:
501,60,194961,1,0,0:0:0:0:
501,60,195047,1,2,0:3:0:0:
441,245,195220,2,0,L|446:310,1,66.0000020141602,8|2,0:0|0:3,0:0:0:0:
372,103,195565,2,0,L|366:37,1,66.0000020141602,2|0,0:3|3:0,0:0:0:0:
446,310,195910,6,0,P|388:322|297:318,1,132.00000402832,0|2,1:0|0:3,0:0:0:0:
245,223,196427,2,0,L|250:157,2,66.0000020141602,2|8|2,0:3|0:0|0:3,0:0:0:0:
245,223,197116,1,0,3:0:0:0:
150,371,197289,2,0,L|84:367,1,66.0000020141602,0|2,1:0|0:3,0:0:0:0:
0,192,197634,2,0,L|65:195,1,66.0000020141602,0|2,1:0|0:3,0:0:0:0:
84,367,197979,1,8,0:0:0:0:
65,195,198151,1,0,1:0:0:0:
84,367,198323,1,2,0:3:0:0:
65,195,198496,1,0,3:0:0:0:
84,367,198668,6,0,P|145:376|218:374,1,132.00000402832,14|2,1:0|0:0,0:0:0:0:
215,374,199099,1,0,0:0:0:0:
215,374,199185,1,2,0:0:0:0:
51,282,199358,2,0,P|17:302|-2:328,1,66.0000020141602,8|2,0:0|0:3,0:0:0:0:
302,333,199703,2,0,P|280:307|251:292,1,66.0000020141602,2|0,0:3|3:0,0:0:0:0:
381,384,200047,6,0,L|512:372,1,132.00000402832,0|0,1:0|1:0,0:0:0:0:
252,292,200565,1,2,0:3:0:0:
252,292,200737,2,0,L|186:297,1,66.0000020141602,8|2,0:0|0:3,0:0:0:0:
312,184,201082,2,0,L|377:178,1,66.0000020141602,2|0,0:3|3:0,0:0:0:0:
187,297,201427,6,0,P|175:250|174:156,1,132.00000402832,0|2,1:0|0:3,0:0:0:0:
221,0,201944,1,2,0:3:0:0:
221,0,202116,2,0,P|227:42|230:81,1,66.0000020141602,8|2,0:0|0:3,0:0:0:0:
187,297,202461,2,0,P|177:259|172:219,1,66.0000020141602,2|0,0:0|3:0,0:0:0:0:
344,98,202806,2,0,L|480:85,1,132.00000402832,0|0,1:0|1:0,0:0:0:0:
321,186,203323,2,0,L|256:192,1,66.0000020141602,2|8,0:3|0:0,0:0:0:0:
380,12,203668,2,0,L|512:0,1,132.00000402832,0|0,1:0|3:0,0:0:0:0:
344,98,204185,6,0,P|295:55|290:-8,2,132.00000402832,2|2|8,1:0|0:3|0:0,0:0:0:0:
344,98,204961,1,0,0:0:0:0:
344,98,205047,1,2,0:3:0:0:
256,192,205220,2,0,P|223:187|191:186,1,66.0000020141602,2|0,0:3|3:0,0:0:0:0:
46,247,205565,1,0,1:0:0:0:
81,384,205737,1,2,0:3:0:0:
46,247,205910,1,0,1:0:0:0:
81,384,206082,1,2,0:3:0:0:
103,176,206254,2,0,P|103:130|83:34,1,132.00000402832,8|2,0:0|0:3,0:0:0:0:
86,45,206772,1,0,3:0:0:0:
256,192,206944,6,0,L|246:337,2,132.00000402832,0|2|8,1:0|0:3|0:0,0:0:0:0:
189,384,207806,1,2,0:3:0:0:
189,384,208151,1,0,3:0:0:0:
324,279,208323,2,0,P|370:279|398:282,1,66.0000020141602,0|2,1:0|0:3,0:0:0:0:
512,192,208668,2,0,P|466:192|438:189,1,66.0000020141602,0|2,1:0|0:3,0:0:0:0:
324,279,209013,1,8,0:0:0:0:
512,192,209185,1,0,1:0:0:0:
324,279,209358,1,6,0:0:0:0:
512,192,209530,1,0,3:0:0:0:
256,192,209703,6,0,L|77:207,1,178.500003404617,14|0,1:0|0:0,0:0:0:0:
168,119,210392,2,0,L|237:113,1,51.0000009727478,8|2,0:0|0:3,0:0:0:0:
230,276,210737,5,6,0:0:0:0:
84,287,210910,1,0,3:0:0:0:
230,276,211082,2,0,L|179:280,1,51.0000009727478,0|2,1:0|0:3,0:0:0:0:
308,349,211427,2,0,L|358:344,1,51.0000009727478,0|2,1:0|0:3,0:0:0:0:
256,192,211772,1,8,0:0:0:0:
256,192,212116,5,6,0:0:0:0:
294,97,212289,1,0,3:0:0:0:
344,231,212461,1,0,1:0:0:0:
388,72,212634,5,4,0:0:0:0:
388,72,212806,2,0,L|383:15,1,51.0000009727478,2|2,0:3|0:3,0:0:0:0:
344,231,213151,2,0,L|349:288,1,51.0000009727478,8|2,0:0|0:3,0:0:0:0:
294,97,213496,5,6,0:0:0:0:
126,145,213668,1,0,3:0:0:0:
294,97,213841,2,0,L|191:88,2,102.000001945496,0|0|8,1:0|1:0|0:0,0:0:0:0:
126,145,214703,1,0,1:0:0:0:
192,88,214875,5,6,0:0:0:0:
192,88,215047,1,0,3:0:0:0:
126,145,215220,2,0,P|117:184|113:264,1,102.000001945496,2|2,1:0|0:3,0:0:0:0:
25,378,215737,1,2,0:3:0:0:
25,378,215910,2,0,P|24:335|19:312,1,51.0000009727478,8|2,0:0|0:3,0:0:0:0:
126,145,216254,5,6,0:0:0:0:
112,246,216427,1,0,3:0:0:0:
126,145,216599,2,0,L|122:75,1,51.0000009727478,0|2,1:0|0:3,0:0:0:0:
23,278,216944,2,0,L|27:348,1,51.0000009727478,0|2,1:0|0:3,0:0:0:0:
123,94,217289,2,0,P|160:83|205:77,1,76.5000014591217,8|0,0:0|0:0,0:0:0:0:
225,83,217634,5,6,0:0:0:0:
339,122,217806,1,0,3:0:0:0:
300,236,217979,1,0,1:0:0:0:
186,197,218151,5,6,0:0:0:0:
339,122,218323,2,0,P|417:132|457:145,1,102.000001945496,2|8,0:3|0:0,0:0:0:0:
439,138,218841,1,2,0:3:0:0:
300,236,219013,6,0,L|294:301,1,51.0000009727478,6|0,0:0|3:0,0:0:0:0:
401,384,219358,2,0,L|405:333,1,51.0000009727478,0|2,1:0|0:3,0:0:0:0:
185,316,219703,2,0,L|180:366,1,51.0000009727478,0|2,1:0|0:3,0:0:0:0:
179,366,220047,1,8,0:0:0:0:
300,236,220220,1,0,1:0:0:0:
300,236,220565,1,0,3:0:0:0:
183,370,220737,6,0,L|53:381,1,120,14|0,1:0|0:0,0:0:0:0:
63,380,221427,2,0,L|57:315,1,60,8|2,0:0|0:3,0:0:0:0:
216,237,221772,2,0,L|221:296,1,60,2|0,0:3|3:0,0:0:0:0:
42,203,222116,2,0,P|48:139|74:73,1,120,0|0,1:0|1:0,0:0:0:0:
66,86,222547,1,0,0:0:0:0:
66,86,222634,1,2,0:3:0:0:
210,177,222806,2,0,L|215:236,1,60,8|2,0:0|0:3,0:0:0:0:
239,101,223151,2,0,L|234:42,1,60,2|0,0:3|3:0,0:0:0:0:
190,311,223496,6,0,P|243:326|317:329,1,120,0|2,1:0|0:3,0:0:0:0:
307,329,223927,1,0,0:0:0:0:
307,329,224013,1,2,0:3:0:0:
423,239,224185,1,8,0:0:0:0:
423,239,224703,1,0,3:0:0:0:
311,333,224875,2,0,P|267:333|240:328,1,60,0|2,1:0|0:3,0:0:0:0:
423,239,225220,2,0,P|467:239|494:244,1,60,0|2,1:0|0:3,0:0:0:0:
308,192,225565,1,8,0:0:0:0:
308,192,225737,2,0,L|292:60,1,120,0|0,1:0|3:0,0:0:0:0:
175,191,226254,6,0,L|190:311,2,120,2|2|8,1:0|0:3|0:0,0:0:0:0:
71,95,227116,1,2,0:3:0:0:
71,95,227289,2,0,L|63:35,1,60,2|0,0:3|3:0,0:0:0:0:
60,255,227634,1,0,1:0:0:0:
175,191,227806,1,2,0:3:0:0:
60,255,227979,1,0,1:0:0:0:
175,191,228151,1,2,0:3:0:0:
0,192,228323,2,0,P|-24:236|-7:311,1,120,8|2,0:0|0:3,0:0:0:0:
71,95,228841,1,0,3:0:0:0:
71,95,229013,6,0,L|204:83,2,120,0|2|8,1:0|0:3|0:0,0:0:0:0:
271,139,229875,1,2,0:3:0:0:
271,139,230220,1,0,3:0:0:0:
355,10,230392,2,0,L|474:0,2,120,0|0|8,1:0|1:0|0:0,0:0:0:0:
270,138,231254,1,0,1:0:0:0:
355,10,231427,1,2,0:3:0:0:
270,138,231599,2,0,P|267:168|270:198,1,60,0|6,3:0|1:0,0:0:0:0:
270,198,232461,5,8,0:0:0:0:
377,230,232634,1,2,0:3:0:0:
338,334,232806,1,2,0:3:0:0:
231,302,232979,1,0,3:0:0:0:
377,230,233151,2,0,L|496:240,2,120,0|0|8,1:0|1:0|0:0,0:0:0:0:
377,230,233927,1,0,0:0:0:0:
377,230,234013,1,2,0:3:0:0:
231,302,234185,2,0,L|171:297,1,60,2|0,0:3|3:0,0:0:0:0:
377,229,234530,6,0,P|385:201|388:171,1,60,0|2,1:0|0:3,0:0:0:0:
230,302,234875,2,0,P|234:331|242:360,1,60,2|2,0:3|0:3,0:0:0:0:
389,170,235220,1,8,0:0:0:0:
389,170,235392,2,0,L|379:51,1,120,2|0,0:3|3:0,0:0:0:0:
378,50,235823,1,0,0:0:0:0:
378,50,235910,1,0,1:0:0:0:
270,18,236082,1,2,0:3:0:0:
171,90,236254,1,0,1:0:0:0:
280,123,236427,1,2,0:3:0:0:
386,58,236599,5,8,0:0:0:0:
270,18,236772,1,0,1:0:0:0:
171,90,236944,1,2,0:3:0:0:
280,123,237116,1,0,3:0:0:0:
172,8,237289,6,0,P|114:30|90:91,1,120,2|2,1:0|0:3,0:0:0:0:
98,180,237806,2,0,L|104:255,1,60,2|8,0:3|0:0,0:0:0:0:
42,352,238151,1,2,0:3:0:0:
102,239,238323,1,2,0:3:0:0:
42,352,238496,1,0,3:0:0:0:
193,266,238668,2,0,L|317:275,2,120,0|0|8,1:0|1:0|0:0,0:0:0:0:
375,346,239530,5,2,0:1:0:0:
375,346,239616,1,0,0:0:0:0:
375,346,239703,2,0,P|404:307|376:209,1,132.00000402832,2|4,0:3|1:2,0:0:0:0:
193,266,240220,2,0,L|258:270,2,66.0000020141602,2|2|2,0:3|0:3|0:3,0:0:0:0:
0,192,240737,1,8,0:0:0:0:
0,192,241254,1,0,3:0:0:0:
220,149,241427,6,0,P|227:108|222:25,1,99.0000030212403,4|0,1:2|0:0,0:0:0:0:
199,167,241772,2,0,P|192:208|197:291,1,99.0000030212403,0|0,1:0|0:0,0:0:0:0:
210,26,242116,2,0,L|145:22,1,66.0000020141602,12|0,0:2|1:0,0:0:0:0:
323,135,242461,2,2,L|388:139,1,66.0000020141602,2|0,0:0|3:0,0:1:0:0:
144,22,242806,6,2,P|77:25|58:27,1,79.1999997583008,4|0,0:0|0:0,0:1:0:0:
