osu file format v14

[General]
AudioFilename: dio.mp3
AudioLeadIn: 0
PreviewTime: 225188
Countdown: 0
SampleSet: Normal
StackLeniency: 0.7
Mode: 3
LetterboxInBreaks: 0
SpecialStyle: 0
WidescreenStoryboard: 0

[Editor]
DistanceSpacing: 0.8
BeatDivisor: 4
GridSize: 32
TimelineZoom: 1.900005

[Metadata]
Title:Peter on crack
TitleUnicode:Peter on crack
Artist:FELE
ArtistUnicode:FELE
Creator:Jole
Version:this isn't rocket science
Source:
Tags:family guy stamina jumpstream split trills dark psytrance hi-tech MWC 4K 2017 mwc17 osu!mania 4K World Cup 2017 marathon electronic instrumental
BeatmapID:1332080
BeatmapSetID:631020

[Difficulty]
HPDrainRate:8
CircleSize:4
OverallDifficulty:8
ApproachRate:5
SliderMultiplier:1.4
SliderTickRate:1

[Events]
//Background and Video events
0,0,"petercrack3.jpg",0,0
//Break Periods
//Storyboard Layer 0 (Background)
//Storyboard Layer 1 (Fail)
//Storyboard Layer 2 (Pass)
//Storyboard Layer 3 (Foreground)
//Storyboard Layer 4 (Overlay)
//Storyboard Sound Samples

[TimingPoints]
63,280.373832,4,1,1,20,1,0
121745,272.727273,4,1,1,20,1,0
121745,-102.803738214953,4,1,1,20,0,0
121882,300,4,1,1,20,1,0
121882,-93.4579439252336,4,1,1,20,0,0
122042,333.333333,4,1,1,20,1,0
122042,-84.1121496168224,4,1,1,20,0,0
122215,375,4,1,1,20,1,0
122215,-74.7663551401869,4,1,1,20,0,0
122406,422.535211267606,4,1,1,20,1,0
122406,-66.3551401869158,4,1,1,20,0,0
124519,419.58041958042,4,1,1,20,1,0
124519,-66.822429906542,4,1,1,20,0,0
125778,416.666666666667,4,1,1,20,1,0
125778,-67.2897196261682,4,1,1,20,0,0
127444,413.793103448276,4,1,1,20,1,0
127444,-67.7570093457944,4,1,1,20,0,0
129100,410.958904109589,4,1,1,20,1,0
129100,-68.2242990654206,4,1,1,20,0,0
130743,408.163265306122,4,1,1,20,1,0
130743,-68.6915887850468,4,1,1,20,0,0
132376,405.405405405405,4,1,1,20,1,0
132376,-69.158878504673,4,1,1,20,0,0
133998,402.684563758389,4,1,1,20,1,0
133998,-69.6261682242991,4,1,1,20,0,0
134819,355.029585798817,4,1,1,20,1,0
134819,-78.9719626168223,4,1,1,20,0,0
135174,295.566502463054,4,1,1,20,1,0
135174,-94.8598130841122,4,1,1,20,0,0
135469,280.373832,4,1,1,20,1,0
135469,-99.99999992,4,1,1,20,0,0
412478,588.235294117647,4,1,1,20,1,0
412478,-47.6635514018692,4,1,1,20,0,0
412772,701.754385964912,4,1,1,20,1,0
412772,-39.9532710280374,4,1,1,20,0,0
413123,888.888888888889,4,1,1,20,1,0
413123,-31.5420560747664,4,1,1,20,0,0
413568,1078.65168539326,4,1,1,20,1,0
413568,-25.9929906542056,4,1,1,20,0,0
413837,1678.32167832168,4,1,1,20,1,0
413837,-16.7056074766355,4,1,1,20,0,0
413942,1299.05277401894,4,1,1,20,1,0
413942,-21.5829439252337,4,1,1,20,0,0
414025,280.373831775701,4,1,1,20,1,0
414025,-100,4,1,1,20,0,0
485800,311.526479750779,4,1,1,17,1,0
485800,-89.9999999999999,4,1,1,17,0,0
490785,350.467289719626,4,1,1,15,1,0
490785,-80,4,1,1,15,0,0
496042,346.420323325635,4,1,1,15,1,0
496042,-80.9345794392524,4,1,1,15,0,0
496388,400.534045393858,4,1,1,13,1,0
496388,-70.0000000000001,4,1,1,13,0,0
496789,432.276657060519,4,1,1,11,1,0
496789,-64.8598130841121,4,1,1,11,0,0
497221,572.519083969466,4,1,1,9,1,0
497221,-48.9719626168224,4,1,1,9,0,0
497793,616.016427104723,4,1,1,8,1,0
497793,-45.5140186915888,4,1,1,8,0,0
498410,820.793433652531,4,1,1,7,1,0
498410,-34.1588785046729,4,1,1,7,0,0
499230,881.057268722467,4,1,1,6,1,0
499230,-31.8224299065421,4,1,1,6,0,0
500111,1165.04854368932,4,1,1,5,1,0
500111,-24.0654205607477,4,1,1,5,0,0

[HitObjects]
448,192,1184,128,0,1464:1:1:0:0:
320,192,1464,1,0,1:1:0:0:
64,192,1675,1,0,1:1:0:0:
192,192,1745,1,0,1:1:0:0:
320,192,1955,1,0,1:1:0:0:
448,192,2025,1,0,1:1:0:0:
320,192,2235,1,0,1:1:0:0:
192,192,2305,1,0,1:1:0:0:
320,192,2376,1,0,1:1:0:0:
64,192,2446,1,0,1:1:0:0:
320,192,2516,1,0,1:1:0:0:
448,192,2586,1,0,1:1:0:0:
320,192,2796,1,0,1:1:0:0:
192,192,2866,1,0,1:1:0:0:
448,192,2866,1,0,1:1:0:0:
320,192,2936,1,0,1:1:0:0:
192,192,3006,1,0,1:1:0:0:
64,192,3217,1,0,1:1:0:0:
448,192,3287,128,0,3567:1:1:0:0:
192,192,3427,1,0,1:1:0:0:
320,192,3567,128,0,3848:1:1:0:0:
192,192,3848,128,0,4128:1:1:0:0:
64,192,4128,128,0,5109:1:1:0:0:
448,192,4128,1,0,1:1:0:0:
320,192,4268,1,0,1:1:0:0:
448,192,4548,1,0,1:1:0:0:
320,192,4829,1,0,1:1:0:0:
192,192,5109,128,0,5670:1:1:0:0:
448,192,5109,1,0,1:1:0:0:
448,192,5390,1,0,1:1:0:0:
64,192,5670,1,0,1:1:0:0:
448,192,5670,1,0,1:1:0:0:
320,192,5810,1,0,1:1:0:0:
64,192,5880,1,0,1:1:0:0:
192,192,5950,1,0,1:1:0:0:
448,192,5950,1,0,1:1:0:0:
64,192,6091,1,0,1:1:0:0:
320,192,6161,1,0,1:1:0:0:
64,192,6231,1,0,1:1:0:0:
192,192,6231,1,0,1:1:0:0:
448,192,6371,1,0,1:1:0:0:
64,192,6441,1,0,1:1:0:0:
192,192,6511,1,0,1:1:0:0:
320,192,6511,1,0,1:1:0:0:
448,192,6651,1,0,1:1:0:0:
192,192,6721,1,0,1:1:0:0:
64,192,6791,1,0,1:1:0:0:
320,192,6791,1,0,1:1:0:0:
64,192,6932,1,0,1:1:0:0:
192,192,7002,1,0,1:1:0:0:
320,192,7072,1,0,1:1:0:0:
448,192,7072,1,0,1:1:0:0:
448,192,7212,1,0,1:1:0:0:
192,192,7282,1,0,1:1:0:0:
64,192,7352,1,0,1:1:0:0:
320,192,7352,1,0,1:1:0:0:
192,192,7492,1,0,1:1:0:0:
448,192,7563,1,0,1:1:0:0:
64,192,7633,1,0,1:1:0:0:
192,192,7633,1,0,1:1:0:0:
320,192,7773,1,0,1:1:0:0:
192,192,7843,1,0,1:1:0:0:
64,192,7913,1,0,1:1:0:0:
448,192,7913,1,0,1:1:0:0:
192,192,8053,1,0,1:1:0:0:
320,192,8123,1,0,1:1:0:0:
192,192,8193,1,0,1:1:0:0:
448,192,8193,1,0,1:1:0:0:
320,192,8334,1,0,1:1:0:0:
64,192,8404,1,0,1:1:0:0:
320,192,8474,1,0,1:1:0:0:
448,192,8474,1,0,1:1:0:0:
192,192,8614,1,0,1:1:0:0:
448,192,8684,1,0,1:1:0:0:
64,192,8754,1,0,1:1:0:0:
320,192,8754,1,0,1:1:0:0:
192,192,8894,1,0,1:1:0:0:
64,192,8964,1,0,1:1:0:0:
320,192,9034,1,0,1:1:0:0:
448,192,9034,1,0,1:1:0:0:
448,192,9175,1,0,1:1:0:0:
192,192,9245,1,0,1:1:0:0:
64,192,9315,1,0,1:1:0:0:
320,192,9315,1,0,1:1:0:0:
192,192,9455,1,0,1:1:0:0:
320,192,9525,1,0,1:1:0:0:
64,192,9595,1,0,1:1:0:0:
448,192,9595,1,0,1:1:0:0:
320,192,9735,1,0,1:1:0:0:
64,192,9805,1,0,1:1:0:0:
192,192,9876,1,0,1:1:0:0:
320,192,9876,1,0,1:1:0:0:
448,192,10016,128,0,10051:1:1:0:0:
192,192,10086,1,0,1:1:0:0:
64,192,10156,1,0,1:1:0:0:
320,192,10156,1,0,1:1:0:0:
192,192,10296,1,0,1:1:0:0:
320,192,10366,1,0,1:1:0:0:
64,192,10436,1,0,1:1:0:0:
448,192,10436,1,0,1:1:0:0:
320,192,10577,1,0,1:1:0:0:
192,192,10647,1,0,1:1:0:0:
64,192,10717,1,0,1:1:0:0:
320,192,10717,1,0,1:1:0:0:
64,192,10857,1,0,1:1:0:0:
448,192,10927,1,0,1:1:0:0:
192,192,10997,1,0,1:1:0:0:
320,192,10997,1,0,1:1:0:0:
448,192,11137,1,0,1:1:0:0:
192,192,11207,1,0,1:1:0:0:
64,192,11277,1,0,1:1:0:0:
320,192,11277,1,0,1:1:0:0:
192,192,11418,1,0,1:1:0:0:
320,192,11488,1,0,1:1:0:0:
64,192,11558,1,0,1:1:0:0:
192,192,11558,1,0,1:1:0:0:
448,192,11698,1,0,1:1:0:0:
64,192,11768,1,0,1:1:0:0:
192,192,11838,1,0,1:1:0:0:
448,192,11838,1,0,1:1:0:0:
320,192,11978,1,0,1:1:0:0:
64,192,12048,1,0,1:1:0:0:
320,192,12119,1,0,1:1:0:0:
448,192,12119,1,0,1:1:0:0:
64,192,12259,1,0,1:1:0:0:
320,192,12329,1,0,1:1:0:0:
64,192,12399,1,0,1:1:0:0:
192,192,12399,1,0,1:1:0:0:
448,192,12539,1,0,1:1:0:0:
192,192,12609,1,0,1:1:0:0:
64,192,12679,1,0,1:1:0:0:
320,192,12679,1,0,1:1:0:0:
192,192,12820,1,0,1:1:0:0:
320,192,12890,1,0,1:1:0:0:
64,192,12960,1,0,1:1:0:0:
448,192,12960,1,0,1:1:0:0:
192,192,13100,1,0,1:1:0:0:
320,192,13240,1,0,1:1:0:0:
448,192,13240,1,0,1:1:0:0:
192,192,13380,1,0,1:1:0:0:
320,192,13520,1,0,1:1:0:0:
448,192,13520,1,0,1:1:0:0:
192,192,13661,1,0,1:1:0:0:
320,192,13801,1,0,1:1:0:0:
448,192,13801,1,0,1:1:0:0:
192,192,13941,1,0,1:1:0:0:
320,192,14081,1,0,1:1:0:0:
448,192,14081,1,0,1:1:0:0:
320,192,14221,1,0,1:1:0:0:
448,192,14221,1,0,1:1:0:0:
320,192,14362,1,0,1:1:0:0:
448,192,14362,1,0,1:1:0:0:
64,192,14432,1,0,1:1:0:0:
192,192,14432,1,0,1:1:0:0:
320,192,14502,1,0,1:1:0:0:
448,192,14502,1,0,1:1:0:0:
64,192,14572,1,0,1:1:0:0:
192,192,14572,1,0,1:1:0:0:
320,192,14642,1,0,1:1:0:0:
448,192,14642,1,0,1:1:0:0:
192,192,14712,1,0,1:1:0:0:
64,192,14782,1,0,1:1:0:0:
320,192,14782,1,0,1:1:0:0:
448,192,14852,1,0,1:1:0:0:
64,192,14922,1,0,1:1:0:0:
192,192,14922,1,0,1:1:0:0:
320,192,14992,1,0,1:1:0:0:
448,192,15063,1,0,1:1:0:0:
64,192,15133,1,0,1:1:0:0:
192,192,15203,1,0,1:1:0:0:
320,192,15203,1,0,1:1:0:0:
448,192,15273,1,0,1:1:0:0:
64,192,15343,1,0,1:1:0:0:
320,192,15413,1,0,1:1:0:0:
192,192,15483,1,0,1:1:0:0:
448,192,15483,1,0,1:1:0:0:
64,192,15553,1,0,1:1:0:0:
320,192,15623,1,0,1:1:0:0:
192,192,15693,1,0,1:1:0:0:
64,192,15763,1,0,1:1:0:0:
320,192,15763,1,0,1:1:0:0:
192,192,15834,1,0,1:1:0:0:
64,192,15904,1,0,1:1:0:0:
448,192,15904,1,0,1:1:0:0:
320,192,15974,1,0,1:1:0:0:
64,192,16044,1,0,1:1:0:0:
192,192,16044,1,0,1:1:0:0:
448,192,16114,1,0,1:1:0:0:
192,192,16184,1,0,1:1:0:0:
320,192,16254,1,0,1:1:0:0:
192,192,16324,1,0,1:1:0:0:
448,192,16324,1,0,1:1:0:0:
64,192,16394,1,0,1:1:0:0:
320,192,16464,1,0,1:1:0:0:
448,192,16464,1,0,1:1:0:0:
192,192,16534,1,0,1:1:0:0:
64,192,16605,1,0,1:1:0:0:
320,192,16605,1,0,1:1:0:0:
448,192,16675,1,0,1:1:0:0:
192,192,16745,1,0,1:1:0:0:
320,192,16815,1,0,1:1:0:0:
192,192,16885,1,0,1:1:0:0:
448,192,16885,1,0,1:1:0:0:
64,192,16955,1,0,1:1:0:0:
192,192,17025,1,0,1:1:0:0:
64,192,17095,1,0,1:1:0:0:
192,192,17165,1,0,1:1:0:0:
448,192,17165,1,0,1:1:0:0:
320,192,17235,1,0,1:1:0:0:
64,192,17305,1,0,1:1:0:0:
192,192,17305,1,0,1:1:0:0:
448,192,17376,1,0,1:1:0:0:
64,192,17446,1,0,1:1:0:0:
320,192,17446,1,0,1:1:0:0:
192,192,17516,1,0,1:1:0:0:
448,192,17586,1,0,1:1:0:0:
64,192,17656,1,0,1:1:0:0:
192,192,17726,1,0,1:1:0:0:
320,192,17726,1,0,1:1:0:0:
448,192,17796,1,0,1:1:0:0:
192,192,17866,1,0,1:1:0:0:
320,192,17936,1,0,1:1:0:0:
64,192,18006,1,0,1:1:0:0:
448,192,18006,1,0,1:1:0:0:
192,192,18077,1,0,1:1:0:0:
320,192,18147,1,0,1:1:0:0:
448,192,18147,1,0,1:1:0:0:
64,192,18217,1,0,1:1:0:0:
192,192,18287,1,0,1:1:0:0:
448,192,18287,1,0,1:1:0:0:
320,192,18357,1,0,1:1:0:0:
64,192,18427,1,0,1:1:0:0:
192,192,18427,1,0,1:1:0:0:
448,192,18497,1,0,1:1:0:0:
64,192,18567,1,0,1:1:0:0:
320,192,18567,1,0,1:1:0:0:
192,192,18637,1,0,1:1:0:0:
320,192,18707,1,0,1:1:0:0:
192,192,18777,1,0,1:1:0:0:
64,192,18848,1,0,1:1:0:0:
448,192,18848,1,0,1:1:0:0:
320,192,18988,1,0,1:1:0:0:
192,192,19058,1,0,1:1:0:0:
64,192,19128,1,0,1:1:0:0:
448,192,19128,1,0,1:1:0:0:
192,192,19198,1,0,1:1:0:0:
320,192,19198,1,0,1:1:0:0:
64,192,19268,1,0,1:1:0:0:
448,192,19268,1,0,1:1:0:0:
320,192,19338,1,0,1:1:0:0:
448,192,19408,1,0,1:1:0:0:
64,192,19478,1,0,1:1:0:0:
320,192,19548,1,0,1:1:0:0:
64,192,19619,1,0,1:1:0:0:
192,192,19689,1,0,1:1:0:0:
320,192,19689,1,0,1:1:0:0:
64,192,19759,1,0,1:1:0:0:
448,192,19829,1,0,1:1:0:0:
192,192,19899,1,0,1:1:0:0:
448,192,19969,1,0,1:1:0:0:
320,192,19969,1,0,1:1:0:0:
64,192,20039,1,0,1:1:0:0:
192,192,20109,1,0,1:1:0:0:
448,192,20179,1,0,1:1:0:0:
64,192,20249,1,0,1:1:0:0:
320,192,20249,1,0,1:1:0:0:
192,192,20320,1,0,1:1:0:0:
64,192,20390,1,0,1:1:0:0:
448,192,20390,1,0,1:1:0:0:
320,192,20460,1,0,1:1:0:0:
64,192,20530,1,0,1:1:0:0:
192,192,20530,1,0,1:1:0:0:
320,192,20600,1,0,1:1:0:0:
448,192,20670,1,0,1:1:0:0:
64,192,20740,1,0,1:1:0:0:
320,192,20810,1,0,1:1:0:0:
448,192,20810,1,0,1:1:0:0:
192,192,20880,1,0,1:1:0:0:
64,192,20950,1,0,1:1:0:0:
320,192,20950,1,0,1:1:0:0:
448,192,21020,1,0,1:1:0:0:
64,192,21091,1,0,1:1:0:0:
192,192,21091,1,0,1:1:0:0:
448,192,21161,1,0,1:1:0:0:
320,192,21231,1,0,1:1:0:0:
64,192,21301,1,0,1:1:0:0:
192,192,21371,1,0,1:1:0:0:
448,192,21371,1,0,1:1:0:0:
64,192,21441,1,0,1:1:0:0:
320,192,21441,1,0,1:1:0:0:
192,192,21511,1,0,1:1:0:0:
448,192,21511,1,0,1:1:0:0:
64,192,21581,1,0,1:1:0:0:
320,192,21581,1,0,1:1:0:0:
448,192,21651,1,0,1:1:0:0:
64,192,21721,1,0,1:1:0:0:
192,192,21721,1,0,1:1:0:0:
320,192,21791,1,0,1:1:0:0:
448,192,21791,1,0,1:1:0:0:
64,192,21862,1,0,1:1:0:0:
192,192,21862,1,0,1:1:0:0:
320,192,21932,1,0,1:1:0:0:
448,192,21932,1,0,1:1:0:0:
64,192,22002,1,0,1:1:0:0:
192,192,22072,1,0,1:1:0:0:
64,192,22142,1,0,1:1:0:0:
320,192,22212,1,0,1:1:0:0:
448,192,22212,1,0,1:1:0:0:
64,192,22282,1,0,1:1:0:0:
192,192,22352,1,0,1:1:0:0:
64,192,22422,1,0,1:1:0:0:
320,192,22492,1,0,1:1:0:0:
448,192,22492,1,0,1:1:0:0:
192,192,22633,1,0,1:1:0:0:
320,192,22773,1,0,1:1:0:0:
448,192,22773,1,0,1:1:0:0:
192,192,22913,1,0,1:1:0:0:
320,192,23053,1,0,1:1:0:0:
448,192,23053,1,0,1:1:0:0:
320,192,23474,1,0,1:1:0:0:
448,192,23474,1,0,1:1:0:0:
320,192,23614,1,0,1:1:0:0:
448,192,23614,1,0,1:1:0:0:
192,192,23684,1,0,1:1:0:0:
64,192,23754,1,0,1:1:0:0:
192,192,23824,1,0,1:1:0:0:
320,192,23894,1,0,1:1:0:0:
448,192,23894,1,0,1:1:0:0:
192,192,23964,1,0,1:1:0:0:
64,192,24034,1,0,1:1:0:0:
192,192,24105,1,0,1:1:0:0:
320,192,24175,1,0,1:1:0:0:
448,192,24175,1,0,1:1:0:0:
192,192,24245,1,0,1:1:0:0:
64,192,24315,1,0,1:1:0:0:
192,192,24385,1,0,1:1:0:0:
320,192,24455,1,0,1:1:0:0:
448,192,24455,1,0,1:1:0:0:
192,192,24525,1,0,1:1:0:0:
64,192,24595,1,0,1:1:0:0:
192,192,24665,1,0,1:1:0:0:
320,192,24735,1,0,1:1:0:0:
448,192,24735,1,0,1:1:0:0:
192,192,24805,1,0,1:1:0:0:
64,192,24876,1,0,1:1:0:0:
192,192,24946,1,0,1:1:0:0:
320,192,25016,1,0,1:1:0:0:
448,192,25016,1,0,1:1:0:0:
192,192,25086,1,0,1:1:0:0:
64,192,25156,1,0,1:1:0:0:
192,192,25226,1,0,1:1:0:0:
320,192,25296,1,0,1:1:0:0:
448,192,25296,1,0,1:1:0:0:
192,192,25366,1,0,1:1:0:0:
64,192,25436,1,0,1:1:0:0:
192,192,25506,1,0,1:1:0:0:
320,192,25577,1,0,1:1:0:0:
448,192,25577,1,0,1:1:0:0:
192,192,25647,1,0,1:1:0:0:
64,192,25717,1,0,1:1:0:0:
192,192,25787,1,0,1:1:0:0:
320,192,25857,1,0,1:1:0:0:
448,192,25857,1,0,1:1:0:0:
192,192,25927,1,0,1:1:0:0:
64,192,25997,1,0,1:1:0:0:
192,192,26067,1,0,1:1:0:0:
320,192,26137,1,0,1:1:0:0:
448,192,26137,1,0,1:1:0:0:
192,192,26207,1,0,1:1:0:0:
64,192,26277,1,0,1:1:0:0:
192,192,26348,1,0,1:1:0:0:
320,192,26418,1,0,1:1:0:0:
448,192,26418,1,0,1:1:0:0:
192,192,26488,1,0,1:1:0:0:
64,192,26558,1,0,1:1:0:0:
192,192,26628,1,0,1:1:0:0:
320,192,26698,1,0,1:1:0:0:
448,192,26698,1,0,1:1:0:0:
192,192,26768,1,0,1:1:0:0:
64,192,26838,1,0,1:1:0:0:
192,192,26908,1,0,1:1:0:0:
320,192,26978,1,0,1:1:0:0:
448,192,26978,1,0,1:1:0:0:
192,192,27048,1,0,1:1:0:0:
64,192,27119,1,0,1:1:0:0:
192,192,27189,1,0,1:1:0:0:
320,192,27259,1,0,1:1:0:0:
448,192,27259,1,0,1:1:0:0:
192,192,27329,1,0,1:1:0:0:
64,192,27399,1,0,1:1:0:0:
192,192,27469,1,0,1:1:0:0:
320,192,27539,1,0,1:1:0:0:
448,192,27539,1,0,1:1:0:0:
192,192,27609,1,0,1:1:0:0:
64,192,27679,1,0,1:1:0:0:
192,192,27749,1,0,1:1:0:0:
320,192,27820,1,0,1:1:0:0:
448,192,27820,1,0,1:1:0:0:
192,192,27890,1,0,1:1:0:0:
64,192,27960,1,0,1:1:0:0:
448,192,27960,1,0,1:1:0:0:
320,192,28030,1,0,1:1:0:0:
64,192,28100,1,0,1:1:0:0:
192,192,28100,1,0,1:1:0:0:
320,192,28170,1,0,1:1:0:0:
192,192,28240,1,0,1:1:0:0:
448,192,28240,1,0,1:1:0:0:
320,192,28310,1,0,1:1:0:0:
64,192,28380,1,0,1:1:0:0:
448,192,28380,1,0,1:1:0:0:
192,192,28450,1,0,1:1:0:0:
320,192,28520,1,0,1:1:0:0:
448,192,28520,1,0,1:1:0:0:
64,192,28591,1,0,1:1:0:0:
192,192,28661,1,0,1:1:0:0:
448,192,28661,1,0,1:1:0:0:
320,192,28731,1,0,1:1:0:0:
64,192,28801,1,0,1:1:0:0:
448,192,28801,1,0,1:1:0:0:
192,192,28871,1,0,1:1:0:0:
320,192,28941,1,0,1:1:0:0:
448,192,28941,1,0,1:1:0:0:
64,192,29011,1,0,1:1:0:0:
192,192,29081,1,0,1:1:0:0:
320,192,29081,1,0,1:1:0:0:
64,192,29151,1,0,1:1:0:0:
320,192,29221,1,0,1:1:0:0:
448,192,29221,1,0,1:1:0:0:
192,192,29291,1,0,1:1:0:0:
64,192,29362,1,0,1:1:0:0:
448,192,29362,1,0,1:1:0:0:
320,192,29432,1,0,1:1:0:0:
64,192,29502,1,0,1:1:0:0:
192,192,29502,1,0,1:1:0:0:
448,192,29572,1,0,1:1:0:0:
64,192,29642,1,0,1:1:0:0:
320,192,29642,1,0,1:1:0:0:
192,192,29712,1,0,1:1:0:0:
320,192,29782,1,0,1:1:0:0:
448,192,29782,1,0,1:1:0:0:
64,192,29852,1,0,1:1:0:0:
192,192,29922,1,0,1:1:0:0:
448,192,29922,1,0,1:1:0:0:
320,192,29992,1,0,1:1:0:0:
64,192,30063,1,0,1:1:0:0:
192,192,30063,1,0,1:1:0:0:
448,192,30133,1,0,1:1:0:0:
64,192,30203,1,0,1:1:0:0:
320,192,30203,1,0,1:1:0:0:
192,192,30273,1,0,1:1:0:0:
64,192,30343,1,0,1:1:0:0:
320,192,30343,1,0,1:1:0:0:
448,192,30343,1,0,1:1:0:0:
320,192,30483,1,0,1:1:0:0:
64,192,30553,1,0,1:1:0:0:
192,192,30553,1,0,1:1:0:0:
448,192,30553,1,0,1:1:0:0:
192,192,30693,1,0,1:1:0:0:
64,192,30763,1,0,1:1:0:0:
320,192,30763,1,0,1:1:0:0:
448,192,30763,1,0,1:1:0:0:
64,192,30904,1,0,1:1:0:0:
448,192,30939,1,0,1:1:0:0:
192,192,30974,1,0,1:1:0:0:
320,192,31009,1,0,1:1:0:0:
64,192,31044,1,0,1:1:0:0:
448,192,31044,1,0,1:1:0:0:
192,192,31184,1,0,1:1:0:0:
320,192,31219,1,0,1:1:0:0:
64,192,31254,1,0,1:1:0:0:
448,192,31289,1,0,1:1:0:0:
192,192,31324,1,0,1:1:0:0:
320,192,31324,1,0,1:1:0:0:
64,192,31464,1,0,1:1:0:0:
192,192,31464,1,0,1:1:0:0:
320,192,31464,1,0,1:1:0:0:
448,192,31464,128,0,31815:1:1:0:0:
64,192,31815,128,0,32095:1:1:0:0:
192,192,31815,1,0,1:1:0:0:
320,192,32095,1,0,1:1:0:0:
448,192,32095,1,0,1:1:0:0:
64,192,32376,1,0,1:1:0:0:
448,192,32376,1,0,1:1:0:0:
192,192,32469,1,0,1:1:0:0:
320,192,32469,1,0,1:1:0:0:
64,192,32586,1,0,1:1:0:0:
448,192,32586,1,0,1:1:0:0:
192,192,32656,1,0,1:1:0:0:
320,192,32726,1,0,1:1:0:0:
64,192,32796,1,0,1:1:0:0:
320,192,32866,1,0,1:1:0:0:
448,192,32866,1,0,1:1:0:0:
192,192,32936,1,0,1:1:0:0:
64,192,33006,1,0,1:1:0:0:
448,192,33077,1,0,1:1:0:0:
64,192,33147,1,0,1:1:0:0:
320,192,33147,1,0,1:1:0:0:
192,192,33217,1,0,1:1:0:0:
448,192,33287,1,0,1:1:0:0:
320,192,33357,1,0,1:1:0:0:
64,192,33427,1,0,1:1:0:0:
192,192,33427,1,0,1:1:0:0:
320,192,33497,1,0,1:1:0:0:
192,192,33567,1,0,1:1:0:0:
448,192,33567,1,0,1:1:0:0:
320,192,33637,1,0,1:1:0:0:
64,192,33707,1,0,1:1:0:0:
192,192,33707,1,0,1:1:0:0:
448,192,33777,1,0,1:1:0:0:
320,192,33848,1,0,1:1:0:0:
64,192,33918,1,0,1:1:0:0:
320,192,33988,1,0,1:1:0:0:
448,192,33988,1,0,1:1:0:0:
192,192,34058,1,0,1:1:0:0:
448,192,34128,1,0,1:1:0:0:
320,192,34198,1,0,1:1:0:0:
64,192,34268,1,0,1:1:0:0:
192,192,34268,1,0,1:1:0:0:
448,192,34338,1,0,1:1:0:0:
192,192,34408,1,0,1:1:0:0:
320,192,34408,1,0,1:1:0:0:
448,192,34478,1,0,1:1:0:0:
64,192,34548,1,0,1:1:0:0:
320,192,34548,1,0,1:1:0:0:
192,192,34619,1,0,1:1:0:0:
448,192,34689,1,0,1:1:0:0:
64,192,34759,1,0,1:1:0:0:
192,192,34829,1,0,1:1:0:0:
320,192,34829,1,0,1:1:0:0:
448,192,34899,1,0,1:1:0:0:
192,192,34969,1,0,1:1:0:0:
320,192,35039,1,0,1:1:0:0:
64,192,35109,1,0,1:1:0:0:
448,192,35109,1,0,1:1:0:0:
192,192,35179,1,0,1:1:0:0:
320,192,35249,1,0,1:1:0:0:
64,192,35320,1,0,1:1:0:0:
320,192,35390,1,0,1:1:0:0:
448,192,35390,1,0,1:1:0:0:
192,192,35460,1,0,1:1:0:0:
64,192,35530,1,0,1:1:0:0:
448,192,35530,1,0,1:1:0:0:
192,192,35600,1,0,1:1:0:0:
320,192,35670,1,0,1:1:0:0:
448,192,35670,1,0,1:1:0:0:
192,192,35740,1,0,1:1:0:0:
64,192,35810,1,0,1:1:0:0:
448,192,35810,1,0,1:1:0:0:
192,192,35880,1,0,1:1:0:0:
320,192,35950,1,0,1:1:0:0:
448,192,35950,1,0,1:1:0:0:
64,192,36020,1,0,1:1:0:0:
320,192,36091,1,0,1:1:0:0:
192,192,36161,1,0,1:1:0:0:
64,192,36231,1,0,1:1:0:0:
320,192,36231,1,0,1:1:0:0:
448,192,36301,1,0,1:1:0:0:
192,192,36371,1,0,1:1:0:0:
320,192,36441,1,0,1:1:0:0:
64,192,36511,1,0,1:1:0:0:
448,192,36511,1,0,1:1:0:0:
320,192,36581,1,0,1:1:0:0:
448,192,36651,1,0,1:1:0:0:
320,192,36721,1,0,1:1:0:0:
192,192,36791,1,0,1:1:0:0:
448,192,36791,1,0,1:1:0:0:
64,192,36862,1,0,1:1:0:0:
192,192,36932,1,0,1:1:0:0:
64,192,37002,1,0,1:1:0:0:
192,192,37072,1,0,1:1:0:0:
320,192,37072,1,0,1:1:0:0:
448,192,37072,1,0,1:1:0:0:
64,192,37142,1,0,1:1:0:0:
320,192,37212,1,0,1:1:0:0:
448,192,37282,1,0,1:1:0:0:
64,192,37352,1,0,1:1:0:0:
192,192,37352,1,0,1:1:0:0:
320,192,37422,1,0,1:1:0:0:
448,192,37492,1,0,1:1:0:0:
320,192,37563,1,0,1:1:0:0:
192,192,37633,1,0,1:1:0:0:
448,192,37633,1,0,1:1:0:0:
64,192,37703,1,0,1:1:0:0:
320,192,37773,1,0,1:1:0:0:
192,192,37843,1,0,1:1:0:0:
64,192,37913,1,0,1:1:0:0:
448,192,37913,1,0,1:1:0:0:
320,192,37983,1,0,1:1:0:0:
192,192,38053,1,0,1:1:0:0:
448,192,38123,1,0,1:1:0:0:
64,192,38193,1,0,1:1:0:0:
192,192,38193,1,0,1:1:0:0:
320,192,38263,1,0,1:1:0:0:
448,192,38334,1,0,1:1:0:0:
192,192,38404,1,0,1:1:0:0:
64,192,38474,1,0,1:1:0:0:
320,192,38474,1,0,1:1:0:0:
448,192,38544,1,0,1:1:0:0:
64,192,38614,1,0,1:1:0:0:
192,192,38684,1,0,1:1:0:0:
64,192,38754,1,0,1:1:0:0:
448,192,38754,1,0,1:1:0:0:
320,192,38824,1,0,1:1:0:0:
448,192,38894,1,0,1:1:0:0:
320,192,38964,1,0,1:1:0:0:
192,192,39034,1,0,1:1:0:0:
448,192,39034,1,0,1:1:0:0:
64,192,39105,1,0,1:1:0:0:
192,192,39175,1,0,1:1:0:0:
64,192,39245,1,0,1:1:0:0:
192,192,39315,1,0,1:1:0:0:
320,192,39315,1,0,1:1:0:0:
448,192,39385,1,0,1:1:0:0:
64,192,39455,1,0,1:1:0:0:
320,192,39525,1,0,1:1:0:0:
192,192,39595,1,0,1:1:0:0:
448,192,39595,1,0,1:1:0:0:
64,192,39665,1,0,1:1:0:0:
320,192,39735,1,0,1:1:0:0:
448,192,39735,1,0,1:1:0:0:
192,192,39805,1,0,1:1:0:0:
64,192,39876,1,0,1:1:0:0:
448,192,39876,1,0,1:1:0:0:
320,192,39946,1,0,1:1:0:0:
64,192,40016,1,0,1:1:0:0:
448,192,40016,1,0,1:1:0:0:
192,192,40086,1,0,1:1:0:0:
64,192,40156,1,0,1:1:0:0:
448,192,40156,1,0,1:1:0:0:
320,192,40226,1,0,1:1:0:0:
192,192,40296,1,0,1:1:0:0:
448,192,40296,1,0,1:1:0:0:
320,192,40366,1,0,1:1:0:0:
64,192,40436,1,0,1:1:0:0:
448,192,40436,1,0,1:1:0:0:
192,192,40506,1,0,1:1:0:0:
64,192,40577,1,0,1:1:0:0:
320,192,40577,1,0,1:1:0:0:
192,192,40647,1,0,1:1:0:0:
64,192,40717,1,0,1:1:0:0:
448,192,40717,1,0,1:1:0:0:
320,192,40787,1,0,1:1:0:0:
64,192,40857,1,0,1:1:0:0:
448,192,40857,1,0,1:1:0:0:
192,192,40927,1,0,1:1:0:0:
64,192,40997,1,0,1:1:0:0:
320,192,40997,1,0,1:1:0:0:
192,192,41067,1,0,1:1:0:0:
320,192,41137,1,0,1:1:0:0:
448,192,41137,1,0,1:1:0:0:
64,192,41207,1,0,1:1:0:0:
192,192,41277,1,0,1:1:0:0:
320,192,41324,1,0,1:1:0:0:
448,192,41371,1,0,1:1:0:0:
64,192,41418,1,0,1:1:0:0:
320,192,41464,1,0,1:1:0:0:
192,192,41511,1,0,1:1:0:0:
64,192,41558,1,0,1:1:0:0:
448,192,41558,1,0,1:1:0:0:
320,192,41628,1,0,1:1:0:0:
192,192,41698,1,0,1:1:0:0:
448,192,41698,1,0,1:1:0:0:
64,192,41768,1,0,1:1:0:0:
192,192,41838,1,0,1:1:0:0:
320,192,41838,1,0,1:1:0:0:
448,192,41908,1,0,1:1:0:0:
64,192,41978,1,0,1:1:0:0:
320,192,41978,1,0,1:1:0:0:
192,192,42048,1,0,1:1:0:0:
64,192,42119,1,0,1:1:0:0:
448,192,42119,1,0,1:1:0:0:
192,192,42189,1,0,1:1:0:0:
320,192,42259,1,0,1:1:0:0:
448,192,42259,1,0,1:1:0:0:
64,192,42329,1,0,1:1:0:0:
192,192,42399,1,0,1:1:0:0:
448,192,42399,1,0,1:1:0:0:
320,192,42469,1,0,1:1:0:0:
64,192,42539,1,0,1:1:0:0:
448,192,42539,1,0,1:1:0:0:
320,192,42609,1,0,1:1:0:0:
64,192,42679,1,0,1:1:0:0:
192,192,42679,1,0,1:1:0:0:
448,192,42749,1,0,1:1:0:0:
64,192,42820,1,0,1:1:0:0:
320,192,42820,1,0,1:1:0:0:
192,192,42890,1,0,1:1:0:0:
64,192,42960,1,0,1:1:0:0:
448,192,42960,1,0,1:1:0:0:
192,192,43030,1,0,1:1:0:0:
64,192,43100,1,0,1:1:0:0:
320,192,43100,1,0,1:1:0:0:
192,192,43170,1,0,1:1:0:0:
64,192,43240,1,0,1:1:0:0:
448,192,43240,1,0,1:1:0:0:
320,192,43310,1,0,1:1:0:0:
192,192,43380,1,0,1:1:0:0:
448,192,43380,1,0,1:1:0:0:
64,192,43450,1,0,1:1:0:0:
192,192,43520,1,0,1:1:0:0:
320,192,43520,1,0,1:1:0:0:
448,192,43591,1,0,1:1:0:0:
64,192,43661,1,0,1:1:0:0:
320,192,43661,1,0,1:1:0:0:
192,192,43731,1,0,1:1:0:0:
64,192,43801,1,0,1:1:0:0:
448,192,43801,1,0,1:1:0:0:
320,192,43871,1,0,1:1:0:0:
448,192,43941,1,0,1:1:0:0:
320,192,44011,1,0,1:1:0:0:
64,192,44081,1,0,1:1:0:0:
448,192,44081,1,0,1:1:0:0:
320,192,44151,1,0,1:1:0:0:
192,192,44221,1,0,1:1:0:0:
448,192,44221,1,0,1:1:0:0:
64,192,44291,1,0,1:1:0:0:
320,192,44362,1,0,1:1:0:0:
448,192,44362,1,0,1:1:0:0:
192,192,44432,1,0,1:1:0:0:
320,192,44502,1,0,1:1:0:0:
64,192,44572,1,0,1:1:0:0:
192,192,44642,1,0,1:1:0:0:
448,192,44642,1,0,1:1:0:0:
320,192,44712,1,0,1:1:0:0:
192,192,44782,1,0,1:1:0:0:
448,192,44852,1,0,1:1:0:0:
64,192,44922,1,0,1:1:0:0:
192,192,44922,1,0,1:1:0:0:
320,192,44992,1,0,1:1:0:0:
64,192,45063,1,0,1:1:0:0:
448,192,45063,1,0,1:1:0:0:
192,192,45133,1,0,1:1:0:0:
320,192,45203,1,0,1:1:0:0:
448,192,45203,1,0,1:1:0:0:
64,192,45273,1,0,1:1:0:0:
320,192,45343,1,0,1:1:0:0:
448,192,45343,1,0,1:1:0:0:
192,192,45413,1,0,1:1:0:0:
64,192,45483,1,0,1:1:0:0:
448,192,45483,1,0,1:1:0:0:
320,192,45553,1,0,1:1:0:0:
192,192,45623,1,0,1:1:0:0:
448,192,45623,1,0,1:1:0:0:
320,192,45693,1,0,1:1:0:0:
64,192,45763,1,0,1:1:0:0:
192,192,45810,1,0,1:1:0:0:
448,192,45857,1,0,1:1:0:0:
320,192,45904,1,0,1:1:0:0:
64,192,45950,1,0,1:1:0:0:
448,192,45997,1,0,1:1:0:0:
64,192,46044,1,0,1:1:0:0:
192,192,46044,1,0,1:1:0:0:
448,192,46114,1,0,1:1:0:0:
320,192,46114,1,0,1:1:0:0:
64,192,46184,1,0,1:1:0:0:
192,192,46184,1,0,1:1:0:0:
448,192,46254,1,0,1:1:0:0:
320,192,46254,1,0,1:1:0:0:
64,192,46324,1,0,1:1:0:0:
192,192,46324,1,0,1:1:0:0:
448,192,46394,1,0,1:1:0:0:
192,192,46464,1,0,1:1:0:0:
320,192,46464,1,0,1:1:0:0:
64,192,46534,1,0,1:1:0:0:
192,192,46605,1,0,1:1:0:0:
448,192,46605,1,0,1:1:0:0:
64,192,46675,1,0,1:1:0:0:
320,192,46675,1,0,1:1:0:0:
192,192,46745,1,0,1:1:0:0:
448,192,46745,1,0,1:1:0:0:
64,192,46815,1,0,1:1:0:0:
320,192,46885,1,0,1:1:0:0:
448,192,46885,1,0,1:1:0:0:
192,192,46955,1,0,1:1:0:0:
64,192,47025,1,0,1:1:0:0:
448,192,47025,1,0,1:1:0:0:
192,192,47095,1,0,1:1:0:0:
64,192,47165,1,0,1:1:0:0:
320,192,47165,1,0,1:1:0:0:
448,192,47235,1,0,1:1:0:0:
320,192,47305,1,0,1:1:0:0:
64,192,47376,1,0,1:1:0:0:
192,192,47446,1,0,1:1:0:0:
320,192,47446,1,0,1:1:0:0:
448,192,47516,1,0,1:1:0:0:
192,192,47586,1,0,1:1:0:0:
448,192,47656,1,0,1:1:0:0:
64,192,47726,1,0,1:1:0:0:
192,192,47726,1,0,1:1:0:0:
320,192,47796,1,0,1:1:0:0:
64,192,47866,1,0,1:1:0:0:
320,192,47936,1,0,1:1:0:0:
64,192,48006,1,0,1:1:0:0:
192,192,48006,1,0,1:1:0:0:
320,192,48077,1,0,1:1:0:0:
448,192,48077,1,0,1:1:0:0:
64,192,48147,1,0,1:1:0:0:
192,192,48147,1,0,1:1:0:0:
320,192,48217,1,0,1:1:0:0:
448,192,48217,1,0,1:1:0:0:
64,192,48287,1,0,1:1:0:0:
192,192,48287,1,0,1:1:0:0:
320,192,48357,1,0,1:1:0:0:
64,192,48427,1,0,1:1:0:0:
192,192,48427,1,0,1:1:0:0:
320,192,48497,1,0,1:1:0:0:
192,192,48567,1,0,1:1:0:0:
448,192,48567,1,0,1:1:0:0:
64,192,48637,1,0,1:1:0:0:
320,192,48707,1,0,1:1:0:0:
448,192,48707,1,0,1:1:0:0:
192,192,48777,1,0,1:1:0:0:
320,192,48848,1,0,1:1:0:0:
448,192,48848,1,0,1:1:0:0:
64,192,48918,1,0,1:1:0:0:
192,192,48988,1,0,1:1:0:0:
448,192,48988,1,0,1:1:0:0:
320,192,49058,1,0,1:1:0:0:
64,192,49128,1,0,1:1:0:0:
448,192,49198,1,0,1:1:0:0:
192,192,49268,1,0,1:1:0:0:
320,192,49338,1,0,1:1:0:0:
64,192,49408,1,0,1:1:0:0:
192,192,49408,1,0,1:1:0:0:
320,192,49478,1,0,1:1:0:0:
448,192,49478,1,0,1:1:0:0:
64,192,49548,1,0,1:1:0:0:
192,192,49548,1,0,1:1:0:0:
320,192,49619,1,0,1:1:0:0:
448,192,49619,1,0,1:1:0:0:
64,192,49689,1,0,1:1:0:0:
192,192,49689,1,0,1:1:0:0:
320,192,49759,1,0,1:1:0:0:
448,192,49759,1,0,1:1:0:0:
64,192,49829,1,0,1:1:0:0:
192,192,49829,1,0,1:1:0:0:
320,192,49899,1,0,1:1:0:0:
64,192,49969,1,0,1:1:0:0:
192,192,49969,1,0,1:1:0:0:
448,192,49969,1,0,1:1:0:0:
64,192,50109,1,0,1:1:0:0:
192,192,50109,1,0,1:1:0:0:
448,192,50109,1,0,1:1:0:0:
64,192,50249,1,0,1:1:0:0:
448,192,50249,1,0,1:1:0:0:
192,192,50320,1,0,1:1:0:0:
320,192,50320,1,0,1:1:0:0:
64,192,50390,1,0,1:1:0:0:
448,192,50390,1,0,1:1:0:0:
192,192,50460,1,0,1:1:0:0:
320,192,50460,1,0,1:1:0:0:
64,192,50530,1,0,1:1:0:0:
448,192,50530,1,0,1:1:0:0:
320,192,50600,1,0,1:1:0:0:
192,192,50670,1,0,1:1:0:0:
448,192,50740,1,0,1:1:0:0:
64,192,50810,1,0,1:1:0:0:
192,192,50810,1,0,1:1:0:0:
320,192,50880,1,0,1:1:0:0:
448,192,50950,1,0,1:1:0:0:
64,192,51020,1,0,1:1:0:0:
192,192,51091,1,0,1:1:0:0:
448,192,51091,1,0,1:1:0:0:
64,192,51161,1,0,1:1:0:0:
320,192,51161,1,0,1:1:0:0:
192,192,51231,1,0,1:1:0:0:
448,192,51231,1,0,1:1:0:0:
320,192,51301,1,0,1:1:0:0:
64,192,51371,1,0,1:1:0:0:
192,192,51371,1,0,1:1:0:0:
320,192,51441,1,0,1:1:0:0:
192,192,51511,1,0,1:1:0:0:
448,192,51511,1,0,1:1:0:0:
64,192,51581,1,0,1:1:0:0:
320,192,51581,1,0,1:1:0:0:
192,192,51651,1,0,1:1:0:0:
448,192,51651,1,0,1:1:0:0:
64,192,51721,1,0,1:1:0:0:
320,192,51721,1,0,1:1:0:0:
192,192,51791,1,0,1:1:0:0:
448,192,51862,1,0,1:1:0:0:
64,192,51932,1,0,1:1:0:0:
320,192,52002,1,0,1:1:0:0:
192,192,52072,1,0,1:1:0:0:
64,192,52072,1,0,1:1:0:0:
320,192,52142,1,0,1:1:0:0:
448,192,52142,1,0,1:1:0:0:
64,192,52212,1,0,1:1:0:0:
192,192,52212,1,0,1:1:0:0:
448,192,52282,1,0,1:1:0:0:
320,192,52282,1,0,1:1:0:0:
192,192,52352,1,0,1:1:0:0:
320,192,52422,1,0,1:1:0:0:
192,192,52492,1,0,1:1:0:0:
320,192,52563,1,0,1:1:0:0:
448,192,52563,1,0,1:1:0:0:
64,192,52633,1,0,1:1:0:0:
192,192,52633,1,0,1:1:0:0:
448,192,52703,1,0,1:1:0:0:
64,192,52773,1,0,1:1:0:0:
320,192,52773,1,0,1:1:0:0:
192,192,52843,1,0,1:1:0:0:
64,192,52913,1,0,1:1:0:0:
320,192,52913,1,0,1:1:0:0:
192,192,52983,1,0,1:1:0:0:
64,192,53053,1,0,1:1:0:0:
448,192,53053,1,0,1:1:0:0:
192,192,53123,1,0,1:1:0:0:
320,192,53193,1,0,1:1:0:0:
448,192,53193,1,0,1:1:0:0:
64,192,53263,1,0,1:1:0:0:
192,192,53263,1,0,1:1:0:0:
320,192,53334,1,0,1:1:0:0:
448,192,53334,1,0,1:1:0:0:
64,192,53404,1,0,1:1:0:0:
192,192,53404,1,0,1:1:0:0:
320,192,53474,1,0,1:1:0:0:
448,192,53474,1,0,1:1:0:0:
64,192,53544,1,0,1:1:0:0:
192,192,53614,1,0,1:1:0:0:
448,192,53614,1,0,1:1:0:0:
320,192,53684,1,0,1:1:0:0:
64,192,53754,1,0,1:1:0:0:
448,192,53754,1,0,1:1:0:0:
320,192,53824,1,0,1:1:0:0:
64,192,53894,1,0,1:1:0:0:
192,192,53894,1,0,1:1:0:0:
448,192,53964,1,0,1:1:0:0:
64,192,54034,1,0,1:1:0:0:
320,192,54034,1,0,1:1:0:0:
192,192,54105,1,0,1:1:0:0:
448,192,54175,1,0,1:1:0:0:
64,192,54245,1,0,1:1:0:0:
448,192,54315,1,0,1:1:0:0:
64,192,54385,1,0,1:1:0:0:
320,192,54455,1,0,1:1:0:0:
448,192,54455,1,0,1:1:0:0:
64,192,54525,1,0,1:1:0:0:
192,192,54525,1,0,1:1:0:0:
320,192,54595,1,0,1:1:0:0:
448,192,54595,1,0,1:1:0:0:
64,192,54665,1,0,1:1:0:0:
192,192,54735,1,0,1:1:0:0:
320,192,54735,1,0,1:1:0:0:
448,192,54805,1,0,1:1:0:0:
64,192,54876,1,0,1:1:0:0:
320,192,54876,1,0,1:1:0:0:
448,192,54946,1,0,1:1:0:0:
192,192,54946,1,0,1:1:0:0:
64,192,55016,1,0,1:1:0:0:
320,192,55016,1,0,1:1:0:0:
192,192,55086,1,0,1:1:0:0:
64,192,55156,1,0,1:1:0:0:
448,192,55156,1,0,1:1:0:0:
320,192,55226,1,0,1:1:0:0:
64,192,55296,1,0,1:1:0:0:
192,192,55296,1,0,1:1:0:0:
320,192,55366,1,0,1:1:0:0:
448,192,55436,1,0,1:1:0:0:
192,192,55506,1,0,1:1:0:0:
64,192,55577,1,0,1:1:0:0:
448,192,55577,1,0,1:1:0:0:
192,192,55647,1,0,1:1:0:0:
448,192,55717,1,0,1:1:0:0:
192,192,55787,1,0,1:1:0:0:
320,192,55787,1,0,1:1:0:0:
64,192,55857,1,0,1:1:0:0:
448,192,55857,1,0,1:1:0:0:
192,192,55927,1,0,1:1:0:0:
320,192,55997,1,0,1:1:0:0:
448,192,55997,1,0,1:1:0:0:
64,192,56067,1,0,1:1:0:0:
192,192,56067,1,0,1:1:0:0:
448,192,56137,1,0,1:1:0:0:
320,192,56137,1,0,1:1:0:0:
64,192,56207,1,0,1:1:0:0:
192,192,56207,1,0,1:1:0:0:
448,192,56277,1,0,1:1:0:0:
320,192,56277,1,0,1:1:0:0:
64,192,56348,1,0,1:1:0:0:
192,192,56418,1,0,1:1:0:0:
448,192,56418,1,0,1:1:0:0:
320,192,56488,1,0,1:1:0:0:
64,192,56558,1,0,1:1:0:0:
192,192,56558,1,0,1:1:0:0:
320,192,56628,1,0,1:1:0:0:
448,192,56628,1,0,1:1:0:0:
64,192,56698,1,0,1:1:0:0:
192,192,56745,1,0,1:1:0:0:
320,192,56791,1,0,1:1:0:0:
448,192,56838,1,0,1:1:0:0:
64,192,56885,1,0,1:1:0:0:
192,192,56932,1,0,1:1:0:0:
320,192,56978,1,0,1:1:0:0:
64,192,57025,1,0,1:1:0:0:
448,192,57072,1,0,1:1:0:0:
192,192,57119,1,0,1:1:0:0:
320,192,57165,1,0,1:1:0:0:
448,192,57212,1,0,1:1:0:0:
64,192,57259,1,0,1:1:0:0:
192,192,57259,1,0,1:1:0:0:
320,192,57329,1,0,1:1:0:0:
192,192,57399,1,0,1:1:0:0:
448,192,57399,1,0,1:1:0:0:
64,192,57469,1,0,1:1:0:0:
320,192,57539,1,0,1:1:0:0:
448,192,57539,1,0,1:1:0:0:
64,192,57609,1,0,1:1:0:0:
192,192,57609,1,0,1:1:0:0:
320,192,57679,1,0,1:1:0:0:
448,192,57679,1,0,1:1:0:0:
64,192,57749,1,0,1:1:0:0:
192,192,57749,1,0,1:1:0:0:
320,192,57820,1,0,1:1:0:0:
448,192,57820,1,0,1:1:0:0:
64,192,57890,1,0,1:1:0:0:
192,192,57890,1,0,1:1:0:0:
448,192,57960,1,0,1:1:0:0:
320,192,57960,1,0,1:1:0:0:
64,192,58030,1,0,1:1:0:0:
192,192,58100,1,0,1:1:0:0:
320,192,58100,1,0,1:1:0:0:
64,192,58170,1,0,1:1:0:0:
448,192,58170,1,0,1:1:0:0:
192,192,58240,1,0,1:1:0:0:
320,192,58240,1,0,1:1:0:0:
448,192,58310,1,0,1:1:0:0:
64,192,58380,1,0,1:1:0:0:
320,192,58380,1,0,1:1:0:0:
192,192,58450,1,0,1:1:0:0:
64,192,58520,1,0,1:1:0:0:
192,192,58591,1,0,1:1:0:0:
448,192,58591,1,0,1:1:0:0:
64,192,58661,1,0,1:1:0:0:
192,192,58731,1,0,1:1:0:0:
64,192,58801,1,0,1:1:0:0:
320,192,58801,1,0,1:1:0:0:
192,192,58871,1,0,1:1:0:0:
64,192,58941,1,0,1:1:0:0:
448,192,58941,1,0,1:1:0:0:
320,192,59011,1,0,1:1:0:0:
192,192,59081,1,0,1:1:0:70:
448,192,59081,1,0,1:1:0:0:
64,192,59151,1,0,1:1:0:0:
320,192,59151,1,0,1:1:0:0:
192,192,59221,1,0,1:1:0:0:
448,192,59221,1,0,1:1:0:0:
64,192,59291,1,0,1:1:0:0:
320,192,59362,1,0,1:1:0:0:
448,192,59362,1,0,1:1:0:0:
64,192,59432,1,0,1:1:0:0:
192,192,59432,1,0,1:1:0:0:
320,192,59502,1,0,1:1:0:0:
448,192,59502,1,0,1:1:0:0:
64,192,59572,1,0,1:1:0:0:
192,192,59642,1,0,1:1:0:0:
448,192,59642,1,0,1:1:0:0:
320,192,59712,1,0,1:1:0:0:
64,192,59782,1,0,1:1:0:0:
448,192,59782,1,0,1:1:0:0:
192,192,59852,1,0,1:1:0:0:
320,192,59922,1,0,1:1:0:0:
448,192,59922,1,0,1:1:0:0:
64,192,59992,1,0,1:1:0:0:
320,192,60063,1,0,1:1:0:0:
448,192,60063,1,0,1:1:0:0:
64,192,60133,1,0,1:1:0:0:
192,192,60133,1,0,1:1:0:0:
320,192,60203,1,0,1:1:0:0:
448,192,60203,1,0,1:1:0:0:
192,192,60273,1,0,1:1:0:0:
64,192,60343,1,0,1:1:0:0:
448,192,60343,1,0,1:1:0:0:
320,192,60413,1,0,1:1:0:0:
64,192,60483,1,0,1:1:0:0:
448,192,60483,1,0,1:1:0:0:
192,192,60553,1,0,1:1:0:0:
64,192,60623,1,0,1:1:0:0:
320,192,60623,1,0,1:1:0:0:
448,192,60623,1,0,1:1:0:0:
192,192,60693,1,0,1:1:0:0:
448,192,60763,1,0,1:1:0:0:
64,192,60834,1,0,1:1:0:0:
192,192,60904,1,0,1:1:0:0:
320,192,60904,1,0,1:1:0:0:
448,192,60974,1,0,1:1:0:0:
64,192,61044,1,0,1:1:0:0:
320,192,61044,1,0,1:1:0:0:
192,192,61114,1,0,1:1:0:0:
64,192,61184,1,0,1:1:0:0:
448,192,61184,1,0,1:1:0:0:
320,192,61254,1,0,1:1:0:0:
64,192,61324,1,0,1:1:0:0:
448,192,61324,1,0,1:1:0:0:
192,192,61394,1,0,1:1:0:0:
320,192,61394,1,0,1:1:0:0:
64,192,61464,1,0,1:1:0:0:
448,192,61464,1,0,1:1:0:0:
192,192,61534,1,0,1:1:0:0:
320,192,61605,1,0,1:1:0:0:
448,192,61605,1,0,1:1:0:0:
64,192,61675,1,0,1:1:0:0:
192,192,61675,1,0,1:1:0:0:
320,192,61745,1,0,1:1:0:0:
448,192,61745,1,0,1:1:0:0:
64,192,61815,1,0,1:1:0:0:
192,192,61815,1,0,1:1:0:0:
320,192,61885,1,0,1:1:0:0:
448,192,61885,1,0,1:1:0:0:
64,192,61955,1,0,1:1:0:0:
192,192,62025,1,0,1:1:0:0:
320,192,62025,1,0,1:1:0:0:
448,192,62095,1,0,1:1:0:0:
320,192,62165,1,0,1:1:0:0:
64,192,62235,1,0,1:1:0:0:
192,192,62235,1,0,1:1:0:0:
320,192,62305,1,0,1:1:0:0:
448,192,62305,1,0,1:1:0:0:
64,192,62376,1,0,1:1:0:0:
192,192,62376,1,0,1:1:0:0:
320,192,62446,1,0,1:1:0:0:
448,192,62446,1,0,1:1:0:0:
192,192,62516,1,0,1:1:0:0:
64,192,62586,1,0,1:1:0:0:
448,192,62586,1,0,1:1:0:0:
192,192,62656,1,0,1:1:0:0:
320,192,62656,1,0,1:1:0:0:
64,192,62726,1,0,1:1:0:0:
448,192,62726,1,0,1:1:0:0:
320,192,62796,1,0,1:1:0:0:
64,192,62866,1,0,1:1:0:0:
192,192,62913,1,0,1:1:0:0:
320,192,62960,1,0,1:1:0:0:
64,192,63006,1,0,1:1:0:0:
448,192,63006,1,0,1:1:0:0:
192,192,63077,1,0,1:1:0:0:
320,192,63147,1,0,1:1:0:0:
448,192,63147,1,0,1:1:0:0:
192,192,63217,1,0,1:1:0:0:
64,192,63287,1,0,1:1:0:0:
448,192,63287,1,0,1:1:0:0:
320,192,63357,1,0,1:1:0:0:
192,192,63427,1,0,1:1:0:0:
448,192,63427,1,0,1:1:0:0:
64,192,63497,1,0,1:1:0:0:
320,192,63497,1,0,1:1:0:0:
192,192,63567,1,0,1:1:0:0:
448,192,63567,1,0,1:1:0:0:
64,192,63637,1,0,1:1:0:0:
320,192,63707,1,0,1:1:0:0:
448,192,63707,1,0,1:1:0:0:
64,192,63777,1,0,1:1:0:0:
192,192,63777,1,0,1:1:0:0:
320,192,63848,1,0,1:1:0:0:
448,192,63848,1,0,1:1:0:0:
64,192,63918,1,0,1:1:0:0:
192,192,63988,1,0,1:1:0:70:
320,192,63988,1,0,1:1:0:0:
448,192,64058,1,0,1:1:0:0:
192,192,64128,1,0,1:1:0:0:
320,192,64128,1,0,1:1:0:0:
64,192,64198,1,0,1:1:0:0:
192,192,64268,1,0,1:1:0:0:
448,192,64268,1,0,1:1:0:0:
320,192,64338,1,0,1:1:0:0:
64,192,64408,1,0,1:1:0:0:
448,192,64408,1,0,1:1:0:0:
192,192,64478,1,0,1:1:0:0:
320,192,64548,1,0,1:1:0:0:
448,192,64548,1,0,1:1:0:0:
64,192,64619,1,0,1:1:0:0:
192,192,64619,1,0,1:1:0:0:
320,192,64689,1,0,1:1:0:0:
448,192,64689,1,0,1:1:0:0:
192,192,64759,1,0,1:1:0:0:
64,192,64759,1,0,1:1:0:0:
448,192,64829,1,0,1:1:0:0:
320,192,64829,1,0,1:1:0:0:
64,192,64899,1,0,1:1:0:0:
448,192,64969,1,0,1:1:0:0:
320,192,65039,1,0,1:1:0:0:
64,192,65109,1,0,1:1:0:0:
448,192,65109,1,0,1:1:0:0:
320,192,65179,1,0,1:1:0:0:
192,192,65249,1,0,1:1:0:0:
448,192,65249,1,0,1:1:0:0:
64,192,65320,1,0,1:1:0:0:
320,192,65390,1,0,1:1:0:0:
448,192,65390,1,0,1:1:0:0:
192,192,65460,1,0,1:1:0:0:
64,192,65530,1,0,1:1:0:0:
192,192,65577,1,0,1:1:0:0:
320,192,65623,1,0,1:1:0:0:
64,192,65670,1,0,1:1:0:0:
448,192,65670,1,0,1:1:0:0:
192,192,65740,1,0,1:1:0:0:
320,192,65810,1,0,1:1:0:0:
448,192,65810,1,0,1:1:0:0:
64,192,65880,1,0,1:1:0:0:
192,192,65950,1,0,1:1:0:0:
448,192,65950,1,0,1:1:0:0:
64,192,66020,1,0,1:1:0:0:
320,192,66020,1,0,1:1:0:0:
192,192,66091,1,0,1:1:0:0:
448,192,66091,1,0,1:1:0:0:
320,192,66161,1,0,1:1:0:0:
64,192,66231,1,0,1:1:0:0:
192,192,66231,1,0,1:1:0:0:
320,192,66301,1,0,1:1:0:0:
448,192,66301,1,0,1:1:0:0:
64,192,66371,1,0,1:1:0:0:
192,192,66371,1,0,1:1:0:0:
320,192,66441,1,0,1:1:0:0:
448,192,66441,1,0,1:1:0:0:
64,192,66511,1,0,1:1:0:0:
448,192,66581,1,0,1:1:0:0:
64,192,66651,1,0,1:1:0:0:
320,192,66721,1,0,1:1:0:0:
448,192,66721,1,0,1:1:0:0:
64,192,66791,1,0,1:1:0:0:
192,192,66791,1,0,1:1:0:0:
320,192,66862,1,0,1:1:0:0:
448,192,66862,1,0,1:1:0:0:
64,192,66932,1,0,1:1:0:0:
192,192,66932,1,0,1:1:0:0:
448,192,67002,1,0,1:1:0:0:
192,192,67072,1,0,1:1:0:0:
320,192,67072,1,0,1:1:0:0:
64,192,67142,1,0,1:1:0:0:
448,192,67142,1,0,1:1:0:0:
192,192,67212,1,0,1:1:0:0:
320,192,67212,1,0,1:1:0:0:
64,192,67282,1,0,1:1:0:0:
448,192,67282,1,0,1:1:0:0:
192,192,67352,1,0,1:1:0:0:
320,192,67352,1,0,1:1:0:0:
64,192,67422,1,0,1:1:0:0:
192,192,67492,1,0,1:1:0:0:
64,192,67563,1,0,1:1:0:0:
320,192,67633,1,0,1:1:0:0:
448,192,67633,1,0,1:1:0:0:
64,192,67703,1,0,1:1:0:0:
448,192,67773,1,0,1:1:0:0:
64,192,67843,1,0,1:1:0:0:
192,192,67913,1,0,1:1:0:0:
448,192,67913,1,0,1:1:0:0:
320,192,67983,1,0,1:1:0:0:
64,192,68053,1,0,1:1:0:0:
448,192,68053,1,0,1:1:0:0:
192,192,68123,1,0,1:1:0:0:
320,192,68123,1,0,1:1:0:0:
64,192,68193,1,0,1:1:0:0:
448,192,68193,1,0,1:1:0:0:
64,192,68334,1,0,1:1:0:0:
192,192,68404,1,0,1:1:0:0:
64,192,68474,1,0,1:1:0:0:
320,192,68474,1,0,1:1:0:0:
448,192,68544,1,0,1:1:0:0:
320,192,68614,1,0,1:1:0:0:
448,192,68684,1,0,1:1:0:0:
192,192,68754,1,0,1:1:0:0:
320,192,68754,1,0,1:1:0:0:
448,192,68824,1,0,1:1:0:0:
320,192,68894,1,0,1:1:0:0:
448,192,68964,1,0,1:1:0:0:
320,192,69034,1,0,1:1:0:0:
448,192,69105,1,0,1:1:0:0:
64,192,69175,1,0,1:1:0:0:
320,192,69175,1,0,1:1:0:0:
320,192,69315,1,0,1:1:0:0:
448,192,69315,1,0,1:1:0:0:
192,192,69362,1,0,1:1:0:0:
64,192,69408,1,0,1:1:0:0:
320,192,69455,1,0,1:1:0:0:
448,192,69455,1,0,1:1:0:0:
192,192,69525,1,0,1:1:0:0:
64,192,69595,1,0,1:1:0:0:
448,192,69595,1,0,1:1:0:0:
320,192,69665,1,0,1:1:0:0:
448,192,69735,1,0,1:1:0:0:
192,192,69805,1,0,1:1:0:0:
64,192,69876,1,0,1:1:0:0:
320,192,69876,1,0,1:1:0:0:
192,192,70016,1,0,1:1:0:0:
320,192,70086,1,0,1:1:0:0:
192,192,70156,1,0,1:1:0:0:
448,192,70156,1,0,1:1:0:0:
320,192,70226,1,0,1:1:0:0:
192,192,70296,1,0,1:1:0:0:
448,192,70296,1,0,1:1:0:0:
64,192,70436,1,0,1:1:0:0:
320,192,70436,1,0,1:1:0:0:
192,192,70506,1,0,1:1:0:0:
64,192,70577,1,0,1:1:0:0:
448,192,70577,1,0,1:1:0:0:
64,192,70717,1,0,1:1:0:0:
320,192,70717,1,0,1:1:0:0:
192,192,70787,1,0,1:1:0:0:
320,192,70857,1,0,1:1:0:0:
448,192,70857,1,0,1:1:0:0:
64,192,70927,1,0,1:1:0:0:
192,192,70927,1,0,1:1:0:0:
320,192,70997,1,0,1:1:0:0:
448,192,70997,1,0,1:1:0:0:
64,192,71067,1,0,1:1:0:0:
320,192,71137,1,0,1:1:0:0:
448,192,71137,1,0,1:1:0:0:
64,192,71207,1,0,1:1:0:0:
192,192,71207,1,0,1:1:0:0:
320,192,71277,1,0,1:1:0:0:
448,192,71277,1,0,1:1:0:0:
64,192,71348,1,0,1:1:0:0:
192,192,71348,1,0,1:1:0:0:
320,192,71418,1,0,1:1:0:0:
448,192,71418,1,0,1:1:0:0:
192,192,71488,1,0,1:1:0:0:
64,192,71558,1,0,1:1:0:0:
448,192,71558,1,0,1:1:0:0:
320,192,71628,1,0,1:1:0:0:
192,192,71698,1,0,1:1:0:0:
320,192,71768,1,0,1:1:0:0:
64,192,71838,1,0,1:1:0:0:
192,192,71838,1,0,1:1:0:0:
448,192,71908,1,0,1:1:0:0:
192,192,71978,1,0,1:1:0:0:
320,192,72048,1,0,1:1:0:0:
192,192,72119,1,0,1:1:0:0:
448,192,72119,1,0,1:1:0:0:
320,192,72189,1,0,1:1:0:0:
192,192,72259,1,0,1:1:0:0:
320,192,72329,1,0,1:1:0:0:
64,192,72399,1,0,1:1:0:0:
192,192,72399,1,0,1:1:0:0:
320,192,72469,1,0,1:1:0:0:
448,192,72469,1,0,1:1:0:0:
64,192,72539,1,0,1:1:0:0:
192,192,72539,1,0,1:1:0:0:
64,192,72679,1,0,1:1:0:0:
192,192,72679,1,0,1:1:0:0:
448,192,72679,1,0,1:1:0:0:
64,192,72820,1,0,1:1:0:0:
192,192,72820,1,0,1:1:0:0:
448,192,72890,1,0,1:1:0:0:
192,192,72960,1,0,1:1:0:0:
320,192,72960,1,0,1:1:0:0:
64,192,73030,1,0,1:1:0:0:
192,192,73100,1,0,1:1:0:0:
320,192,73100,1,0,1:1:0:0:
448,192,73170,1,0,1:1:0:0:
64,192,73240,1,0,1:1:0:0:
320,192,73240,1,0,1:1:0:0:
192,192,73310,1,0,1:1:0:0:
320,192,73380,1,0,1:1:0:0:
448,192,73380,1,0,1:1:0:0:
64,192,73450,1,0,1:1:0:0:
192,192,73520,1,0,1:1:0:0:
448,192,73520,1,0,1:1:0:0:
64,192,73591,1,0,1:1:0:0:
320,192,73591,1,0,1:1:0:0:
192,192,73661,1,0,1:1:0:0:
448,192,73661,1,0,1:1:0:0:
320,192,73731,1,0,1:1:0:0:
64,192,73801,1,0,1:1:0:0:
448,192,73801,1,0,1:1:0:0:
192,192,73871,1,0,1:1:0:0:
64,192,73941,1,0,1:1:0:0:
320,192,73941,1,0,1:1:0:0:
448,192,74011,1,0,1:1:0:0:
64,192,74081,1,0,1:1:0:0:
192,192,74081,1,0,1:1:0:0:
448,192,74151,1,0,1:1:0:0:
320,192,74221,1,0,1:1:0:0:
64,192,74221,1,0,1:1:0:0:
192,192,74291,1,0,1:1:0:0:
320,192,74362,1,0,1:1:0:0:
64,192,74362,1,0,1:1:0:0:
448,192,74432,1,0,1:1:0:0:
64,192,74502,1,0,1:1:0:0:
192,192,74502,1,0,1:1:0:0:
320,192,74572,1,0,1:1:0:0:
192,192,74642,1,0,1:1:0:0:
448,192,74642,1,0,1:1:0:0:
320,192,74712,1,0,1:1:0:0:
64,192,74782,1,0,1:1:0:0:
448,192,74782,1,0,1:1:0:0:
192,192,74852,1,0,1:1:0:0:
320,192,74852,1,0,1:1:0:0:
64,192,74922,1,0,1:1:0:0:
448,192,74922,1,0,1:1:0:0:
192,192,74992,1,0,1:1:0:0:
64,192,75063,1,0,1:1:0:0:
448,192,75063,1,0,1:1:0:0:
320,192,75133,1,0,1:1:0:0:
64,192,75203,1,0,1:1:0:0:
192,192,75203,1,0,1:1:0:0:
448,192,75273,1,0,1:1:0:0:
320,192,75343,1,0,1:1:0:0:
448,192,75413,1,0,1:1:0:0:
64,192,75483,1,0,1:1:0:0:
192,192,75483,1,0,1:1:0:0:
320,192,75553,1,0,1:1:0:0:
448,192,75553,1,0,1:1:0:0:
64,192,75623,1,0,1:1:0:0:
192,192,75623,1,0,1:1:0:0:
320,192,75693,1,0,1:1:0:0:
448,192,75693,1,0,1:1:0:0:
64,192,75763,1,0,1:1:0:0:
192,192,75763,1,0,1:1:0:0:
320,192,75834,1,0,1:1:0:0:
448,192,75834,1,0,1:1:0:0:
64,192,75904,1,0,1:1:0:0:
192,192,75904,1,0,1:1:0:0:
320,192,75974,1,0,1:1:0:0:
64,192,76044,1,0,1:1:0:0:
448,192,76044,1,0,1:1:0:0:
192,192,76114,1,0,1:1:0:0:
320,192,76114,1,0,1:1:0:0:
64,192,76184,1,0,1:1:0:0:
448,192,76184,1,0,1:1:0:0:
192,192,76254,1,0,1:1:0:0:
320,192,76254,1,0,1:1:0:0:
64,192,76324,1,0,1:1:0:0:
448,192,76324,1,0,1:1:0:0:
192,192,76394,1,0,1:1:0:0:
320,192,76464,1,0,1:1:0:0:
448,192,76464,1,0,1:1:0:0:
64,192,76534,1,0,1:1:0:0:
192,192,76534,1,0,1:1:0:0:
320,192,76605,1,0,1:1:0:0:
448,192,76605,1,0,1:1:0:0:
192,192,76675,1,0,1:1:0:0:
64,192,76745,1,0,1:1:0:0:
320,192,76745,1,0,1:1:0:0:
448,192,76815,1,0,1:1:0:0:
64,192,76885,1,0,1:1:0:0:
192,192,76885,1,0,1:1:0:0:
320,192,76955,1,0,1:1:0:0:
448,192,76955,1,0,1:1:0:0:
64,192,77025,1,0,1:1:0:0:
192,192,77025,1,0,1:1:0:0:
448,192,77095,1,0,1:1:0:0:
64,192,77165,1,0,1:1:0:0:
320,192,77165,1,0,1:1:0:0:
64,192,77305,1,0,1:1:0:0:
320,192,77376,1,0,1:1:0:0:
64,192,77446,1,0,1:1:0:0:
192,192,77446,1,0,1:1:0:0:
448,192,77446,1,0,1:1:0:0:
320,192,77516,1,0,1:1:0:0:
192,192,77586,1,0,1:1:0:0:
448,192,77586,1,0,1:1:0:0:
64,192,77656,1,0,1:1:0:0:
192,192,77726,1,0,1:1:0:0:
320,192,77726,1,0,1:1:0:0:
448,192,77796,1,0,1:1:0:0:
64,192,77866,1,0,1:1:0:0:
320,192,77866,1,0,1:1:0:0:
192,192,77936,1,0,1:1:0:0:
64,192,78006,1,0,1:1:0:0:
448,192,78006,1,0,1:1:0:0:
192,192,78077,1,0,1:1:0:0:
320,192,78147,1,0,1:1:0:0:
448,192,78147,1,0,1:1:0:0:
64,192,78217,1,0,1:1:0:0:
192,192,78287,1,0,1:1:0:0:
448,192,78287,1,0,1:1:0:0:
320,192,78357,1,0,1:1:0:0:
64,192,78427,1,0,1:1:0:0:
448,192,78427,1,0,1:1:0:0:
320,192,78497,1,0,1:1:0:0:
64,192,78567,1,0,1:1:0:0:
192,192,78567,1,0,1:1:0:0:
320,192,78637,1,0,1:1:0:0:
192,192,78707,1,0,1:1:0:0:
448,192,78707,1,0,1:1:0:0:
64,192,78777,1,0,1:1:0:0:
320,192,78848,1,0,1:1:0:0:
448,192,78848,1,0,1:1:0:0:
192,192,78918,1,0,1:1:0:0:
64,192,78988,1,0,1:1:0:0:
448,192,78988,1,0,1:1:0:0:
320,192,79058,1,0,1:1:0:0:
64,192,79128,1,0,1:1:0:0:
192,192,79128,1,0,1:1:0:0:
320,192,79198,1,0,1:1:0:0:
448,192,79198,1,0,1:1:0:0:
64,192,79268,1,0,1:1:0:0:
192,192,79268,1,0,1:1:0:0:
448,192,79338,1,0,1:1:0:0:
64,192,79408,1,0,1:1:0:0:
320,192,79408,1,0,1:1:0:0:
192,192,79478,1,0,1:1:0:0:
320,192,79548,1,0,1:1:0:0:
448,192,79548,1,0,1:1:0:0:
64,192,79619,1,0,1:1:0:0:
192,192,79689,1,0,1:1:0:0:
448,192,79689,1,0,1:1:0:0:
320,192,79759,1,0,1:1:0:0:
64,192,79829,1,0,1:1:0:0:
448,192,79829,1,0,1:1:0:0:
192,192,79899,1,0,1:1:0:0:
320,192,79969,1,0,1:1:0:0:
448,192,79969,1,0,1:1:0:0:
64,192,80039,1,0,1:1:0:0:
320,192,80109,1,0,1:1:0:0:
192,192,80179,1,0,1:1:0:0:
448,192,80179,1,0,1:1:0:0:
64,192,80249,1,0,1:1:0:0:
320,192,80249,1,0,1:1:0:0:
192,192,80320,1,0,1:1:0:0:
448,192,80320,1,0,1:1:0:0:
64,192,80390,1,0,1:1:0:0:
320,192,80390,1,0,1:1:0:0:
192,192,80460,1,0,1:1:0:0:
64,192,80530,1,0,1:1:0:0:
448,192,80530,1,0,1:1:0:0:
320,192,80600,1,0,1:1:0:0:
192,192,80670,1,0,1:1:0:0:
448,192,80670,1,0,1:1:0:0:
64,192,80740,1,0,1:1:0:0:
320,192,80810,1,0,1:1:0:0:
448,192,80810,1,0,1:1:0:0:
192,192,80880,1,0,1:1:0:0:
64,192,80950,1,0,1:1:0:0:
192,192,81020,1,0,1:1:0:0:
64,192,81091,1,0,1:1:0:0:
320,192,81091,1,0,1:1:0:0:
448,192,81161,1,0,1:1:0:0:
64,192,81231,1,0,1:1:0:0:
192,192,81231,1,0,1:1:0:0:
320,192,81301,1,0,1:1:0:0:
64,192,81371,1,0,1:1:0:0:
448,192,81371,1,0,1:1:0:0:
320,192,81441,1,0,1:1:0:0:
448,192,81511,1,0,1:1:0:0:
320,192,81581,1,0,1:1:0:0:
192,192,81651,1,0,1:1:0:0:
448,192,81651,1,0,1:1:0:0:
64,192,81721,1,0,1:1:0:0:
192,192,81791,1,0,1:1:0:0:
64,192,81862,1,0,1:1:0:0:
192,192,81932,1,0,1:1:0:0:
320,192,81932,1,0,1:1:0:0:
448,192,82002,1,0,1:1:0:0:
192,192,82072,1,0,1:1:0:0:
320,192,82072,1,0,1:1:0:0:
64,192,82142,1,0,1:1:0:0:
192,192,82212,1,0,1:1:0:0:
448,192,82212,1,0,1:1:0:0:
320,192,82282,1,0,1:1:0:0:
64,192,82352,1,0,1:1:0:0:
448,192,82352,1,0,1:1:0:0:
192,192,82422,1,0,1:1:0:0:
320,192,82492,1,0,1:1:0:0:
448,192,82492,1,0,1:1:0:0:
192,192,82563,1,0,1:1:0:0:
64,192,82633,1,0,1:1:0:0:
320,192,82633,1,0,1:1:0:0:
448,192,82703,1,0,1:1:0:0:
64,192,82773,1,0,1:1:0:0:
192,192,82773,1,0,1:1:0:0:
320,192,82843,1,0,1:1:0:0:
448,192,82843,1,0,1:1:0:0:
64,192,82913,1,0,1:1:0:0:
192,192,82913,1,0,1:1:0:0:
320,192,82983,1,0,1:1:0:0:
448,192,82983,1,0,1:1:0:0:
64,192,83053,1,0,1:1:0:0:
192,192,83053,1,0,1:1:0:0:
320,192,83123,1,0,1:1:0:0:
448,192,83123,1,0,1:1:0:0:
64,192,83193,1,0,1:1:0:0:
192,192,83193,1,0,1:1:0:0:
320,192,83263,1,0,1:1:0:0:
448,192,83263,1,0,1:1:0:0:
64,192,83334,1,0,1:1:0:0:
192,192,83334,1,0,1:1:0:0:
448,192,83404,1,0,1:1:0:0:
64,192,83474,1,0,1:1:0:0:
320,192,83474,1,0,1:1:0:0:
192,192,83544,1,0,1:1:0:0:
64,192,83614,1,0,1:1:0:0:
448,192,83614,1,0,1:1:0:0:
192,192,83684,1,0,1:1:0:0:
320,192,83684,1,0,1:1:0:0:
64,192,83754,1,0,1:1:0:0:
448,192,83754,1,0,1:1:0:0:
192,192,83824,1,0,1:1:0:0:
320,192,83824,1,0,1:1:0:0:
64,192,83894,1,0,1:1:0:0:
448,192,83894,1,0,1:1:0:0:
320,192,83964,1,0,1:1:0:0:
192,192,84034,1,0,1:1:0:0:
320,192,84105,1,0,1:1:0:0:
64,192,84175,1,0,1:1:0:0:
448,192,84175,1,0,1:1:0:0:
192,192,84315,1,0,1:1:0:0:
320,192,84385,1,0,1:1:0:0:
192,192,84455,1,0,1:1:0:0:
448,192,84525,1,0,1:1:0:0:
320,192,84595,1,0,1:1:0:0:
192,192,84665,1,0,1:1:0:0:
320,192,84735,1,0,1:1:0:0:
448,192,84876,1,0,1:1:0:0:
64,192,85016,1,0,1:1:0:0:
320,192,85016,1,0,1:1:0:0:
192,192,85086,1,0,1:1:0:0:
320,192,85156,1,0,1:1:0:0:
192,192,85226,1,0,1:1:0:0:
320,192,85296,1,0,1:1:0:0:
448,192,85296,1,0,1:1:0:0:
448,192,85436,1,0,1:1:0:0:
192,192,85577,1,0,1:1:0:0:
448,192,85577,1,0,1:1:0:0:
448,192,85717,1,0,1:1:0:0:
192,192,85787,1,0,1:1:0:0:
64,192,85857,1,0,1:1:0:0:
448,192,85857,1,0,1:1:0:0:
320,192,85927,1,0,1:1:0:0:
64,192,86137,1,0,1:1:0:0:
192,192,86137,1,0,1:1:0:0:
320,192,86207,1,0,1:1:0:0:
448,192,86207,1,0,1:1:0:0:
192,192,86418,1,0,1:1:0:0:
320,192,86418,1,0,1:1:0:0:
64,192,86418,1,0,1:1:0:0:
448,192,86488,1,0,1:1:0:0:
64,192,86558,1,0,1:1:0:0:
320,192,86558,1,0,1:1:0:0:
192,192,86628,1,0,1:1:0:0:
320,192,86698,1,0,1:1:0:0:
448,192,86698,1,0,1:1:0:0:
64,192,86768,1,0,1:1:0:0:
192,192,86838,1,0,1:1:0:0:
448,192,86838,1,0,1:1:0:0:
320,192,86908,1,0,1:1:0:0:
64,192,86978,1,0,1:1:0:0:
192,192,86978,1,0,1:1:0:0:
320,192,87048,1,0,1:1:0:0:
448,192,87048,1,0,1:1:0:0:
64,192,87119,1,0,1:1:0:0:
192,192,87119,1,0,1:1:0:0:
320,192,87189,1,0,1:1:0:0:
448,192,87189,1,0,1:1:0:0:
64,192,87259,1,0,1:1:0:0:
192,192,87259,1,0,1:1:0:0:
320,192,87329,1,0,1:1:0:0:
192,192,87399,1,0,1:1:0:0:
448,192,87399,1,0,1:1:0:0:
64,192,87469,1,0,1:1:0:0:
320,192,87539,1,0,1:1:0:0:
448,192,87539,1,0,1:1:0:0:
192,192,87609,1,0,1:1:0:0:
320,192,87679,1,0,1:1:0:0:
192,192,87749,1,0,1:1:0:0:
320,192,87820,1,0,1:1:0:0:
448,192,87820,1,0,1:1:0:0:
192,192,87890,1,0,1:1:0:0:
64,192,87960,1,0,1:1:0:0:
448,192,87960,1,0,1:1:0:0:
192,192,88030,1,0,1:1:0:0:
448,192,88100,1,0,1:1:0:0:
192,192,88170,1,0,1:1:0:0:
64,192,88240,1,0,1:1:0:0:
448,192,88240,1,0,1:1:0:0:
192,192,88310,1,0,1:1:0:0:
320,192,88380,1,0,1:1:0:0:
448,192,88380,1,0,1:1:0:0:
192,192,88450,1,0,1:1:0:0:
64,192,88520,1,0,1:1:0:0:
320,192,88520,1,0,1:1:0:0:
192,192,88591,1,0,1:1:0:0:
320,192,88661,1,0,1:1:0:0:
448,192,88661,1,0,1:1:0:0:
64,192,88731,1,0,1:1:0:0:
448,192,88801,1,0,1:1:0:0:
64,192,88871,1,0,1:1:0:0:
320,192,88941,1,0,1:1:0:0:
448,192,88941,1,0,1:1:0:0:
64,192,89011,1,0,1:1:0:0:
448,192,89081,1,0,1:1:0:0:
64,192,89151,1,0,1:1:0:0:
192,192,89151,1,0,1:1:0:0:
320,192,89221,1,0,1:1:0:0:
448,192,89221,1,0,1:1:0:0:
64,192,89291,1,0,1:1:0:0:
192,192,89291,1,0,1:1:0:0:
320,192,89362,1,0,1:1:0:0:
448,192,89362,1,0,1:1:0:0:
192,192,89432,1,0,1:1:0:0:
64,192,89502,1,0,1:1:0:0:
320,192,89502,1,0,1:1:0:0:
448,192,89572,1,0,1:1:0:0:
64,192,89642,1,0,1:1:0:0:
192,192,89642,1,0,1:1:0:0:
320,192,89712,1,0,1:1:0:0:
192,192,89782,1,0,1:1:0:0:
448,192,89782,1,0,1:1:0:0:
64,192,89852,1,0,1:1:0:0:
320,192,89922,1,0,1:1:0:0:
448,192,89922,1,0,1:1:0:0:
192,192,89992,1,0,1:1:0:0:
64,192,90063,1,0,1:1:0:0:
320,192,90063,1,0,1:1:0:0:
448,192,90133,1,0,1:1:0:0:
192,192,90203,1,0,1:1:0:0:
320,192,90203,1,0,1:1:0:0:
64,192,90273,1,0,1:1:0:0:
192,192,90343,1,0,1:1:0:0:
448,192,90343,1,0,1:1:0:0:
320,192,90413,1,0,1:1:0:0:
64,192,90483,1,0,1:1:0:0:
448,192,90483,1,0,1:1:0:0:
320,192,90553,1,0,1:1:0:0:
192,192,90623,1,0,1:1:0:0:
448,192,90623,1,0,1:1:0:0:
64,192,90693,1,0,1:1:0:0:
192,192,90763,1,0,1:1:0:0:
320,192,90763,1,0,1:1:0:0:
64,192,90834,1,0,1:1:0:0:
448,192,90834,1,0,1:1:0:0:
192,192,90904,1,0,1:1:0:0:
320,192,90904,1,0,1:1:0:0:
448,192,90974,1,0,1:1:0:0:
64,192,91044,1,0,1:1:0:0:
192,192,91044,1,0,1:1:0:0:
320,192,91114,1,0,1:1:0:0:
192,192,91184,1,0,1:1:0:0:
448,192,91184,1,0,1:1:0:0:
64,192,91254,1,0,1:1:0:0:
320,192,91324,1,0,1:1:0:0:
448,192,91324,1,0,1:1:0:0:
192,192,91394,1,0,1:1:0:0:
64,192,91464,1,0,1:1:0:0:
448,192,91464,1,0,1:1:0:0:
320,192,91534,1,0,1:1:0:0:
192,192,91605,1,0,1:1:0:0:
448,192,91605,1,0,1:1:0:0:
64,192,91675,1,0,1:1:0:0:
192,192,91745,1,0,1:1:0:0:
320,192,91745,1,0,1:1:0:0:
448,192,91815,1,0,1:1:0:0:
64,192,91885,1,0,1:1:0:0:
320,192,91885,1,0,1:1:0:0:
192,192,91955,1,0,1:1:0:0:
320,192,92025,1,0,1:1:0:0:
448,192,92025,1,0,1:1:0:0:
64,192,92095,1,0,1:1:0:0:
192,192,92165,1,0,1:1:0:0:
448,192,92165,1,0,1:1:0:0:
320,192,92235,1,0,1:1:0:0:
64,192,92305,1,0,1:1:0:0:
448,192,92305,1,0,1:1:0:0:
192,192,92376,1,0,1:1:0:0:
64,192,92446,1,0,1:1:0:0:
320,192,92446,1,0,1:1:0:0:
192,192,92516,1,0,1:1:0:0:
320,192,92586,1,0,1:1:0:0:
448,192,92586,1,0,1:1:0:0:
64,192,92656,1,0,1:1:0:0:
192,192,92726,1,0,1:1:0:0:
448,192,92726,1,0,1:1:0:0:
320,192,92796,1,0,1:1:0:0:
64,192,92866,1,0,1:1:0:0:
448,192,92866,1,0,1:1:0:0:
192,192,92936,1,0,1:1:0:0:
320,192,93006,1,0,1:1:0:0:
448,192,93006,1,0,1:1:0:0:
64,192,93077,1,0,1:1:0:0:
192,192,93147,1,0,1:1:0:0:
320,192,93147,1,0,1:1:0:0:
448,192,93217,1,0,1:1:0:0:
192,192,93287,1,0,1:1:0:0:
320,192,93287,1,0,1:1:0:0:
64,192,93357,1,0,1:1:0:0:
192,192,93427,1,0,1:1:0:0:
448,192,93427,1,0,1:1:0:0:
320,192,93497,1,0,1:1:0:0:
64,192,93567,1,0,1:1:0:0:
192,192,93567,1,0,1:1:0:0:
320,192,93637,1,0,1:1:0:0:
448,192,93637,1,0,1:1:0:0:
64,192,93707,1,0,1:1:0:0:
192,192,93707,1,0,1:1:0:0:
320,192,93777,1,0,1:1:0:0:
448,192,93777,1,0,1:1:0:0:
64,192,93848,1,0,1:1:0:0:
192,192,93848,1,0,1:1:0:0:
448,192,93918,1,0,1:1:0:0:
64,192,93988,1,0,1:1:0:0:
320,192,93988,1,0,1:1:0:0:
192,192,94058,1,0,1:1:0:0:
64,192,94128,1,0,1:1:0:0:
320,192,94128,1,0,1:1:0:0:
448,192,94198,1,0,1:1:0:0:
192,192,94268,1,0,1:1:0:0:
320,192,94268,1,0,1:1:0:0:
64,192,94338,1,0,1:1:0:0:
192,192,94408,1,0,1:1:0:0:
448,192,94408,1,0,1:1:0:0:
320,192,94478,1,0,1:1:0:0:
64,192,94548,1,0,1:1:0:0:
192,192,94548,1,0,1:1:0:0:
448,192,94619,1,0,1:1:0:0:
64,192,94689,1,0,1:1:0:0:
320,192,94689,1,0,1:1:0:0:
192,192,94759,1,0,1:1:0:0:
64,192,94829,1,0,1:1:0:0:
320,192,94829,1,0,1:1:0:0:
448,192,94899,1,0,1:1:0:0:
64,192,94969,1,0,1:1:0:0:
320,192,94969,1,0,1:1:0:0:
192,192,95039,1,0,1:1:0:0:
448,192,95039,1,0,1:1:0:0:
64,192,95109,1,0,1:1:0:0:
320,192,95109,1,0,1:1:0:0:
192,192,95179,1,0,1:1:0:0:
320,192,95249,1,0,1:1:0:0:
448,192,95249,1,0,1:1:0:0:
64,192,95320,1,0,1:1:0:0:
192,192,95390,1,0,1:1:0:0:
448,192,95390,1,0,1:1:0:0:
320,192,95460,1,0,1:1:0:0:
64,192,95530,1,0,1:1:0:0:
448,192,95530,1,0,1:1:0:0:
320,192,95600,1,0,1:1:0:0:
192,192,95670,1,0,1:1:0:0:
448,192,95670,1,0,1:1:0:0:
64,192,95740,1,0,1:1:0:0:
192,192,95810,1,0,1:1:0:0:
448,192,95810,1,0,1:1:0:0:
320,192,95880,1,0,1:1:0:0:
64,192,95950,1,0,1:1:0:0:
448,192,95950,1,0,1:1:0:0:
192,192,96020,1,0,1:1:0:0:
64,192,96091,1,0,1:1:0:0:
320,192,96091,1,0,1:1:0:0:
448,192,96161,1,0,1:1:0:0:
64,192,96231,1,0,1:1:0:0:
192,192,96231,1,0,1:1:0:0:
448,192,96301,1,0,1:1:0:0:
64,192,96371,1,0,1:1:0:0:
320,192,96371,1,0,1:1:0:0:
192,192,96441,1,0,1:1:0:0:
320,192,96511,1,0,1:1:0:0:
448,192,96511,1,0,1:1:0:0:
64,192,96581,1,0,1:1:0:0:
320,192,96651,1,0,1:1:0:0:
448,192,96651,1,0,1:1:0:0:
192,192,96721,1,0,1:1:0:0:
64,192,96791,1,0,1:1:0:0:
320,192,96791,1,0,1:1:0:0:
448,192,96862,1,0,1:1:0:0:
192,192,96932,1,0,1:1:0:0:
320,192,96932,1,0,1:1:0:0:
64,192,97002,1,0,1:1:0:0:
320,192,97072,1,0,1:1:0:0:
448,192,97072,1,0,1:1:0:0:
192,192,97142,1,0,1:1:0:0:
64,192,97212,1,0,1:1:0:0:
320,192,97282,1,0,1:1:0:0:
448,192,97282,1,0,1:1:0:0:
64,192,97352,1,0,1:1:0:0:
192,192,97352,1,0,1:1:0:0:
320,192,97422,1,0,1:1:0:0:
448,192,97422,1,0,1:1:0:0:
64,192,97492,1,0,1:1:0:0:
192,192,97492,1,0,1:1:0:0:
448,192,97563,1,0,1:1:0:0:
64,192,97633,1,0,1:1:0:0:
320,192,97633,1,0,1:1:0:0:
192,192,97703,1,0,1:1:0:0:
64,192,97773,1,0,1:1:0:0:
448,192,97773,1,0,1:1:0:0:
320,192,97843,1,0,1:1:0:0:
64,192,97913,1,0,1:1:0:0:
192,192,97913,1,0,1:1:0:0:
320,192,97983,1,0,1:1:0:0:
64,192,98053,1,0,1:1:0:0:
448,192,98053,1,0,1:1:0:0:
192,192,98123,1,0,1:1:0:0:
320,192,98123,1,0,1:1:0:0:
64,192,98193,1,0,1:1:0:0:
448,192,98193,1,0,1:1:0:0:
192,192,98263,1,0,1:1:0:0:
320,192,98263,1,0,1:1:0:0:
64,192,98334,1,0,1:1:0:0:
448,192,98334,1,0,1:1:0:0:
192,192,98404,1,0,1:1:0:0:
320,192,98474,1,0,1:1:0:0:
448,192,98474,1,0,1:1:0:0:
64,192,98544,1,0,1:1:0:0:
192,192,98544,1,0,1:1:0:0:
320,192,98614,1,0,1:1:0:0:
448,192,98614,1,0,1:1:0:0:
192,192,98684,1,0,1:1:0:0:
64,192,98754,1,0,1:1:0:0:
448,192,98754,1,0,1:1:0:0:
320,192,98824,1,0,1:1:0:0:
192,192,98894,1,0,1:1:0:0:
448,192,98894,1,0,1:1:0:0:
64,192,98964,1,0,1:1:0:0:
192,192,99034,1,0,1:1:0:0:
448,192,99034,1,0,1:1:0:0:
320,192,99105,1,0,1:1:0:0:
64,192,99175,1,0,1:1:0:0:
448,192,99175,1,0,1:1:0:0:
192,192,99245,1,0,1:1:0:0:
64,192,99315,1,0,1:1:0:0:
448,192,99315,1,0,1:1:0:0:
192,192,99385,1,0,1:1:0:0:
64,192,99455,1,0,1:1:0:0:
320,192,99455,1,0,1:1:0:0:
448,192,99525,1,0,1:1:0:0:
64,192,99595,1,0,1:1:0:0:
192,192,99595,1,0,1:1:0:0:
320,192,99665,1,0,1:1:0:0:
448,192,99665,1,0,1:1:0:0:
64,192,99735,1,0,1:1:0:0:
192,192,99735,1,0,1:1:0:0:
320,192,99805,1,0,1:1:0:0:
192,192,99876,1,0,1:1:0:0:
448,192,99876,1,0,1:1:0:0:
64,192,99946,1,0,1:1:0:0:
192,192,100016,1,0,1:1:0:0:
320,192,100016,1,0,1:1:0:0:
448,192,100086,1,0,1:1:0:0:
64,192,100156,1,0,1:1:0:0:
320,192,100156,1,0,1:1:0:0:
192,192,100226,1,0,1:1:0:0:
320,192,100296,1,0,1:1:0:0:
448,192,100296,1,0,1:1:0:0:
64,192,100366,1,0,1:1:0:0:
192,192,100436,1,0,1:1:0:0:
448,192,100436,1,0,1:1:0:0:
320,192,100506,1,0,1:1:0:0:
64,192,100577,1,0,1:1:0:0:
192,192,100577,1,0,1:1:0:0:
448,192,100647,1,0,1:1:0:0:
64,192,100717,1,0,1:1:0:0:
320,192,100717,1,0,1:1:0:0:
192,192,100787,1,0,1:1:0:0:
320,192,100857,1,0,1:1:0:0:
448,192,100857,1,0,1:1:0:0:
64,192,100927,1,0,1:1:0:0:
192,192,100997,1,0,1:1:0:0:
448,192,100997,1,0,1:1:0:0:
320,192,101067,1,0,1:1:0:0:
64,192,101137,1,0,1:1:0:0:
192,192,101137,1,0,1:1:0:0:
448,192,101207,1,0,1:1:0:0:
64,192,101277,1,0,1:1:0:0:
320,192,101277,1,0,1:1:0:0:
192,192,101348,1,0,1:1:0:0:
320,192,101418,1,0,1:1:0:0:
448,192,101418,1,0,1:1:0:0:
64,192,101488,1,0,1:1:0:0:
192,192,101558,1,0,1:1:0:0:
448,192,101558,1,0,1:1:0:0:
320,192,101628,1,0,1:1:0:0:
64,192,101698,1,0,1:1:0:0:
192,192,101698,1,0,1:1:0:0:
448,192,101768,1,0,1:1:0:0:
64,192,101838,1,0,1:1:0:0:
320,192,101838,1,0,1:1:0:0:
192,192,101908,1,0,1:1:0:0:
320,192,101978,1,0,1:1:0:0:
448,192,101978,1,0,1:1:0:0:
64,192,102048,1,0,1:1:0:0:
192,192,102119,1,0,1:1:0:0:
448,192,102119,1,0,1:1:0:0:
320,192,102189,1,0,1:1:0:0:
64,192,102259,1,0,1:1:0:0:
192,192,102259,1,0,1:1:0:0:
448,192,102329,1,0,1:1:0:0:
64,192,102399,1,0,1:1:0:0:
320,192,102399,1,0,1:1:0:0:
192,192,102469,1,0,1:1:0:0:
320,192,102539,1,0,1:1:0:0:
448,192,102539,1,0,1:1:0:0:
64,192,102609,1,0,1:1:0:0:
192,192,102609,1,0,1:1:0:0:
320,192,102679,1,0,1:1:0:0:
448,192,102679,1,0,1:1:0:0:
64,192,102749,1,0,1:1:0:0:
192,192,102749,1,0,1:1:0:0:
320,192,102820,1,0,1:1:0:0:
448,192,102820,1,0,1:1:0:0:
192,192,102890,1,0,1:1:0:0:
64,192,102960,1,0,1:1:0:0:
448,192,102960,1,0,1:1:0:0:
320,192,103030,1,0,1:1:0:0:
64,192,103100,1,0,1:1:0:0:
192,192,103100,1,0,1:1:0:0:
448,192,103170,1,0,1:1:0:0:
192,192,103240,1,0,1:1:0:0:
320,192,103240,1,0,1:1:0:0:
64,192,103310,1,0,1:1:0:0:
448,192,103310,1,0,1:1:0:0:
192,192,103380,1,0,1:1:0:0:
320,192,103450,1,0,1:1:0:0:
448,192,103450,1,0,1:1:0:0:
64,192,103520,1,0,1:1:0:0:
192,192,103520,1,0,1:1:0:0:
320,192,103591,1,0,1:1:0:0:
448,192,103591,1,0,1:1:0:0:
64,192,103661,1,0,1:1:0:0:
192,192,103661,1,0,1:1:0:0:
448,192,103801,128,0,104081:1:1:0:0:
192,192,104081,1,0,1:1:0:0:
64,192,104081,1,0,1:1:0:0:
320,192,104221,1,0,1:1:0:0:
448,192,104221,1,0,1:1:0:0:
64,192,104291,1,0,1:1:0:0:
192,192,104291,1,0,1:1:0:0:
320,192,104362,1,0,1:1:0:0:
448,192,104362,1,0,1:1:0:0:
64,192,104432,1,0,1:1:0:0:
192,192,104502,1,0,1:1:0:0:
64,192,104572,1,0,1:1:0:0:
320,192,104642,1,0,1:1:0:0:
448,192,104642,1,0,1:1:0:0:
64,192,104712,1,0,1:1:0:0:
192,192,104782,1,0,1:1:0:0:
64,192,104852,1,0,1:1:0:0:
320,192,104922,1,0,1:1:0:0:
448,192,104922,1,0,1:1:0:0:
64,192,104992,1,0,1:1:0:0:
192,192,105063,1,0,1:1:0:0:
320,192,105063,1,0,1:1:0:0:
64,192,105133,1,0,1:1:0:0:
320,192,105203,1,0,1:1:0:0:
448,192,105203,1,0,1:1:0:0:
192,192,105273,1,0,1:1:0:0:
64,192,105343,1,0,1:1:0:0:
192,192,105413,1,0,1:1:0:0:
320,192,105483,1,0,1:1:0:0:
448,192,105483,1,0,1:1:0:0:
64,192,105553,1,0,1:1:0:0:
192,192,105623,1,0,1:1:0:0:
64,192,105693,1,0,1:1:0:0:
448,192,105693,1,0,1:1:0:0:
192,192,105763,1,0,1:1:0:0:
320,192,105763,1,0,1:1:0:0:
448,192,105834,1,0,1:1:0:0:
64,192,105904,1,0,1:1:0:0:
320,192,105904,1,0,1:1:0:0:
192,192,105974,1,0,1:1:0:0:
448,192,105974,1,0,1:1:0:0:
64,192,106044,1,0,1:1:0:0:
320,192,106114,1,0,1:1:0:0:
192,192,106184,1,0,1:1:0:0:
448,192,106184,1,0,1:1:0:0:
64,192,106254,1,0,1:1:0:0:
320,192,106324,1,0,1:1:0:0:
448,192,106324,1,0,1:1:0:0:
64,192,106394,1,0,1:1:0:0:
192,192,106464,1,0,1:1:0:0:
448,192,106464,1,0,1:1:0:0:
64,192,106534,1,0,1:1:0:0:
320,192,106534,1,0,1:1:0:0:
192,192,106605,1,0,1:1:0:0:
320,192,106675,1,0,1:1:0:0:
192,192,106745,1,0,1:1:0:0:
448,192,106745,1,0,1:1:0:0:
64,192,106815,1,0,1:1:0:0:
320,192,106885,1,0,1:1:0:0:
64,192,106955,1,0,1:1:0:0:
192,192,107025,1,0,1:1:0:0:
448,192,107025,1,0,1:1:0:0:
64,192,107095,1,0,1:1:0:0:
320,192,107165,1,0,1:1:0:0:
448,192,107165,1,0,1:1:0:0:
192,192,107235,1,0,1:1:0:0:
64,192,107305,1,0,1:1:0:0:
448,192,107305,1,0,1:1:0:0:
192,192,107376,1,0,1:1:0:0:
320,192,107446,1,0,1:1:0:0:
448,192,107446,1,0,1:1:0:0:
192,192,107516,1,0,1:1:0:0:
64,192,107586,1,0,1:1:0:0:
448,192,107586,1,0,1:1:0:0:
192,192,107656,1,0,1:1:0:0:
320,192,107726,1,0,1:1:0:0:
448,192,107726,1,0,1:1:0:0:
192,192,107796,1,0,1:1:0:0:
64,192,107866,1,0,1:1:0:0:
448,192,107866,1,0,1:1:0:0:
192,192,107936,1,0,1:1:0:0:
320,192,108006,1,0,1:1:0:0:
448,192,108006,1,0,1:1:0:0:
64,192,108077,1,0,1:1:0:0:
192,192,108147,1,0,1:1:0:0:
320,192,108147,1,0,1:1:0:0:
64,192,108217,1,0,1:1:0:0:
448,192,108217,1,0,1:1:0:0:
320,192,108287,1,0,1:1:0:0:
192,192,108357,1,0,1:1:0:0:
320,192,108427,1,0,1:1:0:0:
448,192,108427,1,0,1:1:0:0:
64,192,108497,1,0,1:1:0:0:
192,192,108497,1,0,1:1:0:0:
448,192,108567,1,0,1:1:0:0:
320,192,108602,1,0,1:1:0:0:
64,192,108637,1,0,1:1:0:0:
192,192,108672,1,0,1:1:0:0:
448,192,108707,1,0,1:1:0:0:
320,192,108742,1,0,1:1:0:0:
64,192,108777,1,0,1:1:0:0:
192,192,108813,1,0,1:1:0:0:
320,192,108848,1,0,1:1:0:0:
448,192,108848,1,0,1:1:0:0:
64,192,108918,1,0,1:1:0:0:
192,192,108988,1,0,1:1:0:0:
320,192,108988,1,0,1:1:0:0:
448,192,109058,1,0,1:1:0:0:
64,192,109128,1,0,1:1:0:0:
320,192,109128,1,0,1:1:0:0:
192,192,109198,1,0,1:1:0:0:
320,192,109268,1,0,1:1:0:0:
448,192,109268,1,0,1:1:0:0:
64,192,109338,1,0,1:1:0:0:
192,192,109408,1,0,1:1:0:0:
448,192,109408,1,0,1:1:0:0:
320,192,109478,1,0,1:1:0:0:
64,192,109548,1,0,1:1:0:0:
192,192,109548,1,0,1:1:0:0:
448,192,109619,1,0,1:1:0:0:
64,192,109689,1,0,1:1:0:0:
320,192,109689,1,0,1:1:0:0:
192,192,109759,1,0,1:1:0:0:
320,192,109829,1,0,1:1:0:0:
448,192,109829,1,0,1:1:0:0:
64,192,109899,1,0,1:1:0:0:
192,192,109969,1,0,1:1:0:0:
448,192,109969,1,0,1:1:0:0:
320,192,110039,1,0,1:1:0:0:
64,192,110109,1,0,1:1:0:0:
448,192,110109,1,0,1:1:0:0:
192,192,110179,1,0,1:1:0:0:
64,192,110249,1,0,1:1:0:0:
320,192,110249,1,0,1:1:0:0:
448,192,110320,1,0,1:1:0:0:
192,192,110390,1,0,1:1:0:0:
320,192,110390,1,0,1:1:0:0:
64,192,110460,1,0,1:1:0:0:
192,192,110530,1,0,1:1:0:0:
448,192,110530,1,0,1:1:0:0:
320,192,110600,1,0,1:1:0:0:
64,192,110670,1,0,1:1:0:0:
192,192,110670,1,0,1:1:0:0:
448,192,110740,1,0,1:1:0:0:
64,192,110810,1,0,1:1:0:0:
320,192,110810,1,0,1:1:0:0:
192,192,110880,1,0,1:1:0:0:
320,192,110950,1,0,1:1:0:0:
448,192,110950,1,0,1:1:0:0:
64,192,111020,1,0,1:1:0:0:
192,192,111091,1,0,1:1:0:0:
448,192,111091,1,0,1:1:0:0:
320,192,111161,1,0,1:1:0:0:
64,192,111231,1,0,1:1:0:0:
192,192,111231,1,0,1:1:0:0:
448,192,111301,1,0,1:1:0:0:
64,192,111371,1,0,1:1:0:0:
320,192,111371,1,0,1:1:0:0:
192,192,111441,1,0,1:1:0:0:
448,192,111511,1,0,1:1:0:0:
320,192,111511,1,0,1:1:0:0:
64,192,111581,1,0,1:1:0:0:
192,192,111651,1,0,1:1:0:0:
448,192,111651,1,0,1:1:0:0:
320,192,111721,1,0,1:1:0:0:
64,192,111791,1,0,1:1:0:0:
192,192,111791,1,0,1:1:0:0:
448,192,111862,1,0,1:1:0:0:
64,192,111932,1,0,1:1:0:0:
320,192,111932,1,0,1:1:0:0:
192,192,112002,1,0,1:1:0:0:
320,192,112072,1,0,1:1:0:0:
448,192,112072,1,0,1:1:0:0:
64,192,112142,1,0,1:1:0:0:
448,192,112212,1,0,1:1:0:0:
192,192,112212,1,0,1:1:0:0:
320,192,112282,1,0,1:1:0:0:
64,192,112352,1,0,1:1:0:0:
192,192,112352,1,0,1:1:0:0:
448,192,112422,1,0,1:1:0:0:
320,192,112492,1,0,1:1:0:0:
64,192,112492,1,0,1:1:0:0:
192,192,112563,1,0,1:1:0:0:
64,192,112633,1,0,1:1:0:0:
448,192,112633,1,0,1:1:0:0:
320,192,112703,1,0,1:1:0:0:
64,192,112773,1,0,1:1:0:0:
192,192,112773,1,0,1:1:0:0:
448,192,112843,1,0,1:1:0:0:
64,192,112913,1,0,1:1:0:0:
192,192,112913,1,0,1:1:0:0:
320,192,112983,1,0,1:1:0:0:
64,192,113053,1,0,1:1:0:0:
192,192,113053,1,0,1:1:0:0:
320,192,113123,1,0,1:1:0:0:
448,192,113123,1,0,1:1:0:0:
64,192,113193,1,0,1:1:0:0:
192,192,113193,1,0,1:1:0:0:
320,192,113263,1,0,1:1:0:0:
448,192,113263,1,0,1:1:0:0:
64,192,113334,1,0,1:1:0:0:
192,192,113334,1,0,1:1:0:0:
320,192,113404,1,0,1:1:0:0:
192,192,113474,1,0,1:1:0:0:
448,192,113474,1,0,1:1:0:0:
64,192,113544,1,0,1:1:0:0:
320,192,113544,1,0,1:1:0:0:
192,192,113614,1,0,1:1:0:0:
64,192,113684,1,0,1:1:0:0:
320,192,113754,1,0,1:1:0:0:
448,192,113754,1,0,1:1:0:0:
64,192,113824,1,0,1:1:0:0:
192,192,113824,1,0,1:1:0:0:
320,192,113894,1,0,1:1:0:0:
64,192,113964,1,0,1:1:0:0:
192,192,114034,1,0,1:1:0:0:
448,192,114034,1,0,1:1:0:0:
64,192,114105,1,0,1:1:0:0:
320,192,114105,1,0,1:1:0:0:
192,192,114175,1,0,1:1:0:0:
448,192,114245,1,0,1:1:0:0:
64,192,114315,1,0,1:1:0:0:
192,192,114315,1,0,1:1:0:0:
320,192,114385,1,0,1:1:0:0:
448,192,114385,1,0,1:1:0:0:
64,192,114455,1,0,1:1:0:0:
320,192,114525,1,0,1:1:0:0:
192,192,114595,1,0,1:1:0:0:
448,192,114595,1,0,1:1:0:0:
64,192,114665,1,0,1:1:0:0:
320,192,114665,1,0,1:1:0:0:
192,192,114735,1,0,1:1:0:0:
64,192,114805,1,0,1:1:0:0:
320,192,114876,1,0,1:1:0:0:
448,192,114876,1,0,1:1:0:0:
64,192,114946,1,0,1:1:0:0:
192,192,114946,1,0,1:1:0:0:
320,192,115016,1,0,1:1:0:0:
64,192,115086,1,0,1:1:0:0:
192,192,115156,1,0,1:1:0:0:
448,192,115156,1,0,1:1:0:0:
64,192,115226,1,0,1:1:0:0:
320,192,115226,1,0,1:1:0:0:
192,192,115296,1,0,1:1:0:0:
448,192,115366,1,0,1:1:0:0:
64,192,115436,1,0,1:1:0:0:
192,192,115436,1,0,1:1:0:0:
320,192,115506,1,0,1:1:0:0:
448,192,115506,1,0,1:1:0:0:
64,192,115577,1,0,1:1:0:0:
320,192,115647,1,0,1:1:0:0:
192,192,115717,1,0,1:1:0:0:
448,192,115717,1,0,1:1:0:0:
64,192,115787,1,0,1:1:0:0:
320,192,115787,1,0,1:1:0:0:
192,192,115857,1,0,1:1:0:0:
64,192,115927,1,0,1:1:0:0:
320,192,115997,1,0,1:1:0:0:
448,192,115997,1,0,1:1:0:0:
64,192,116067,1,0,1:1:0:0:
192,192,116067,1,0,1:1:0:0:
320,192,116137,1,0,1:1:0:0:
64,192,116207,1,0,1:1:0:0:
192,192,116277,1,0,1:1:0:0:
448,192,116277,1,0,1:1:0:0:
64,192,116348,1,0,1:1:0:0:
320,192,116348,1,0,1:1:0:0:
192,192,116418,1,0,1:1:0:0:
448,192,116488,1,0,1:1:0:0:
64,192,116558,1,0,1:1:0:0:
192,192,116558,1,0,1:1:0:0:
320,192,116628,1,0,1:1:0:0:
448,192,116628,1,0,1:1:0:0:
64,192,116698,1,0,1:1:0:0:
320,192,116768,1,0,1:1:0:0:
192,192,116838,1,0,1:1:0:0:
448,192,116838,1,0,1:1:0:0:
64,192,116908,1,0,1:1:0:0:
320,192,116908,1,0,1:1:0:0:
192,192,116978,1,0,1:1:0:0:
64,192,117048,1,0,1:1:0:0:
320,192,117119,1,0,1:1:0:0:
448,192,117119,1,0,1:1:0:0:
64,192,117189,1,0,1:1:0:0:
192,192,117189,1,0,1:1:0:0:
320,192,117259,1,0,1:1:0:0:
64,192,117329,1,0,1:1:0:0:
192,192,117399,1,0,1:1:0:0:
448,192,117399,1,0,1:1:0:0:
64,192,117469,1,0,1:1:0:0:
320,192,117469,1,0,1:1:0:0:
192,192,117539,1,0,1:1:0:0:
448,192,117609,1,0,1:1:0:0:
64,192,117679,1,0,1:1:0:0:
192,192,117679,1,0,1:1:0:0:
448,192,117749,1,0,1:1:0:0:
64,192,117820,1,0,1:1:0:0:
320,192,117820,1,0,1:1:0:0:
192,192,117890,1,0,1:1:0:0:
64,192,117960,1,0,1:1:0:0:
192,192,118030,1,0,1:1:0:0:
64,192,118100,1,0,1:1:0:0:
448,192,118100,1,0,1:1:0:0:
320,192,118170,1,0,1:1:0:0:
192,192,118240,1,0,1:1:0:0:
448,192,118240,1,0,1:1:0:0:
64,192,118310,1,0,1:1:0:0:
320,192,118380,1,0,1:1:0:0:
448,192,118380,1,0,1:1:0:0:
192,192,118450,1,0,1:1:0:0:
64,192,118520,1,0,1:1:0:0:
320,192,118591,1,0,1:1:0:0:
64,192,118661,1,0,1:1:0:0:
192,192,118661,1,0,1:1:0:0:
320,192,118731,1,0,1:1:0:0:
448,192,118731,1,0,1:1:0:0:
64,192,118801,1,0,1:1:0:0:
192,192,118801,1,0,1:1:0:0:
320,192,118871,1,0,1:1:0:0:
64,192,118941,1,0,1:1:0:0:
448,192,118941,1,0,1:1:0:0:
192,192,119011,1,0,1:1:0:0:
320,192,119081,1,0,1:1:0:0:
448,192,119081,1,0,1:1:0:0:
64,192,119151,1,0,1:1:0:0:
320,192,119221,1,0,1:1:0:0:
448,192,119221,1,0,1:1:0:0:
192,192,119291,1,0,1:1:0:0:
320,192,119362,1,0,1:1:0:0:
448,192,119362,1,0,1:1:0:0:
64,192,119432,1,0,1:1:0:0:
320,192,119502,1,0,1:1:0:0:
448,192,119502,1,0,1:1:0:0:
192,192,119572,1,0,1:1:0:0:
64,192,119642,1,0,1:1:0:0:
448,192,119642,1,0,1:1:0:0:
192,192,119712,1,0,1:1:0:0:
320,192,119712,1,0,1:1:0:0:
64,192,119782,1,0,1:1:0:0:
448,192,119782,1,0,1:1:0:0:
192,192,119852,1,0,1:1:0:0:
320,192,119922,1,0,1:1:0:0:
64,192,119992,1,0,1:1:0:0:
192,192,120063,1,0,1:1:0:0:
448,192,120063,1,0,1:1:0:0:
320,192,120133,1,0,1:1:0:0:
64,192,120203,1,0,1:1:0:0:
448,192,120203,1,0,1:1:0:0:
192,192,120273,1,0,1:1:0:0:
320,192,120343,1,0,1:1:0:0:
192,192,120413,1,0,1:1:0:0:
64,192,120483,1,0,1:1:0:0:
448,192,120483,1,0,1:1:0:0:
320,192,120553,1,0,1:1:0:0:
192,192,120623,1,0,1:1:0:0:
320,192,120693,1,0,1:1:0:0:
64,192,120763,1,0,1:1:0:0:
448,192,120763,1,0,1:1:0:0:
192,192,120834,1,0,1:1:0:0:
320,192,120904,1,0,1:1:0:0:
64,192,120974,1,0,1:1:0:0:
320,192,121044,1,0,1:1:0:0:
448,192,121044,1,0,1:1:0:0:
64,192,121114,1,0,1:1:0:0:
192,192,121114,1,0,1:1:0:0:
320,192,121184,1,0,1:1:0:0:
448,192,121184,1,0,1:1:0:0:
64,192,121254,1,0,1:1:0:0:
192,192,121254,1,0,1:1:0:0:
320,192,121324,1,0,1:1:0:0:
448,192,121324,1,0,1:1:0:0:
64,192,121394,1,0,1:1:0:0:
192,192,121394,1,0,1:1:0:0:
448,192,121464,1,0,1:1:0:0:
64,192,121534,1,0,1:1:0:0:
448,192,121605,1,0,1:1:0:0:
64,192,121675,1,0,1:1:0:0:
320,192,121745,1,0,1:1:0:0:
448,192,121745,1,0,1:1:0:0:
320,192,121813,1,0,1:1:0:0:
448,192,121813,1,0,1:1:0:0:
192,192,121882,1,0,1:1:0:0:
64,192,121882,1,0,1:1:0:0:
64,192,121957,1,0,1:1:0:0:
192,192,121957,1,0,1:1:0:0:
448,192,122042,1,0,1:1:0:0:
320,192,122042,1,0,1:1:0:0:
320,192,122125,1,0,1:1:0:0:
448,192,122125,1,0,1:1:0:0:
64,192,122215,1,0,1:1:0:0:
192,192,122215,1,0,1:1:0:0:
192,192,122308,1,0,1:1:0:0:
320,192,122406,1,0,1:1:0:0:
448,192,122406,1,0,1:1:0:0:
64,192,122406,1,0,1:1:0:0:
448,192,122511,1,0,1:1:0:0:
64,192,122617,1,0,1:1:0:0:
320,192,122617,1,0,1:1:0:0:
192,192,122722,1,0,1:1:0:0:
320,192,122828,1,0,1:1:0:0:
448,192,122828,1,0,1:1:0:0:
64,192,122828,1,0,1:1:0:0:
64,192,122934,1,0,1:1:0:0:
448,192,123039,1,0,1:1:0:0:
192,192,123039,1,0,1:1:0:0:
320,192,123145,1,0,1:1:0:0:
64,192,123251,1,0,1:1:0:0:
192,192,123251,1,0,1:1:0:0:
448,192,123356,1,0,1:1:0:0:
320,192,123462,1,0,1:1:0:0:
64,192,123462,1,0,1:1:0:0:
64,192,123567,1,0,1:1:0:0:
192,192,123567,1,0,1:1:0:0:
192,192,123673,1,0,1:1:0:0:
320,192,123673,1,0,1:1:0:0:
448,192,123673,1,0,1:1:0:0:
64,192,123779,1,0,1:1:0:0:
192,192,123884,1,0,1:1:0:0:
320,192,123884,1,0,1:1:0:0:
448,192,123990,1,0,1:1:0:0:
320,192,124096,1,0,1:1:0:0:
64,192,124096,1,0,1:1:0:0:
192,192,124201,1,0,1:1:0:0:
64,192,124307,1,0,1:1:0:0:
448,192,124307,1,0,1:1:0:0:
320,192,124413,1,0,1:1:0:0:
64,192,124519,1,0,1:1:0:0:
192,192,124519,1,0,1:1:0:0:
448,192,124519,1,0,1:1:0:0:
192,192,124623,1,0,1:1:0:0:
320,192,124728,1,0,1:1:0:0:
448,192,124728,1,0,1:1:0:0:
64,192,124833,1,0,1:1:0:0:
192,192,124938,1,0,1:1:0:0:
320,192,124938,1,0,1:1:0:0:
448,192,125043,1,0,1:1:0:0:
64,192,125148,1,0,1:1:0:0:
320,192,125148,1,0,1:1:0:0:
64,192,125253,1,0,1:1:0:0:
64,192,125358,1,0,1:1:0:0:
448,192,125358,1,0,1:1:0:0:
320,192,125358,1,0,1:1:0:0:
64,192,125463,1,0,1:1:0:0:
192,192,125567,1,0,1:1:0:0:
448,192,125567,1,0,1:1:0:0:
320,192,125672,1,0,1:1:0:0:
192,192,125778,1,0,1:1:0:0:
64,192,125778,1,0,1:1:0:0:
448,192,125778,1,0,1:1:0:0:
448,192,125882,1,0,1:1:0:0:
320,192,125986,1,0,1:1:0:0:
64,192,125986,1,0,1:1:0:0:
192,192,125986,1,0,1:1:0:0:
320,192,126090,1,0,1:1:0:0:
192,192,126194,1,0,1:1:0:0:
64,192,126194,1,0,1:1:0:0:
448,192,126298,1,0,1:1:0:0:
192,192,126403,1,0,1:1:0:0:
64,192,126403,1,0,1:1:0:0:
320,192,126403,1,0,1:1:0:0:
192,192,126507,1,0,1:1:0:0:
320,192,126611,1,0,1:1:0:0:
448,192,126611,1,0,1:1:0:0:
64,192,126715,1,0,1:1:0:0:
192,192,126715,1,0,1:1:0:0:
320,192,126819,1,0,1:1:0:0:
64,192,126923,1,0,1:1:0:0:
192,192,127028,1,0,1:1:0:0:
448,192,127028,1,0,1:1:0:0:
448,192,127132,1,0,1:1:0:0:
448,192,127236,1,0,1:1:0:0:
448,192,127340,1,0,1:1:0:0:
192,192,127444,1,0,1:1:0:0:
320,192,127444,1,0,1:1:0:0:
64,192,127444,1,0,1:1:0:0:
64,192,127547,1,0,1:1:0:0:
448,192,127650,1,0,1:1:0:0:
320,192,127650,1,0,1:1:0:0:
448,192,127754,1,0,1:1:0:0:
64,192,127857,1,0,1:1:0:0:
320,192,127857,1,0,1:1:0:0:
64,192,127961,1,0,1:1:0:0:
64,192,128064,1,0,1:1:0:0:
64,192,128168,1,0,1:1:0:0:
192,192,128271,1,0,1:1:0:0:
320,192,128271,1,0,1:1:0:0:
192,192,128375,1,0,1:1:0:0:
64,192,128478,1,0,1:1:0:0:
448,192,128478,1,0,1:1:0:0:
448,192,128581,1,0,1:1:0:0:
64,192,128685,1,0,1:1:0:0:
192,192,128685,1,0,1:1:0:0:
320,192,128685,1,0,1:1:0:0:
320,192,128788,1,0,1:1:0:0:
64,192,128892,1,0,1:1:0:0:
192,192,128892,1,0,1:1:0:0:
448,192,128892,1,0,1:1:0:0:
64,192,128995,1,0,1:1:0:0:
192,192,129099,1,0,1:1:0:0:
448,192,129099,1,0,1:1:0:0:
320,192,129151,1,0,1:1:0:0:
192,192,129202,1,0,1:1:0:0:
64,192,129254,1,0,1:1:0:0:
448,192,129305,1,0,1:1:0:0:
320,192,129356,1,0,1:1:0:0:
192,192,129408,1,0,1:1:0:0:
64,192,129459,1,0,1:1:0:0:
320,192,129510,1,0,1:1:0:0:
448,192,129510,1,0,1:1:0:0:
192,192,129613,1,0,1:1:0:0:
320,192,129716,1,0,1:1:0:0:
448,192,129716,1,0,1:1:0:0:
192,192,129819,1,0,1:1:0:0:
64,192,129921,1,0,1:1:0:0:
320,192,129921,1,0,1:1:0:0:
192,192,129973,1,0,1:1:0:0:
320,192,130024,1,0,1:1:0:0:
448,192,130076,1,0,1:1:0:0:
64,192,130127,1,0,1:1:0:0:
192,192,130178,1,0,1:1:0:0:
320,192,130230,1,0,1:1:0:0:
448,192,130281,1,0,1:1:0:0:
64,192,130332,1,0,1:1:0:0:
192,192,130332,1,0,1:1:0:0:
320,192,130435,1,0,1:1:0:0:
448,192,130538,1,0,1:1:0:0:
192,192,130641,1,0,1:1:0:0:
64,192,130641,1,0,1:1:0:0:
64,192,130743,1,0,1:1:0:0:
192,192,130743,1,0,1:1:0:0:
320,192,130743,1,0,1:1:0:0:
448,192,130845,1,0,1:1:0:0:
64,192,130947,1,0,1:1:0:0:
320,192,130947,1,0,1:1:0:0:
192,192,131049,1,0,1:1:0:0:
64,192,131151,1,0,1:1:0:0:
320,192,131151,1,0,1:1:0:0:
448,192,131151,1,0,1:1:0:0:
192,192,131253,1,0,1:1:0:0:
320,192,131355,1,0,1:1:0:0:
448,192,131355,1,0,1:1:0:0:
448,192,131457,1,0,1:1:0:0:
64,192,131559,1,0,1:1:0:0:
192,192,131559,1,0,1:1:0:0:
64,192,131661,1,0,1:1:0:0:
320,192,131763,1,0,1:1:0:0:
448,192,131763,1,0,1:1:0:0:
448,192,131865,1,0,1:1:0:0:
192,192,131967,1,0,1:1:0:0:
320,192,131967,1,0,1:1:0:0:
448,192,131967,1,0,1:1:0:0:
64,192,132069,1,0,1:1:0:0:
192,192,132171,1,0,1:1:0:0:
448,192,132171,1,0,1:1:0:0:
320,192,132273,1,0,1:1:0:0:
64,192,132376,1,0,1:1:0:0:
192,192,132376,1,0,1:1:0:0:
448,192,132376,1,0,1:1:0:0:
192,192,132477,1,0,1:1:0:0:
192,192,132578,1,0,1:1:0:0:
192,192,132680,1,0,1:1:0:0:
64,192,132781,1,0,1:1:0:0:
320,192,132781,1,0,1:1:0:0:
448,192,132781,1,0,1:1:0:0:
448,192,132882,1,0,1:1:0:0:
448,192,132984,1,0,1:1:0:0:
448,192,133085,1,0,1:1:0:0:
64,192,133186,1,0,1:1:0:0:
192,192,133186,1,0,1:1:0:0:
320,192,133186,1,0,1:1:0:0:
64,192,133288,1,0,1:1:0:0:
320,192,133389,1,0,1:1:0:0:
448,192,133389,1,0,1:1:0:0:
448,192,133490,1,0,1:1:0:0:
64,192,133592,1,0,1:1:0:0:
320,192,133592,1,0,1:1:0:0:
64,192,133693,1,0,1:1:0:0:
64,192,133794,1,0,1:1:0:0:
64,192,133896,1,0,1:1:0:0:
192,192,133997,1,0,1:1:0:0:
320,192,133997,1,0,1:1:0:0:
320,192,134098,1,0,1:1:0:0:
192,192,134199,1,0,1:1:0:0:
448,192,134199,1,0,1:1:0:0:
192,192,134300,1,0,1:1:0:0:
64,192,134400,1,0,1:1:0:0:
448,192,134400,1,0,1:1:0:0:
320,192,134501,1,0,1:1:0:0:
64,192,134602,1,0,1:1:0:0:
192,192,134602,1,0,1:1:0:0:
320,192,134702,1,0,1:1:0:0:
64,192,134819,1,0,1:1:0:0:
448,192,134819,1,0,1:1:0:0:
192,192,134907,1,0,1:1:0:0:
320,192,134907,1,0,1:1:0:0:
64,192,134996,1,0,1:1:0:0:
448,192,134996,1,0,1:1:0:0:
192,192,135174,1,0,1:1:0:0:
448,192,135174,1,0,1:1:0:0:
320,192,135395,1,0,1:1:0:0:
64,192,135469,1,0,1:1:0:0:
192,192,135469,1,0,1:1:0:0:
448,192,135469,1,0,1:1:0:0:
320,192,135539,1,0,1:1:0:0:
192,192,135609,1,0,1:1:0:0:
64,192,135679,1,0,1:1:0:0:
192,192,135749,1,0,1:1:0:0:
320,192,135749,1,0,1:1:0:0:
448,192,135749,1,0,1:1:0:0:
64,192,135819,1,0,1:1:0:0:
448,192,135889,1,0,1:1:0:0:
192,192,135959,1,0,1:1:0:0:
64,192,136029,1,0,1:1:0:0:
320,192,136029,1,0,1:1:0:0:
448,192,136029,1,0,1:1:0:0:
64,192,136169,1,0,1:1:0:0:
448,192,136169,1,0,1:1:0:0:
192,192,136240,1,0,1:1:0:0:
320,192,136240,1,0,1:1:0:0:
448,192,136310,1,0,1:1:0:0:
64,192,136310,1,0,1:1:0:0:
64,192,136450,1,0,1:1:0:0:
448,192,136450,1,0,1:1:0:0:
448,192,136590,1,0,1:1:0:0:
320,192,136590,1,0,1:1:0:0:
192,192,136590,1,0,1:1:0:0:
64,192,136730,1,0,1:1:0:0:
192,192,136730,1,0,1:1:0:0:
320,192,136800,1,0,1:1:0:0:
448,192,136800,1,0,1:1:0:0:
64,192,136870,1,0,1:1:0:0:
192,192,136870,1,0,1:1:0:0:
64,192,137011,1,0,1:1:0:0:
192,192,137011,1,0,1:1:0:0:
64,192,137151,1,0,1:1:0:0:
320,192,137151,1,0,1:1:0:0:
64,192,137291,1,0,1:1:0:0:
320,192,137291,1,0,1:1:0:0:
192,192,137361,1,0,1:1:0:0:
448,192,137361,1,0,1:1:0:0:
64,192,137431,1,0,1:1:0:0:
320,192,137431,1,0,1:1:0:0:
320,192,137711,1,0,1:1:0:0:
448,192,137711,1,0,1:1:0:0:
192,192,137852,1,0,1:1:0:0:
64,192,137922,1,0,1:1:0:0:
320,192,137992,1,0,1:1:0:0:
448,192,137992,1,0,1:1:0:0:
64,192,138132,1,0,1:1:0:0:
320,192,138272,1,0,1:1:0:0:
448,192,138272,1,0,1:1:0:0:
64,192,138412,1,0,1:1:0:0:
192,192,138483,1,0,1:1:0:0:
64,192,138553,1,0,1:1:0:0:
448,192,138553,1,0,1:1:0:0:
320,192,138623,1,0,1:1:0:0:
192,192,138693,1,0,1:1:0:0:
448,192,138693,1,0,1:1:0:0:
320,192,138833,1,0,1:1:0:0:
448,192,138833,1,0,1:1:0:0:
320,192,138973,1,0,1:1:0:0:
448,192,138973,1,0,1:1:0:0:
64,192,139113,1,0,1:1:0:0:
320,192,139113,1,0,1:1:0:0:
192,192,139183,1,0,1:1:0:0:
64,192,139254,1,0,1:1:0:0:
192,192,139324,1,0,1:1:0:0:
64,192,139394,1,0,1:1:0:0:
448,192,139394,1,0,1:1:0:0:
448,192,139534,1,0,1:1:0:0:
320,192,139604,1,0,1:1:0:0:
64,192,139674,1,0,1:1:0:0:
448,192,139674,1,0,1:1:0:0:
192,192,139744,1,0,1:1:0:0:
320,192,139744,1,0,1:1:0:0:
64,192,139814,1,0,1:1:0:0:
448,192,139814,1,0,1:1:0:0:
192,192,139884,1,0,1:1:0:0:
64,192,139954,1,0,1:1:0:0:
320,192,139954,1,0,1:1:0:0:
448,192,139954,1,0,1:1:0:0:
192,192,140025,1,0,1:1:0:0:
320,192,140095,1,0,1:1:0:0:
448,192,140095,1,0,1:1:0:0:
64,192,140165,1,0,1:1:0:0:
192,192,140165,1,0,1:1:0:0:
320,192,140235,1,0,1:1:0:0:
192,192,140305,1,0,1:1:0:0:
64,192,140375,1,0,1:1:0:0:
448,192,140375,1,0,1:1:0:0:
192,192,140445,1,0,1:1:0:0:
320,192,140445,1,0,1:1:0:0:
448,192,140515,1,0,1:1:0:0:
64,192,140585,1,0,1:1:0:0:
320,192,140655,1,0,1:1:0:0:
448,192,140655,1,0,1:1:0:0:
64,192,140726,1,0,1:1:0:0:
192,192,140726,1,0,1:1:0:0:
448,192,140796,1,0,1:1:0:0:
192,192,140866,1,0,1:1:0:0:
64,192,140936,1,0,1:1:0:0:
320,192,140936,1,0,1:1:0:0:
192,192,141006,1,0,1:1:0:0:
448,192,141006,1,0,1:1:0:0:
320,192,141076,1,0,1:1:0:0:
448,192,141146,1,0,1:1:0:0:
64,192,141216,1,0,1:1:0:0:
192,192,141216,1,0,1:1:0:0:
320,192,141286,1,0,1:1:0:0:
448,192,141286,1,0,1:1:0:0:
64,192,141356,1,0,1:1:0:0:
320,192,141426,1,0,1:1:0:0:
192,192,141497,1,0,1:1:0:0:
448,192,141497,1,0,1:1:0:0:
64,192,141567,1,0,1:1:0:0:
320,192,141567,1,0,1:1:0:0:
192,192,141637,1,0,1:1:0:0:
64,192,141707,1,0,1:1:0:0:
320,192,141777,1,0,1:1:0:0:
448,192,141777,1,0,1:1:0:0:
64,192,141847,1,0,1:1:0:0:
192,192,141847,1,0,1:1:0:0:
320,192,141917,1,0,1:1:0:0:
448,192,141987,1,0,1:1:0:0:
192,192,142057,1,0,1:1:0:0:
320,192,142057,1,0,1:1:0:0:
448,192,142127,1,0,1:1:0:0:
64,192,142197,1,0,1:1:0:0:
192,192,142197,1,0,1:1:0:0:
320,192,142197,1,0,1:1:0:0:
448,192,142268,1,0,1:1:0:0:
64,192,142338,1,0,1:1:0:0:
192,192,142338,1,0,1:1:0:0:
320,192,142408,1,0,1:1:0:0:
448,192,142408,1,0,1:1:0:0:
64,192,142478,1,0,1:1:0:0:
320,192,142548,1,0,1:1:0:0:
192,192,142618,1,0,1:1:0:0:
320,192,142688,1,0,1:1:0:0:
448,192,142688,1,0,1:1:0:0:
64,192,142758,1,0,1:1:0:0:
192,192,142758,1,0,1:1:0:0:
320,192,142828,1,0,1:1:0:0:
448,192,142828,1,0,1:1:0:0:
64,192,142898,1,0,1:1:0:0:
192,192,142898,1,0,1:1:0:0:
320,192,142969,1,0,1:1:0:0:
64,192,143039,1,0,1:1:0:0:
192,192,143039,1,0,1:1:0:0:
448,192,143039,1,0,1:1:0:0:
320,192,143109,1,0,1:1:0:0:
64,192,143179,1,0,1:1:0:0:
192,192,143179,1,0,1:1:0:0:
448,192,143179,1,0,1:1:0:0:
320,192,143249,1,0,1:1:0:0:
64,192,143319,1,0,1:1:0:0:
192,192,143319,1,0,1:1:0:0:
448,192,143319,1,0,1:1:0:0:
320,192,143389,1,0,1:1:0:0:
64,192,143459,1,0,1:1:0:0:
192,192,143459,1,0,1:1:0:0:
320,192,143529,1,0,1:1:0:0:
448,192,143529,1,0,1:1:0:0:
192,192,143599,1,0,1:1:0:0:
64,192,143669,1,0,1:1:0:0:
320,192,143740,1,0,1:1:0:0:
448,192,143740,1,0,1:1:0:0:
192,192,143810,1,0,1:1:0:0:
64,192,143880,1,0,1:1:0:0:
320,192,143880,1,0,1:1:0:0:
448,192,143880,1,0,1:1:0:0:
64,192,144020,1,0,1:1:0:0:
448,192,144020,1,0,1:1:0:0:
320,192,144020,1,0,1:1:0:0:
192,192,144160,1,0,1:1:0:0:
320,192,144160,1,0,1:1:0:0:
64,192,144230,1,0,1:1:0:0:
448,192,144230,1,0,1:1:0:0:
192,192,144300,1,0,1:1:0:0:
320,192,144300,1,0,1:1:0:0:
64,192,144370,1,0,1:1:0:0:
192,192,144440,1,0,1:1:0:0:
320,192,144440,1,0,1:1:0:0:
448,192,144440,1,0,1:1:0:0:
64,192,144511,1,0,1:1:0:0:
192,192,144581,1,0,1:1:0:0:
448,192,144581,1,0,1:1:0:0:
320,192,144651,1,0,1:1:0:0:
64,192,144721,1,0,1:1:0:0:
448,192,144721,1,0,1:1:0:0:
192,192,144791,1,0,1:1:0:0:
320,192,144861,1,0,1:1:0:0:
448,192,144861,1,0,1:1:0:0:
64,192,144931,1,0,1:1:0:0:
192,192,145001,1,0,1:1:0:0:
448,192,145001,1,0,1:1:0:0:
320,192,145071,1,0,1:1:0:0:
64,192,145141,1,0,1:1:0:0:
192,192,145141,1,0,1:1:0:0:
448,192,145211,1,0,1:1:0:0:
64,192,145282,1,0,1:1:0:0:
320,192,145282,1,0,1:1:0:0:
192,192,145352,1,0,1:1:0:0:
64,192,145422,1,0,1:1:0:0:
192,192,145492,1,0,1:1:0:0:
64,192,145562,1,0,1:1:0:0:
448,192,145562,1,0,1:1:0:0:
320,192,145632,1,0,1:1:0:0:
64,192,145702,1,0,1:1:0:0:
448,192,145702,1,0,1:1:0:0:
192,192,145772,1,0,1:1:0:0:
64,192,145842,1,0,1:1:0:0:
320,192,145842,1,0,1:1:0:0:
192,192,145912,1,0,1:1:0:0:
64,192,145983,1,0,1:1:0:0:
448,192,145983,1,0,1:1:0:0:
320,192,146053,1,0,1:1:0:0:
192,192,146123,1,0,1:1:0:0:
448,192,146123,1,0,1:1:0:0:
64,192,146193,1,0,1:1:0:0:
320,192,146263,1,0,1:1:0:0:
448,192,146263,1,0,1:1:0:0:
64,192,146333,1,0,1:1:0:0:
192,192,146333,1,0,1:1:0:0:
320,192,146403,1,0,1:1:0:0:
448,192,146403,1,0,1:1:0:0:
64,192,146473,1,0,1:1:0:0:
192,192,146473,1,0,1:1:0:0:
320,192,146543,1,0,1:1:0:0:
448,192,146543,1,0,1:1:0:0:
64,192,146613,1,0,1:1:0:0:
192,192,146683,1,0,1:1:0:0:
448,192,146683,1,0,1:1:0:0:
320,192,146754,1,0,1:1:0:0:
448,192,146824,1,0,1:1:0:0:
64,192,146824,1,0,1:1:0:0:
320,192,146894,1,0,1:1:0:0:
64,192,146964,1,0,1:1:0:0:
192,192,146964,1,0,1:1:0:0:
448,192,147034,1,0,1:1:0:0:
320,192,147104,1,0,1:1:0:0:
448,192,147174,1,0,1:1:0:0:
192,192,147244,1,0,1:1:0:0:
320,192,147244,1,0,1:1:0:0:
64,192,147314,1,0,1:1:0:0:
192,192,147384,1,0,1:1:0:0:
448,192,147384,1,0,1:1:0:0:
320,192,147454,1,0,1:1:0:0:
448,192,147525,1,0,1:1:0:0:
320,192,147595,1,0,1:1:0:0:
192,192,147665,1,0,1:1:0:0:
448,192,147665,1,0,1:1:0:0:
64,192,147735,1,0,1:1:0:0:
192,192,147805,1,0,1:1:0:0:
320,192,147805,1,0,1:1:0:0:
64,192,147875,1,0,1:1:0:0:
192,192,147945,1,0,1:1:0:0:
448,192,147945,1,0,1:1:0:0:
320,192,148015,1,0,1:1:0:0:
64,192,148085,1,0,1:1:0:0:
192,192,148085,1,0,1:1:0:0:
448,192,148155,1,0,1:1:0:0:
64,192,148226,1,0,1:1:0:0:
320,192,148226,1,0,1:1:0:0:
192,192,148296,1,0,1:1:0:0:
320,192,148366,1,0,1:1:0:0:
448,192,148366,1,0,1:1:0:0:
64,192,148436,1,0,1:1:0:0:
192,192,148436,1,0,1:1:0:0:
320,192,148506,1,0,1:1:0:0:
448,192,148506,1,0,1:1:0:0:
192,192,148576,1,0,1:1:0:0:
64,192,148646,1,0,1:1:0:0:
448,192,148646,1,0,1:1:0:0:
192,192,148716,1,0,1:1:0:0:
64,192,148786,1,0,1:1:0:0:
448,192,148786,1,0,1:1:0:0:
192,192,148856,1,0,1:1:0:0:
320,192,148856,1,0,1:1:0:0:
64,192,148926,1,0,1:1:0:0:
448,192,148926,1,0,1:1:0:0:
320,192,148997,1,0,1:1:0:0:
64,192,149067,1,0,1:1:0:0:
192,192,149067,1,0,1:1:0:0:
320,192,149137,1,0,1:1:0:0:
448,192,149137,1,0,1:1:0:0:
192,192,149207,1,0,1:1:0:0:
64,192,149277,1,0,1:1:0:0:
320,192,149347,1,0,1:1:0:0:
448,192,149347,1,0,1:1:0:0:
64,192,149417,1,0,1:1:0:0:
192,192,149417,1,0,1:1:0:0:
320,192,149487,1,0,1:1:0:0:
64,192,149557,1,0,1:1:0:0:
192,192,149627,1,0,1:1:0:0:
448,192,149627,1,0,1:1:0:0:
64,192,149697,1,0,1:1:0:0:
320,192,149697,1,0,1:1:0:0:
192,192,149768,1,0,1:1:0:0:
448,192,149838,1,0,1:1:0:0:
64,192,149908,1,0,1:1:0:0:
192,192,149908,1,0,1:1:0:0:
320,192,149978,1,0,1:1:0:0:
448,192,149978,1,0,1:1:0:0:
64,192,150048,1,0,1:1:0:0:
320,192,150118,1,0,1:1:0:0:
192,192,150188,1,0,1:1:0:0:
448,192,150188,1,0,1:1:0:0:
64,192,150258,1,0,1:1:0:0:
320,192,150258,1,0,1:1:0:0:
192,192,150328,1,0,1:1:0:0:
64,192,150398,1,0,1:1:0:0:
320,192,150469,1,0,1:1:0:0:
448,192,150469,1,0,1:1:0:0:
64,192,150539,1,0,1:1:0:0:
192,192,150539,1,0,1:1:0:0:
320,192,150609,1,0,1:1:0:0:
64,192,150679,1,0,1:1:0:0:
192,192,150749,1,0,1:1:0:0:
448,192,150749,1,0,1:1:0:0:
64,192,150819,1,0,1:1:0:0:
320,192,150819,1,0,1:1:0:0:
192,192,150889,1,0,1:1:0:0:
448,192,150959,1,0,1:1:0:0:
64,192,151029,1,0,1:1:0:0:
320,192,151029,1,0,1:1:0:0:
192,192,151099,1,0,1:1:0:0:
448,192,151099,1,0,1:1:0:0:
64,192,151169,1,0,1:1:0:0:
320,192,151240,1,0,1:1:0:0:
64,192,151310,1,0,1:1:0:0:
192,192,151310,1,0,1:1:0:0:
320,192,151380,1,0,1:1:0:0:
448,192,151380,1,0,1:1:0:0:
192,192,151450,1,0,1:1:0:0:
64,192,151520,1,0,1:1:0:0:
320,192,151590,1,0,1:1:0:0:
64,192,151660,1,0,1:1:0:0:
448,192,151660,1,0,1:1:0:0:
192,192,151730,1,0,1:1:0:0:
320,192,151730,1,0,1:1:0:0:
64,192,151800,1,0,1:1:0:0:
448,192,151800,1,0,1:1:0:0:
320,192,151870,1,0,1:1:0:0:
192,192,151940,1,0,1:1:0:0:
320,192,152011,1,0,1:1:0:0:
448,192,152011,1,0,1:1:0:0:
64,192,152081,1,0,1:1:0:0:
192,192,152081,1,0,1:1:0:0:
320,192,152151,1,0,1:1:0:0:
448,192,152151,1,0,1:1:0:0:
64,192,152221,1,0,1:1:0:0:
192,192,152221,1,0,1:1:0:0:
320,192,152291,1,0,1:1:0:0:
448,192,152291,1,0,1:1:0:0:
64,192,152361,1,0,1:1:0:0:
192,192,152431,1,0,1:1:0:0:
448,192,152431,1,0,1:1:0:0:
320,192,152501,1,0,1:1:0:0:
64,192,152571,1,0,1:1:0:0:
448,192,152571,1,0,1:1:0:0:
64,192,152711,1,0,1:1:0:0:
448,192,152711,1,0,1:1:0:0:
192,192,152782,1,0,1:1:0:0:
320,192,152817,1,0,1:1:0:0:
64,192,152852,1,0,1:1:0:0:
448,192,152852,1,0,1:1:0:0:
64,192,152992,1,0,1:1:0:0:
448,192,152992,1,0,1:1:0:0:
64,192,153132,1,0,1:1:0:0:
192,192,153167,1,0,1:1:0:0:
448,192,153202,1,0,1:1:0:0:
320,192,153237,1,0,1:1:0:0:
64,192,153272,1,0,1:1:0:0:
192,192,153272,1,0,1:1:0:0:
64,192,153412,1,0,1:1:0:0:
320,192,153412,1,0,1:1:0:0:
448,192,153412,1,0,1:1:0:0:
192,192,153483,1,0,1:1:0:0:
64,192,153553,1,0,1:1:0:0:
448,192,153553,1,0,1:1:0:0:
320,192,153623,1,0,1:1:0:0:
192,192,153693,1,0,1:1:0:0:
448,192,153693,1,0,1:1:0:0:
64,192,153763,1,0,1:1:0:0:
192,192,153833,1,0,1:1:0:0:
320,192,153833,1,0,1:1:0:0:
64,192,153903,1,0,1:1:0:0:
192,192,153973,1,0,1:1:0:0:
448,192,153973,1,0,1:1:0:0:
320,192,154043,1,0,1:1:0:0:
448,192,154113,1,0,1:1:0:0:
320,192,154183,1,0,1:1:0:0:
64,192,154254,1,0,1:1:0:0:
448,192,154254,1,0,1:1:0:0:
320,192,154324,1,0,1:1:0:0:
192,192,154394,1,0,1:1:0:0:
448,192,154394,1,0,1:1:0:0:
64,192,154464,1,0,1:1:0:0:
320,192,154464,1,0,1:1:0:0:
192,192,154534,1,0,1:1:0:0:
448,192,154534,1,0,1:1:0:0:
64,192,154604,1,0,1:1:0:0:
320,192,154674,1,0,1:1:0:0:
448,192,154674,1,0,1:1:0:0:
192,192,154744,1,0,1:1:0:0:
320,192,154814,1,0,1:1:0:0:
448,192,154814,1,0,1:1:0:0:
64,192,154884,1,0,1:1:0:0:
320,192,154954,1,0,1:1:0:0:
448,192,154954,1,0,1:1:0:0:
192,192,155025,1,0,1:1:0:0:
320,192,155095,1,0,1:1:0:0:
448,192,155095,1,0,1:1:0:0:
64,192,155165,1,0,1:1:0:0:
192,192,155235,1,0,1:1:0:0:
320,192,155235,1,0,1:1:0:0:
64,192,155305,1,0,1:1:0:0:
448,192,155305,1,0,1:1:0:0:
192,192,155375,1,0,1:1:0:0:
320,192,155375,1,0,1:1:0:0:
448,192,155445,1,0,1:1:0:0:
64,192,155515,1,0,1:1:0:0:
192,192,155515,1,0,1:1:0:0:
320,192,155585,1,0,1:1:0:0:
192,192,155655,1,0,1:1:0:0:
448,192,155655,1,0,1:1:0:0:
320,192,155726,1,0,1:1:0:0:
64,192,155796,1,0,1:1:0:0:
448,192,155796,1,0,1:1:0:0:
192,192,155866,1,0,1:1:0:0:
320,192,155936,1,0,1:1:0:0:
192,192,156006,1,0,1:1:0:0:
64,192,156076,1,0,1:1:0:0:
448,192,156076,1,0,1:1:0:0:
320,192,156146,1,0,1:1:0:0:
192,192,156216,1,0,1:1:0:0:
320,192,156286,1,0,1:1:0:0:
64,192,156356,1,0,1:1:0:0:
448,192,156356,1,0,1:1:0:0:
192,192,156426,1,0,1:1:0:0:
320,192,156497,1,0,1:1:0:0:
64,192,156567,1,0,1:1:0:0:
192,192,156637,1,0,1:1:0:0:
320,192,156637,1,0,1:1:0:0:
64,192,156707,1,0,1:1:0:0:
448,192,156707,1,0,1:1:0:0:
192,192,156777,1,0,1:1:0:0:
320,192,156777,1,0,1:1:0:0:
64,192,156847,1,0,1:1:0:0:
448,192,156847,1,0,1:1:0:0:
192,192,156917,1,0,1:1:0:0:
320,192,156917,1,0,1:1:0:0:
448,192,156987,1,0,1:1:0:0:
64,192,157057,1,0,1:1:0:0:
192,192,157057,1,0,1:1:0:0:
320,192,157127,1,0,1:1:0:0:
448,192,157127,1,0,1:1:0:0:
64,192,157197,1,0,1:1:0:0:
192,192,157197,1,0,1:1:0:0:
320,192,157268,1,0,1:1:0:0:
448,192,157268,1,0,1:1:0:0:
64,192,157338,1,0,1:1:0:0:
192,192,157338,1,0,1:1:0:0:
320,192,157408,1,0,1:1:0:0:
192,192,157478,1,0,1:1:0:0:
448,192,157478,1,0,1:1:0:0:
64,192,157548,1,0,1:1:0:0:
320,192,157618,1,0,1:1:0:0:
448,192,157618,1,0,1:1:0:0:
192,192,157688,1,0,1:1:0:0:
64,192,157758,1,0,1:1:0:0:
320,192,157758,1,0,1:1:0:0:
448,192,157828,1,0,1:1:0:0:
192,192,157898,1,0,1:1:0:0:
64,192,157933,1,0,1:1:0:0:
320,192,157969,1,0,1:1:0:0:
192,192,158039,1,0,1:1:0:0:
64,192,158074,1,0,1:1:0:0:
448,192,158109,1,0,1:1:0:0:
192,192,158179,1,0,1:1:0:0:
320,192,158179,1,0,1:1:0:0:
64,192,158249,1,0,1:1:0:0:
192,192,158319,1,0,1:1:0:0:
448,192,158319,1,0,1:1:0:0:
320,192,158389,1,0,1:1:0:0:
64,192,158459,1,0,1:1:0:0:
192,192,158459,1,0,1:1:0:0:
448,192,158529,1,0,1:1:0:0:
64,192,158599,1,0,1:1:0:0:
320,192,158599,1,0,1:1:0:0:
192,192,158669,1,0,1:1:0:0:
448,192,158740,1,0,1:1:0:0:
320,192,158775,1,0,1:1:0:0:
64,192,158810,1,0,1:1:0:0:
192,192,158880,1,0,1:1:0:0:
448,192,158880,1,0,1:1:0:0:
320,192,158950,1,0,1:1:0:0:
64,192,159020,1,0,1:1:0:0:
192,192,159020,1,0,1:1:0:0:
448,192,159090,1,0,1:1:0:0:
64,192,159160,1,0,1:1:0:0:
320,192,159160,1,0,1:1:0:0:
192,192,159230,1,0,1:1:0:0:
320,192,159300,1,0,1:1:0:0:
448,192,159300,1,0,1:1:0:0:
64,192,159370,1,0,1:1:0:0:
192,192,159440,1,0,1:1:0:0:
448,192,159440,1,0,1:1:0:0:
320,192,159511,1,0,1:1:0:0:
192,192,159581,1,0,1:1:0:0:
64,192,159616,1,0,1:1:0:0:
448,192,159651,1,0,1:1:0:0:
192,192,159721,1,0,1:1:0:0:
64,192,159756,1,0,1:1:0:0:
320,192,159791,1,0,1:1:0:0:
448,192,159826,1,0,1:1:0:0:
64,192,159861,1,0,1:1:0:0:
192,192,159861,1,0,1:1:0:0:
448,192,159931,1,0,1:1:0:0:
64,192,160001,1,0,1:1:0:0:
320,192,160001,1,0,1:1:0:0:
192,192,160071,1,0,1:1:0:0:
64,192,160141,1,0,1:1:0:0:
448,192,160141,1,0,1:1:0:0:
320,192,160211,1,0,1:1:0:0:
64,192,160282,1,0,1:1:0:0:
192,192,160317,1,0,1:1:0:0:
448,192,160352,1,0,1:1:0:0:
64,192,160422,1,0,1:1:0:0:
192,192,160422,1,0,1:1:0:0:
320,192,160492,1,0,1:1:0:0:
192,192,160562,1,0,1:1:0:0:
448,192,160562,1,0,1:1:0:0:
64,192,160632,1,0,1:1:0:0:
320,192,160632,1,0,1:1:0:0:
192,192,160702,1,0,1:1:0:0:
448,192,160702,1,0,1:1:0:0:
64,192,160772,1,0,1:1:0:0:
320,192,160772,1,0,1:1:0:0:
192,192,160842,1,0,1:1:0:0:
448,192,160842,1,0,1:1:0:0:
64,192,160912,1,0,1:1:0:0:
320,192,160983,1,0,1:1:0:0:
448,192,160983,1,0,1:1:0:0:
192,192,161053,1,0,1:1:0:0:
448,192,161123,1,0,1:1:0:0:
320,192,161123,1,0,1:1:0:0:
64,192,161193,1,0,1:1:0:0:
448,192,161263,1,0,1:1:0:0:
192,192,161263,1,0,1:1:0:0:
320,192,161333,1,0,1:1:0:0:
448,192,161403,1,0,1:1:0:0:
320,192,161473,1,0,1:1:0:0:
64,192,161543,1,0,1:1:0:0:
448,192,161543,1,0,1:1:0:0:
192,192,161613,1,0,1:1:0:0:
64,192,161683,1,0,1:1:0:0:
192,192,161754,1,0,1:1:0:0:
448,192,161824,1,0,1:1:0:0:
320,192,161824,1,0,1:1:0:0:
192,192,161894,1,0,1:1:0:0:
320,192,161964,1,0,1:1:0:0:
192,192,162034,1,0,1:1:0:0:
64,192,162104,1,0,1:1:0:0:
448,192,162104,1,0,1:1:0:0:
64,192,162384,1,0,1:1:0:0:
320,192,162384,1,0,1:1:0:0:
448,192,162384,1,0,1:1:0:0:
192,192,162454,1,0,1:1:0:0:
64,192,162525,1,0,1:1:0:0:
448,192,162525,1,0,1:1:0:0:
320,192,162595,1,0,1:1:0:0:
64,192,162665,1,0,1:1:0:0:
192,192,162665,1,0,1:1:0:0:
448,192,162735,1,0,1:1:0:0:
64,192,162805,1,0,1:1:0:0:
320,192,162805,1,0,1:1:0:0:
192,192,162875,1,0,1:1:0:0:
64,192,162945,1,0,1:1:0:0:
192,192,163015,1,0,1:1:0:0:
320,192,163085,1,0,1:1:0:0:
448,192,163085,1,0,1:1:0:0:
64,192,163155,1,0,1:1:0:0:
192,192,163226,1,0,1:1:0:0:
448,192,163226,1,0,1:1:0:0:
320,192,163296,1,0,1:1:0:0:
448,192,163366,1,0,1:1:0:0:
320,192,163436,1,0,1:1:0:0:
64,192,163506,1,0,1:1:0:0:
192,192,163506,1,0,1:1:0:0:
320,192,163576,1,0,1:1:0:0:
448,192,163576,1,0,1:1:0:0:
64,192,163646,1,0,1:1:0:0:
192,192,163646,1,0,1:1:0:0:
448,192,163716,1,0,1:1:0:0:
192,192,163786,1,0,1:1:0:0:
320,192,163786,1,0,1:1:0:0:
448,192,163856,1,0,1:1:0:0:
64,192,163926,1,0,1:1:0:0:
192,192,163926,1,0,1:1:0:0:
320,192,163997,1,0,1:1:0:0:
64,192,164067,1,0,1:1:0:0:
448,192,164067,1,0,1:1:0:0:
192,192,164137,1,0,1:1:0:0:
64,192,164207,1,0,1:1:0:0:
320,192,164207,1,0,1:1:0:0:
192,192,164277,1,0,1:1:0:0:
320,192,164347,1,0,1:1:0:0:
448,192,164347,1,0,1:1:0:0:
192,192,164417,1,0,1:1:0:0:
64,192,164487,1,0,1:1:0:0:
448,192,164557,1,0,1:1:0:0:
192,192,164627,1,0,1:1:0:0:
320,192,164627,1,0,1:1:0:0:
64,192,164697,1,0,1:1:0:0:
192,192,164768,1,0,1:1:0:0:
448,192,164768,1,0,1:1:0:0:
320,192,164838,1,0,1:1:0:0:
64,192,164908,1,0,1:1:0:0:
192,192,164908,1,0,1:1:0:0:
448,192,164978,1,0,1:1:0:0:
192,192,165048,1,0,1:1:0:0:
320,192,165048,1,0,1:1:0:0:
64,192,165118,1,0,1:1:0:0:
448,192,165118,1,0,1:1:0:0:
192,192,165188,1,0,1:1:0:0:
320,192,165188,1,0,1:1:0:0:
64,192,165258,1,0,1:1:0:0:
448,192,165258,1,0,1:1:0:0:
192,192,165328,1,0,1:1:0:0:
320,192,165328,1,0,1:1:0:0:
64,192,165398,1,0,1:1:0:0:
192,192,165469,1,0,1:1:0:0:
320,192,165469,1,0,1:1:0:0:
448,192,165539,1,0,1:1:0:0:
64,192,165609,1,0,1:1:0:0:
320,192,165609,1,0,1:1:0:0:
192,192,165679,1,0,1:1:0:0:
64,192,165749,1,0,1:1:0:0:
448,192,165749,1,0,1:1:0:0:
320,192,165819,1,0,1:1:0:0:
192,192,165889,1,0,1:1:0:0:
448,192,165889,1,0,1:1:0:0:
320,192,165959,1,0,1:1:0:0:
64,192,166029,1,0,1:1:0:0:
192,192,166029,1,0,1:1:0:0:
448,192,166099,1,0,1:1:0:0:
320,192,166169,1,0,1:1:0:0:
448,192,166240,1,0,1:1:0:0:
192,192,166310,1,0,1:1:0:0:
320,192,166310,1,0,1:1:0:0:
64,192,166380,1,0,1:1:0:0:
192,192,166450,1,0,1:1:0:0:
448,192,166450,1,0,1:1:0:0:
320,192,166520,1,0,1:1:0:0:
448,192,166590,1,0,1:1:0:0:
320,192,166660,1,0,1:1:0:0:
192,192,166730,1,0,1:1:0:0:
448,192,166730,1,0,1:1:0:0:
64,192,166800,1,0,1:1:0:0:
192,192,166870,1,0,1:1:0:0:
320,192,166870,1,0,1:1:0:0:
64,192,166940,1,0,1:1:0:0:
192,192,167011,1,0,1:1:0:0:
448,192,167011,1,0,1:1:0:0:
64,192,167081,1,0,1:1:0:0:
192,192,167151,1,0,1:1:0:0:
320,192,167151,1,0,1:1:0:0:
64,192,167221,1,0,1:1:0:0:
448,192,167221,1,0,1:1:0:0:
192,192,167291,1,0,1:1:0:0:
320,192,167291,1,0,1:1:0:0:
64,192,167361,1,0,1:1:0:0:
448,192,167361,1,0,1:1:0:0:
192,192,167431,1,0,1:1:0:0:
320,192,167431,1,0,1:1:0:0:
448,192,167501,1,0,1:1:0:0:
64,192,167571,1,0,1:1:0:0:
192,192,167571,1,0,1:1:0:0:
320,192,167641,1,0,1:1:0:0:
192,192,167711,1,0,1:1:0:0:
448,192,167711,1,0,1:1:0:0:
64,192,167782,1,0,1:1:0:0:
320,192,167782,1,0,1:1:0:0:
192,192,167852,1,0,1:1:0:0:
448,192,167852,1,0,1:1:0:0:
64,192,167922,1,0,1:1:0:0:
320,192,167992,1,0,1:1:0:0:
448,192,167992,1,0,1:1:0:0:
64,192,168062,1,0,1:1:0:0:
192,192,168062,1,0,1:1:0:0:
320,192,168132,1,0,1:1:0:0:
448,192,168132,1,0,1:1:0:0:
64,192,168202,1,0,1:1:0:0:
192,192,168202,1,0,1:1:0:0:
320,192,168272,1,0,1:1:0:0:
448,192,168272,1,0,1:1:0:0:
192,192,168342,1,0,1:1:0:0:
64,192,168412,1,0,1:1:0:0:
448,192,168412,1,0,1:1:0:0:
320,192,168483,1,0,1:1:0:0:
64,192,168553,1,0,1:1:0:0:
192,192,168553,1,0,1:1:0:0:
448,192,168623,1,0,1:1:0:0:
64,192,168693,1,0,1:1:0:0:
320,192,168693,1,0,1:1:0:0:
192,192,168763,1,0,1:1:0:0:
320,192,168833,1,0,1:1:0:0:
448,192,168833,1,0,1:1:0:0:
64,192,168903,1,0,1:1:0:0:
192,192,168973,1,0,1:1:0:0:
448,192,168973,1,0,1:1:0:0:
320,192,169043,1,0,1:1:0:0:
64,192,169113,1,0,1:1:0:0:
448,192,169113,1,0,1:1:0:0:
192,192,169183,1,0,1:1:0:0:
64,192,169254,1,0,1:1:0:0:
320,192,169254,1,0,1:1:0:0:
448,192,169324,1,0,1:1:0:0:
64,192,169394,1,0,1:1:0:0:
192,192,169394,1,0,1:1:0:0:
320,192,169464,1,0,1:1:0:0:
64,192,169534,1,0,1:1:0:0:
448,192,169534,1,0,1:1:0:0:
192,192,169604,1,0,1:1:0:0:
320,192,169604,1,0,1:1:0:0:
64,192,169674,1,0,1:1:0:0:
448,192,169674,1,0,1:1:0:0:
192,192,169744,1,0,1:1:0:0:
320,192,169744,1,0,1:1:0:0:
64,192,169814,1,0,1:1:0:0:
448,192,169814,1,0,1:1:0:0:
192,192,169884,1,0,1:1:0:0:
320,192,169954,1,0,1:1:0:0:
448,192,169954,1,0,1:1:0:0:
64,192,170025,1,0,1:1:0:0:
448,192,170095,1,0,1:1:0:0:
192,192,170165,1,0,1:1:0:0:
64,192,170235,1,0,1:1:0:0:
320,192,170235,1,0,1:1:0:0:
192,192,170305,1,0,1:1:0:0:
448,192,170305,1,0,1:1:0:0:
64,192,170375,1,0,1:1:0:0:
320,192,170375,1,0,1:1:0:0:
448,192,170445,1,0,1:1:0:0:
64,192,170515,1,0,1:1:0:0:
192,192,170515,1,0,1:1:0:0:
320,192,170585,1,0,1:1:0:0:
64,192,170655,1,0,1:1:0:0:
192,192,170655,1,0,1:1:0:0:
320,192,170726,1,0,1:1:0:0:
448,192,170726,1,0,1:1:0:0:
64,192,170796,1,0,1:1:0:0:
192,192,170796,1,0,1:1:0:0:
448,192,170866,1,0,1:1:0:0:
64,192,170936,1,0,1:1:0:0:
320,192,170936,1,0,1:1:0:0:
192,192,171006,1,0,1:1:0:0:
64,192,171076,1,0,1:1:0:0:
448,192,171076,1,0,1:1:0:0:
64,192,171356,1,0,1:1:0:0:
192,192,171356,1,0,1:1:0:0:
448,192,171426,1,0,1:1:0:0:
320,192,171497,1,0,1:1:0:0:
64,192,171567,1,0,1:1:0:0:
192,192,171637,1,0,1:1:0:0:
448,192,171637,1,0,1:1:0:0:
320,192,171707,1,0,1:1:0:0:
64,192,171777,1,0,1:1:0:0:
448,192,171847,1,0,1:1:0:0:
192,192,171917,1,0,1:1:0:0:
320,192,171917,1,0,1:1:0:0:
64,192,171987,1,0,1:1:0:0:
448,192,172057,1,0,1:1:0:0:
192,192,172127,1,0,1:1:0:0:
64,192,172197,1,0,1:1:0:0:
320,192,172197,1,0,1:1:0:0:
448,192,172268,1,0,1:1:0:0:
64,192,172338,1,0,1:1:0:0:
320,192,172408,1,0,1:1:0:0:
64,192,172478,1,0,1:1:0:0:
192,192,172478,1,0,1:1:0:0:
448,192,172548,1,0,1:1:0:0:
64,192,172618,1,0,1:1:0:0:
320,192,172688,1,0,1:1:0:0:
192,192,172758,1,0,1:1:0:0:
448,192,172758,1,0,1:1:0:0:
64,192,172828,1,0,1:1:0:0:
448,192,172898,1,0,1:1:0:0:
320,192,172969,1,0,1:1:0:0:
64,192,173039,1,0,1:1:0:0:
192,192,173039,1,0,1:1:0:0:
448,192,173109,1,0,1:1:0:0:
64,192,173179,1,0,1:1:0:0:
320,192,173249,1,0,1:1:0:0:
192,192,173319,1,0,1:1:0:0:
448,192,173319,1,0,1:1:0:0:
64,192,173389,1,0,1:1:0:0:
448,192,173459,1,0,1:1:0:0:
192,192,173529,1,0,1:1:0:0:
320,192,173599,1,0,1:1:0:0:
448,192,173599,1,0,1:1:0:0:
64,192,173669,1,0,1:1:0:0:
320,192,173740,1,0,1:1:0:0:
192,192,173810,1,0,1:1:0:0:
64,192,173880,1,0,1:1:0:0:
320,192,173880,1,0,1:1:0:0:
448,192,173950,1,0,1:1:0:0:
64,192,174020,1,0,1:1:0:0:
320,192,174090,1,0,1:1:0:0:
64,192,174160,1,0,1:1:0:0:
192,192,174160,1,0,1:1:0:0:
448,192,174230,1,0,1:1:0:0:
64,192,174300,1,0,1:1:0:0:
320,192,174370,1,0,1:1:0:0:
192,192,174440,1,0,1:1:0:0:
448,192,174440,1,0,1:1:0:0:
64,192,174511,1,0,1:1:0:0:
320,192,174581,1,0,1:1:0:0:
192,192,174651,1,0,1:1:0:0:
320,192,174721,1,0,1:1:0:0:
448,192,174721,1,0,1:1:0:0:
64,192,174791,1,0,1:1:0:0:
448,192,174861,1,0,1:1:0:0:
192,192,174931,1,0,1:1:0:0:
64,192,175001,1,0,1:1:0:0:
320,192,175001,1,0,1:1:0:0:
448,192,175071,1,0,1:1:0:0:
64,192,175141,1,0,1:1:0:0:
320,192,175211,1,0,1:1:0:0:
64,192,175282,1,0,1:1:0:0:
192,192,175282,1,0,1:1:0:0:
448,192,175352,1,0,1:1:0:0:
192,192,175422,1,0,1:1:0:0:
320,192,175492,1,0,1:1:0:0:
64,192,175562,1,0,1:1:0:0:
192,192,175562,1,0,1:1:0:0:
320,192,175632,1,0,1:1:0:0:
448,192,175632,1,0,1:1:0:0:
64,192,175702,1,0,1:1:0:0:
192,192,175702,1,0,1:1:0:0:
320,192,175772,1,0,1:1:0:0:
448,192,175772,1,0,1:1:0:0:
64,192,175842,1,0,1:1:0:0:
192,192,175842,1,0,1:1:0:0:
448,192,175912,1,0,1:1:0:0:
320,192,175983,1,0,1:1:0:0:
64,192,176053,1,0,1:1:0:0:
320,192,176123,1,0,1:1:0:0:
448,192,176123,1,0,1:1:0:0:
192,192,176193,1,0,1:1:0:0:
448,192,176263,1,0,1:1:0:0:
64,192,176333,1,0,1:1:0:0:
192,192,176403,1,0,1:1:0:0:
320,192,176403,1,0,1:1:0:0:
448,192,176473,1,0,1:1:0:0:
64,192,176543,1,0,1:1:0:0:
320,192,176613,1,0,1:1:0:0:
64,192,176683,1,0,1:1:0:0:
192,192,176683,1,0,1:1:0:0:
448,192,176754,1,0,1:1:0:0:
64,192,176824,1,0,1:1:0:0:
320,192,176894,1,0,1:1:0:0:
64,192,176964,1,0,1:1:0:0:
192,192,176964,1,0,1:1:0:0:
448,192,177034,1,0,1:1:0:0:
64,192,177104,1,0,1:1:0:0:
448,192,177174,1,0,1:1:0:0:
192,192,177244,1,0,1:1:0:0:
320,192,177244,1,0,1:1:0:0:
64,192,177314,1,0,1:1:0:0:
448,192,177384,1,0,1:1:0:0:
320,192,177454,1,0,1:1:0:0:
64,192,177525,1,0,1:1:0:0:
192,192,177525,1,0,1:1:0:0:
448,192,177595,1,0,1:1:0:0:
64,192,177665,1,0,1:1:0:0:
448,192,177735,1,0,1:1:0:0:
64,192,177805,1,0,1:1:0:0:
192,192,177805,1,0,1:1:0:0:
64,192,177875,1,0,1:1:0:0:
192,192,177875,1,0,1:1:0:0:
320,192,177945,1,0,1:1:0:0:
448,192,177945,1,0,1:1:0:0:
320,192,178015,1,0,1:1:0:0:
448,192,178015,1,0,1:1:0:0:
64,192,178085,1,0,1:1:0:0:
192,192,178085,1,0,1:1:0:0:
320,192,178226,1,0,1:1:0:0:
192,192,178296,1,0,1:1:0:0:
64,192,178366,1,0,1:1:0:0:
320,192,178366,1,0,1:1:0:0:
64,192,178506,1,0,1:1:0:0:
320,192,178576,1,0,1:1:0:0:
192,192,178646,1,0,1:1:0:0:
448,192,178646,1,0,1:1:0:0:
448,192,178786,1,0,1:1:0:0:
192,192,178856,1,0,1:1:0:0:
320,192,178926,1,0,1:1:0:0:
448,192,178926,1,0,1:1:0:0:
320,192,178997,1,0,1:1:0:0:
448,192,178997,1,0,1:1:0:0:
64,192,179067,1,0,1:1:0:0:
192,192,179067,1,0,1:1:0:0:
64,192,179137,1,0,1:1:0:0:
192,192,179137,1,0,1:1:0:0:
320,192,179207,1,0,1:1:0:0:
448,192,179207,1,0,1:1:0:0:
64,192,179347,1,0,1:1:0:0:
192,192,179487,1,0,1:1:0:0:
448,192,179487,1,0,1:1:0:0:
64,192,179627,1,0,1:1:0:0:
192,192,179768,1,0,1:1:0:0:
448,192,179768,1,0,1:1:0:0:
64,192,179908,1,0,1:1:0:0:
448,192,180048,128,0,180188:1:1:0:0:
64,192,180188,1,0,1:1:0:0:
192,192,180188,1,0,1:1:0:0:
64,192,180328,1,0,1:1:0:0:
192,192,180328,1,0,1:1:0:0:
448,192,180398,1,0,1:1:0:0:
320,192,180469,1,0,1:1:0:0:
64,192,180539,1,0,1:1:0:0:
192,192,180609,1,0,1:1:0:0:
448,192,180609,1,0,1:1:0:0:
320,192,180679,1,0,1:1:0:0:
64,192,180749,1,0,1:1:0:0:
448,192,180819,1,0,1:1:0:0:
192,192,180889,1,0,1:1:0:0:
320,192,180889,1,0,1:1:0:0:
64,192,180959,1,0,1:1:0:0:
448,192,181029,1,0,1:1:0:0:
192,192,181099,1,0,1:1:0:0:
64,192,181169,1,0,1:1:0:0:
320,192,181169,1,0,1:1:0:0:
448,192,181240,1,0,1:1:0:0:
64,192,181310,1,0,1:1:0:0:
320,192,181380,1,0,1:1:0:0:
64,192,181450,1,0,1:1:0:0:
192,192,181450,1,0,1:1:0:0:
448,192,181520,1,0,1:1:0:0:
64,192,181590,1,0,1:1:0:0:
320,192,181660,1,0,1:1:0:0:
192,192,181730,1,0,1:1:0:0:
448,192,181730,1,0,1:1:0:0:
64,192,181800,1,0,1:1:0:0:
448,192,181870,1,0,1:1:0:0:
320,192,181940,1,0,1:1:0:0:
64,192,182011,1,0,1:1:0:0:
192,192,182011,1,0,1:1:0:0:
448,192,182081,1,0,1:1:0:0:
64,192,182151,1,0,1:1:0:0:
320,192,182221,1,0,1:1:0:0:
192,192,182291,1,0,1:1:0:0:
448,192,182291,1,0,1:1:0:0:
320,192,182782,1,0,1:1:0:0:
192,192,183027,1,0,1:1:0:0:
448,192,183185,128,0,183693:1:1:0:0:
64,192,183412,1,0,1:1:0:0:
320,192,183483,1,0,1:1:0:0:
64,192,183553,1,0,1:1:0:0:
320,192,183623,1,0,1:1:0:0:
64,192,183693,1,0,1:1:0:0:
320,192,183763,1,0,1:1:0:0:
64,192,183833,1,0,1:1:0:0:
192,192,183833,1,0,1:1:0:0:
448,192,183903,1,0,1:1:0:0:
64,192,183973,1,0,1:1:0:0:
320,192,183973,1,0,1:1:0:0:
192,192,184043,1,0,1:1:0:0:
64,192,184113,1,0,1:1:0:0:
320,192,184113,1,0,1:1:0:0:
448,192,184113,1,0,1:1:0:0:
192,192,184183,1,0,1:1:0:0:
320,192,184254,1,0,1:1:0:0:
448,192,184254,1,0,1:1:0:0:
192,192,184324,1,0,1:1:0:0:
64,192,184394,1,0,1:1:0:0:
448,192,184394,1,0,1:1:0:0:
320,192,184464,1,0,1:1:0:0:
64,192,184534,1,0,1:1:0:0:
192,192,184534,1,0,1:1:0:0:
448,192,184604,1,0,1:1:0:0:
192,192,184674,1,0,1:1:0:0:
320,192,184744,1,0,1:1:0:0:
448,192,184744,1,0,1:1:0:0:
64,192,184814,1,0,1:1:0:0:
192,192,184814,1,0,1:1:0:0:
320,192,184884,1,0,1:1:0:0:
64,192,184954,1,0,1:1:0:0:
448,192,184954,1,0,1:1:0:0:
192,192,185025,1,0,1:1:0:0:
320,192,185095,1,0,1:1:0:0:
448,192,185095,1,0,1:1:0:0:
64,192,185165,1,0,1:1:0:0:
192,192,185235,1,0,1:1:0:0:
448,192,185235,1,0,1:1:0:0:
320,192,185305,1,0,1:1:0:0:
64,192,185375,1,0,1:1:0:0:
192,192,185375,1,0,1:1:0:0:
320,192,185445,1,0,1:1:0:0:
448,192,185515,1,0,1:1:0:0:
64,192,185585,1,0,1:1:0:0:
192,192,185655,1,0,1:1:0:0:
320,192,185655,1,0,1:1:0:0:
64,192,185726,1,0,1:1:0:0:
448,192,185796,1,0,1:1:0:0:
320,192,185866,1,0,1:1:0:0:
64,192,185936,1,0,1:1:0:0:
192,192,185936,1,0,1:1:0:0:
448,192,186006,1,0,1:1:0:0:
320,192,186076,1,0,1:1:0:0:
64,192,186146,1,0,1:1:0:0:
192,192,186216,1,0,1:1:0:0:
448,192,186216,1,0,1:1:0:0:
320,192,186286,1,0,1:1:0:0:
64,192,186356,1,0,1:1:0:0:
448,192,186426,1,0,1:1:0:0:
64,192,186497,1,0,1:1:0:0:
192,192,186497,1,0,1:1:0:0:
320,192,186567,1,0,1:1:0:0:
64,192,186637,1,0,1:1:0:0:
320,192,186707,1,0,1:1:0:0:
64,192,186777,1,0,1:1:0:0:
192,192,186777,1,0,1:1:0:0:
320,192,186847,1,0,1:1:0:0:
448,192,186847,1,0,1:1:0:0:
64,192,186917,1,0,1:1:0:0:
192,192,186987,1,0,1:1:0:0:
320,192,187057,1,0,1:1:0:0:
448,192,187057,1,0,1:1:0:0:
64,192,187127,1,0,1:1:0:0:
448,192,187197,1,0,1:1:0:0:
192,192,187268,1,0,1:1:0:0:
64,192,187338,1,0,1:1:0:0:
320,192,187338,1,0,1:1:0:0:
448,192,187408,1,0,1:1:0:0:
64,192,187478,1,0,1:1:0:0:
192,192,187548,1,0,1:1:0:0:
320,192,187618,1,0,1:1:0:0:
448,192,187618,1,0,1:1:0:0:
64,192,187688,1,0,1:1:0:0:
448,192,187758,1,0,1:1:0:0:
192,192,187828,1,0,1:1:0:0:
64,192,187898,1,0,1:1:0:0:
320,192,187898,1,0,1:1:0:0:
448,192,187969,1,0,1:1:0:0:
64,192,188039,1,0,1:1:0:0:
320,192,188109,1,0,1:1:0:0:
64,192,188179,1,0,1:1:0:0:
192,192,188179,1,0,1:1:0:0:
448,192,188249,1,0,1:1:0:0:
192,192,188319,1,0,1:1:0:0:
320,192,188389,1,0,1:1:0:0:
192,192,188459,1,0,1:1:0:0:
448,192,188459,1,0,1:1:0:0:
64,192,188529,1,0,1:1:0:0:
448,192,188599,1,0,1:1:0:0:
192,192,188669,1,0,1:1:0:0:
320,192,188740,1,0,1:1:0:0:
448,192,188740,1,0,1:1:0:0:
64,192,188810,1,0,1:1:0:0:
192,192,188810,1,0,1:1:0:0:
320,192,188880,1,0,1:1:0:0:
448,192,188880,1,0,1:1:0:0:
64,192,188950,1,0,1:1:0:0:
192,192,188950,1,0,1:1:0:0:
448,192,189020,1,0,1:1:0:0:
320,192,189055,1,0,1:1:0:0:
64,192,189090,1,0,1:1:0:0:
192,192,189125,1,0,1:1:0:0:
448,192,189160,1,0,1:1:0:0:
320,192,189195,1,0,1:1:0:0:
64,192,189230,1,0,1:1:0:0:
192,192,189265,1,0,1:1:0:0:
320,192,189300,1,0,1:1:0:0:
448,192,189300,1,0,1:1:0:0:
64,192,189370,1,0,1:1:0:0:
448,192,189440,1,0,1:1:0:0:
192,192,189511,1,0,1:1:0:0:
64,192,189581,1,0,1:1:0:0:
320,192,189581,1,0,1:1:0:0:
448,192,189651,1,0,1:1:0:0:
64,192,189721,1,0,1:1:0:0:
320,192,189791,1,0,1:1:0:0:
64,192,189861,1,0,1:1:0:0:
192,192,189861,1,0,1:1:0:0:
448,192,189931,1,0,1:1:0:0:
192,192,190001,1,0,1:1:0:0:
320,192,190071,1,0,1:1:0:0:
64,192,190141,1,0,1:1:0:0:
192,192,190141,1,0,1:1:0:0:
448,192,190211,1,0,1:1:0:0:
64,192,190282,1,0,1:1:0:0:
320,192,190352,1,0,1:1:0:0:
192,192,190422,1,0,1:1:0:0:
448,192,190422,1,0,1:1:0:0:
64,192,190492,1,0,1:1:0:0:
448,192,190562,1,0,1:1:0:0:
192,192,190632,1,0,1:1:0:0:
320,192,190702,1,0,1:1:0:0:
448,192,190702,1,0,1:1:0:0:
64,192,190772,1,0,1:1:0:0:
320,192,190842,1,0,1:1:0:0:
192,192,190912,1,0,1:1:0:0:
64,192,190983,1,0,1:1:0:0:
320,192,190983,1,0,1:1:0:0:
448,192,191053,1,0,1:1:0:0:
64,192,191123,1,0,1:1:0:0:
320,192,191193,1,0,1:1:0:0:
64,192,191263,1,0,1:1:0:0:
192,192,191263,1,0,1:1:0:0:
448,192,191333,1,0,1:1:0:0:
64,192,191403,1,0,1:1:0:0:
320,192,191473,1,0,1:1:0:0:
192,192,191543,1,0,1:1:0:0:
448,192,191543,1,0,1:1:0:0:
64,192,191613,1,0,1:1:0:0:
192,192,191683,1,0,1:1:0:0:
64,192,191754,1,0,1:1:0:0:
192,192,191824,1,0,1:1:0:0:
320,192,191824,1,0,1:1:0:0:
448,192,191894,1,0,1:1:0:0:
64,192,191964,1,0,1:1:0:0:
320,192,192034,1,0,1:1:0:0:
64,192,192104,1,0,1:1:0:0:
448,192,192104,1,0,1:1:0:0:
320,192,192174,1,0,1:1:0:0:
448,192,192244,1,0,1:1:0:0:
64,192,192314,1,0,1:1:0:0:
192,192,192384,1,0,1:1:0:0:
320,192,192384,1,0,1:1:0:0:
448,192,192454,1,0,1:1:0:0:
192,192,192525,1,0,1:1:0:0:
320,192,192595,1,0,1:1:0:0:
64,192,192665,1,0,1:1:0:0:
192,192,192665,1,0,1:1:0:0:
448,192,192735,1,0,1:1:0:0:
64,192,192805,1,0,1:1:0:0:
448,192,192875,1,0,1:1:0:0:
64,192,192945,1,0,1:1:0:0:
320,192,192945,1,0,1:1:0:0:
448,192,193015,1,0,1:1:0:0:
320,192,193085,1,0,1:1:0:0:
64,192,193155,1,0,1:1:0:0:
320,192,193226,1,0,1:1:0:0:
448,192,193226,1,0,1:1:0:0:
192,192,193296,1,0,1:1:0:0:
448,192,193366,1,0,1:1:0:0:
64,192,193436,1,0,1:1:0:0:
192,192,193506,1,0,1:1:0:0:
320,192,193506,1,0,1:1:0:0:
448,192,193576,1,0,1:1:0:0:
64,192,193646,1,0,1:1:0:0:
320,192,193716,1,0,1:1:0:0:
64,192,193786,1,0,1:1:0:0:
192,192,193786,1,0,1:1:0:0:
448,192,193856,1,0,1:1:0:0:
64,192,193926,1,0,1:1:0:0:
320,192,193926,1,0,1:1:0:0:
448,192,193997,1,0,1:1:0:0:
64,192,194067,1,0,1:1:0:0:
192,192,194067,1,0,1:1:0:0:
448,192,194137,1,0,1:1:0:0:
64,192,194207,1,0,1:1:0:0:
320,192,194207,1,0,1:1:0:0:
192,192,194277,1,0,1:1:0:0:
320,192,194347,1,0,1:1:0:0:
448,192,194347,1,0,1:1:0:0:
64,192,194417,1,0,1:1:0:0:
192,192,194487,1,0,1:1:0:0:
448,192,194487,1,0,1:1:0:0:
320,192,194557,1,0,1:1:0:0:
64,192,194627,1,0,1:1:0:0:
192,192,194627,1,0,1:1:0:0:
448,192,194697,1,0,1:1:0:0:
64,192,194768,1,0,1:1:0:0:
320,192,194768,1,0,1:1:0:0:
448,192,194838,1,0,1:1:0:0:
192,192,194908,1,0,1:1:0:0:
320,192,194908,1,0,1:1:0:0:
64,192,194978,1,0,1:1:0:0:
320,192,195048,1,0,1:1:0:0:
448,192,195048,1,0,1:1:0:0:
192,192,195118,1,0,1:1:0:0:
64,192,195188,1,0,1:1:0:0:
320,192,195188,1,0,1:1:0:0:
192,192,195258,1,0,1:1:0:0:
64,192,195328,1,0,1:1:0:0:
448,192,195328,1,0,1:1:0:0:
320,192,195398,1,0,1:1:0:0:
64,192,195469,1,0,1:1:0:0:
192,192,195469,1,0,1:1:0:0:
448,192,195539,1,0,1:1:0:0:
64,192,195609,1,0,1:1:0:0:
320,192,195609,1,0,1:1:0:0:
192,192,195679,1,0,1:1:0:0:
64,192,195749,1,0,1:1:0:0:
448,192,195749,1,0,1:1:0:0:
320,192,195819,1,0,1:1:0:0:
64,192,195889,1,0,1:1:0:0:
192,192,195889,1,0,1:1:0:0:
448,192,195959,1,0,1:1:0:0:
320,192,196029,1,0,1:1:0:0:
64,192,196029,1,0,1:1:0:0:
192,192,196099,1,0,1:1:0:0:
448,192,196169,1,0,1:1:0:0:
320,192,196169,1,0,1:1:0:0:
64,192,196240,1,0,1:1:0:0:
192,192,196310,1,0,1:1:0:0:
448,192,196310,1,0,1:1:0:0:
320,192,196380,1,0,1:1:0:0:
64,192,196450,1,0,1:1:0:0:
192,192,196450,1,0,1:1:0:0:
448,192,196520,1,0,1:1:0:0:
64,192,196590,1,0,1:1:0:0:
320,192,196590,1,0,1:1:0:0:
192,192,196660,1,0,1:1:0:0:
448,192,196730,1,0,1:1:0:0:
320,192,196730,1,0,1:1:0:0:
64,192,196800,1,0,1:1:0:0:
448,192,196870,1,0,1:1:0:0:
192,192,196870,1,0,1:1:0:0:
320,192,196940,1,0,1:1:0:0:
64,192,197011,1,0,1:1:0:0:
192,192,197011,1,0,1:1:0:0:
448,192,197081,1,0,1:1:0:0:
64,192,197151,1,0,1:1:0:0:
192,192,197151,1,0,1:1:0:0:
320,192,197151,1,0,1:1:0:0:
192,192,198132,1,0,1:1:0:0:
320,192,198132,1,0,1:1:0:0:
192,192,198272,1,0,1:1:0:0:
320,192,198272,1,0,1:1:0:0:
448,192,198342,1,0,1:1:0:0:
64,192,198412,1,0,1:1:0:0:
192,192,198483,1,0,1:1:0:0:
320,192,198553,1,0,1:1:0:0:
448,192,198553,1,0,1:1:0:0:
64,192,198623,1,0,1:1:0:0:
448,192,198693,1,0,1:1:0:0:
320,192,198763,1,0,1:1:0:0:
64,192,198833,1,0,1:1:0:0:
192,192,198833,1,0,1:1:0:0:
448,192,198903,1,0,1:1:0:0:
64,192,198973,1,0,1:1:0:0:
192,192,199043,1,0,1:1:0:0:
320,192,199113,1,0,1:1:0:0:
448,192,199113,1,0,1:1:0:0:
64,192,199183,1,0,1:1:0:0:
448,192,199254,1,0,1:1:0:0:
320,192,199324,1,0,1:1:0:0:
192,192,199394,1,0,1:1:0:0:
448,192,199394,1,0,1:1:0:0:
64,192,199464,1,0,1:1:0:0:
320,192,199464,1,0,1:1:0:0:
192,192,199534,1,0,1:1:0:0:
448,192,199534,1,0,1:1:0:0:
64,192,199604,1,0,1:1:0:0:
192,192,199674,1,0,1:1:0:0:
320,192,199674,1,0,1:1:0:0:
64,192,199744,1,0,1:1:0:0:
448,192,199744,1,0,1:1:0:0:
192,192,199814,1,0,1:1:0:0:
320,192,199814,1,0,1:1:0:0:
448,192,199884,1,0,1:1:0:0:
64,192,199954,1,0,1:1:0:0:
192,192,199954,1,0,1:1:0:0:
448,192,200025,1,0,1:1:0:0:
320,192,200095,1,0,1:1:0:0:
192,192,200165,1,0,1:1:0:0:
64,192,200235,1,0,1:1:0:0:
320,192,200235,1,0,1:1:0:0:
192,192,200305,1,0,1:1:0:0:
448,192,200305,1,0,1:1:0:0:
64,192,200375,1,0,1:1:0:0:
320,192,200375,1,0,1:1:0:0:
192,192,200445,1,0,1:1:0:0:
448,192,200445,1,0,1:1:0:0:
64,192,200515,1,0,1:1:0:0:
320,192,200515,1,0,1:1:0:0:
448,192,200585,1,0,1:1:0:0:
192,192,200655,1,0,1:1:0:0:
64,192,200726,1,0,1:1:0:0:
448,192,200726,1,0,1:1:0:0:
192,192,200796,1,0,1:1:0:0:
320,192,200796,1,0,1:1:0:0:
64,192,200866,1,0,1:1:0:0:
448,192,200866,1,0,1:1:0:0:
192,192,200936,1,0,1:1:0:0:
320,192,200936,1,0,1:1:0:0:
448,192,201006,1,0,1:1:0:0:
64,192,201076,1,0,1:1:0:0:
192,192,201076,1,0,1:1:0:0:
320,192,201146,1,0,1:1:0:0:
64,192,201216,1,0,1:1:0:0:
192,192,201216,1,0,1:1:0:0:
448,192,201286,1,0,1:1:0:0:
192,192,201356,1,0,1:1:0:0:
320,192,201356,1,0,1:1:0:0:
64,192,201426,1,0,1:1:0:0:
448,192,201426,1,0,1:1:0:0:
192,192,201497,1,0,1:1:0:0:
448,192,201567,1,0,1:1:0:0:
64,192,201637,1,0,1:1:0:0:
192,192,201637,1,0,1:1:0:0:
320,192,201707,1,0,1:1:0:0:
192,192,201777,1,0,1:1:0:0:
448,192,201777,1,0,1:1:0:0:
64,192,201847,1,0,1:1:0:0:
320,192,201847,1,0,1:1:0:0:
192,192,201917,1,0,1:1:0:0:
320,192,201987,1,0,1:1:0:0:
192,192,202057,1,0,1:1:0:0:
320,192,202127,1,0,1:1:0:0:
64,192,202197,1,0,1:1:0:0:
448,192,202197,1,0,1:1:0:0:
192,192,202268,1,0,1:1:0:0:
320,192,202268,1,0,1:1:0:0:
64,192,202338,1,0,1:1:0:0:
448,192,202338,1,0,1:1:0:0:
192,192,202408,1,0,1:1:0:0:
64,192,202478,1,0,1:1:0:0:
320,192,202478,1,0,1:1:0:0:
448,192,202548,1,0,1:1:0:0:
192,192,202618,1,0,1:1:0:0:
320,192,202618,1,0,1:1:0:0:
448,192,202688,1,0,1:1:0:0:
64,192,202758,1,0,1:1:0:0:
320,192,202758,1,0,1:1:0:0:
448,192,202828,1,0,1:1:0:0:
192,192,202898,1,0,1:1:0:0:
320,192,202898,1,0,1:1:0:0:
448,192,202969,1,0,1:1:0:0:
64,192,203039,1,0,1:1:0:0:
192,192,203039,1,0,1:1:0:0:
320,192,203109,1,0,1:1:0:0:
448,192,203109,1,0,1:1:0:0:
64,192,203179,1,0,1:1:0:0:
192,192,203179,1,0,1:1:0:0:
320,192,203249,1,0,1:1:0:0:
448,192,203249,1,0,1:1:0:0:
64,192,203319,1,0,1:1:0:0:
192,192,203319,1,0,1:1:0:0:
320,192,203389,1,0,1:1:0:0:
64,192,203459,1,0,1:1:0:0:
192,192,203459,1,0,1:1:0:0:
448,192,203459,1,0,1:1:0:0:
320,192,203529,1,0,1:1:0:0:
64,192,203599,1,0,1:1:0:0:
192,192,203599,1,0,1:1:0:0:
448,192,203599,1,0,1:1:0:0:
320,192,203669,1,0,1:1:0:0:
64,192,203740,1,0,1:1:0:0:
448,192,203810,1,0,1:1:0:0:
64,192,203880,1,0,1:1:0:0:
320,192,203880,1,0,1:1:0:0:
192,192,203950,1,0,1:1:0:0:
64,192,204020,1,0,1:1:0:0:
320,192,204020,1,0,1:1:0:0:
192,192,204090,1,0,1:1:0:0:
64,192,204160,1,0,1:1:0:0:
320,192,204160,1,0,1:1:0:0:
192,192,204230,1,0,1:1:0:0:
448,192,204230,1,0,1:1:0:0:
64,192,204300,1,0,1:1:0:0:
320,192,204300,1,0,1:1:0:0:
192,192,204370,1,0,1:1:0:0:
448,192,204440,1,0,1:1:0:0:
192,192,204511,1,0,1:1:0:0:
64,192,204581,1,0,1:1:0:0:
448,192,204581,1,0,1:1:0:0:
192,192,204651,1,0,1:1:0:0:
320,192,204651,1,0,1:1:0:0:
448,192,204721,1,0,1:1:0:0:
64,192,204791,1,0,1:1:0:0:
320,192,204861,1,0,1:1:0:0:
448,192,204861,1,0,1:1:0:0:
64,192,204931,1,0,1:1:0:0:
192,192,204931,1,0,1:1:0:0:
320,192,205001,1,0,1:1:0:0:
448,192,205001,1,0,1:1:0:0:
448,192,205282,1,0,1:1:0:0:
320,192,205317,1,0,1:1:0:0:
64,192,205352,1,0,1:1:0:0:
192,192,205387,1,0,1:1:0:0:
448,192,205422,1,0,1:1:0:0:
320,192,205492,1,0,1:1:0:0:
192,192,205562,1,0,1:1:0:0:
448,192,205562,1,0,1:1:0:0:
64,192,205632,1,0,1:1:0:0:
448,192,205702,1,0,1:1:0:0:
192,192,205772,1,0,1:1:0:0:
64,192,205842,1,0,1:1:0:0:
320,192,205842,1,0,1:1:0:0:
448,192,205842,1,0,1:1:0:0:
64,192,205983,1,0,1:1:0:0:
320,192,205983,1,0,1:1:0:0:
448,192,205983,1,0,1:1:0:0:
64,192,206123,1,0,1:1:0:0:
192,192,206123,1,0,1:1:0:0:
320,192,206193,1,0,1:1:0:0:
448,192,206193,1,0,1:1:0:0:
64,192,206263,1,0,1:1:0:0:
192,192,206298,1,0,1:1:0:0:
448,192,206333,1,0,1:1:0:0:
320,192,206368,1,0,1:1:0:0:
64,192,206403,1,0,1:1:0:0:
192,192,206421,1,0,1:1:0:0:
320,192,206473,1,0,1:1:0:0:
448,192,206491,1,0,1:1:0:0:
64,192,206543,1,0,1:1:0:0:
320,192,206613,1,0,1:1:0:0:
192,192,206683,1,0,1:1:0:0:
448,192,206754,1,0,1:1:0:0:
64,192,206824,1,0,1:1:0:0:
64,192,207244,1,0,1:1:0:0:
192,192,207244,1,0,1:1:0:0:
320,192,207314,1,0,1:1:0:0:
192,192,207384,1,0,1:1:0:0:
448,192,207384,1,0,1:1:0:0:
64,192,207454,1,0,1:1:0:0:
320,192,207454,1,0,1:1:0:0:
192,192,207525,1,0,1:1:0:0:
64,192,207595,1,0,1:1:0:0:
320,192,207665,1,0,1:1:0:0:
448,192,207665,1,0,1:1:0:0:
64,192,207735,1,0,1:1:0:0:
192,192,207735,1,0,1:1:0:0:
320,192,207805,1,0,1:1:0:0:
64,192,207875,1,0,1:1:0:0:
192,192,207945,1,0,1:1:0:0:
448,192,207945,1,0,1:1:0:0:
64,192,208015,1,0,1:1:0:0:
320,192,208015,1,0,1:1:0:0:
192,192,208085,1,0,1:1:0:0:
448,192,208155,1,0,1:1:0:0:
64,192,208226,1,0,1:1:0:0:
192,192,208226,1,0,1:1:0:0:
320,192,208296,1,0,1:1:0:0:
448,192,208296,1,0,1:1:0:0:
64,192,208366,1,0,1:1:0:0:
192,192,208366,1,0,1:1:0:0:
320,192,208436,1,0,1:1:0:0:
448,192,208506,1,0,1:1:0:0:
64,192,208576,1,0,1:1:0:0:
192,192,208646,1,0,1:1:0:0:
320,192,208646,1,0,1:1:0:0:
64,192,208716,1,0,1:1:0:0:
320,192,208786,1,0,1:1:0:0:
448,192,208786,1,0,1:1:0:0:
192,192,208856,1,0,1:1:0:0:
320,192,208926,1,0,1:1:0:0:
448,192,208926,1,0,1:1:0:0:
64,192,208997,1,0,1:1:0:0:
192,192,209067,1,0,1:1:0:0:
448,192,209067,1,0,1:1:0:0:
64,192,209137,1,0,1:1:0:0:
320,192,209137,1,0,1:1:0:0:
192,192,209207,1,0,1:1:0:0:
448,192,209207,1,0,1:1:0:0:
320,192,209277,1,0,1:1:0:0:
64,192,209347,1,0,1:1:0:0:
448,192,209417,1,0,1:1:0:0:
192,192,209487,1,0,1:1:0:0:
320,192,209487,1,0,1:1:0:0:
64,192,209557,1,0,1:1:0:0:
448,192,209557,1,0,1:1:0:0:
192,192,209627,1,0,1:1:0:0:
320,192,209697,1,0,1:1:0:0:
64,192,209768,1,0,1:1:0:0:
192,192,209768,1,0,1:1:0:0:
448,192,209838,1,0,1:1:0:0:
320,192,209908,1,0,1:1:0:0:
192,192,209978,1,0,1:1:0:0:
320,192,210048,1,0,1:1:0:0:
448,192,210048,1,0,1:1:0:0:
64,192,210118,1,0,1:1:0:0:
192,192,210188,1,0,1:1:0:0:
448,192,210188,1,0,1:1:0:0:
64,192,210258,1,0,1:1:0:0:
320,192,210258,1,0,1:1:0:0:
192,192,210328,1,0,1:1:0:0:
448,192,210398,1,0,1:1:0:0:
64,192,210469,1,0,1:1:0:0:
192,192,210469,1,0,1:1:0:0:
320,192,210539,1,0,1:1:0:0:
448,192,210539,1,0,1:1:0:0:
64,192,210609,1,0,1:1:0:0:
192,192,210609,1,0,1:1:0:0:
320,192,210679,1,0,1:1:0:0:
192,192,210749,1,0,1:1:0:0:
448,192,210749,1,0,1:1:0:0:
64,192,210819,1,0,1:1:0:0:
320,192,210819,1,0,1:1:0:0:
192,192,210889,1,0,1:1:0:0:
448,192,210889,1,0,1:1:0:0:
64,192,210959,1,0,1:1:0:0:
448,192,211029,1,0,1:1:0:0:
320,192,211047,1,0,1:1:0:0:
64,192,211099,1,0,1:1:0:0:
192,192,211099,1,0,1:1:0:0:
448,192,211169,1,0,1:1:0:0:
320,192,211187,1,0,1:1:0:0:
64,192,211240,1,0,1:1:0:0:
192,192,211257,1,0,1:1:0:0:
448,192,211310,1,0,1:1:0:0:
320,192,211327,1,0,1:1:0:0:
64,192,211380,1,0,1:1:0:0:
192,192,211415,1,0,1:1:0:0:
448,192,211450,1,0,1:1:0:0:
320,192,211485,1,0,1:1:0:0:
64,192,211520,1,0,1:1:0:0:
192,192,211555,1,0,1:1:0:0:
448,192,211590,1,0,1:1:0:0:
320,192,211625,1,0,1:1:0:0:
64,192,211660,1,0,1:1:0:0:
192,192,211695,1,0,1:1:0:0:
320,192,211730,1,0,1:1:0:0:
448,192,211730,1,0,1:1:0:0:
192,192,211800,1,0,1:1:0:0:
64,192,211870,1,0,1:1:0:0:
320,192,211870,1,0,1:1:0:0:
192,192,211940,1,0,1:1:0:0:
448,192,211940,1,0,1:1:0:0:
320,192,212011,1,0,1:1:0:0:
448,192,212081,1,0,1:1:0:0:
64,192,212151,1,0,1:1:0:0:
192,192,212151,1,0,1:1:0:0:
320,192,212221,1,0,1:1:0:0:
448,192,212221,1,0,1:1:0:0:
192,192,212291,1,0,1:1:0:0:
448,192,212361,1,0,1:1:0:0:
64,192,212431,1,0,1:1:0:0:
320,192,212431,1,0,1:1:0:0:
192,192,212501,1,0,1:1:0:0:
448,192,212501,1,0,1:1:0:0:
320,192,212571,1,0,1:1:0:0:
64,192,212641,1,0,1:1:0:0:
192,192,212711,1,0,1:1:0:0:
448,192,212711,1,0,1:1:0:0:
64,192,212782,1,0,1:1:0:0:
320,192,212782,1,0,1:1:0:0:
192,192,212852,1,0,1:1:0:0:
448,192,212852,1,0,1:1:0:0:
64,192,212922,1,0,1:1:0:0:
192,192,212992,1,0,1:1:0:0:
320,192,212992,1,0,1:1:0:0:
448,192,213062,1,0,1:1:0:0:
320,192,213132,1,0,1:1:0:0:
64,192,213202,1,0,1:1:0:0:
192,192,213272,1,0,1:1:0:0:
320,192,213272,1,0,1:1:0:0:
448,192,213342,1,0,1:1:0:0:
192,192,213412,1,0,1:1:0:0:
320,192,213412,1,0,1:1:0:0:
64,192,213483,1,0,1:1:0:0:
192,192,213553,1,0,1:1:0:0:
448,192,213553,1,0,1:1:0:0:
64,192,213623,1,0,1:1:0:0:
320,192,213623,1,0,1:1:0:0:
192,192,213693,1,0,1:1:0:0:
448,192,213763,1,0,1:1:0:0:
64,192,213833,1,0,1:1:0:0:
320,192,213833,1,0,1:1:0:0:
448,192,213903,1,0,1:1:0:0:
64,192,213973,1,0,1:1:0:0:
320,192,213973,1,0,1:1:0:0:
192,192,214043,1,0,1:1:0:0:
64,192,214113,1,0,1:1:0:0:
448,192,214113,1,0,1:1:0:0:
192,192,214183,1,0,1:1:0:0:
64,192,214254,1,0,1:1:0:0:
320,192,214254,1,0,1:1:0:0:
192,192,214324,1,0,1:1:0:0:
320,192,214394,1,0,1:1:0:0:
448,192,214394,1,0,1:1:0:0:
64,192,214464,1,0,1:1:0:0:
192,192,214464,1,0,1:1:0:0:
320,192,214534,1,0,1:1:0:0:
64,192,214604,1,0,1:1:0:0:
192,192,214674,1,0,1:1:0:0:
448,192,214674,1,0,1:1:0:0:
64,192,214744,1,0,1:1:0:0:
320,192,214744,1,0,1:1:0:0:
192,192,214814,1,0,1:1:0:0:
448,192,214884,1,0,1:1:0:0:
64,192,214954,1,0,1:1:0:0:
192,192,214954,1,0,1:1:0:0:
320,192,215025,1,0,1:1:0:0:
448,192,215025,1,0,1:1:0:0:
64,192,215095,1,0,1:1:0:0:
320,192,215165,1,0,1:1:0:0:
192,192,215235,1,0,1:1:0:0:
448,192,215235,1,0,1:1:0:0:
64,192,215305,1,0,1:1:0:0:
192,192,215375,1,0,1:1:0:0:
320,192,215375,1,0,1:1:0:0:
448,192,215375,1,0,1:1:0:0:
64,192,215445,1,0,1:1:0:0:
320,192,215515,1,0,1:1:0:0:
448,192,215515,1,0,1:1:0:0:
64,192,215585,1,0,1:1:0:0:
192,192,215655,1,0,1:1:0:0:
320,192,215655,1,0,1:1:0:0:
448,192,215655,1,0,1:1:0:0:
192,192,215796,1,0,1:1:0:0:
320,192,215796,1,0,1:1:0:0:
448,192,215796,1,0,1:1:0:0:
64,192,215936,1,0,1:1:0:0:
448,192,215936,1,0,1:1:0:0:
192,192,216006,1,0,1:1:0:0:
320,192,216006,1,0,1:1:0:0:
64,192,216076,1,0,1:1:0:0:
448,192,216076,1,0,1:1:0:0:
192,192,216146,1,0,1:1:0:0:
320,192,216146,1,0,1:1:0:0:
64,192,216216,1,0,1:1:0:0:
448,192,216216,1,0,1:1:0:0:
192,192,216286,1,0,1:1:0:0:
64,192,216356,1,0,1:1:0:0:
320,192,216356,1,0,1:1:0:0:
192,192,216426,1,0,1:1:0:0:
64,192,216497,1,0,1:1:0:0:
448,192,216497,1,0,1:1:0:0:
192,192,216567,1,0,1:1:0:0:
64,192,216637,1,0,1:1:0:0:
320,192,216637,1,0,1:1:0:0:
448,192,216707,1,0,1:1:0:0:
64,192,216777,1,0,1:1:0:0:
192,192,216777,1,0,1:1:0:0:
320,192,216847,1,0,1:1:0:0:
192,192,216917,1,0,1:1:0:0:
448,192,216917,1,0,1:1:0:0:
64,192,216987,1,0,1:1:0:0:
192,192,217057,1,0,1:1:0:0:
320,192,217057,1,0,1:1:0:0:
448,192,217127,1,0,1:1:0:0:
64,192,217197,1,0,1:1:0:0:
320,192,217197,1,0,1:1:0:0:
448,192,217268,1,0,1:1:0:0:
192,192,217338,1,0,1:1:0:0:
320,192,217338,1,0,1:1:0:0:
448,192,217408,1,0,1:1:0:0:
64,192,217478,1,0,1:1:0:0:
320,192,217478,1,0,1:1:0:0:
192,192,217548,1,0,1:1:0:0:
320,192,217618,1,0,1:1:0:0:
448,192,217618,1,0,1:1:0:0:
64,192,217688,1,0,1:1:0:0:
192,192,217758,1,0,1:1:0:0:
448,192,217758,1,0,1:1:0:0:
64,192,217828,1,0,1:1:0:0:
320,192,217898,1,0,1:1:0:0:
192,192,217898,1,0,1:1:0:0:
64,192,217969,1,0,1:1:0:0:
448,192,218039,1,0,1:1:0:0:
192,192,218039,1,0,1:1:0:0:
64,192,218109,1,0,1:1:0:0:
320,192,218179,1,0,1:1:0:0:
192,192,218179,1,0,1:1:0:0:
448,192,218249,1,0,1:1:0:0:
320,192,218319,1,0,1:1:0:0:
64,192,218389,1,0,1:1:0:0:
192,192,218459,1,0,1:1:0:0:
448,192,218459,1,0,1:1:0:0:
320,192,218529,1,0,1:1:0:0:
64,192,218599,1,0,1:1:0:0:
192,192,218599,1,0,1:1:0:0:
320,192,218669,1,0,1:1:0:0:
192,192,218740,1,0,1:1:0:0:
448,192,218740,1,0,1:1:0:0:
320,192,218810,1,0,1:1:0:0:
64,192,218880,1,0,1:1:0:0:
192,192,218880,1,0,1:1:0:0:
320,192,218950,1,0,1:1:0:0:
448,192,218950,1,0,1:1:0:0:
64,192,219020,1,0,1:1:0:0:
192,192,219020,1,0,1:1:0:0:
320,192,219090,1,0,1:1:0:0:
448,192,219090,1,0,1:1:0:0:
64,192,219160,1,0,1:1:0:0:
192,192,219160,1,0,1:1:0:0:
320,192,219230,1,0,1:1:0:0:
64,192,219300,1,0,1:1:0:0:
448,192,219300,1,0,1:1:0:0:
192,192,219370,1,0,1:1:0:0:
64,192,219440,1,0,1:1:0:0:
320,192,219440,1,0,1:1:0:0:
448,192,219511,1,0,1:1:0:0:
192,192,219581,1,0,1:1:0:0:
320,192,219581,1,0,1:1:0:0:
64,192,219651,1,0,1:1:0:0:
192,192,219721,1,0,1:1:0:0:
320,192,219721,1,0,1:1:0:0:
448,192,219791,1,0,1:1:0:0:
64,192,219861,1,0,1:1:0:0:
320,192,219861,1,0,1:1:0:0:
192,192,219931,1,0,1:1:0:0:
64,192,220001,1,0,1:1:0:0:
448,192,220001,1,0,1:1:0:0:
320,192,220071,1,0,1:1:0:0:
192,192,220141,1,0,1:1:0:0:
448,192,220141,1,0,1:1:0:0:
320,192,220211,1,0,1:1:0:0:
64,192,220282,1,0,1:1:0:0:
448,192,220282,1,0,1:1:0:0:
320,192,220352,1,0,1:1:0:0:
192,192,220422,1,0,1:1:0:0:
448,192,220422,1,0,1:1:0:0:
64,192,220492,1,0,1:1:0:0:
320,192,220562,1,0,1:1:0:0:
448,192,220562,1,0,1:1:0:0:
64,192,220632,1,0,1:1:0:0:
192,192,220702,1,0,1:1:0:0:
320,192,220702,1,0,1:1:0:0:
448,192,220702,1,0,1:1:0:0:
64,192,220772,1,0,1:1:0:0:
192,192,220842,1,0,1:1:0:0:
448,192,220842,1,0,1:1:0:0:
64,192,220912,1,0,1:1:0:0:
192,192,220983,1,0,1:1:0:0:
320,192,220983,1,0,1:1:0:0:
64,192,221053,1,0,1:1:0:0:
192,192,221123,1,0,1:1:0:0:
448,192,221123,1,0,1:1:0:0:
64,192,221193,1,0,1:1:0:0:
320,192,221263,1,0,1:1:0:0:
448,192,221263,1,0,1:1:0:0:
192,192,221333,1,0,1:1:0:0:
64,192,221403,1,0,1:1:0:0:
320,192,221403,1,0,1:1:0:0:
448,192,221473,1,0,1:1:0:0:
192,192,221543,1,0,1:1:0:0:
320,192,221543,1,0,1:1:0:0:
64,192,221613,1,0,1:1:0:0:
320,192,221683,1,0,1:1:0:0:
448,192,221683,1,0,1:1:0:0:
192,192,221754,1,0,1:1:0:0:
64,192,221824,1,0,1:1:0:0:
320,192,221824,1,0,1:1:0:0:
192,192,221894,1,0,1:1:0:0:
64,192,221964,1,0,1:1:0:0:
448,192,221964,1,0,1:1:0:0:
192,192,222034,1,0,1:1:0:0:
64,192,222104,1,0,1:1:0:0:
448,192,222104,1,0,1:1:0:0:
320,192,222174,1,0,1:1:0:0:
192,192,222244,1,0,1:1:0:0:
448,192,222244,1,0,1:1:0:0:
64,192,222314,1,0,1:1:0:0:
320,192,222314,1,0,1:1:0:0:
192,192,222384,1,0,1:1:0:0:
448,192,222384,1,0,1:1:0:0:
64,192,222454,1,0,1:1:0:0:
320,192,222525,1,0,1:1:0:0:
448,192,222525,1,0,1:1:0:0:
64,192,222595,1,0,1:1:0:0:
192,192,222595,1,0,1:1:0:0:
320,192,222665,1,0,1:1:0:0:
448,192,222665,1,0,1:1:0:0:
64,192,222735,1,0,1:1:0:0:
192,192,222735,1,0,1:1:0:0:
320,192,222805,1,0,1:1:0:0:
448,192,222805,1,0,1:1:0:0:
192,192,222875,1,0,1:1:0:0:
64,192,222945,1,0,1:1:0:0:
320,192,222945,1,0,1:1:0:0:
448,192,222945,1,0,1:1:0:0:
192,192,223015,1,0,1:1:0:0:
320,192,223085,1,0,1:1:0:0:
64,192,223155,1,0,1:1:0:0:
192,192,223155,1,0,1:1:0:0:
448,192,223155,1,0,1:1:0:0:
320,192,223226,1,0,1:1:0:0:
192,192,223296,1,0,1:1:0:0:
64,192,223366,1,0,1:1:0:0:
320,192,223366,1,0,1:1:0:0:
448,192,223366,1,0,1:1:0:0:
192,192,223436,1,0,1:1:0:0:
320,192,223506,1,0,1:1:0:0:
448,192,223506,1,0,1:1:0:0:
64,192,223576,1,0,1:1:0:0:
192,192,223646,1,0,1:1:0:0:
320,192,223646,1,0,1:1:0:0:
448,192,223646,1,0,1:1:0:0:
64,192,223716,1,0,1:1:0:0:
320,192,223786,1,0,1:1:0:0:
448,192,223786,1,0,1:1:0:0:
192,192,223856,1,0,1:1:0:0:
64,192,223926,1,0,1:1:0:0:
320,192,223926,1,0,1:1:0:0:
448,192,223926,1,0,1:1:0:0:
192,192,223997,1,0,1:1:0:0:
320,192,224067,1,0,1:1:0:0:
448,192,224067,1,0,1:1:0:0:
64,192,224137,1,0,1:1:0:0:
192,192,224207,1,0,1:1:0:0:
320,192,224207,1,0,1:1:0:0:
64,192,224277,1,0,1:1:0:0:
448,192,224277,1,0,1:1:0:0:
192,192,224347,1,0,1:1:0:0:
320,192,224347,1,0,1:1:0:0:
64,192,224417,1,0,1:1:0:0:
448,192,224417,1,0,1:1:0:0:
192,192,224487,1,0,1:1:0:0:
320,192,224487,1,0,1:1:0:0:
448,192,224557,1,0,1:1:0:0:
64,192,224627,1,0,1:1:0:0:
320,192,224627,1,0,1:1:0:0:
192,192,224697,1,0,1:1:0:0:
448,192,224697,1,0,1:1:0:0:
64,192,224768,1,0,1:1:0:0:
320,192,224768,1,0,1:1:0:0:
448,192,224838,1,0,1:1:0:0:
64,192,224908,1,0,1:1:0:0:
192,192,224908,1,0,1:1:0:0:
320,192,224978,1,0,1:1:0:0:
448,192,224978,1,0,1:1:0:0:
64,192,225048,1,0,1:1:0:0:
192,192,225048,1,0,1:1:0:0:
320,192,225118,1,0,1:1:0:0:
448,192,225118,1,0,1:1:0:0:
64,192,225188,1,0,1:1:0:0:
192,192,225188,1,0,1:1:0:0:
320,192,225258,1,0,1:1:0:0:
192,192,225328,1,0,1:1:0:0:
448,192,225328,1,0,1:1:0:0:
64,192,225398,1,0,1:1:0:0:
320,192,225469,1,0,1:1:0:0:
448,192,225469,1,0,1:1:0:0:
192,192,225539,1,0,1:1:0:0:
64,192,225609,1,0,1:1:0:0:
320,192,225609,1,0,1:1:0:0:
192,192,225679,1,0,1:1:0:0:
64,192,225749,1,0,1:1:0:0:
448,192,225749,1,0,1:1:0:0:
192,192,225819,1,0,1:1:0:0:
64,192,225889,1,0,1:1:0:0:
320,192,225889,1,0,1:1:0:0:
448,192,225959,1,0,1:1:0:0:
64,192,226029,1,0,1:1:0:0:
192,192,226029,1,0,1:1:0:0:
320,192,226099,1,0,1:1:0:0:
448,192,226099,1,0,1:1:0:0:
64,192,226169,1,0,1:1:0:0:
192,192,226169,1,0,1:1:0:0:
320,192,226240,1,0,1:1:0:0:
64,192,226310,1,0,1:1:0:0:
448,192,226310,1,0,1:1:0:0:
192,192,226380,1,0,1:1:0:0:
320,192,226380,1,0,1:1:0:0:
64,192,226450,1,0,1:1:0:0:
448,192,226450,1,0,1:1:0:0:
192,192,226520,1,0,1:1:0:0:
64,192,226590,1,0,1:1:0:0:
320,192,226590,1,0,1:1:0:0:
192,192,226660,1,0,1:1:0:0:
448,192,226660,1,0,1:1:0:0:
64,192,226730,1,0,1:1:0:0:
320,192,226730,1,0,1:1:0:0:
448,192,226800,1,0,1:1:0:0:
64,192,226870,1,0,1:1:0:0:
192,192,226870,1,0,1:1:0:0:
320,192,226940,1,0,1:1:0:0:
448,192,226940,1,0,1:1:0:0:
64,192,227011,1,0,1:1:0:0:
192,192,227011,1,0,1:1:0:0:
320,192,227081,1,0,1:1:0:0:
448,192,227081,1,0,1:1:0:0:
64,192,227151,1,0,1:1:0:0:
192,192,227151,1,0,1:1:0:0:
448,192,227221,1,0,1:1:0:0:
64,192,227291,1,0,1:1:0:0:
320,192,227291,1,0,1:1:0:0:
192,192,227361,1,0,1:1:0:0:
64,192,227431,1,0,1:1:0:0:
320,192,227431,1,0,1:1:0:0:
448,192,227431,1,0,1:1:0:0:
192,192,227501,1,0,1:1:0:0:
320,192,227571,1,0,1:1:0:0:
448,192,227571,1,0,1:1:0:0:
64,192,227641,1,0,1:1:0:0:
192,192,227711,1,0,1:1:0:0:
320,192,227711,1,0,1:1:0:0:
448,192,227782,1,0,1:1:0:0:
64,192,227852,1,0,1:1:0:0:
192,192,227922,1,0,1:1:0:0:
320,192,227922,1,0,1:1:0:0:
64,192,227992,1,0,1:1:0:0:
448,192,227992,1,0,1:1:0:0:
192,192,228062,1,0,1:1:0:0:
320,192,228062,1,0,1:1:0:0:
64,192,228132,1,0,1:1:0:0:
448,192,228132,1,0,1:1:0:0:
320,192,228202,1,0,1:1:0:0:
64,192,228272,1,0,1:1:0:0:
192,192,228272,1,0,1:1:0:0:
448,192,228342,1,0,1:1:0:0:
64,192,228412,1,0,1:1:0:0:
320,192,228412,1,0,1:1:0:0:
192,192,228483,1,0,1:1:0:0:
320,192,228553,1,0,1:1:0:0:
448,192,228553,1,0,1:1:0:0:
64,192,228623,1,0,1:1:0:0:
448,192,228693,1,0,1:1:0:0:
320,192,228693,1,0,1:1:0:0:
192,192,228763,1,0,1:1:0:0:
64,192,228833,1,0,1:1:0:0:
448,192,228833,1,0,1:1:0:0:
192,192,228903,1,0,1:1:0:0:
320,192,228973,1,0,1:1:0:0:
64,192,228973,1,0,1:1:0:0:
192,192,229043,1,0,1:1:0:0:
320,192,229113,1,0,1:1:0:0:
448,192,229113,1,0,1:1:0:0:
192,192,229183,1,0,1:1:0:0:
320,192,229254,1,0,1:1:0:0:
448,192,229254,1,0,1:1:0:0:
64,192,229324,1,0,1:1:0:0:
192,192,229394,1,0,1:1:0:0:
320,192,229394,1,0,1:1:0:0:
64,192,229464,1,0,1:1:0:0:
448,192,229464,1,0,1:1:0:0:
192,192,229534,1,0,1:1:0:0:
320,192,229534,1,0,1:1:0:0:
64,192,229604,1,0,1:1:0:0:
448,192,229604,1,0,1:1:0:0:
192,192,229674,1,0,1:1:0:0:
320,192,229674,1,0,1:1:0:0:
448,192,229744,1,0,1:1:0:0:
64,192,229814,1,0,1:1:0:0:
192,192,229814,1,0,1:1:0:0:
448,192,229884,1,0,1:1:0:0:
64,192,229954,1,0,1:1:0:0:
320,192,229954,1,0,1:1:0:0:
192,192,230025,1,0,1:1:0:0:
64,192,230095,1,0,1:1:0:0:
448,192,230095,1,0,1:1:0:0:
192,192,230165,1,0,1:1:0:0:
64,192,230235,1,0,1:1:0:0:
320,192,230235,1,0,1:1:0:0:
448,192,230305,1,0,1:1:0:0:
192,192,230375,1,0,1:1:0:0:
320,192,230375,1,0,1:1:0:0:
64,192,230445,1,0,1:1:0:0:
320,192,230515,1,0,1:1:0:0:
448,192,230515,1,0,1:1:0:0:
64,192,230585,1,0,1:1:0:0:
192,192,230585,1,0,1:1:0:0:
320,192,230655,1,0,1:1:0:0:
448,192,230655,1,0,1:1:0:0:
192,192,230726,1,0,1:1:0:0:
64,192,230796,1,0,1:1:0:0:
448,192,230796,1,0,1:1:0:0:
320,192,230866,1,0,1:1:0:0:
192,192,230936,1,0,1:1:0:0:
448,192,230936,1,0,1:1:0:0:
320,192,231006,1,0,1:1:0:0:
64,192,231076,1,0,1:1:0:0:
448,192,231076,1,0,1:1:0:0:
192,192,231146,1,0,1:1:0:0:
64,192,231216,1,0,1:1:0:0:
320,192,231216,1,0,1:1:0:0:
192,192,231286,1,0,1:1:0:0:
64,192,231356,1,0,1:1:0:0:
448,192,231356,1,0,1:1:0:0:
320,192,231426,1,0,1:1:0:0:
192,192,231497,1,0,1:1:0:0:
448,192,231497,1,0,1:1:0:0:
320,192,231567,1,0,1:1:0:0:
192,192,231637,1,0,1:1:0:0:
448,192,231637,1,0,1:1:0:0:
64,192,231707,1,0,1:1:0:0:
192,192,231777,1,0,1:1:0:0:
320,192,231777,1,0,1:1:0:0:
448,192,231847,1,0,1:1:0:0:
64,192,231917,1,0,1:1:0:0:
320,192,231917,1,0,1:1:0:0:
192,192,231987,1,0,1:1:0:0:
64,192,232057,1,0,1:1:0:0:
448,192,232057,1,0,1:1:0:0:
320,192,232127,1,0,1:1:0:0:
64,192,232197,1,0,1:1:0:0:
192,192,232197,1,0,1:1:0:0:
448,192,232268,1,0,1:1:0:0:
64,192,232338,1,0,1:1:0:0:
320,192,232338,1,0,1:1:0:0:
192,192,232408,1,0,1:1:0:0:
448,192,232408,1,0,1:1:0:0:
64,192,232478,1,0,1:1:0:0:
320,192,232478,1,0,1:1:0:0:
192,192,232548,1,0,1:1:0:0:
64,192,232618,1,0,1:1:0:0:
448,192,232618,1,0,1:1:0:0:
192,192,232688,1,0,1:1:0:0:
320,192,232758,1,0,1:1:0:0:
448,192,232758,1,0,1:1:0:0:
64,192,232828,1,0,1:1:0:0:
192,192,232828,1,0,1:1:0:0:
320,192,232898,1,0,1:1:0:0:
448,192,232898,1,0,1:1:0:0:
64,192,232969,1,0,1:1:0:0:
192,192,232969,1,0,1:1:0:0:
320,192,233039,1,0,1:1:0:0:
448,192,233039,1,0,1:1:0:0:
192,192,233109,1,0,1:1:0:0:
64,192,233179,1,0,1:1:0:0:
320,192,233179,1,0,1:1:0:0:
448,192,233249,1,0,1:1:0:0:
64,192,233319,1,0,1:1:0:0:
192,192,233319,1,0,1:1:0:0:
320,192,233389,1,0,1:1:0:0:
64,192,233459,1,0,1:1:0:0:
448,192,233459,1,0,1:1:0:0:
192,192,233529,1,0,1:1:0:0:
320,192,233599,1,0,1:1:0:0:
448,192,233599,1,0,1:1:0:0:
64,192,233669,1,0,1:1:0:0:
192,192,233740,1,0,1:1:0:0:
448,192,233740,1,0,1:1:0:0:
320,192,233810,1,0,1:1:0:0:
64,192,233880,1,0,1:1:0:0:
192,192,233880,1,0,1:1:0:0:
448,192,233950,1,0,1:1:0:0:
64,192,234020,1,0,1:1:0:0:
320,192,234020,1,0,1:1:0:0:
192,192,234090,1,0,1:1:0:0:
448,192,234090,1,0,1:1:0:0:
64,192,234160,1,0,1:1:0:0:
320,192,234160,1,0,1:1:0:0:
192,192,234230,1,0,1:1:0:0:
448,192,234230,1,0,1:1:0:0:
64,192,234300,1,0,1:1:0:0:
320,192,234300,1,0,1:1:0:0:
192,192,234370,1,0,1:1:0:0:
320,192,234440,1,0,1:1:0:0:
448,192,234440,1,0,1:1:0:0:
64,192,234511,1,0,1:1:0:0:
192,192,234581,1,0,1:1:0:0:
448,192,234581,1,0,1:1:0:0:
320,192,234651,1,0,1:1:0:0:
64,192,234721,1,0,1:1:0:0:
192,192,234721,1,0,1:1:0:0:
320,192,234791,1,0,1:1:0:0:
192,192,234861,1,0,1:1:0:0:
448,192,234861,1,0,1:1:0:0:
64,192,234931,1,0,1:1:0:0:
320,192,235001,1,0,1:1:0:0:
448,192,235001,1,0,1:1:0:0:
64,192,235071,1,0,1:1:0:0:
192,192,235141,1,0,1:1:0:0:
320,192,235141,1,0,1:1:0:0:
448,192,235211,1,0,1:1:0:0:
64,192,235282,1,0,1:1:0:0:
320,192,235282,1,0,1:1:0:0:
192,192,235352,1,0,1:1:0:0:
448,192,235352,1,0,1:1:0:0:
64,192,235422,1,0,1:1:0:0:
320,192,235422,1,0,1:1:0:0:
192,192,235492,1,0,1:1:0:0:
64,192,235562,1,0,1:1:0:0:
448,192,235562,1,0,1:1:0:0:
192,192,235632,1,0,1:1:0:0:
320,192,235632,1,0,1:1:0:0:
64,192,235702,1,0,1:1:0:0:
448,192,235702,1,0,1:1:0:0:
320,192,235772,1,0,1:1:0:0:
64,192,235842,1,0,1:1:0:0:
192,192,235842,1,0,1:1:0:0:
320,192,235912,1,0,1:1:0:0:
448,192,235912,1,0,1:1:0:0:
64,192,235983,1,0,1:1:0:0:
192,192,235983,1,0,1:1:0:0:
320,192,236053,1,0,1:1:0:0:
448,192,236053,1,0,1:1:0:0:
64,192,236123,1,0,1:1:0:0:
192,192,236123,1,0,1:1:0:0:
448,192,236193,1,0,1:1:0:0:
64,192,236263,1,0,1:1:0:0:
320,192,236263,1,0,1:1:0:0:
192,192,236333,1,0,1:1:0:0:
320,192,236403,1,0,1:1:0:0:
448,192,236403,1,0,1:1:0:0:
64,192,236473,1,0,1:1:0:0:
320,192,236543,1,0,1:1:0:0:
64,192,236613,1,0,1:1:0:0:
192,192,236613,1,0,1:1:0:0:
320,192,236683,1,0,1:1:0:0:
448,192,236683,1,0,1:1:0:0:
64,192,236754,1,0,1:1:0:0:
192,192,236754,1,0,1:1:0:0:
320,192,236824,1,0,1:1:0:0:
448,192,236824,1,0,1:1:0:0:
64,192,236894,1,0,1:1:0:0:
192,192,236894,1,0,1:1:0:0:
320,192,236964,1,0,1:1:0:0:
448,192,236964,1,0,1:1:0:0:
192,192,237034,1,0,1:1:0:0:
64,192,237104,1,0,1:1:0:0:
448,192,237104,1,0,1:1:0:0:
320,192,237174,1,0,1:1:0:0:
64,192,237244,1,0,1:1:0:0:
192,192,237244,1,0,1:1:0:0:
320,192,237314,1,0,1:1:0:0:
448,192,237314,1,0,1:1:0:0:
64,192,237384,1,0,1:1:0:0:
192,192,237384,1,0,1:1:0:0:
448,192,237454,1,0,1:1:0:0:
64,192,237525,1,0,1:1:0:0:
320,192,237525,1,0,1:1:0:0:
192,192,237595,1,0,1:1:0:0:
320,192,237665,1,0,1:1:0:0:
448,192,237665,1,0,1:1:0:0:
64,192,237735,1,0,1:1:0:0:
192,192,237805,1,0,1:1:0:0:
448,192,237805,1,0,1:1:0:0:
320,192,237875,1,0,1:1:0:0:
64,192,237945,1,0,1:1:0:0:
448,192,237945,1,0,1:1:0:0:
192,192,238015,1,0,1:1:0:0:
64,192,238085,1,0,1:1:0:0:
448,192,238085,1,0,1:1:0:0:
320,192,238155,1,0,1:1:0:0:
64,192,238226,1,0,1:1:0:0:
448,192,238226,1,0,1:1:0:0:
192,192,238296,1,0,1:1:0:0:
320,192,238296,1,0,1:1:0:0:
64,192,238366,1,0,1:1:0:0:
448,192,238366,1,0,1:1:0:0:
192,192,238436,1,0,1:1:0:0:
320,192,238506,1,0,1:1:0:0:
448,192,238506,1,0,1:1:0:0:
64,192,238576,1,0,1:1:0:0:
320,192,238646,1,0,1:1:0:0:
448,192,238646,1,0,1:1:0:0:
64,192,238716,1,0,1:1:0:0:
192,192,238716,1,0,1:1:0:0:
320,192,238786,1,0,1:1:0:0:
448,192,238786,1,0,1:1:0:0:
192,192,238856,1,0,1:1:0:0:
64,192,238926,1,0,1:1:0:0:
320,192,238926,1,0,1:1:0:0:
448,192,238926,1,0,1:1:0:0:
192,192,238997,1,0,1:1:0:0:
64,192,239067,1,0,1:1:0:0:
448,192,239067,1,0,1:1:0:0:
192,192,239137,1,0,1:1:0:0:
320,192,239137,1,0,1:1:0:0:
64,192,239207,1,0,1:1:0:0:
448,192,239207,1,0,1:1:0:0:
320,192,239277,1,0,1:1:0:0:
192,192,239347,1,0,1:1:0:0:
448,192,239347,1,0,1:1:0:0:
64,192,239417,1,0,1:1:0:0:
320,192,239487,1,0,1:1:0:0:
448,192,239487,1,0,1:1:0:0:
64,192,239557,1,0,1:1:0:0:
192,192,239557,1,0,1:1:0:0:
320,192,239627,1,0,1:1:0:0:
448,192,239627,1,0,1:1:0:0:
64,192,239697,1,0,1:1:0:0:
192,192,239768,1,0,1:1:0:0:
320,192,239768,1,0,1:1:0:0:
448,192,239838,1,0,1:1:0:0:
64,192,239908,1,0,1:1:0:0:
320,192,239908,1,0,1:1:0:0:
448,192,239978,1,0,1:1:0:0:
64,192,240048,1,0,1:1:0:0:
192,192,240048,1,0,1:1:0:0:
320,192,240118,1,0,1:1:0:0:
64,192,240188,1,0,1:1:0:0:
448,192,240188,1,0,1:1:0:0:
192,192,240258,1,0,1:1:0:0:
64,192,240328,1,0,1:1:0:0:
320,192,240328,1,0,1:1:0:0:
192,192,240398,1,0,1:1:0:0:
64,192,240469,1,0,1:1:0:0:
448,192,240469,1,0,1:1:0:0:
192,192,240539,1,0,1:1:0:0:
64,192,240609,1,0,1:1:0:0:
320,192,240609,1,0,1:1:0:0:
192,192,240679,1,0,1:1:0:0:
64,192,240749,1,0,1:1:0:0:
448,192,240749,1,0,1:1:0:0:
320,192,240819,1,0,1:1:0:0:
64,192,240889,1,0,1:1:0:0:
192,192,240889,1,0,1:1:0:0:
448,192,240959,1,0,1:1:0:0:
64,192,241029,1,0,1:1:0:0:
320,192,241029,1,0,1:1:0:0:
192,192,241099,1,0,1:1:0:0:
320,192,241169,1,0,1:1:0:0:
448,192,241169,1,0,1:1:0:0:
64,192,241240,1,0,1:1:0:0:
192,192,241310,1,0,1:1:0:0:
320,192,241310,1,0,1:1:0:0:
64,192,241380,1,0,1:1:0:0:
448,192,241380,1,0,1:1:0:0:
192,192,241450,1,0,1:1:0:0:
320,192,241450,1,0,1:1:0:0:
64,192,241520,1,0,1:1:0:0:
448,192,241520,1,0,1:1:0:0:
192,192,241590,1,0,1:1:0:0:
320,192,241590,1,0,1:1:0:0:
448,192,241660,1,0,1:1:0:0:
64,192,241730,1,0,1:1:0:0:
192,192,241730,1,0,1:1:0:0:
320,192,241800,1,0,1:1:0:0:
192,192,241870,1,0,1:1:0:0:
448,192,241870,1,0,1:1:0:0:
64,192,241940,1,0,1:1:0:0:
320,192,242011,1,0,1:1:0:0:
448,192,242011,1,0,1:1:0:0:
192,192,242081,1,0,1:1:0:0:
64,192,242151,1,0,1:1:0:0:
320,192,242151,1,0,1:1:0:0:
448,192,242221,1,0,1:1:0:0:
192,192,242291,1,0,1:1:0:0:
64,192,242314,1,0,1:1:0:0:
320,192,242338,1,0,1:1:0:0:
448,192,242361,1,0,1:1:0:0:
192,192,242431,1,0,1:1:0:0:
320,192,242501,1,0,1:1:0:0:
64,192,242571,1,0,1:1:0:0:
192,192,242571,1,0,1:1:0:0:
320,192,242641,1,0,1:1:0:0:
192,192,242711,1,0,1:1:0:0:
64,192,242735,1,0,1:1:0:0:
320,192,242758,1,0,1:1:0:0:
448,192,242782,1,0,1:1:0:0:
64,192,242852,1,0,1:1:0:0:
192,192,242852,1,0,1:1:0:0:
448,192,242922,1,0,1:1:0:0:
192,192,242992,1,0,1:1:0:0:
320,192,242992,1,0,1:1:0:0:
64,192,243062,1,0,1:1:0:0:
448,192,243062,1,0,1:1:0:0:
192,192,243132,1,0,1:1:0:0:
320,192,243132,1,0,1:1:0:0:
64,192,243202,1,0,1:1:0:0:
320,192,243272,1,0,1:1:0:0:
448,192,243272,1,0,1:1:0:0:
192,192,243342,1,0,1:1:0:0:
64,192,243412,1,0,1:1:0:0:
320,192,243412,1,0,1:1:0:0:
448,192,243483,1,0,1:1:0:0:
64,192,243553,1,0,1:1:0:0:
192,192,243553,1,0,1:1:0:0:
320,192,243623,1,0,1:1:0:0:
192,192,243693,1,0,1:1:0:0:
448,192,243693,1,0,1:1:0:0:
64,192,243763,1,0,1:1:0:0:
320,192,243833,1,0,1:1:0:0:
448,192,243833,1,0,1:1:0:0:
192,192,243903,1,0,1:1:0:0:
64,192,243973,1,0,1:1:0:0:
448,192,243973,1,0,1:1:0:0:
320,192,244043,1,0,1:1:0:0:
192,192,244043,1,0,1:1:0:0:
448,192,244113,1,0,1:1:0:0:
320,192,244183,1,0,1:1:0:0:
64,192,244254,1,0,1:1:0:0:
192,192,244254,1,0,1:1:0:0:
448,192,244324,1,0,1:1:0:0:
64,192,244394,1,0,1:1:0:0:
320,192,244394,1,0,1:1:0:0:
192,192,244464,1,0,1:1:0:0:
448,192,244464,1,0,1:1:0:0:
64,192,244534,1,0,1:1:0:0:
320,192,244604,1,0,1:1:0:0:
64,192,244674,1,0,1:1:0:0:
192,192,244674,1,0,1:1:0:0:
320,192,244744,1,0,1:1:0:0:
448,192,244744,1,0,1:1:0:0:
64,192,244814,1,0,1:1:0:0:
192,192,244814,1,0,1:1:0:0:
320,192,244884,1,0,1:1:0:0:
448,192,244884,1,0,1:1:0:0:
64,192,244954,1,0,1:1:0:0:
192,192,244954,1,0,1:1:0:0:
320,192,245025,1,0,1:1:0:0:
448,192,245025,1,0,1:1:0:0:
64,192,245095,1,0,1:1:0:0:
192,192,245095,1,0,1:1:0:0:
448,192,245165,1,0,1:1:0:0:
64,192,245235,1,0,1:1:0:0:
320,192,245235,1,0,1:1:0:0:
192,192,245305,1,0,1:1:0:0:
64,192,245375,1,0,1:1:0:0:
320,192,245375,1,0,1:1:0:0:
448,192,245375,1,0,1:1:0:0:
192,192,245445,1,0,1:1:0:0:
320,192,245515,1,0,1:1:0:0:
448,192,245515,1,0,1:1:0:0:
64,192,245585,1,0,1:1:0:0:
192,192,245655,1,0,1:1:0:0:
448,192,245655,1,0,1:1:0:0:
320,192,245726,1,0,1:1:0:0:
64,192,245796,1,0,1:1:0:0:
448,192,245796,1,0,1:1:0:0:
192,192,245866,1,0,1:1:0:0:
320,192,245866,1,0,1:1:0:0:
64,192,245936,1,0,1:1:0:0:
448,192,245936,1,0,1:1:0:0:
192,192,246006,1,0,1:1:0:0:
320,192,246006,1,0,1:1:0:0:
64,192,246076,1,0,1:1:0:0:
448,192,246076,1,0,1:1:0:0:
192,192,246146,1,0,1:1:0:0:
64,192,246216,1,0,1:1:0:0:
448,192,246216,1,0,1:1:0:0:
320,192,246286,1,0,1:1:0:0:
64,192,246356,1,0,1:1:0:0:
448,192,246356,1,0,1:1:0:0:
192,192,246426,1,0,1:1:0:0:
448,192,246497,1,0,1:1:0:0:
320,192,246497,1,0,1:1:0:0:
64,192,246567,1,0,1:1:0:0:
320,192,246637,1,0,1:1:0:0:
448,192,246637,1,0,1:1:0:0:
64,192,246707,1,0,1:1:0:0:
192,192,246777,1,0,1:1:0:0:
320,192,246777,1,0,1:1:0:0:
448,192,246847,1,0,1:1:0:0:
64,192,246917,1,0,1:1:0:0:
192,192,246917,1,0,1:1:0:0:
448,192,246987,1,0,1:1:0:0:
64,192,247057,1,0,1:1:0:0:
320,192,247057,1,0,1:1:0:0:
192,192,247127,1,0,1:1:0:0:
64,192,247197,1,0,1:1:0:0:
320,192,247197,1,0,1:1:0:0:
192,192,247268,1,0,1:1:0:0:
448,192,247268,1,0,1:1:0:0:
64,192,247338,1,0,1:1:0:0:
320,192,247338,1,0,1:1:0:0:
192,192,247408,1,0,1:1:0:0:
320,192,247478,1,0,1:1:0:0:
448,192,247478,1,0,1:1:0:0:
64,192,247548,1,0,1:1:0:0:
192,192,247548,1,0,1:1:0:0:
448,192,247618,1,0,1:1:0:0:
320,192,247618,1,0,1:1:0:0:
64,192,247688,1,0,1:1:0:0:
192,192,247758,1,0,1:1:0:0:
320,192,247758,1,0,1:1:0:0:
64,192,247828,1,0,1:1:0:0:
192,192,247898,1,0,1:1:0:0:
448,192,247898,1,0,1:1:0:0:
320,192,247969,1,0,1:1:0:0:
64,192,248039,1,0,1:1:0:0:
448,192,248039,1,0,1:1:0:0:
320,192,248109,1,0,1:1:0:0:
192,192,248179,1,0,1:1:0:0:
448,192,248179,1,0,1:1:0:0:
64,192,248249,1,0,1:1:0:0:
192,192,248319,1,0,1:1:0:0:
320,192,248319,1,0,1:1:0:0:
448,192,248389,1,0,1:1:0:0:
64,192,248459,1,0,1:1:0:0:
192,192,248459,1,0,1:1:0:0:
320,192,248529,1,0,1:1:0:0:
448,192,248529,1,0,1:1:0:0:
64,192,248599,1,0,1:1:0:0:
192,192,248599,1,0,1:1:0:0:
448,192,248669,1,0,1:1:0:0:
64,192,248740,1,0,1:1:0:0:
320,192,248740,1,0,1:1:0:0:
192,192,248810,1,0,1:1:0:0:
320,192,248880,1,0,1:1:0:0:
448,192,248880,1,0,1:1:0:0:
64,192,248950,1,0,1:1:0:0:
192,192,248950,1,0,1:1:0:0:
320,192,249020,1,0,1:1:0:0:
448,192,249020,1,0,1:1:0:0:
64,192,249090,1,0,1:1:0:0:
192,192,249160,1,0,1:1:0:0:
448,192,249160,1,0,1:1:0:0:
64,192,249230,1,0,1:1:0:0:
320,192,249230,1,0,1:1:0:0:
192,192,249300,1,0,1:1:0:0:
448,192,249300,1,0,1:1:0:0:
64,192,249370,1,0,1:1:0:0:
320,192,249370,1,0,1:1:0:0:
192,192,249440,1,0,1:1:0:0:
448,192,249440,1,0,1:1:0:0:
320,192,249511,1,0,1:1:0:0:
64,192,249581,1,0,1:1:0:0:
448,192,249581,1,0,1:1:0:0:
192,192,249651,1,0,1:1:0:0:
64,192,249721,1,0,1:1:0:0:
320,192,249721,1,0,1:1:0:0:
192,192,249791,1,0,1:1:0:0:
448,192,249791,1,0,1:1:0:0:
64,192,249861,1,0,1:1:0:0:
320,192,249931,1,0,1:1:0:0:
448,192,249931,1,0,1:1:0:0:
64,192,250001,1,0,1:1:0:0:
192,192,250001,1,0,1:1:0:0:
320,192,250071,1,0,1:1:0:0:
64,192,250141,1,0,1:1:0:0:
448,192,250141,1,0,1:1:0:0:
192,192,250211,1,0,1:1:0:0:
320,192,250282,1,0,1:1:0:0:
448,192,250282,1,0,1:1:0:0:
192,192,250352,1,0,1:1:0:0:
64,192,250422,1,0,1:1:0:0:
448,192,250422,1,0,1:1:0:0:
320,192,250492,1,0,1:1:0:0:
64,192,250562,1,0,1:1:0:0:
448,192,250562,1,0,1:1:0:0:
192,192,250632,1,0,1:1:0:0:
64,192,250702,1,0,1:1:0:0:
448,192,250702,1,0,1:1:0:0:
192,192,250772,1,0,1:1:0:0:
320,192,250772,1,0,1:1:0:0:
64,192,250842,1,0,1:1:0:0:
448,192,250842,1,0,1:1:0:0:
320,192,250912,1,0,1:1:0:0:
192,192,250983,1,0,1:1:0:0:
448,192,250983,1,0,1:1:0:0:
64,192,251053,1,0,1:1:0:0:
192,192,251123,1,0,1:1:0:0:
320,192,251123,1,0,1:1:0:0:
64,192,251193,1,0,1:1:0:0:
192,192,251263,1,0,1:1:0:0:
448,192,251263,1,0,1:1:0:0:
320,192,251333,1,0,1:1:0:0:
64,192,251403,1,0,1:1:0:0:
192,192,251473,1,0,1:1:0:0:
320,192,251473,1,0,1:1:0:0:
64,192,251543,1,0,1:1:0:0:
448,192,251543,1,0,1:1:0:0:
192,192,251613,1,0,1:1:0:0:
320,192,251613,1,0,1:1:0:0:
64,192,251683,1,0,1:1:0:0:
448,192,251683,1,0,1:1:0:0:
192,192,251754,1,0,1:1:0:0:
320,192,251754,1,0,1:1:0:0:
64,192,251824,1,0,1:1:0:0:
448,192,251824,1,0,1:1:0:0:
192,192,251964,1,0,1:1:0:0:
320,192,251999,1,0,1:1:0:0:
64,192,252034,1,0,1:1:0:0:
448,192,252069,1,0,1:1:0:0:
192,192,252104,1,0,1:1:0:0:
320,192,252104,1,0,1:1:0:0:
64,192,252174,1,0,1:1:0:0:
192,192,252244,1,0,1:1:0:0:
320,192,252244,1,0,1:1:0:0:
448,192,252314,1,0,1:1:0:0:
64,192,252384,1,0,1:1:0:0:
320,192,252384,1,0,1:1:0:0:
192,192,252454,1,0,1:1:0:0:
320,192,252525,1,0,1:1:0:0:
448,192,252525,1,0,1:1:0:0:
64,192,252595,1,0,1:1:0:0:
192,192,252665,1,0,1:1:0:0:
448,192,252665,1,0,1:1:0:0:
320,192,252735,1,0,1:1:0:0:
64,192,252805,1,0,1:1:0:0:
192,192,252805,1,0,1:1:0:0:
448,192,252875,1,0,1:1:0:0:
64,192,252945,1,0,1:1:0:0:
320,192,252945,1,0,1:1:0:0:
192,192,253015,1,0,1:1:0:0:
448,192,253015,1,0,1:1:0:0:
64,192,253085,1,0,1:1:0:0:
448,192,253155,1,0,1:1:0:0:
192,192,253226,1,0,1:1:0:0:
320,192,253226,1,0,1:1:0:0:
64,192,253296,1,0,1:1:0:0:
192,192,253366,1,0,1:1:0:0:
448,192,253366,1,0,1:1:0:0:
64,192,253436,1,0,1:1:0:0:
320,192,253436,1,0,1:1:0:0:
448,192,253506,1,0,1:1:0:0:
192,192,253576,1,0,1:1:0:0:
64,192,253646,1,0,1:1:0:0:
448,192,253646,1,0,1:1:0:0:
192,192,253716,1,0,1:1:0:0:
320,192,253716,1,0,1:1:0:0:
64,192,253786,1,0,1:1:0:0:
448,192,253786,1,0,1:1:0:0:
192,192,253856,1,0,1:1:0:0:
320,192,253856,1,0,1:1:0:0:
64,192,253926,1,0,1:1:0:0:
448,192,253926,1,0,1:1:0:0:
192,192,253997,1,0,1:1:0:0:
320,192,253997,1,0,1:1:0:0:
64,192,254067,1,0,1:1:0:0:
448,192,254067,1,0,1:1:0:0:
192,192,254137,1,0,1:1:0:0:
320,192,254207,1,0,1:1:0:0:
448,192,254207,1,0,1:1:0:0:
64,192,254277,1,0,1:1:0:0:
320,192,254347,1,0,1:1:0:0:
448,192,254347,1,0,1:1:0:0:
192,192,254417,1,0,1:1:0:0:
64,192,254487,1,0,1:1:0:0:
448,192,254487,1,0,1:1:0:0:
320,192,254557,1,0,1:1:0:0:
64,192,254627,1,0,1:1:0:0:
192,192,254627,1,0,1:1:0:0:
448,192,254697,1,0,1:1:0:0:
64,192,254768,1,0,1:1:0:0:
192,192,254768,1,0,1:1:0:0:
320,192,254838,1,0,1:1:0:0:
448,192,254838,1,0,1:1:0:0:
64,192,254908,1,0,1:1:0:0:
192,192,254908,1,0,1:1:0:0:
320,192,254978,1,0,1:1:0:0:
448,192,254978,1,0,1:1:0:0:
64,192,255048,1,0,1:1:0:0:
192,192,255048,1,0,1:1:0:0:
448,192,255118,1,0,1:1:0:0:
192,192,255188,1,0,1:1:0:0:
320,192,255188,1,0,1:1:0:0:
64,192,255258,1,0,1:1:0:0:
192,192,255328,1,0,1:1:0:0:
448,192,255328,1,0,1:1:0:0:
320,192,255398,1,0,1:1:0:0:
64,192,255469,1,0,1:1:0:0:
192,192,255469,1,0,1:1:0:0:
448,192,255469,1,0,1:1:0:0:
320,192,255539,1,0,1:1:0:0:
64,192,255609,1,0,1:1:0:0:
192,192,255609,1,0,1:1:0:0:
448,192,255679,1,0,1:1:0:0:
64,192,255749,1,0,1:1:0:0:
320,192,255749,1,0,1:1:0:0:
192,192,255819,1,0,1:1:0:0:
320,192,255889,1,0,1:1:0:0:
448,192,255889,1,0,1:1:0:0:
64,192,255959,1,0,1:1:0:0:
320,192,256029,1,0,1:1:0:0:
448,192,256029,1,0,1:1:0:0:
192,192,256099,1,0,1:1:0:0:
64,192,256169,1,0,1:1:0:0:
320,192,256169,1,0,1:1:0:0:
448,192,256240,1,0,1:1:0:0:
64,192,256310,1,0,1:1:0:0:
192,192,256310,1,0,1:1:0:0:
320,192,256380,1,0,1:1:0:0:
64,192,256450,1,0,1:1:0:0:
448,192,256450,1,0,1:1:0:0:
192,192,256520,1,0,1:1:0:0:
320,192,256520,1,0,1:1:0:0:
64,192,256590,1,0,1:1:0:0:
448,192,256590,1,0,1:1:0:0:
192,192,256660,1,0,1:1:0:0:
320,192,256730,1,0,1:1:0:0:
448,192,256730,1,0,1:1:0:0:
192,192,256800,1,0,1:1:0:0:
64,192,256870,1,0,1:1:0:0:
448,192,256870,1,0,1:1:0:0:
320,192,256940,1,0,1:1:0:0:
192,192,257011,1,0,1:1:0:0:
448,192,257011,1,0,1:1:0:0:
320,192,257081,1,0,1:1:0:0:
64,192,257151,1,0,1:1:0:0:
448,192,257151,1,0,1:1:0:0:
192,192,257221,1,0,1:1:0:0:
64,192,257291,1,0,1:1:0:0:
448,192,257291,1,0,1:1:0:0:
320,192,257361,1,0,1:1:0:0:
64,192,257431,1,0,1:1:0:0:
192,192,257431,1,0,1:1:0:0:
320,192,257501,1,0,1:1:0:0:
448,192,257501,1,0,1:1:0:0:
64,192,257571,1,0,1:1:0:0:
192,192,257571,1,0,1:1:0:0:
448,192,257641,1,0,1:1:0:0:
64,192,257711,1,0,1:1:0:0:
320,192,257711,1,0,1:1:0:0:
192,192,257782,1,0,1:1:0:0:
64,192,257852,1,0,1:1:0:0:
448,192,257852,1,0,1:1:0:0:
192,192,257922,1,0,1:1:0:0:
64,192,257992,1,0,1:1:0:0:
320,192,257992,1,0,1:1:0:0:
448,192,258062,1,0,1:1:0:0:
64,192,258132,1,0,1:1:0:0:
192,192,258132,1,0,1:1:0:0:
320,192,258202,1,0,1:1:0:0:
192,192,258272,1,0,1:1:0:0:
448,192,258272,1,0,1:1:0:0:
320,192,258342,1,0,1:1:0:0:
64,192,258412,1,0,1:1:0:0:
448,192,258412,1,0,1:1:0:0:
192,192,258483,1,0,1:1:0:0:
64,192,258553,1,0,1:1:0:0:
448,192,258553,1,0,1:1:0:0:
192,192,258623,1,0,1:1:0:0:
320,192,258623,1,0,1:1:0:0:
64,192,258693,1,0,1:1:0:0:
448,192,258693,1,0,1:1:0:0:
320,192,258763,1,0,1:1:0:0:
64,192,258833,1,0,1:1:0:0:
192,192,258833,1,0,1:1:0:0:
320,192,258903,1,0,1:1:0:0:
448,192,258903,1,0,1:1:0:0:
64,192,258973,1,0,1:1:0:0:
192,192,258973,1,0,1:1:0:0:
320,192,259043,1,0,1:1:0:0:
64,192,259113,1,0,1:1:0:0:
192,192,259113,1,0,1:1:0:0:
448,192,259183,1,0,1:1:0:0:
64,192,259254,1,0,1:1:0:0:
320,192,259254,1,0,1:1:0:0:
192,192,259324,1,0,1:1:0:0:
64,192,259394,1,0,1:1:0:0:
448,192,259394,1,0,1:1:0:0:
320,192,259464,1,0,1:1:0:0:
192,192,259534,1,0,1:1:0:0:
448,192,259534,1,0,1:1:0:0:
320,192,259604,1,0,1:1:0:0:
64,192,259674,1,0,1:1:0:0:
448,192,259674,1,0,1:1:0:0:
192,192,259744,1,0,1:1:0:0:
64,192,259814,1,0,1:1:0:0:
448,192,259814,1,0,1:1:0:0:
320,192,259884,1,0,1:1:0:0:
64,192,259954,1,0,1:1:0:0:
448,192,259954,1,0,1:1:0:0:
192,192,260025,1,0,1:1:0:0:
64,192,260095,1,0,1:1:0:0:
320,192,260095,1,0,1:1:0:0:
192,192,260165,1,0,1:1:0:0:
320,192,260235,1,0,1:1:0:0:
448,192,260235,1,0,1:1:0:0:
192,192,260305,1,0,1:1:0:0:
64,192,260375,1,0,1:1:0:0:
320,192,260445,1,0,1:1:0:0:
448,192,260445,1,0,1:1:0:0:
64,192,260515,1,0,1:1:0:0:
192,192,260515,1,0,1:1:0:0:
320,192,260585,1,0,1:1:0:0:
192,192,260655,1,0,1:1:0:0:
448,192,260655,1,0,1:1:0:0:
64,192,260726,1,0,1:1:0:0:
320,192,260726,1,0,1:1:0:0:
192,192,260796,1,0,1:1:0:0:
448,192,260796,1,0,1:1:0:0:
64,192,260936,1,0,1:1:0:0:
320,192,260936,1,0,1:1:0:0:
192,192,261006,1,0,1:1:0:0:
64,192,261076,1,0,1:1:0:0:
320,192,261076,1,0,1:1:0:0:
448,192,261076,1,0,1:1:0:0:
192,192,261146,1,0,1:1:0:0:
320,192,261216,1,0,1:1:0:0:
448,192,261216,1,0,1:1:0:0:
64,192,261286,1,0,1:1:0:0:
192,192,261356,1,0,1:1:0:0:
448,192,261356,1,0,1:1:0:0:
320,192,261426,1,0,1:1:0:0:
64,192,261497,1,0,1:1:0:0:
192,192,261497,1,0,1:1:0:0:
448,192,261567,1,0,1:1:0:0:
64,192,261637,1,0,1:1:0:0:
192,192,261637,1,0,1:1:0:0:
320,192,261707,1,0,1:1:0:0:
192,192,261777,1,0,1:1:0:0:
448,192,261777,1,0,1:1:0:0:
64,192,261847,1,0,1:1:0:0:
320,192,261917,1,0,1:1:0:0:
448,192,261917,1,0,1:1:0:0:
64,192,261987,1,0,1:1:0:0:
192,192,261987,1,0,1:1:0:0:
448,192,262057,1,0,1:1:0:0:
192,192,262127,1,0,1:1:0:0:
64,192,262197,1,0,1:1:0:0:
320,192,262197,1,0,1:1:0:0:
448,192,262268,1,0,1:1:0:0:
64,192,262338,1,0,1:1:0:0:
192,192,262338,1,0,1:1:0:0:
320,192,262408,1,0,1:1:0:0:
448,192,262408,1,0,1:1:0:0:
192,192,262478,1,0,1:1:0:0:
448,192,262548,1,0,1:1:0:0:
192,192,262618,1,0,1:1:0:0:
320,192,262618,1,0,1:1:0:0:
64,192,262688,1,0,1:1:0:0:
448,192,262688,1,0,1:1:0:0:
192,192,262758,1,0,1:1:0:0:
320,192,262758,1,0,1:1:0:0:
64,192,262828,1,0,1:1:0:0:
448,192,262828,1,0,1:1:0:0:
192,192,262898,1,0,1:1:0:0:
320,192,262898,1,0,1:1:0:0:
64,192,262969,1,0,1:1:0:0:
448,192,262969,1,0,1:1:0:0:
192,192,263039,1,0,1:1:0:0:
320,192,263039,1,0,1:1:0:0:
64,192,263109,1,0,1:1:0:0:
192,192,263179,1,0,1:1:0:0:
448,192,263179,1,0,1:1:0:0:
320,192,263249,1,0,1:1:0:0:
64,192,263319,1,0,1:1:0:0:
192,192,263319,1,0,1:1:0:0:
320,192,263389,1,0,1:1:0:0:
64,192,263459,1,0,1:1:0:0:
448,192,263459,1,0,1:1:0:0:
192,192,263529,1,0,1:1:0:0:
320,192,263599,1,0,1:1:0:0:
448,192,263599,1,0,1:1:0:0:
64,192,263669,1,0,1:1:0:0:
320,192,263740,1,0,1:1:0:0:
448,192,263740,1,0,1:1:0:0:
64,192,263810,1,0,1:1:0:0:
192,192,263810,1,0,1:1:0:0:
320,192,263880,1,0,1:1:0:0:
448,192,263880,1,0,1:1:0:0:
64,192,263950,1,0,1:1:0:0:
192,192,263950,1,0,1:1:0:0:
320,192,264020,1,0,1:1:0:0:
448,192,264020,1,0,1:1:0:0:
64,192,264090,1,0,1:1:0:0:
192,192,264160,1,0,1:1:0:0:
448,192,264160,1,0,1:1:0:0:
320,192,264230,1,0,1:1:0:0:
64,192,264300,1,0,1:1:0:0:
448,192,264300,1,0,1:1:0:0:
192,192,264370,1,0,1:1:0:0:
320,192,264440,1,0,1:1:0:0:
448,192,264440,1,0,1:1:0:0:
64,192,264511,1,0,1:1:0:0:
320,192,264581,1,0,1:1:0:0:
448,192,264581,1,0,1:1:0:0:
192,192,264651,1,0,1:1:0:0:
64,192,264721,1,0,1:1:0:0:
320,192,264721,1,0,1:1:0:0:
448,192,264791,1,0,1:1:0:0:
192,192,264861,1,0,1:1:0:0:
320,192,264861,1,0,1:1:0:0:
448,192,264931,1,0,1:1:0:0:
64,192,265001,1,0,1:1:0:0:
320,192,265001,1,0,1:1:0:0:
448,192,265141,1,0,1:1:0:0:
192,192,265141,1,0,1:1:0:0:
320,192,265211,1,0,1:1:0:0:
448,192,265282,1,0,1:1:0:0:
64,192,265282,1,0,1:1:0:0:
192,192,265422,1,0,1:1:0:0:
320,192,265422,1,0,1:1:0:0:
64,192,265492,1,0,1:1:0:0:
448,192,265492,1,0,1:1:0:0:
192,192,265562,1,0,1:1:0:0:
320,192,265562,1,0,1:1:0:0:
64,192,265632,1,0,1:1:0:0:
320,192,265702,1,0,1:1:0:0:
448,192,265702,1,0,1:1:0:0:
192,192,265772,1,0,1:1:0:0:
64,192,265842,1,0,1:1:0:0:
320,192,265842,1,0,1:1:0:0:
448,192,265912,1,0,1:1:0:0:
64,192,265983,1,0,1:1:0:0:
192,192,265983,1,0,1:1:0:0:
448,192,266053,1,0,1:1:0:0:
192,192,266123,1,0,1:1:0:0:
320,192,266123,1,0,1:1:0:0:
64,192,266193,1,0,1:1:0:0:
192,192,266263,1,0,1:1:0:0:
448,192,266263,1,0,1:1:0:0:
320,192,266333,1,0,1:1:0:0:
64,192,266403,1,0,1:1:0:0:
192,192,266403,1,0,1:1:0:0:
320,192,266473,1,0,1:1:0:0:
448,192,266473,1,0,1:1:0:0:
64,192,266543,1,0,1:1:0:0:
192,192,266543,1,0,1:1:0:0:
448,192,266613,1,0,1:1:0:0:
192,192,266683,1,0,1:1:0:0:
320,192,266683,1,0,1:1:0:0:
64,192,266754,1,0,1:1:0:0:
448,192,266754,1,0,1:1:0:0:
192,192,266824,1,0,1:1:0:0:
320,192,266824,1,0,1:1:0:0:
64,192,266894,1,0,1:1:0:0:
448,192,266894,1,0,1:1:0:0:
192,192,266964,1,0,1:1:0:0:
320,192,266964,1,0,1:1:0:0:
64,192,267034,1,0,1:1:0:0:
320,192,267104,1,0,1:1:0:0:
448,192,267104,1,0,1:1:0:0:
64,192,267174,1,0,1:1:0:0:
192,192,267174,1,0,1:1:0:0:
320,192,267244,1,0,1:1:0:0:
448,192,267244,1,0,1:1:0:0:
64,192,267314,1,0,1:1:0:0:
192,192,267314,1,0,1:1:0:0:
320,192,267384,1,0,1:1:0:0:
448,192,267384,1,0,1:1:0:0:
192,192,267454,1,0,1:1:0:0:
64,192,267525,1,0,1:1:0:0:
320,192,267525,1,0,1:1:0:0:
192,192,267595,1,0,1:1:0:0:
448,192,267595,1,0,1:1:0:0:
64,192,267665,1,0,1:1:0:0:
320,192,267665,1,0,1:1:0:0:
448,192,267735,1,0,1:1:0:0:
64,192,267805,1,0,1:1:0:0:
192,192,267805,1,0,1:1:0:0:
320,192,267875,1,0,1:1:0:0:
448,192,267875,1,0,1:1:0:0:
64,192,267945,1,0,1:1:0:0:
192,192,267945,1,0,1:1:0:0:
448,192,268015,1,0,1:1:0:0:
64,192,268085,1,0,1:1:0:0:
192,192,268085,1,0,1:1:0:0:
320,192,268155,1,0,1:1:0:0:
192,192,268226,1,0,1:1:0:0:
448,192,268226,1,0,1:1:0:0:
320,192,268296,1,0,1:1:0:0:
64,192,268366,1,0,1:1:0:0:
448,192,268366,1,0,1:1:0:0:
192,192,268436,1,0,1:1:0:0:
64,192,268506,1,0,1:1:0:0:
448,192,268506,1,0,1:1:0:0:
192,192,268576,1,0,1:1:0:0:
64,192,268646,1,0,1:1:0:0:
448,192,268646,1,0,1:1:0:0:
320,192,268716,1,0,1:1:0:0:
192,192,268786,1,0,1:1:0:0:
448,192,268786,1,0,1:1:0:0:
320,192,268856,1,0,1:1:0:0:
64,192,268926,1,0,1:1:0:0:
192,192,268926,1,0,1:1:0:0:
320,192,268997,1,0,1:1:0:0:
448,192,268997,1,0,1:1:0:0:
64,192,269067,1,0,1:1:0:0:
192,192,269067,1,0,1:1:0:0:
320,192,269137,1,0,1:1:0:0:
448,192,269137,1,0,1:1:0:0:
64,192,269207,1,0,1:1:0:0:
192,192,269207,1,0,1:1:0:0:
448,192,269277,1,0,1:1:0:0:
64,192,269347,1,0,1:1:0:0:
192,192,269417,1,0,1:1:0:0:
320,192,269417,1,0,1:1:0:0:
64,192,269487,1,0,1:1:0:0:
448,192,269487,1,0,1:1:0:0:
320,192,269557,1,0,1:1:0:0:
64,192,269627,1,0,1:1:0:0:
192,192,269627,1,0,1:1:0:0:
320,192,269697,1,0,1:1:0:0:
448,192,269697,1,0,1:1:0:0:
64,192,269768,1,0,1:1:0:0:
192,192,269768,1,0,1:1:0:0:
192,192,269908,1,0,1:1:0:0:
320,192,269978,1,0,1:1:0:0:
192,192,270048,1,0,1:1:0:0:
448,192,270048,1,0,1:1:0:0:
64,192,270118,1,0,1:1:0:0:
320,192,270188,1,0,1:1:0:0:
448,192,270188,1,0,1:1:0:0:
192,192,270258,1,0,1:1:0:0:
64,192,270328,1,0,1:1:0:0:
448,192,270328,1,0,1:1:0:0:
320,192,270398,1,0,1:1:0:0:
192,192,270469,1,0,1:1:0:0:
448,192,270469,1,0,1:1:0:0:
64,192,270539,1,0,1:1:0:0:
192,192,270609,1,0,1:1:0:0:
320,192,270609,1,0,1:1:0:0:
448,192,270679,1,0,1:1:0:0:
64,192,270749,1,0,1:1:0:0:
320,192,270749,1,0,1:1:0:0:
192,192,270819,1,0,1:1:0:0:
320,192,270889,1,0,1:1:0:0:
448,192,270889,1,0,1:1:0:0:
64,192,270959,1,0,1:1:0:0:
192,192,271029,1,0,1:1:0:0:
448,192,271029,1,0,1:1:0:0:
320,192,271099,1,0,1:1:0:0:
64,192,271169,1,0,1:1:0:0:
448,192,271169,1,0,1:1:0:0:
192,192,271240,1,0,1:1:0:0:
64,192,271310,1,0,1:1:0:0:
320,192,271310,1,0,1:1:0:0:
192,192,271380,1,0,1:1:0:0:
320,192,271450,1,0,1:1:0:0:
448,192,271450,1,0,1:1:0:0:
64,192,271520,1,0,1:1:0:0:
192,192,271590,1,0,1:1:0:0:
448,192,271590,1,0,1:1:0:0:
320,192,271660,1,0,1:1:0:0:
64,192,271730,1,0,1:1:0:0:
192,192,271730,1,0,1:1:0:0:
448,192,271800,1,0,1:1:0:0:
64,192,271870,1,0,1:1:0:0:
320,192,271870,1,0,1:1:0:0:
192,192,271940,1,0,1:1:0:0:
448,192,272011,1,0,1:1:0:0:
320,192,272011,1,0,1:1:0:0:
64,192,272081,1,0,1:1:0:0:
192,192,272151,1,0,1:1:0:0:
448,192,272151,1,0,1:1:0:0:
320,192,272221,1,0,1:1:0:0:
64,192,272291,1,0,1:1:0:0:
192,192,272291,1,0,1:1:0:0:
448,192,272361,1,0,1:1:0:0:
64,192,272431,1,0,1:1:0:0:
320,192,272431,1,0,1:1:0:0:
192,192,272501,1,0,1:1:0:0:
448,192,272571,1,0,1:1:0:0:
64,192,272571,1,0,1:1:0:0:
192,192,272641,1,0,1:1:0:0:
320,192,272711,1,0,1:1:0:0:
448,192,272711,1,0,1:1:0:0:
64,192,272782,1,0,1:1:0:0:
192,192,272782,1,0,1:1:0:0:
320,192,272852,1,0,1:1:0:0:
448,192,272852,1,0,1:1:0:0:
64,192,272922,1,0,1:1:0:0:
192,192,272922,1,0,1:1:0:0:
320,192,272992,1,0,1:1:0:0:
448,192,272992,1,0,1:1:0:0:
192,192,273062,1,0,1:1:0:0:
64,192,273132,1,0,1:1:0:0:
448,192,273132,1,0,1:1:0:0:
320,192,273202,1,0,1:1:0:0:
192,192,273272,1,0,1:1:0:0:
448,192,273272,1,0,1:1:0:0:
64,192,273342,1,0,1:1:0:0:
192,192,273412,1,0,1:1:0:0:
320,192,273412,1,0,1:1:0:0:
448,192,273483,1,0,1:1:0:0:
64,192,273553,1,0,1:1:0:0:
320,192,273553,1,0,1:1:0:0:
192,192,273623,1,0,1:1:0:0:
64,192,273693,1,0,1:1:0:0:
448,192,273693,1,0,1:1:0:0:
320,192,273763,1,0,1:1:0:0:
192,192,273833,1,0,1:1:0:0:
448,192,273833,1,0,1:1:0:0:
64,192,273903,1,0,1:1:0:0:
320,192,273973,1,0,1:1:0:0:
448,192,273973,1,0,1:1:0:0:
192,192,274043,1,0,1:1:0:0:
320,192,274113,1,0,1:1:0:0:
64,192,274113,1,0,1:1:0:0:
448,192,274183,1,0,1:1:0:0:
192,192,274254,1,0,1:1:0:0:
64,192,274254,1,0,1:1:0:0:
320,192,274324,1,0,1:1:0:0:
64,192,274394,1,0,1:1:0:0:
192,192,274394,1,0,1:1:0:0:
320,192,274464,1,0,1:1:0:0:
448,192,274464,1,0,1:1:0:0:
64,192,274534,1,0,1:1:0:0:
192,192,274534,1,0,1:1:0:0:
448,192,274604,1,0,1:1:0:0:
64,192,274674,1,0,1:1:0:0:
320,192,274674,1,0,1:1:0:0:
192,192,274744,1,0,1:1:0:0:
320,192,274814,1,0,1:1:0:0:
448,192,274814,1,0,1:1:0:0:
64,192,274884,1,0,1:1:0:0:
192,192,274954,1,0,1:1:0:0:
448,192,274954,1,0,1:1:0:0:
320,192,275025,1,0,1:1:0:0:
64,192,275095,1,0,1:1:0:0:
448,192,275095,1,0,1:1:0:0:
192,192,275165,1,0,1:1:0:0:
64,192,275235,1,0,1:1:0:0:
320,192,275235,1,0,1:1:0:0:
192,192,275305,1,0,1:1:0:0:
320,192,275375,1,0,1:1:0:0:
448,192,275375,1,0,1:1:0:0:
64,192,275445,1,0,1:1:0:0:
192,192,275515,1,0,1:1:0:0:
448,192,275515,1,0,1:1:0:0:
320,192,275585,1,0,1:1:0:0:
64,192,275655,1,0,1:1:0:0:
192,192,275655,1,0,1:1:0:0:
448,192,275726,1,0,1:1:0:0:
320,192,275796,1,0,1:1:0:0:
64,192,275796,1,0,1:1:0:0:
192,192,275866,1,0,1:1:0:0:
448,192,275936,1,0,1:1:0:0:
320,192,275936,1,0,1:1:0:0:
64,192,276006,1,0,1:1:0:0:
192,192,276076,1,0,1:1:0:0:
320,192,276076,1,0,1:1:0:0:
448,192,276146,1,0,1:1:0:0:
64,192,276216,1,0,1:1:0:0:
320,192,276216,1,0,1:1:0:0:
192,192,276286,1,0,1:1:0:0:
320,192,276356,1,0,1:1:0:0:
448,192,276356,1,0,1:1:0:0:
64,192,276426,1,0,1:1:0:0:
192,192,276497,1,0,1:1:0:0:
448,192,276497,1,0,1:1:0:0:
320,192,276567,1,0,1:1:0:0:
64,192,276637,1,0,1:1:0:0:
192,192,276637,1,0,1:1:0:0:
448,192,276707,1,0,1:1:0:0:
64,192,276777,1,0,1:1:0:0:
320,192,276777,1,0,1:1:0:0:
192,192,276847,1,0,1:1:0:0:
448,192,276917,1,0,1:1:0:0:
192,192,276987,1,0,1:1:0:0:
64,192,277057,1,0,1:1:0:0:
448,192,277057,1,0,1:1:0:0:
320,192,277127,1,0,1:1:0:0:
64,192,277197,1,0,1:1:0:0:
320,192,277268,1,0,1:1:0:0:
192,192,277338,1,0,1:1:0:0:
448,192,277338,1,0,1:1:0:0:
64,192,277408,1,0,1:1:0:0:
320,192,277478,1,0,1:1:0:0:
64,192,277548,1,0,1:1:0:0:
192,192,277618,1,0,1:1:0:0:
448,192,277618,1,0,1:1:0:0:
320,192,277688,1,0,1:1:0:0:
64,192,277758,1,0,1:1:0:0:
192,192,277758,1,0,1:1:0:0:
448,192,277828,1,0,1:1:0:0:
64,192,277898,1,0,1:1:0:0:
192,192,277898,1,0,1:1:0:0:
448,192,277969,1,0,1:1:0:0:
64,192,278039,1,0,1:1:0:0:
448,192,278109,1,0,1:1:0:0:
64,192,278179,1,0,1:1:0:0:
192,192,278179,1,0,1:1:0:0:
320,192,278249,1,0,1:1:0:0:
192,192,278319,1,0,1:1:0:0:
320,192,278389,1,0,1:1:0:0:
64,192,278459,1,0,1:1:0:0:
192,192,278459,1,0,1:1:0:0:
448,192,278529,1,0,1:1:0:0:
192,192,278599,1,0,1:1:0:0:
448,192,278669,1,0,1:1:0:0:
64,192,278740,1,0,1:1:0:0:
320,192,278740,1,0,1:1:0:0:
192,192,278810,128,0,279020:1:1:0:0:
64,192,279020,1,0,1:1:0:0:
448,192,279090,1,0,1:1:0:0:
64,192,279160,1,0,1:1:0:0:
448,192,279230,1,0,1:1:0:0:
64,192,279300,1,0,1:1:0:0:
320,192,279300,1,0,1:1:0:0:
192,192,279370,1,0,1:1:0:0:
448,192,279440,1,0,1:1:0:0:
192,192,279511,1,0,1:1:0:0:
320,192,279581,1,0,1:1:0:0:
448,192,279581,1,0,1:1:0:0:
64,192,279651,1,0,1:1:0:0:
448,192,279721,1,0,1:1:0:0:
64,192,279791,1,0,1:1:0:0:
192,192,279861,1,0,1:1:0:0:
448,192,279861,1,0,1:1:0:0:
320,192,279931,1,0,1:1:0:0:
64,192,280001,1,0,1:1:0:0:
320,192,280071,1,0,1:1:0:0:
64,192,280141,1,0,1:1:0:0:
192,192,280141,1,0,1:1:0:0:
448,192,280211,1,0,1:1:0:0:
192,192,280282,1,0,1:1:0:0:
448,192,280352,1,0,1:1:0:0:
192,192,280422,1,0,1:1:0:0:
320,192,280422,1,0,1:1:0:0:
64,192,280492,1,0,1:1:0:0:
448,192,280562,1,0,1:1:0:0:
64,192,280632,1,0,1:1:0:0:
192,192,280702,1,0,1:1:0:0:
320,192,280702,1,0,1:1:0:0:
448,192,280772,1,0,1:1:0:0:
64,192,280842,1,0,1:1:0:0:
448,192,280912,1,0,1:1:0:0:
64,192,280983,1,0,1:1:0:0:
320,192,280983,1,0,1:1:0:0:
192,192,281053,1,0,1:1:0:0:
448,192,281123,1,0,1:1:0:0:
192,192,281193,1,0,1:1:0:0:
320,192,281263,1,0,1:1:0:0:
448,192,281263,1,0,1:1:0:0:
64,192,281333,1,0,1:1:0:0:
320,192,281403,1,0,1:1:0:0:
64,192,281473,1,0,1:1:0:0:
192,192,281543,1,0,1:1:0:0:
448,192,281543,1,0,1:1:0:0:
320,192,281613,1,0,1:1:0:0:
64,192,281683,1,0,1:1:0:0:
320,192,281754,1,0,1:1:0:0:
64,192,281824,1,0,1:1:0:0:
192,192,281824,1,0,1:1:0:0:
448,192,281894,1,0,1:1:0:0:
64,192,281964,1,0,1:1:0:0:
448,192,282034,1,0,1:1:0:0:
64,192,282104,1,0,1:1:0:0:
320,192,282104,1,0,1:1:0:0:
192,192,282174,1,0,1:1:0:0:
448,192,282244,1,0,1:1:0:0:
192,192,282314,1,0,1:1:0:0:
64,192,282384,1,0,1:1:0:0:
448,192,282384,1,0,1:1:0:0:
192,192,282454,1,0,1:1:0:0:
320,192,282454,1,0,1:1:0:0:
64,192,282525,1,0,1:1:0:0:
448,192,282525,1,0,1:1:0:0:
192,192,282595,1,0,1:1:0:0:
320,192,282665,1,0,1:1:0:0:
448,192,282665,1,0,1:1:0:0:
64,192,282735,1,0,1:1:0:0:
192,192,282735,1,0,1:1:0:0:
320,192,282805,1,0,1:1:0:0:
448,192,282805,1,0,1:1:0:0:
64,192,282875,1,0,1:1:0:0:
192,192,282875,1,0,1:1:0:0:
320,192,282945,1,0,1:1:0:0:
192,192,283015,1,0,1:1:0:0:
448,192,283015,1,0,1:1:0:0:
64,192,283085,1,0,1:1:0:0:
320,192,283085,1,0,1:1:0:0:
192,192,283155,1,0,1:1:0:0:
448,192,283155,1,0,1:1:0:0:
64,192,283226,1,0,1:1:0:0:
320,192,283226,1,0,1:1:0:0:
192,192,283296,1,0,1:1:0:0:
448,192,283366,1,0,1:1:0:0:
64,192,283436,1,0,1:1:0:0:
192,192,283506,1,0,1:1:0:0:
320,192,283506,1,0,1:1:0:0:
448,192,283576,1,0,1:1:0:0:
192,192,283646,1,0,1:1:0:0:
320,192,283646,1,0,1:1:0:0:
64,192,283716,1,0,1:1:0:0:
192,192,283786,1,0,1:1:0:0:
448,192,283786,1,0,1:1:0:0:
320,192,283856,1,0,1:1:0:0:
64,192,283926,1,0,1:1:0:0:
192,192,283926,1,0,1:1:0:0:
320,192,283997,1,0,1:1:0:0:
192,192,284067,1,0,1:1:0:0:
448,192,284067,1,0,1:1:0:0:
320,192,284137,1,0,1:1:0:0:
64,192,284207,1,0,1:1:0:0:
448,192,284277,1,0,1:1:0:0:
64,192,284347,1,0,1:1:0:0:
320,192,284347,1,0,1:1:0:0:
192,192,284417,1,0,1:1:0:0:
64,192,284487,1,0,1:1:0:0:
448,192,284487,1,0,1:1:0:0:
192,192,284557,1,0,1:1:0:0:
320,192,284627,1,0,1:1:0:0:
448,192,284627,1,0,1:1:0:0:
64,192,284697,1,0,1:1:0:0:
448,192,284768,1,0,1:1:0:0:
64,192,284838,1,0,1:1:0:0:
192,192,284908,1,0,1:1:0:0:
320,192,284908,1,0,1:1:0:0:
448,192,284978,1,0,1:1:0:0:
192,192,285048,1,0,1:1:0:0:
448,192,285118,1,0,1:1:0:0:
64,192,285188,1,0,1:1:0:0:
320,192,285188,1,0,1:1:0:0:
192,192,285258,1,0,1:1:0:0:
64,192,285328,1,0,1:1:0:0:
192,192,285398,1,0,1:1:0:0:
64,192,285469,1,0,1:1:0:0:
448,192,285469,1,0,1:1:0:0:
320,192,285539,1,0,1:1:0:0:
192,192,285609,1,0,1:1:0:0:
448,192,285609,1,0,1:1:0:0:
320,192,285679,1,0,1:1:0:0:
64,192,285749,1,0,1:1:0:0:
192,192,285749,1,0,1:1:0:0:
448,192,285819,1,0,1:1:0:0:
192,192,285889,1,0,1:1:0:0:
448,192,285959,1,0,1:1:0:0:
64,192,286029,1,0,1:1:0:0:
320,192,286029,1,0,1:1:0:0:
192,192,286099,1,0,1:1:0:0:
448,192,286169,1,0,1:1:0:0:
192,192,286240,1,0,1:1:0:0:
64,192,286310,1,0,1:1:0:0:
448,192,286310,1,0,1:1:0:0:
320,192,286380,1,0,1:1:0:0:
192,192,286450,1,0,1:1:0:0:
320,192,286520,1,0,1:1:0:0:
192,192,286590,1,0,1:1:0:0:
448,192,286590,1,0,1:1:0:0:
64,192,286660,1,0,1:1:0:0:
448,192,286730,1,0,1:1:0:0:
64,192,286800,1,0,1:1:0:0:
320,192,286870,1,0,1:1:0:0:
448,192,286870,1,0,1:1:0:0:
64,192,286940,1,0,1:1:0:0:
448,192,287011,1,0,1:1:0:0:
64,192,287081,1,0,1:1:0:0:
320,192,287116,1,0,1:1:0:0:
448,192,287116,1,0,1:1:0:0:
64,192,287221,1,0,1:1:0:0:
448,192,287291,1,0,1:1:0:0:
320,192,287291,1,0,1:1:0:0:
64,192,287361,1,0,1:1:0:0:
448,192,287431,1,0,1:1:0:0:
320,192,287466,1,0,1:1:0:0:
64,192,287501,1,0,1:1:0:0:
192,192,287536,1,0,1:1:0:0:
448,192,287571,1,0,1:1:0:0:
320,192,287606,1,0,1:1:0:0:
64,192,287641,1,0,1:1:0:0:
192,192,287676,1,0,1:1:0:0:
448,192,287711,1,0,1:1:0:0:
320,192,287747,1,0,1:1:0:0:
64,192,287782,1,0,1:1:0:0:
192,192,287817,1,0,1:1:0:0:
448,192,287852,1,0,1:1:0:0:
320,192,287887,1,0,1:1:0:0:
64,192,287922,1,0,1:1:0:0:
192,192,287957,1,0,1:1:0:0:
320,192,287992,1,0,1:1:0:0:
448,192,287992,1,0,1:1:0:0:
64,192,288062,1,0,1:1:0:0:
320,192,288132,1,0,1:1:0:0:
448,192,288132,1,0,1:1:0:0:
64,192,288202,1,0,1:1:0:0:
192,192,288272,1,0,1:1:0:0:
448,192,288272,1,0,1:1:0:0:
320,192,288342,1,0,1:1:0:0:
192,192,288412,1,0,1:1:0:0:
320,192,288483,1,0,1:1:0:0:
64,192,288553,1,0,1:1:0:0:
192,192,288553,1,0,1:1:0:0:
448,192,288623,1,0,1:1:0:0:
64,192,288693,1,0,1:1:0:0:
448,192,288763,1,0,1:1:0:0:
64,192,288833,1,0,1:1:0:0:
320,192,288833,1,0,1:1:0:0:
192,192,288903,1,0,1:1:0:0:
64,192,288973,1,0,1:1:0:0:
448,192,288973,1,0,1:1:0:0:
192,192,289043,1,0,1:1:0:0:
64,192,289113,1,0,1:1:0:0:
320,192,289113,1,0,1:1:0:0:
192,192,289183,1,0,1:1:0:0:
320,192,289254,1,0,1:1:0:0:
64,192,289324,1,0,1:1:0:0:
192,192,289394,1,0,1:1:0:0:
320,192,289394,1,0,1:1:0:0:
448,192,289464,1,0,1:1:0:0:
64,192,289534,1,0,1:1:0:0:
448,192,289604,1,0,1:1:0:0:
64,192,289674,1,0,1:1:0:0:
320,192,289674,1,0,1:1:0:0:
448,192,289744,1,0,1:1:0:0:
192,192,289814,1,0,1:1:0:0:
448,192,289884,1,0,1:1:0:0:
64,192,289954,1,0,1:1:0:0:
320,192,289954,1,0,1:1:0:0:
448,192,290025,1,0,1:1:0:0:
192,192,290095,1,0,1:1:0:0:
448,192,290165,1,0,1:1:0:0:
192,192,290235,1,0,1:1:0:0:
320,192,290235,1,0,1:1:0:0:
64,192,290305,1,0,1:1:0:0:
320,192,290375,1,0,1:1:0:0:
448,192,290375,1,0,1:1:0:0:
64,192,290445,1,0,1:1:0:0:
320,192,290515,1,0,1:1:0:0:
448,192,290515,1,0,1:1:0:0:
64,192,290585,1,0,1:1:0:0:
320,192,290655,1,0,1:1:0:0:
64,192,290726,1,0,1:1:0:0:
192,192,290796,1,0,1:1:0:0:
448,192,290796,1,0,1:1:0:0:
320,192,290866,1,0,1:1:0:0:
64,192,290936,1,0,1:1:0:0:
320,192,291006,1,0,1:1:0:0:
64,192,291076,1,0,1:1:0:0:
192,192,291076,1,0,1:1:0:0:
448,192,291146,1,0,1:1:0:0:
64,192,291216,1,0,1:1:0:0:
320,192,291216,1,0,1:1:0:0:
448,192,291286,1,0,1:1:0:0:
64,192,291356,1,0,1:1:0:0:
192,192,291356,1,0,1:1:0:0:
320,192,291426,1,0,1:1:0:0:
448,192,291426,1,0,1:1:0:0:
64,192,291497,1,0,1:1:0:0:
192,192,291497,1,0,1:1:0:0:
320,192,291567,1,0,1:1:0:0:
64,192,291637,1,0,1:1:0:0:
448,192,291637,1,0,1:1:0:0:
192,192,291707,1,0,1:1:0:0:
320,192,291707,1,0,1:1:0:0:
64,192,291777,1,0,1:1:0:0:
320,192,291847,1,0,1:1:0:0:
448,192,291847,1,0,1:1:0:0:
64,192,291917,1,0,1:1:0:0:
192,192,291917,1,0,1:1:0:0:
320,192,291987,1,0,1:1:0:0:
192,192,292057,1,0,1:1:0:0:
448,192,292057,1,0,1:1:0:0:
64,192,292127,1,0,1:1:0:0:
320,192,292127,1,0,1:1:0:0:
192,192,292197,1,0,1:1:0:0:
320,192,292268,1,0,1:1:0:0:
448,192,292268,1,0,1:1:0:0:
64,192,292338,1,0,1:1:0:0:
192,192,292338,1,0,1:1:0:0:
448,192,292408,1,0,1:1:0:0:
64,192,292478,1,0,1:1:0:0:
320,192,292478,1,0,1:1:0:0:
192,192,292548,1,0,1:1:0:0:
64,192,292618,1,0,1:1:0:0:
448,192,292618,1,0,1:1:0:0:
192,192,292688,1,0,1:1:0:0:
320,192,292758,1,0,1:1:0:0:
448,192,292758,1,0,1:1:0:0:
64,192,292828,1,0,1:1:0:0:
192,192,292898,1,0,1:1:0:0:
320,192,292898,1,0,1:1:0:0:
64,192,292969,1,0,1:1:0:0:
192,192,293039,1,0,1:1:0:0:
448,192,293039,1,0,1:1:0:0:
320,192,293109,1,0,1:1:0:0:
64,192,293179,1,0,1:1:0:0:
320,192,293249,1,0,1:1:0:0:
64,192,293319,1,0,1:1:0:0:
192,192,293319,1,0,1:1:0:0:
448,192,293389,1,0,1:1:0:0:
64,192,293459,1,0,1:1:0:0:
320,192,293459,1,0,1:1:0:0:
448,192,293529,1,0,1:1:0:0:
192,192,293599,1,0,1:1:0:0:
320,192,293599,1,0,1:1:0:0:
64,192,293669,1,0,1:1:0:0:
192,192,293740,1,0,1:1:0:0:
448,192,293740,1,0,1:1:0:0:
64,192,293810,1,0,1:1:0:0:
192,192,293880,1,0,1:1:0:0:
320,192,293880,1,0,1:1:0:0:
448,192,293950,1,0,1:1:0:0:
64,192,294020,1,0,1:1:0:0:
192,192,294020,1,0,1:1:0:0:
448,192,294090,1,0,1:1:0:0:
192,192,294160,1,0,1:1:0:0:
320,192,294160,1,0,1:1:0:0:
64,192,294230,1,0,1:1:0:0:
192,192,294300,1,0,1:1:0:0:
320,192,294300,1,0,1:1:0:0:
64,192,294370,1,0,1:1:0:0:
320,192,294440,1,0,1:1:0:0:
448,192,294440,1,0,1:1:0:0:
64,192,294511,1,0,1:1:0:0:
192,192,294511,1,0,1:1:0:0:
320,192,294581,1,0,1:1:0:0:
448,192,294581,1,0,1:1:0:0:
64,192,294651,1,0,1:1:0:0:
192,192,294721,1,0,1:1:0:0:
448,192,294721,1,0,1:1:0:0:
320,192,294791,1,0,1:1:0:0:
64,192,294861,1,0,1:1:0:0:
320,192,294931,1,0,1:1:0:0:
64,192,295001,1,0,1:1:0:0:
192,192,295001,1,0,1:1:0:0:
320,192,295071,1,0,1:1:0:0:
64,192,295141,1,0,1:1:0:0:
320,192,295211,1,0,1:1:0:0:
64,192,295282,1,0,1:1:0:0:
448,192,295282,1,0,1:1:0:0:
192,192,295352,1,0,1:1:0:0:
448,192,295422,1,0,1:1:0:0:
192,192,295492,1,0,1:1:0:0:
320,192,295562,1,0,1:1:0:0:
448,192,295562,1,0,1:1:0:0:
64,192,295632,1,0,1:1:0:0:
448,192,295702,1,0,1:1:0:0:
64,192,295772,1,0,1:1:0:0:
192,192,295842,1,0,1:1:0:0:
448,192,295842,1,0,1:1:0:0:
320,192,295912,1,0,1:1:0:0:
192,192,295983,1,0,1:1:0:0:
320,192,296053,1,0,1:1:0:0:
64,192,296123,1,0,1:1:0:0:
448,192,296123,1,0,1:1:0:0:
192,192,296193,1,0,1:1:0:0:
320,192,296263,1,0,1:1:0:0:
192,192,296333,1,0,1:1:0:0:
320,192,296403,1,0,1:1:0:0:
448,192,296403,1,0,1:1:0:0:
64,192,296473,1,0,1:1:0:0:
192,192,296543,1,0,1:1:0:0:
448,192,296543,1,0,1:1:0:0:
64,192,296613,1,0,1:1:0:0:
192,192,296683,1,0,1:1:0:0:
448,192,296683,1,0,1:1:0:0:
64,192,296964,1,0,1:1:0:0:
192,192,296964,1,0,1:1:0:0:
320,192,296964,1,0,1:1:0:0:
448,192,297034,1,0,1:1:0:0:
64,192,297104,1,0,1:1:0:0:
192,192,297104,1,0,1:1:0:0:
448,192,297174,1,0,1:1:0:0:
64,192,297244,1,0,1:1:0:0:
320,192,297244,1,0,1:1:0:0:
192,192,297314,1,0,1:1:0:0:
320,192,297384,1,0,1:1:0:0:
192,192,297454,1,0,1:1:0:0:
64,192,297525,1,0,1:1:0:0:
448,192,297525,1,0,1:1:0:0:
192,192,297595,1,0,1:1:0:0:
320,192,297595,1,0,1:1:0:0:
64,192,297665,1,0,1:1:0:0:
320,192,297735,1,0,1:1:0:0:
64,192,297805,1,0,1:1:0:0:
448,192,297805,1,0,1:1:0:0:
192,192,297875,1,0,1:1:0:0:
320,192,297945,1,0,1:1:0:0:
448,192,297945,1,0,1:1:0:0:
192,192,298015,1,0,1:1:0:0:
64,192,298085,1,0,1:1:0:0:
320,192,298085,1,0,1:1:0:0:
448,192,298155,1,0,1:1:0:0:
320,192,298226,1,0,1:1:0:0:
448,192,298296,1,0,1:1:0:0:
64,192,298366,1,0,1:1:0:0:
320,192,298366,1,0,1:1:0:0:
192,192,298436,1,0,1:1:0:0:
448,192,298506,1,0,1:1:0:0:
192,192,298576,1,0,1:1:0:0:
320,192,298646,1,0,1:1:0:0:
448,192,298646,1,0,1:1:0:0:
64,192,298716,1,0,1:1:0:0:
192,192,298716,1,0,1:1:0:0:
320,192,298786,1,0,1:1:0:0:
64,192,298856,1,0,1:1:0:0:
192,192,298926,1,0,1:1:0:0:
448,192,298926,1,0,1:1:0:0:
64,192,298997,1,0,1:1:0:0:
320,192,299067,1,0,1:1:0:0:
64,192,299137,1,0,1:1:0:0:
320,192,299207,1,0,1:1:0:0:
448,192,299207,1,0,1:1:0:0:
192,192,299277,1,0,1:1:0:0:
64,192,299347,1,0,1:1:0:0:
320,192,299347,1,0,1:1:0:0:
192,192,299417,1,0,1:1:0:0:
64,192,299487,1,0,1:1:0:0:
320,192,299487,1,0,1:1:0:0:
448,192,299557,1,0,1:1:0:0:
64,192,299627,1,0,1:1:0:0:
192,192,299627,1,0,1:1:0:0:
320,192,299697,1,0,1:1:0:0:
448,192,299697,1,0,1:1:0:0:
64,192,299768,1,0,1:1:0:0:
192,192,299768,1,0,1:1:0:0:
448,192,299838,1,0,1:1:0:0:
64,192,299908,1,0,1:1:0:0:
448,192,299978,1,0,1:1:0:0:
64,192,300048,1,0,1:1:0:0:
192,192,300048,1,0,1:1:0:0:
320,192,300118,1,0,1:1:0:0:
64,192,300188,1,0,1:1:0:0:
448,192,300188,1,0,1:1:0:0:
192,192,300258,1,0,1:1:0:0:
320,192,300328,1,0,1:1:0:0:
448,192,300328,1,0,1:1:0:0:
64,192,300398,1,0,1:1:0:0:
192,192,300469,1,0,1:1:0:0:
64,192,300539,1,0,1:1:0:0:
320,192,300609,1,0,1:1:0:0:
448,192,300609,1,0,1:1:0:0:
192,192,300679,1,0,1:1:0:0:
320,192,300749,1,0,1:1:0:0:
192,192,300819,1,0,1:1:0:0:
64,192,300889,1,0,1:1:0:0:
320,192,300889,1,0,1:1:0:0:
448,192,300889,1,0,1:1:0:0:
192,192,300959,1,0,1:1:0:0:
448,192,301029,1,0,1:1:0:0:
192,192,301099,1,0,1:1:0:0:
320,192,301169,1,0,1:1:0:0:
448,192,301169,1,0,1:1:0:0:
64,192,301240,1,0,1:1:0:0:
192,192,301240,1,0,1:1:0:0:
320,192,301310,1,0,1:1:0:0:
448,192,301310,1,0,1:1:0:0:
64,192,301380,1,0,1:1:0:0:
192,192,301450,1,0,1:1:0:0:
320,192,301450,1,0,1:1:0:0:
448,192,301450,1,0,1:1:0:0:
64,192,301520,1,0,1:1:0:0:
192,192,301590,1,0,1:1:0:0:
448,192,301590,1,0,1:1:0:0:
320,192,301660,1,0,1:1:0:0:
192,192,301730,1,0,1:1:0:0:
64,192,301730,1,0,1:1:0:0:
448,192,301800,1,0,1:1:0:0:
320,192,301870,1,0,1:1:0:0:
64,192,301870,1,0,1:1:0:0:
192,192,301940,1,0,1:1:0:0:
64,192,302011,1,0,1:1:0:0:
320,192,302011,1,0,1:1:0:0:
448,192,302081,1,0,1:1:0:0:
192,192,302151,1,0,1:1:0:0:
320,192,302151,1,0,1:1:0:0:
64,192,302221,1,0,1:1:0:0:
192,192,302291,1,0,1:1:0:0:
448,192,302291,1,0,1:1:0:0:
320,192,302361,1,0,1:1:0:0:
64,192,302431,1,0,1:1:0:0:
448,192,302431,1,0,1:1:0:0:
320,192,302501,1,0,1:1:0:0:
64,192,302571,1,0,1:1:0:0:
192,192,302571,1,0,1:1:0:0:
448,192,302641,1,0,1:1:0:0:
64,192,302711,1,0,1:1:0:0:
320,192,302711,1,0,1:1:0:0:
448,192,302782,1,0,1:1:0:0:
192,192,302852,1,0,1:1:0:0:
320,192,302852,1,0,1:1:0:0:
64,192,302922,1,0,1:1:0:0:
320,192,302992,1,0,1:1:0:0:
448,192,302992,1,0,1:1:0:0:
64,192,303062,1,0,1:1:0:0:
192,192,303132,1,0,1:1:0:0:
320,192,303132,1,0,1:1:0:0:
448,192,303202,1,0,1:1:0:0:
64,192,303272,1,0,1:1:0:0:
192,192,303272,1,0,1:1:0:0:
320,192,303342,1,0,1:1:0:0:
64,192,303412,1,0,1:1:0:0:
448,192,303412,1,0,1:1:0:0:
192,192,303483,1,0,1:1:0:0:
64,192,303553,1,0,1:1:0:0:
320,192,303553,1,0,1:1:0:0:
192,192,303623,1,0,1:1:0:0:
64,192,303693,1,0,1:1:0:0:
320,192,303693,1,0,1:1:0:0:
448,192,303763,1,0,1:1:0:0:
64,192,303833,1,0,1:1:0:0:
192,192,303833,1,0,1:1:0:0:
320,192,303903,1,0,1:1:0:0:
64,192,303973,1,0,1:1:0:0:
448,192,303973,1,0,1:1:0:0:
320,192,304043,1,0,1:1:0:0:
64,192,304113,1,0,1:1:0:0:
192,192,304113,1,0,1:1:0:0:
320,192,304183,1,0,1:1:0:0:
448,192,304183,1,0,1:1:0:0:
64,192,304254,1,0,1:1:0:0:
192,192,304254,1,0,1:1:0:0:
320,192,304324,1,0,1:1:0:0:
448,192,304324,1,0,1:1:0:0:
64,192,304394,1,0,1:1:0:0:
192,192,304394,1,0,1:1:0:0:
320,192,304464,1,0,1:1:0:0:
192,192,304534,1,0,1:1:0:0:
448,192,304534,1,0,1:1:0:0:
64,192,304604,1,0,1:1:0:0:
320,192,304674,1,0,1:1:0:0:
448,192,304674,1,0,1:1:0:0:
64,192,304744,1,0,1:1:0:0:
192,192,304814,1,0,1:1:0:0:
448,192,304814,1,0,1:1:0:0:
320,192,304884,1,0,1:1:0:0:
64,192,304954,1,0,1:1:0:0:
192,192,304954,1,0,1:1:0:0:
320,192,305025,1,0,1:1:0:0:
64,192,305095,1,0,1:1:0:0:
448,192,305095,1,0,1:1:0:0:
192,192,305165,1,0,1:1:0:0:
320,192,305235,1,0,1:1:0:0:
448,192,305235,1,0,1:1:0:0:
192,192,305305,1,0,1:1:0:0:
64,192,305375,1,0,1:1:0:0:
448,192,305375,1,0,1:1:0:0:
320,192,305445,1,0,1:1:0:0:
64,192,305515,1,0,1:1:0:0:
192,192,305515,1,0,1:1:0:0:
320,192,305585,1,0,1:1:0:0:
64,192,305655,1,0,1:1:0:0:
192,192,305655,1,0,1:1:0:0:
192,192,305936,1,0,1:1:0:0:
448,192,305936,1,0,1:1:0:0:
320,192,306006,1,0,1:1:0:0:
64,192,306076,1,0,1:1:0:0:
448,192,306076,1,0,1:1:0:0:
320,192,306146,1,0,1:1:0:0:
192,192,306216,1,0,1:1:0:0:
448,192,306216,1,0,1:1:0:0:
64,192,306286,1,0,1:1:0:0:
320,192,306356,1,0,1:1:0:0:
448,192,306356,1,0,1:1:0:0:
64,192,306426,1,0,1:1:0:0:
320,192,306497,1,0,1:1:0:0:
448,192,306497,1,0,1:1:0:0:
192,192,306567,1,0,1:1:0:0:
64,192,306637,1,0,1:1:0:0:
320,192,306637,1,0,1:1:0:0:
192,192,306707,1,0,1:1:0:0:
64,192,306777,1,0,1:1:0:0:
448,192,306777,1,0,1:1:0:0:
320,192,306847,1,0,1:1:0:0:
64,192,306917,1,0,1:1:0:0:
192,192,306917,1,0,1:1:0:0:
320,192,306987,1,0,1:1:0:0:
192,192,307057,1,0,1:1:0:0:
448,192,307057,1,0,1:1:0:0:
64,192,307127,1,0,1:1:0:0:
192,192,307197,1,0,1:1:0:0:
320,192,307197,1,0,1:1:0:0:
64,192,307268,1,0,1:1:0:0:
192,192,307338,1,0,1:1:0:0:
448,192,307338,1,0,1:1:0:0:
320,192,307408,1,0,1:1:0:0:
64,192,307478,1,0,1:1:0:0:
448,192,307478,1,0,1:1:0:0:
192,192,307548,1,0,1:1:0:0:
320,192,307618,1,0,1:1:0:0:
448,192,307618,1,0,1:1:0:0:
64,192,307688,1,0,1:1:0:0:
192,192,307758,1,0,1:1:0:0:
448,192,307758,1,0,1:1:0:0:
64,192,307828,1,0,1:1:0:0:
320,192,307898,1,0,1:1:0:0:
448,192,307898,1,0,1:1:0:0:
192,192,307969,1,0,1:1:0:0:
64,192,308039,1,0,1:1:0:0:
320,192,308039,1,0,1:1:0:0:
192,192,308109,1,0,1:1:0:0:
320,192,308179,1,0,1:1:0:0:
448,192,308179,1,0,1:1:0:0:
64,192,308249,1,0,1:1:0:0:
192,192,308319,1,0,1:1:0:0:
320,192,308319,1,0,1:1:0:0:
64,192,308389,1,0,1:1:0:0:
192,192,308459,1,0,1:1:0:0:
320,192,308459,1,0,1:1:0:0:
448,192,308529,1,0,1:1:0:0:
64,192,308599,1,0,1:1:0:0:
192,192,308599,1,0,1:1:0:0:
320,192,308669,1,0,1:1:0:0:
448,192,308669,1,0,1:1:0:0:
64,192,308740,1,0,1:1:0:0:
192,192,308740,1,0,1:1:0:0:
448,192,308810,1,0,1:1:0:0:
192,192,308880,1,0,1:1:0:0:
320,192,308880,1,0,1:1:0:0:
64,192,308950,1,0,1:1:0:0:
448,192,308950,1,0,1:1:0:0:
192,192,309020,1,0,1:1:0:0:
320,192,309020,1,0,1:1:0:0:
64,192,309090,1,0,1:1:0:0:
448,192,309090,1,0,1:1:0:0:
192,192,309160,1,0,1:1:0:0:
320,192,309160,1,0,1:1:0:0:
64,192,309230,1,0,1:1:0:0:
448,192,309230,1,0,1:1:0:0:
192,192,309300,1,0,1:1:0:0:
320,192,309300,1,0,1:1:0:0:
64,192,309370,1,0,1:1:0:0:
192,192,309440,1,0,1:1:0:0:
448,192,309440,1,0,1:1:0:0:
64,192,309511,1,0,1:1:0:0:
320,192,309581,1,0,1:1:0:0:
448,192,309581,1,0,1:1:0:0:
64,192,309651,1,0,1:1:0:0:
192,192,309651,1,0,1:1:0:0:
320,192,309721,1,0,1:1:0:0:
448,192,309721,1,0,1:1:0:0:
192,192,309791,1,0,1:1:0:0:
64,192,309861,1,0,1:1:0:0:
448,192,309861,1,0,1:1:0:0:
320,192,309931,1,0,1:1:0:0:
192,192,310001,1,0,1:1:0:0:
448,192,310001,1,0,1:1:0:0:
320,192,310071,1,0,1:1:0:0:
192,192,310141,1,0,1:1:0:0:
448,192,310141,1,0,1:1:0:0:
64,192,310211,1,0,1:1:0:0:
192,192,310282,1,0,1:1:0:0:
320,192,310282,1,0,1:1:0:0:
64,192,310352,1,0,1:1:0:0:
448,192,310352,1,0,1:1:0:0:
192,192,310422,1,0,1:1:0:0:
320,192,310422,1,0,1:1:0:0:
64,192,310492,1,0,1:1:0:0:
448,192,310492,1,0,1:1:0:0:
192,192,310562,1,0,1:1:0:0:
320,192,310562,1,0,1:1:0:0:
448,192,310632,1,0,1:1:0:0:
64,192,310702,1,0,1:1:0:0:
192,192,310702,1,0,1:1:0:0:
320,192,310772,1,0,1:1:0:0:
448,192,310772,1,0,1:1:0:0:
64,192,310842,1,0,1:1:0:0:
192,192,310842,1,0,1:1:0:0:
320,192,310912,1,0,1:1:0:0:
448,192,310912,1,0,1:1:0:0:
64,192,310983,1,0,1:1:0:0:
192,192,310983,1,0,1:1:0:0:
320,192,311053,1,0,1:1:0:0:
192,192,311123,1,0,1:1:0:0:
448,192,311123,1,0,1:1:0:0:
320,192,311193,1,0,1:1:0:0:
64,192,311263,1,0,1:1:0:0:
192,192,311263,1,0,1:1:0:0:
448,192,311333,1,0,1:1:0:0:
64,192,311403,1,0,1:1:0:0:
320,192,311403,1,0,1:1:0:0:
448,192,311473,1,0,1:1:0:0:
64,192,311543,1,0,1:1:0:0:
192,192,311543,1,0,1:1:0:0:
320,192,311613,1,0,1:1:0:0:
64,192,311683,1,0,1:1:0:0:
320,192,311754,1,0,1:1:0:0:
192,192,311824,1,0,1:1:0:0:
448,192,311824,1,0,1:1:0:0:
64,192,311894,1,0,1:1:0:0:
320,192,311964,1,0,1:1:0:0:
448,192,311964,1,0,1:1:0:0:
64,192,312034,1,0,1:1:0:0:
192,192,312104,1,0,1:1:0:0:
448,192,312104,1,0,1:1:0:0:
320,192,312174,1,0,1:1:0:0:
64,192,312244,1,0,1:1:0:0:
448,192,312244,1,0,1:1:0:0:
320,192,312314,1,0,1:1:0:0:
192,192,312384,1,0,1:1:0:0:
448,192,312384,1,0,1:1:0:0:
64,192,312454,1,0,1:1:0:0:
192,192,312525,1,0,1:1:0:0:
320,192,312525,1,0,1:1:0:0:
64,192,312595,1,0,1:1:0:0:
320,192,312665,1,0,1:1:0:0:
448,192,312665,1,0,1:1:0:0:
192,192,312735,1,0,1:1:0:0:
64,192,312805,1,0,1:1:0:0:
448,192,312805,1,0,1:1:0:0:
192,192,312875,1,0,1:1:0:0:
320,192,312945,1,0,1:1:0:0:
448,192,312945,1,0,1:1:0:0:
64,192,313015,1,0,1:1:0:0:
192,192,313085,1,0,1:1:0:0:
320,192,313085,1,0,1:1:0:0:
64,192,313155,1,0,1:1:0:0:
448,192,313155,1,0,1:1:0:0:
192,192,313226,1,0,1:1:0:0:
320,192,313226,1,0,1:1:0:0:
64,192,313296,1,0,1:1:0:0:
448,192,313296,1,0,1:1:0:0:
192,192,313366,1,0,1:1:0:0:
320,192,313366,1,0,1:1:0:0:
448,192,313436,1,0,1:1:0:0:
64,192,313506,1,0,1:1:0:0:
192,192,313506,1,0,1:1:0:0:
320,192,313576,1,0,1:1:0:0:
64,192,313646,1,0,1:1:0:0:
448,192,313646,1,0,1:1:0:0:
320,192,313716,1,0,1:1:0:0:
64,192,313786,1,0,1:1:0:0:
448,192,313786,1,0,1:1:0:0:
192,192,313856,1,0,1:1:0:0:
320,192,313926,1,0,1:1:0:0:
448,192,313926,1,0,1:1:0:0:
192,192,313997,1,0,1:1:0:0:
64,192,314067,1,0,1:1:0:0:
448,192,314067,1,0,1:1:0:0:
320,192,314137,1,0,1:1:0:0:
64,192,314207,1,0,1:1:0:0:
192,192,314207,1,0,1:1:0:0:
320,192,314277,1,0,1:1:0:0:
192,192,314347,1,0,1:1:0:0:
448,192,314347,1,0,1:1:0:0:
64,192,314417,1,0,1:1:0:0:
320,192,314487,1,0,1:1:0:0:
448,192,314487,1,0,1:1:0:0:
64,192,314557,1,0,1:1:0:0:
320,192,314627,1,0,1:1:0:0:
448,192,314627,1,0,1:1:0:0:
192,192,314697,1,0,1:1:0:0:
64,192,314768,1,0,1:1:0:0:
448,192,314768,1,0,1:1:0:0:
192,192,314838,1,0,1:1:0:0:
320,192,314838,1,0,1:1:0:0:
64,192,314908,1,0,1:1:0:0:
448,192,314908,1,0,1:1:0:0:
320,192,314978,1,0,1:1:0:0:
64,192,315048,1,0,1:1:0:0:
448,192,315048,1,0,1:1:0:0:
192,192,315118,1,0,1:1:0:0:
320,192,315188,1,0,1:1:0:0:
448,192,315188,1,0,1:1:0:0:
64,192,315258,1,0,1:1:0:0:
192,192,315328,1,0,1:1:0:0:
448,192,315328,1,0,1:1:0:0:
64,192,315398,1,0,1:1:0:0:
320,192,315469,1,0,1:1:0:0:
448,192,315469,1,0,1:1:0:0:
192,192,315539,1,0,1:1:0:0:
320,192,315609,1,0,1:1:0:0:
192,192,315679,1,0,1:1:0:0:
448,192,315679,1,0,1:1:0:0:
64,192,315749,1,0,1:1:0:0:
320,192,315749,1,0,1:1:0:0:
192,192,315819,1,0,1:1:0:0:
320,192,315889,1,0,1:1:0:0:
448,192,315889,1,0,1:1:0:0:
64,192,315959,1,0,1:1:0:0:
192,192,316029,1,0,1:1:0:0:
320,192,316029,1,0,1:1:0:0:
448,192,316099,1,0,1:1:0:0:
64,192,316169,1,0,1:1:0:0:
192,192,316169,1,0,1:1:0:0:
320,192,316240,1,0,1:1:0:0:
448,192,316240,1,0,1:1:0:0:
64,192,316310,1,0,1:1:0:0:
192,192,316310,1,0,1:1:0:0:
320,192,316380,1,0,1:1:0:0:
448,192,316380,1,0,1:1:0:0:
64,192,316450,1,0,1:1:0:0:
192,192,316450,1,0,1:1:0:0:
320,192,316520,1,0,1:1:0:0:
64,192,316590,1,0,1:1:0:0:
192,192,316590,1,0,1:1:0:0:
448,192,316590,1,0,1:1:0:0:
320,192,316660,1,0,1:1:0:0:
192,192,316730,1,0,1:1:0:0:
448,192,316730,1,0,1:1:0:0:
64,192,316800,1,0,1:1:0:0:
192,192,316870,1,0,1:1:0:0:
320,192,316870,1,0,1:1:0:0:
448,192,316870,1,0,1:1:0:0:
64,192,316940,1,0,1:1:0:0:
192,192,317011,1,0,1:1:0:0:
448,192,317011,1,0,1:1:0:0:
320,192,317081,1,0,1:1:0:0:
64,192,317151,1,0,1:1:0:0:
192,192,317151,1,0,1:1:0:0:
320,192,317221,1,0,1:1:0:0:
64,192,317291,1,0,1:1:0:0:
448,192,317291,1,0,1:1:0:0:
320,192,317361,1,0,1:1:0:0:
64,192,317431,1,0,1:1:0:0:
192,192,317431,1,0,1:1:0:0:
448,192,317501,1,0,1:1:0:0:
192,192,317571,1,0,1:1:0:0:
320,192,317571,1,0,1:1:0:0:
64,192,317641,1,0,1:1:0:0:
448,192,317641,1,0,1:1:0:0:
192,192,317711,1,0,1:1:0:0:
320,192,317711,1,0,1:1:0:0:
64,192,317782,1,0,1:1:0:0:
448,192,317782,1,0,1:1:0:0:
192,192,317852,1,0,1:1:0:0:
320,192,317852,1,0,1:1:0:0:
64,192,317922,1,0,1:1:0:0:
192,192,317992,1,0,1:1:0:0:
448,192,317992,1,0,1:1:0:0:
320,192,318062,1,0,1:1:0:0:
64,192,318132,1,0,1:1:0:0:
448,192,318132,1,0,1:1:0:0:
320,192,318202,1,0,1:1:0:0:
64,192,318272,1,0,1:1:0:0:
192,192,318272,1,0,1:1:0:0:
448,192,318342,1,0,1:1:0:0:
64,192,318412,1,0,1:1:0:0:
320,192,318412,1,0,1:1:0:0:
192,192,318483,1,0,1:1:0:0:
320,192,318553,1,0,1:1:0:0:
448,192,318553,1,0,1:1:0:0:
64,192,318623,1,0,1:1:0:0:
192,192,318693,1,0,1:1:0:0:
448,192,318693,1,0,1:1:0:0:
320,192,318763,1,0,1:1:0:0:
64,192,318833,1,0,1:1:0:0:
192,192,318833,1,0,1:1:0:0:
448,192,318903,1,0,1:1:0:0:
64,192,318973,1,0,1:1:0:0:
320,192,318973,1,0,1:1:0:0:
192,192,319043,1,0,1:1:0:0:
64,192,319113,1,0,1:1:0:0:
320,192,319113,1,0,1:1:0:0:
448,192,319183,1,0,1:1:0:0:
64,192,319254,1,0,1:1:0:0:
192,192,319254,1,0,1:1:0:0:
320,192,319324,1,0,1:1:0:0:
64,192,319394,1,0,1:1:0:0:
192,192,319394,1,0,1:1:0:0:
448,192,319394,1,0,1:1:0:0:
320,192,319464,1,0,1:1:0:0:
64,192,319534,1,0,1:1:0:0:
448,192,319534,1,0,1:1:0:0:
192,192,319604,1,0,1:1:0:0:
320,192,319674,1,0,1:1:0:0:
448,192,319674,1,0,1:1:0:0:
64,192,319744,1,0,1:1:0:0:
192,192,319814,1,0,1:1:0:0:
320,192,319814,1,0,1:1:0:0:
448,192,319884,1,0,1:1:0:0:
192,192,319954,1,0,1:1:0:0:
320,192,319954,1,0,1:1:0:0:
64,192,320025,1,0,1:1:0:0:
192,192,320095,1,0,1:1:0:0:
448,192,320095,1,0,1:1:0:0:
320,192,320165,1,0,1:1:0:0:
64,192,320235,1,0,1:1:0:0:
448,192,320235,1,0,1:1:0:0:
192,192,320305,1,0,1:1:0:0:
64,192,320375,1,0,1:1:0:0:
192,192,320445,1,0,1:1:0:0:
320,192,320515,1,0,1:1:0:0:
448,192,320515,1,0,1:1:0:0:
64,192,320585,1,0,1:1:0:0:
192,192,320655,1,0,1:1:0:0:
448,192,320655,1,0,1:1:0:0:
320,192,320726,1,0,1:1:0:0:
192,192,320796,1,0,1:1:0:0:
448,192,320796,1,0,1:1:0:0:
64,192,320866,1,0,1:1:0:0:
320,192,320866,1,0,1:1:0:0:
192,192,320936,1,0,1:1:0:0:
448,192,320936,1,0,1:1:0:0:
64,192,321006,1,0,1:1:0:0:
192,192,321076,1,0,1:1:0:0:
320,192,321076,1,0,1:1:0:0:
448,192,321146,1,0,1:1:0:0:
64,192,321216,1,0,1:1:0:0:
320,192,321216,1,0,1:1:0:0:
192,192,321286,1,0,1:1:0:0:
320,192,321356,1,0,1:1:0:0:
448,192,321356,1,0,1:1:0:0:
64,192,321426,1,0,1:1:0:0:
192,192,321497,1,0,1:1:0:0:
320,192,321497,1,0,1:1:0:0:
64,192,321567,1,0,1:1:0:0:
320,192,321637,1,0,1:1:0:0:
448,192,321637,1,0,1:1:0:0:
192,192,321707,1,0,1:1:0:0:
64,192,321777,1,0,1:1:0:0:
320,192,321777,1,0,1:1:0:0:
448,192,321847,1,0,1:1:0:0:
64,192,321917,1,0,1:1:0:0:
192,192,321917,1,0,1:1:0:0:
320,192,321987,1,0,1:1:0:0:
64,192,322057,1,0,1:1:0:0:
448,192,322057,1,0,1:1:0:0:
192,192,322127,1,0,1:1:0:0:
320,192,322127,1,0,1:1:0:0:
64,192,322197,1,0,1:1:0:0:
448,192,322197,1,0,1:1:0:0:
192,192,322268,1,0,1:1:0:0:
320,192,322268,1,0,1:1:0:0:
64,192,322338,1,0,1:1:0:0:
448,192,322338,1,0,1:1:0:0:
192,192,322408,1,0,1:1:0:0:
320,192,322478,1,0,1:1:0:0:
448,192,322478,1,0,1:1:0:0:
64,192,322548,1,0,1:1:0:0:
192,192,322548,1,0,1:1:0:0:
320,192,322618,1,0,1:1:0:0:
448,192,322618,1,0,1:1:0:0:
192,192,322688,1,0,1:1:0:0:
320,192,322758,1,0,1:1:0:0:
448,192,322758,1,0,1:1:0:0:
64,192,322828,1,0,1:1:0:0:
192,192,322828,1,0,1:1:0:0:
320,192,322898,1,0,1:1:0:0:
448,192,322898,1,0,1:1:0:0:
64,192,322969,1,0,1:1:0:0:
192,192,322969,1,0,1:1:0:0:
320,192,323039,1,0,1:1:0:0:
448,192,323039,1,0,1:1:0:0:
64,192,323109,1,0,1:1:0:0:
192,192,323109,1,0,1:1:0:0:
320,192,323179,1,0,1:1:0:0:
448,192,323179,1,0,1:1:0:0:
192,192,323249,1,0,1:1:0:0:
64,192,323319,1,0,1:1:0:0:
320,192,323319,1,0,1:1:0:0:
448,192,323389,1,0,1:1:0:0:
64,192,323459,1,0,1:1:0:0:
192,192,323459,1,0,1:1:0:0:
320,192,323529,1,0,1:1:0:0:
64,192,323599,1,0,1:1:0:0:
192,192,323599,1,0,1:1:0:0:
448,192,323669,1,0,1:1:0:0:
192,192,323740,1,0,1:1:0:0:
320,192,323740,1,0,1:1:0:0:
64,192,323810,1,0,1:1:0:0:
448,192,323810,1,0,1:1:0:0:
192,192,323880,1,0,1:1:0:0:
320,192,323880,1,0,1:1:0:0:
64,192,323950,1,0,1:1:0:0:
192,192,324020,1,0,1:1:0:0:
448,192,324020,1,0,1:1:0:0:
320,192,324090,1,0,1:1:0:0:
64,192,324160,1,0,1:1:0:0:
192,192,324160,1,0,1:1:0:0:
448,192,324230,1,0,1:1:0:0:
64,192,324300,1,0,1:1:0:0:
320,192,324300,1,0,1:1:0:0:
192,192,324370,1,0,1:1:0:0:
320,192,324440,1,0,1:1:0:0:
448,192,324440,1,0,1:1:0:0:
64,192,324511,1,0,1:1:0:0:
192,192,324581,1,0,1:1:0:0:
448,192,324581,1,0,1:1:0:0:
320,192,324651,1,0,1:1:0:0:
64,192,324721,1,0,1:1:0:0:
448,192,324721,1,0,1:1:0:0:
192,192,324791,1,0,1:1:0:0:
320,192,324861,1,0,1:1:0:0:
448,192,324861,1,0,1:1:0:0:
64,192,324931,1,0,1:1:0:0:
192,192,325001,1,0,1:1:0:0:
448,192,325001,1,0,1:1:0:0:
320,192,325071,1,0,1:1:0:0:
64,192,325141,1,0,1:1:0:0:
192,192,325141,1,0,1:1:0:0:
448,192,325211,1,0,1:1:0:0:
64,192,325282,1,0,1:1:0:0:
320,192,325282,1,0,1:1:0:0:
192,192,325352,1,0,1:1:0:0:
320,192,325422,1,0,1:1:0:0:
448,192,325422,1,0,1:1:0:0:
64,192,325492,1,0,1:1:0:0:
192,192,325562,1,0,1:1:0:0:
448,192,325562,1,0,1:1:0:0:
64,192,325632,1,0,1:1:0:0:
192,192,325702,1,0,1:1:0:0:
320,192,325702,1,0,1:1:0:0:
448,192,325772,1,0,1:1:0:0:
64,192,325842,1,0,1:1:0:0:
320,192,325842,1,0,1:1:0:0:
192,192,325912,1,0,1:1:0:0:
320,192,325983,1,0,1:1:0:0:
448,192,325983,1,0,1:1:0:0:
64,192,326053,1,0,1:1:0:0:
192,192,326123,1,0,1:1:0:0:
448,192,326123,1,0,1:1:0:0:
320,192,326193,1,0,1:1:0:0:
64,192,326263,1,0,1:1:0:0:
448,192,326263,1,0,1:1:0:0:
192,192,326333,1,0,1:1:0:0:
64,192,326403,1,0,1:1:0:0:
448,192,326403,1,0,1:1:0:0:
320,192,326473,1,0,1:1:0:0:
64,192,326543,1,0,1:1:0:0:
192,192,326543,1,0,1:1:0:0:
320,192,326613,1,0,1:1:0:0:
448,192,326613,1,0,1:1:0:0:
64,192,326683,1,0,1:1:0:0:
192,192,326683,1,0,1:1:0:0:
320,192,326754,1,0,1:1:0:0:
448,192,326754,1,0,1:1:0:0:
64,192,326824,1,0,1:1:0:0:
192,192,326824,1,0,1:1:0:0:
448,192,326894,1,0,1:1:0:0:
192,192,326964,1,0,1:1:0:0:
64,192,326964,1,0,1:1:0:0:
320,192,327034,1,0,1:1:0:0:
192,192,327104,1,0,1:1:0:0:
448,192,327104,1,0,1:1:0:0:
320,192,327174,1,0,1:1:0:0:
64,192,327244,1,0,1:1:0:0:
192,192,327244,1,0,1:1:0:0:
448,192,327314,1,0,1:1:0:0:
64,192,327384,1,0,1:1:0:0:
320,192,327384,1,0,1:1:0:0:
192,192,327454,1,0,1:1:0:0:
320,192,327525,1,0,1:1:0:0:
448,192,327525,1,0,1:1:0:0:
64,192,327595,1,0,1:1:0:0:
192,192,327665,1,0,1:1:0:0:
448,192,327665,1,0,1:1:0:0:
320,192,327735,1,0,1:1:0:0:
64,192,327805,1,0,1:1:0:0:
192,192,327805,1,0,1:1:0:0:
448,192,327875,1,0,1:1:0:0:
64,192,327945,1,0,1:1:0:0:
320,192,327945,1,0,1:1:0:0:
192,192,328015,1,0,1:1:0:0:
64,192,328085,1,0,1:1:0:0:
448,192,328085,1,0,1:1:0:0:
320,192,328155,1,0,1:1:0:0:
192,192,328226,1,0,1:1:0:0:
448,192,328226,1,0,1:1:0:0:
64,192,328296,1,0,1:1:0:0:
320,192,328296,1,0,1:1:0:0:
192,192,328366,1,0,1:1:0:0:
448,192,328366,1,0,1:1:0:0:
64,192,328436,1,0,1:1:0:0:
192,192,328506,1,0,1:1:0:0:
448,192,328506,1,0,1:1:0:0:
320,192,328576,1,0,1:1:0:0:
64,192,328646,1,0,1:1:0:0:
192,192,328646,1,0,1:1:0:0:
448,192,328716,1,0,1:1:0:0:
192,192,328786,1,0,1:1:0:0:
320,192,328786,1,0,1:1:0:0:
64,192,328856,1,0,1:1:0:0:
192,192,328926,1,0,1:1:0:0:
320,192,328926,1,0,1:1:0:0:
448,192,328997,1,0,1:1:0:0:
64,192,329067,1,0,1:1:0:0:
320,192,329067,1,0,1:1:0:0:
192,192,329137,1,0,1:1:0:0:
64,192,329207,1,0,1:1:0:0:
448,192,329207,1,0,1:1:0:0:
192,192,329277,1,0,1:1:0:0:
320,192,329347,1,0,1:1:0:0:
448,192,329347,1,0,1:1:0:0:
64,192,329417,1,0,1:1:0:0:
192,192,329487,1,0,1:1:0:0:
448,192,329487,1,0,1:1:0:0:
320,192,329557,1,0,1:1:0:0:
64,192,329627,1,0,1:1:0:0:
192,192,329627,1,0,1:1:0:0:
448,192,329697,1,0,1:1:0:0:
64,192,329768,1,0,1:1:0:0:
320,192,329768,1,0,1:1:0:0:
192,192,329838,1,0,1:1:0:0:
64,192,329908,1,0,1:1:0:0:
448,192,329908,1,0,1:1:0:0:
320,192,329978,1,0,1:1:0:0:
64,192,330048,1,0,1:1:0:0:
192,192,330048,1,0,1:1:0:0:
448,192,330118,1,0,1:1:0:0:
64,192,330188,1,0,1:1:0:0:
320,192,330188,1,0,1:1:0:0:
192,192,330258,1,0,1:1:0:0:
64,192,330328,1,0,1:1:0:0:
448,192,330328,1,0,1:1:0:0:
320,192,330398,1,0,1:1:0:0:
192,192,330469,1,0,1:1:0:0:
448,192,330469,1,0,1:1:0:0:
320,192,330539,1,0,1:1:0:0:
64,192,330609,1,0,1:1:0:0:
448,192,330609,1,0,1:1:0:0:
192,192,330679,1,0,1:1:0:0:
320,192,330749,1,0,1:1:0:0:
448,192,330749,1,0,1:1:0:0:
192,192,330819,1,0,1:1:0:0:
64,192,330889,1,0,1:1:0:0:
448,192,330889,1,0,1:1:0:0:
320,192,330959,1,0,1:1:0:0:
64,192,331029,1,0,1:1:0:0:
192,192,331029,1,0,1:1:0:0:
320,192,331099,1,0,1:1:0:0:
448,192,331099,1,0,1:1:0:0:
64,192,331169,1,0,1:1:0:0:
192,192,331169,1,0,1:1:0:0:
320,192,331240,1,0,1:1:0:0:
448,192,331240,1,0,1:1:0:0:
64,192,331310,1,0,1:1:0:0:
192,192,331310,1,0,1:1:0:0:
320,192,331380,1,0,1:1:0:0:
192,192,331450,1,0,1:1:0:0:
448,192,331450,1,0,1:1:0:0:
64,192,331520,1,0,1:1:0:0:
320,192,331590,1,0,1:1:0:0:
448,192,331590,1,0,1:1:0:0:
192,192,331660,1,0,1:1:0:0:
64,192,331730,1,0,1:1:0:0:
448,192,331730,1,0,1:1:0:0:
320,192,331800,1,0,1:1:0:0:
64,192,331870,1,0,1:1:0:0:
192,192,331870,1,0,1:1:0:0:
320,192,331940,1,0,1:1:0:0:
64,192,332011,1,0,1:1:0:0:
448,192,332011,1,0,1:1:0:0:
192,192,332081,1,0,1:1:0:0:
320,192,332151,1,0,1:1:0:0:
448,192,332151,1,0,1:1:0:0:
192,192,332221,1,0,1:1:0:0:
64,192,332291,1,0,1:1:0:0:
448,192,332291,1,0,1:1:0:0:
320,192,332361,1,0,1:1:0:0:
192,192,332431,1,0,1:1:0:0:
448,192,332431,1,0,1:1:0:0:
64,192,332501,1,0,1:1:0:0:
192,192,332571,1,0,1:1:0:0:
320,192,332571,1,0,1:1:0:0:
64,192,332641,1,0,1:1:0:0:
448,192,332641,1,0,1:1:0:0:
192,192,332711,1,0,1:1:0:0:
320,192,332711,1,0,1:1:0:0:
64,192,332782,1,0,1:1:0:0:
448,192,332782,1,0,1:1:0:0:
192,192,332852,1,0,1:1:0:0:
320,192,332852,1,0,1:1:0:0:
448,192,332922,1,0,1:1:0:0:
64,192,332992,1,0,1:1:0:0:
192,192,332992,1,0,1:1:0:0:
320,192,333062,1,0,1:1:0:0:
192,192,333132,1,0,1:1:0:0:
448,192,333132,1,0,1:1:0:0:
64,192,333202,1,0,1:1:0:0:
192,192,333272,1,0,1:1:0:0:
320,192,333272,1,0,1:1:0:0:
448,192,333342,1,0,1:1:0:0:
192,192,333412,1,0,1:1:0:0:
320,192,333412,1,0,1:1:0:0:
64,192,333483,1,0,1:1:0:0:
192,192,333553,1,0,1:1:0:0:
448,192,333553,1,0,1:1:0:0:
320,192,333623,1,0,1:1:0:0:
64,192,333693,1,0,1:1:0:0:
448,192,333693,1,0,1:1:0:0:
320,192,333763,1,0,1:1:0:0:
64,192,333833,1,0,1:1:0:0:
192,192,333833,1,0,1:1:0:0:
320,192,333903,1,0,1:1:0:0:
192,192,333973,1,0,1:1:0:0:
448,192,333973,1,0,1:1:0:0:
64,192,334043,1,0,1:1:0:0:
320,192,334113,1,0,1:1:0:0:
448,192,334113,1,0,1:1:0:0:
192,192,334183,1,0,1:1:0:0:
64,192,334254,1,0,1:1:0:0:
320,192,334254,1,0,1:1:0:0:
448,192,334324,1,0,1:1:0:0:
64,192,334394,1,0,1:1:0:0:
192,192,334394,1,0,1:1:0:0:
320,192,334464,1,0,1:1:0:0:
64,192,334534,1,0,1:1:0:0:
448,192,334534,1,0,1:1:0:0:
192,192,334604,1,0,1:1:0:0:
320,192,334674,1,0,1:1:0:0:
448,192,334674,1,0,1:1:0:0:
192,192,334744,1,0,1:1:0:0:
64,192,334814,1,0,1:1:0:0:
448,192,334814,1,0,1:1:0:0:
320,192,334884,1,0,1:1:0:0:
192,192,334954,1,0,1:1:0:0:
448,192,334954,1,0,1:1:0:0:
64,192,335025,1,0,1:1:0:0:
192,192,335095,1,0,1:1:0:0:
320,192,335095,1,0,1:1:0:0:
64,192,335165,1,0,1:1:0:0:
192,192,335235,1,0,1:1:0:0:
448,192,335235,1,0,1:1:0:0:
320,192,335305,1,0,1:1:0:0:
64,192,335375,1,0,1:1:0:0:
448,192,335375,1,0,1:1:0:0:
320,192,335445,1,0,1:1:0:0:
192,192,335515,1,0,1:1:0:0:
448,192,335515,1,0,1:1:0:0:
320,192,335585,1,0,1:1:0:0:
64,192,335655,1,0,1:1:0:0:
448,192,335655,1,0,1:1:0:0:
192,192,335726,1,0,1:1:0:0:
64,192,335796,1,0,1:1:0:0:
320,192,335796,1,0,1:1:0:0:
448,192,335866,1,0,1:1:0:0:
64,192,335936,1,0,1:1:0:0:
192,192,335936,1,0,1:1:0:0:
320,192,336006,1,0,1:1:0:0:
64,192,336076,1,0,1:1:0:0:
448,192,336076,1,0,1:1:0:0:
320,192,336146,1,0,1:1:0:0:
192,192,336216,1,0,1:1:0:0:
448,192,336216,1,0,1:1:0:0:
64,192,336286,1,0,1:1:0:0:
192,192,336356,1,0,1:1:0:0:
448,192,336356,1,0,1:1:0:0:
64,192,336426,1,0,1:1:0:0:
320,192,336426,1,0,1:1:0:0:
192,192,336497,1,0,1:1:0:0:
448,192,336497,1,0,1:1:0:0:
320,192,336567,1,0,1:1:0:0:
64,192,336637,1,0,1:1:0:0:
448,192,336637,1,0,1:1:0:0:
192,192,336707,1,0,1:1:0:0:
320,192,336777,1,0,1:1:0:0:
448,192,336777,1,0,1:1:0:0:
64,192,336847,1,0,1:1:0:0:
192,192,336917,1,0,1:1:0:0:
448,192,336917,1,0,1:1:0:0:
64,192,336987,1,0,1:1:0:0:
192,192,337057,1,0,1:1:0:0:
320,192,337057,1,0,1:1:0:0:
448,192,337127,1,0,1:1:0:0:
64,192,337197,1,0,1:1:0:0:
192,192,337197,1,0,1:1:0:0:
320,192,337268,1,0,1:1:0:0:
448,192,337268,1,0,1:1:0:0:
64,192,337338,1,0,1:1:0:0:
192,192,337338,1,0,1:1:0:0:
448,192,337408,1,0,1:1:0:0:
64,192,337478,1,0,1:1:0:0:
192,192,337478,1,0,1:1:0:0:
320,192,337548,1,0,1:1:0:0:
192,192,337618,1,0,1:1:0:0:
448,192,337618,1,0,1:1:0:0:
64,192,337688,1,0,1:1:0:0:
192,192,337758,1,0,1:1:0:0:
320,192,337758,1,0,1:1:0:0:
448,192,337828,1,0,1:1:0:0:
64,192,337898,1,0,1:1:0:0:
320,192,337898,1,0,1:1:0:0:
192,192,337969,1,0,1:1:0:0:
64,192,338039,1,0,1:1:0:0:
320,192,338039,1,0,1:1:0:0:
192,192,338109,1,0,1:1:0:0:
64,192,338179,1,0,1:1:0:0:
448,192,338179,1,0,1:1:0:0:
320,192,338249,1,0,1:1:0:0:
64,192,338319,1,0,1:1:0:0:
448,192,338319,1,0,1:1:0:0:
192,192,338389,1,0,1:1:0:0:
320,192,338459,1,0,1:1:0:0:
448,192,338459,1,0,1:1:0:0:
64,192,338529,1,0,1:1:0:0:
448,192,338599,1,0,1:1:0:0:
64,192,338669,1,0,1:1:0:0:
192,192,338740,1,0,1:1:0:0:
448,192,338740,1,0,1:1:0:0:
64,192,338810,1,0,1:1:0:0:
320,192,338810,1,0,1:1:0:0:
192,192,338880,1,0,1:1:0:0:
448,192,338880,1,0,1:1:0:0:
320,192,338950,1,0,1:1:0:0:
64,192,339020,1,0,1:1:0:0:
192,192,339020,1,0,1:1:0:0:
448,192,339090,1,0,1:1:0:0:
64,192,339160,1,0,1:1:0:0:
320,192,339160,1,0,1:1:0:0:
192,192,339230,1,0,1:1:0:0:
448,192,339230,1,0,1:1:0:0:
64,192,339300,1,0,1:1:0:0:
320,192,339300,1,0,1:1:0:0:
192,192,339370,1,0,1:1:0:0:
320,192,339440,1,0,1:1:0:0:
448,192,339440,1,0,1:1:0:0:
64,192,339511,1,0,1:1:0:0:
320,192,339581,1,0,1:1:0:0:
448,192,339581,1,0,1:1:0:0:
64,192,339651,1,0,1:1:0:0:
192,192,339651,1,0,1:1:0:0:
320,192,339721,1,0,1:1:0:0:
448,192,339721,1,0,1:1:0:0:
64,192,339791,1,0,1:1:0:0:
192,192,339861,1,0,1:1:0:0:
448,192,339861,1,0,1:1:0:0:
320,192,339931,1,0,1:1:0:0:
64,192,340001,1,0,1:1:0:0:
448,192,340001,1,0,1:1:0:0:
320,192,340071,1,0,1:1:0:0:
192,192,340141,1,0,1:1:0:0:
448,192,340141,1,0,1:1:0:0:
64,192,340211,1,0,1:1:0:0:
320,192,340211,1,0,1:1:0:0:
192,192,340282,1,0,1:1:0:0:
448,192,340282,1,0,1:1:0:0:
64,192,340352,1,0,1:1:0:0:
320,192,340422,1,0,1:1:0:0:
448,192,340422,1,0,1:1:0:0:
192,192,340492,1,0,1:1:0:0:
64,192,340562,1,0,1:1:0:0:
448,192,340562,1,0,1:1:0:0:
192,192,340632,1,0,1:1:0:0:
64,192,340702,1,0,1:1:0:0:
448,192,340702,1,0,1:1:0:0:
320,192,340772,1,0,1:1:0:0:
192,192,340842,1,0,1:1:0:0:
448,192,340842,1,0,1:1:0:0:
320,192,340912,1,0,1:1:0:0:
64,192,340983,1,0,1:1:0:0:
192,192,340983,1,0,1:1:0:0:
448,192,341053,1,0,1:1:0:0:
64,192,341123,1,0,1:1:0:0:
192,192,341123,1,0,1:1:0:0:
320,192,341193,1,0,1:1:0:0:
448,192,341193,1,0,1:1:0:0:
192,192,341263,1,0,1:1:0:0:
64,192,341333,1,0,1:1:0:0:
320,192,341333,1,0,1:1:0:0:
192,192,341403,1,0,1:1:0:0:
448,192,341403,1,0,1:1:0:0:
320,192,341473,1,0,1:1:0:0:
64,192,341543,1,0,1:1:0:0:
448,192,341543,1,0,1:1:0:0:
192,192,341613,1,0,1:1:0:0:
320,192,341683,1,0,1:1:0:0:
448,192,341683,1,0,1:1:0:0:
64,192,341754,1,0,1:1:0:0:
192,192,341754,1,0,1:1:0:0:
320,192,341824,1,0,1:1:0:0:
448,192,341824,1,0,1:1:0:0:
64,192,341894,1,0,1:1:0:0:
320,192,341964,1,0,1:1:0:0:
448,192,341964,1,0,1:1:0:0:
192,192,342034,1,0,1:1:0:0:
64,192,342104,1,0,1:1:0:0:
448,192,342104,1,0,1:1:0:0:
192,192,342174,1,0,1:1:0:0:
64,192,342244,1,0,1:1:0:0:
320,192,342244,1,0,1:1:0:0:
192,192,342314,1,0,1:1:0:0:
320,192,342384,1,0,1:1:0:0:
448,192,342384,1,0,1:1:0:0:
64,192,342454,1,0,1:1:0:0:
320,192,342525,1,0,1:1:0:0:
448,192,342525,1,0,1:1:0:0:
64,192,342595,1,0,1:1:0:0:
192,192,342665,1,0,1:1:0:0:
448,192,342665,1,0,1:1:0:0:
320,192,342735,1,0,1:1:0:0:
64,192,342805,1,0,1:1:0:0:
192,192,342805,1,0,1:1:0:0:
448,192,342875,1,0,1:1:0:0:
192,192,342945,1,0,1:1:0:0:
320,192,342945,1,0,1:1:0:0:
448,192,343015,1,0,1:1:0:0:
64,192,343085,1,0,1:1:0:0:
320,192,343085,1,0,1:1:0:0:
448,192,343155,1,0,1:1:0:0:
192,192,343226,1,0,1:1:0:0:
320,192,343226,1,0,1:1:0:0:
64,192,343296,1,0,1:1:0:0:
192,192,343366,1,0,1:1:0:0:
448,192,343366,1,0,1:1:0:0:
320,192,343436,1,0,1:1:0:0:
64,192,343506,1,0,1:1:0:0:
448,192,343506,1,0,1:1:0:0:
320,192,343576,1,0,1:1:0:0:
64,192,343646,1,0,1:1:0:0:
192,192,343646,1,0,1:1:0:0:
320,192,343716,1,0,1:1:0:0:
448,192,343716,1,0,1:1:0:0:
64,192,343786,1,0,1:1:0:0:
192,192,343786,1,0,1:1:0:0:
320,192,343856,1,0,1:1:0:0:
192,192,343926,1,0,1:1:0:0:
448,192,343926,1,0,1:1:0:0:
64,192,343997,1,0,1:1:0:0:
192,192,344067,1,0,1:1:0:0:
320,192,344067,1,0,1:1:0:0:
64,192,344137,1,0,1:1:0:0:
320,192,344207,1,0,1:1:0:0:
448,192,344207,1,0,1:1:0:0:
192,192,344277,1,0,1:1:0:0:
64,192,344347,1,0,1:1:0:0:
448,192,344347,1,0,1:1:0:0:
320,192,344417,1,0,1:1:0:0:
192,192,344487,1,0,1:1:0:0:
448,192,344487,1,0,1:1:0:0:
64,192,344557,1,0,1:1:0:0:
320,192,344557,1,0,1:1:0:0:
192,192,344627,1,0,1:1:0:0:
448,192,344627,1,0,1:1:0:0:
64,192,344697,1,0,1:1:0:0:
320,192,344697,1,0,1:1:0:0:
192,192,344768,1,0,1:1:0:0:
448,192,344768,1,0,1:1:0:0:
64,192,344838,1,0,1:1:0:0:
320,192,344908,1,0,1:1:0:0:
448,192,344908,1,0,1:1:0:0:
64,192,344978,1,0,1:1:0:0:
192,192,344978,1,0,1:1:0:0:
320,192,345048,1,0,1:1:0:0:
448,192,345048,1,0,1:1:0:0:
192,192,345118,1,0,1:1:0:0:
64,192,345188,1,0,1:1:0:0:
448,192,345188,1,0,1:1:0:0:
192,192,345258,1,0,1:1:0:0:
320,192,345258,1,0,1:1:0:0:
64,192,345328,1,0,1:1:0:0:
448,192,345328,1,0,1:1:0:0:
192,192,345398,1,0,1:1:0:0:
320,192,345398,1,0,1:1:0:0:
64,192,345469,1,0,1:1:0:0:
448,192,345469,1,0,1:1:0:0:
192,192,345539,1,0,1:1:0:0:
64,192,345609,1,0,1:1:0:0:
448,192,345609,1,0,1:1:0:0:
320,192,345679,1,0,1:1:0:0:
64,192,345749,1,0,1:1:0:0:
192,192,345749,1,0,1:1:0:0:
448,192,345819,1,0,1:1:0:0:
64,192,345889,1,0,1:1:0:0:
192,192,345889,1,0,1:1:0:0:
320,192,345959,1,0,1:1:0:0:
192,192,346029,1,0,1:1:0:0:
448,192,346029,1,0,1:1:0:0:
64,192,346099,1,0,1:1:0:0:
320,192,346169,1,0,1:1:0:0:
448,192,346169,1,0,1:1:0:0:
64,192,346240,1,0,1:1:0:0:
192,192,346240,1,0,1:1:0:0:
320,192,346310,1,0,1:1:0:0:
448,192,346310,1,0,1:1:0:0:
64,192,346380,1,0,1:1:0:0:
320,192,346450,1,0,1:1:0:0:
448,192,346450,1,0,1:1:0:0:
192,192,346520,1,0,1:1:0:0:
64,192,346590,1,0,1:1:0:0:
448,192,346590,1,0,1:1:0:0:
320,192,346660,1,0,1:1:0:0:
64,192,346730,1,0,1:1:0:0:
448,192,346730,1,0,1:1:0:0:
192,192,346800,1,0,1:1:0:0:
64,192,346870,1,0,1:1:0:0:
320,192,346870,1,0,1:1:0:0:
448,192,346940,1,0,1:1:0:0:
192,192,347011,1,0,1:1:0:0:
320,192,347011,1,0,1:1:0:0:
448,192,347081,1,0,1:1:0:0:
64,192,347151,1,0,1:1:0:0:
320,192,347151,1,0,1:1:0:0:
192,192,347221,1,0,1:1:0:0:
64,192,347291,1,0,1:1:0:0:
448,192,347291,1,0,1:1:0:0:
320,192,347361,1,0,1:1:0:0:
64,192,347431,1,0,1:1:0:0:
192,192,347431,1,0,1:1:0:0:
448,192,347501,1,0,1:1:0:0:
64,192,347571,1,0,1:1:0:0:
320,192,347571,1,0,1:1:0:0:
448,192,347641,1,0,1:1:0:0:
64,192,347711,1,0,1:1:0:0:
192,192,347711,1,0,1:1:0:0:
320,192,347782,1,0,1:1:0:0:
448,192,347782,1,0,1:1:0:0:
64,192,347852,1,0,1:1:0:0:
192,192,347852,1,0,1:1:0:0:
448,192,347922,1,0,1:1:0:0:
64,192,347992,1,0,1:1:0:0:
320,192,347992,1,0,1:1:0:0:
192,192,348062,1,0,1:1:0:0:
64,192,348132,1,0,1:1:0:0:
448,192,348132,1,0,1:1:0:0:
192,192,348202,1,0,1:1:0:0:
320,192,348272,1,0,1:1:0:0:
448,192,348272,1,0,1:1:0:0:
64,192,348342,1,0,1:1:0:0:
192,192,348412,1,0,1:1:0:0:
448,192,348412,1,0,1:1:0:0:
320,192,348483,1,0,1:1:0:0:
64,192,348553,1,0,1:1:0:0:
192,192,348553,1,0,1:1:0:0:
320,192,348623,1,0,1:1:0:0:
448,192,348623,1,0,1:1:0:0:
64,192,348693,1,0,1:1:0:0:
192,192,348693,1,0,1:1:0:0:
448,192,348763,1,0,1:1:0:0:
64,192,348833,1,0,1:1:0:0:
192,192,348833,1,0,1:1:0:0:
320,192,348903,1,0,1:1:0:0:
192,192,348973,1,0,1:1:0:0:
448,192,348973,1,0,1:1:0:0:
320,192,349043,1,0,1:1:0:0:
64,192,349113,1,0,1:1:0:0:
192,192,349113,1,0,1:1:0:0:
320,192,349183,1,0,1:1:0:0:
64,192,349254,1,0,1:1:0:0:
448,192,349254,1,0,1:1:0:0:
192,192,349324,1,0,1:1:0:0:
320,192,349394,1,0,1:1:0:0:
448,192,349394,1,0,1:1:0:0:
64,192,349464,1,0,1:1:0:0:
192,192,349534,1,0,1:1:0:0:
448,192,349534,1,0,1:1:0:0:
64,192,349604,1,0,1:1:0:0:
192,192,349674,1,0,1:1:0:0:
320,192,349674,1,0,1:1:0:0:
448,192,349814,1,0,1:1:0:0:
64,192,349954,1,0,1:1:0:0:
192,192,350095,1,0,1:1:0:0:
320,192,350095,1,0,1:1:0:0:
64,192,350235,1,0,1:1:0:0:
448,192,350375,1,0,1:1:0:0:
320,192,350375,1,0,1:1:0:0:
192,192,350515,1,0,1:1:0:0:
320,192,350515,1,0,1:1:0:0:
64,192,350585,1,0,1:1:0:0:
448,192,350585,1,0,1:1:0:0:
192,192,350655,1,0,1:1:0:0:
320,192,350655,1,0,1:1:0:0:
64,192,350726,1,0,1:1:0:0:
448,192,350726,1,0,1:1:0:0:
192,192,350796,1,0,1:1:0:0:
320,192,350796,1,0,1:1:0:0:
64,192,350866,1,0,1:1:0:0:
320,192,350936,1,0,1:1:0:0:
448,192,350936,1,0,1:1:0:0:
64,192,351006,1,0,1:1:0:0:
192,192,351076,1,0,1:1:0:0:
448,192,351076,1,0,1:1:0:0:
320,192,351146,1,0,1:1:0:0:
64,192,351216,1,0,1:1:0:0:
320,192,351286,1,0,1:1:0:0:
64,192,351356,1,0,1:1:0:0:
192,192,351356,1,0,1:1:0:0:
448,192,351426,1,0,1:1:0:0:
64,192,351497,1,0,1:1:0:0:
448,192,351567,1,0,1:1:0:0:
64,192,351637,1,0,1:1:0:0:
320,192,351637,1,0,1:1:0:0:
448,192,351707,1,0,1:1:0:0:
192,192,351777,1,0,1:1:0:0:
448,192,351847,1,0,1:1:0:0:
64,192,351917,1,0,1:1:0:0:
192,192,351917,1,0,1:1:0:0:
320,192,351987,1,0,1:1:0:0:
64,192,352057,1,0,1:1:0:0:
320,192,352127,1,0,1:1:0:0:
192,192,352197,1,0,1:1:0:0:
448,192,352197,1,0,1:1:0:0:
64,192,352268,1,0,1:1:0:0:
448,192,352338,1,0,1:1:0:0:
64,192,352408,1,0,1:1:0:0:
192,192,352478,1,0,1:1:0:0:
448,192,352478,1,0,1:1:0:0:
64,192,352548,1,0,1:1:0:0:
320,192,352618,1,0,1:1:0:0:
64,192,352688,1,0,1:1:0:0:
192,192,352758,1,0,1:1:0:0:
448,192,352758,1,0,1:1:0:0:
64,192,352828,1,0,1:1:0:0:
320,192,352898,1,0,1:1:0:0:
64,192,352969,1,0,1:1:0:0:
320,192,353039,1,0,1:1:0:0:
448,192,353039,1,0,1:1:0:0:
64,192,353109,1,0,1:1:0:0:
192,192,353109,1,0,1:1:0:0:
320,192,353179,1,0,1:1:0:0:
448,192,353179,1,0,1:1:0:0:
192,192,353249,1,0,1:1:0:0:
64,192,353319,1,0,1:1:0:0:
448,192,353319,1,0,1:1:0:0:
320,192,353389,1,0,1:1:0:0:
64,192,353459,1,0,1:1:0:0:
320,192,353529,1,0,1:1:0:0:
64,192,353599,1,0,1:1:0:0:
192,192,353599,1,0,1:1:0:0:
448,192,353669,1,0,1:1:0:0:
192,192,353740,1,0,1:1:0:0:
448,192,353810,1,0,1:1:0:0:
64,192,353880,1,0,1:1:0:0:
320,192,353880,1,0,1:1:0:0:
192,192,353950,1,0,1:1:0:0:
320,192,354020,1,0,1:1:0:0:
448,192,354020,1,0,1:1:0:0:
192,192,354090,1,0,1:1:0:0:
64,192,354160,1,0,1:1:0:0:
448,192,354160,1,0,1:1:0:0:
320,192,354230,1,0,1:1:0:0:
448,192,354300,1,0,1:1:0:0:
64,192,354370,1,0,1:1:0:0:
320,192,354440,1,0,1:1:0:0:
448,192,354440,1,0,1:1:0:0:
192,192,354511,1,0,1:1:0:0:
448,192,354581,1,0,1:1:0:0:
192,192,354651,1,0,1:1:0:0:
64,192,354721,1,0,1:1:0:0:
320,192,354721,1,0,1:1:0:0:
448,192,354791,1,0,1:1:0:0:
192,192,354861,1,0,1:1:0:0:
320,192,354861,1,0,1:1:0:0:
64,192,354931,1,0,1:1:0:0:
192,192,355001,1,0,1:1:0:0:
448,192,355001,1,0,1:1:0:0:
320,192,355071,1,0,1:1:0:0:
192,192,355141,1,0,1:1:0:0:
448,192,355141,1,0,1:1:0:0:
64,192,355211,1,0,1:1:0:0:
320,192,355282,1,0,1:1:0:0:
448,192,355282,1,0,1:1:0:0:
192,192,355352,1,0,1:1:0:0:
320,192,355422,1,0,1:1:0:0:
448,192,355422,1,0,1:1:0:0:
192,192,355492,1,0,1:1:0:0:
64,192,355562,1,0,1:1:0:0:
448,192,355562,1,0,1:1:0:0:
320,192,355632,1,0,1:1:0:0:
64,192,355702,1,0,1:1:0:0:
448,192,355702,1,0,1:1:0:0:
192,192,355772,1,0,1:1:0:0:
64,192,355842,1,0,1:1:0:0:
320,192,355842,1,0,1:1:0:0:
448,192,355912,1,0,1:1:0:0:
320,192,355983,1,0,1:1:0:0:
448,192,356053,1,0,1:1:0:0:
64,192,356123,1,0,1:1:0:0:
192,192,356123,1,0,1:1:0:0:
320,192,356193,1,0,1:1:0:0:
448,192,356193,1,0,1:1:0:0:
64,192,356263,1,0,1:1:0:0:
192,192,356263,1,0,1:1:0:0:
320,192,356333,1,0,1:1:0:0:
64,192,356403,1,0,1:1:0:0:
448,192,356403,1,0,1:1:0:0:
192,192,356473,1,0,1:1:0:0:
64,192,356543,1,0,1:1:0:0:
192,192,356613,1,0,1:1:0:0:
64,192,356683,1,0,1:1:0:0:
448,192,356683,1,0,1:1:0:0:
320,192,356754,1,0,1:1:0:0:
64,192,356824,1,0,1:1:0:0:
448,192,356824,1,0,1:1:0:0:
192,192,356894,1,0,1:1:0:0:
64,192,356964,1,0,1:1:0:0:
320,192,356964,1,0,1:1:0:0:
448,192,357034,1,0,1:1:0:0:
320,192,357104,1,0,1:1:0:0:
64,192,357174,1,0,1:1:0:0:
192,192,357174,1,0,1:1:0:0:
320,192,357244,1,0,1:1:0:0:
448,192,357244,1,0,1:1:0:0:
64,192,357314,1,0,1:1:0:0:
192,192,357314,1,0,1:1:0:0:
320,192,357384,1,0,1:1:0:0:
448,192,357384,1,0,1:1:0:0:
192,192,357454,1,0,1:1:0:0:
64,192,357525,1,0,1:1:0:0:
448,192,357525,1,0,1:1:0:0:
192,192,357595,1,0,1:1:0:0:
320,192,357595,1,0,1:1:0:0:
64,192,357665,1,0,1:1:0:0:
448,192,357665,1,0,1:1:0:0:
320,192,357735,1,0,1:1:0:0:
64,192,357805,1,0,1:1:0:0:
192,192,357805,1,0,1:1:0:0:
448,192,357875,1,0,1:1:0:0:
64,192,357945,1,0,1:1:0:0:
448,192,358015,1,0,1:1:0:0:
192,192,358085,1,0,1:1:0:0:
320,192,358085,1,0,1:1:0:0:
448,192,358155,1,0,1:1:0:0:
64,192,358226,1,0,1:1:0:0:
192,192,358226,1,0,1:1:0:0:
320,192,358296,1,0,1:1:0:0:
64,192,358366,1,0,1:1:0:0:
448,192,358366,1,0,1:1:0:0:
192,192,358436,1,0,1:1:0:0:
64,192,358506,1,0,1:1:0:0:
192,192,358576,1,0,1:1:0:0:
320,192,358646,1,0,1:1:0:0:
448,192,358646,1,0,1:1:0:0:
64,192,358716,1,0,1:1:0:0:
448,192,358786,1,0,1:1:0:0:
64,192,358856,1,0,1:1:0:0:
192,192,358856,1,0,1:1:0:0:
320,192,358926,1,0,1:1:0:0:
448,192,358926,1,0,1:1:0:0:
64,192,358997,1,0,1:1:0:0:
192,192,359067,1,0,1:1:0:0:
320,192,359067,1,0,1:1:0:0:
448,192,359137,1,0,1:1:0:0:
64,192,359207,1,0,1:1:0:0:
192,192,359207,1,0,1:1:0:0:
320,192,359207,1,0,1:1:0:0:
448,192,359277,1,0,1:1:0:0:
64,192,359347,1,0,1:1:0:0:
192,192,359347,1,0,1:1:0:0:
320,192,359417,1,0,1:1:0:0:
64,192,359487,1,0,1:1:0:0:
448,192,359487,1,0,1:1:0:0:
320,192,359557,1,0,1:1:0:0:
64,192,359627,1,0,1:1:0:0:
192,192,359627,1,0,1:1:0:0:
320,192,359697,1,0,1:1:0:0:
192,192,359768,1,0,1:1:0:0:
448,192,359768,1,0,1:1:0:0:
64,192,359838,1,0,1:1:0:0:
192,192,359908,1,0,1:1:0:0:
448,192,359908,1,0,1:1:0:0:
64,192,359978,1,0,1:1:0:0:
448,192,360048,1,0,1:1:0:0:
320,192,360048,1,0,1:1:0:0:
192,192,360118,1,0,1:1:0:0:
64,192,360188,1,0,1:1:0:0:
448,192,360188,1,0,1:1:0:0:
192,192,360258,1,0,1:1:0:0:
64,192,360328,1,0,1:1:0:0:
448,192,360328,1,0,1:1:0:0:
320,192,360398,1,0,1:1:0:0:
448,192,360469,1,0,1:1:0:0:
320,192,360539,1,0,1:1:0:0:
64,192,360609,1,0,1:1:0:0:
192,192,360609,1,0,1:1:0:0:
320,192,360679,1,0,1:1:0:0:
448,192,360749,1,0,1:1:0:0:
192,192,360819,1,0,1:1:0:0:
64,192,360889,1,0,1:1:0:0:
320,192,360889,1,0,1:1:0:0:
192,192,360959,1,0,1:1:0:0:
64,192,361029,1,0,1:1:0:0:
192,192,361099,1,0,1:1:0:0:
320,192,361169,1,0,1:1:0:0:
448,192,361169,1,0,1:1:0:0:
64,192,361240,1,0,1:1:0:0:
192,192,361310,1,0,1:1:0:0:
448,192,361310,1,0,1:1:0:0:
320,192,361380,1,0,1:1:0:0:
64,192,361450,1,0,1:1:0:0:
192,192,361450,1,0,1:1:0:0:
448,192,361520,1,0,1:1:0:0:
64,192,361590,1,0,1:1:0:0:
448,192,361660,1,0,1:1:0:0:
64,192,361730,1,0,1:1:0:0:
320,192,361730,1,0,1:1:0:0:
448,192,361800,1,0,1:1:0:0:
192,192,361870,1,0,1:1:0:0:
64,192,361940,1,0,1:1:0:0:
320,192,361940,1,0,1:1:0:0:
192,192,362011,1,0,1:1:0:0:
448,192,362011,1,0,1:1:0:0:
64,192,362081,1,0,1:1:0:0:
320,192,362151,1,0,1:1:0:0:
448,192,362151,1,0,1:1:0:0:
192,192,362221,1,0,1:1:0:0:
320,192,362291,1,0,1:1:0:0:
448,192,362291,1,0,1:1:0:0:
192,192,362361,1,0,1:1:0:0:
64,192,362431,1,0,1:1:0:0:
320,192,362431,1,0,1:1:0:0:
448,192,362501,1,0,1:1:0:0:
320,192,362571,1,0,1:1:0:0:
448,192,362641,1,0,1:1:0:0:
192,192,362711,1,0,1:1:0:0:
320,192,362711,1,0,1:1:0:0:
64,192,362782,1,0,1:1:0:0:
192,192,362852,1,0,1:1:0:0:
448,192,362852,1,0,1:1:0:0:
320,192,362922,1,0,1:1:0:0:
64,192,362992,1,0,1:1:0:0:
192,192,362992,1,0,1:1:0:0:
320,192,363062,1,0,1:1:0:0:
64,192,363132,1,0,1:1:0:0:
448,192,363132,1,0,1:1:0:0:
192,192,363202,1,0,1:1:0:0:
64,192,363272,1,0,1:1:0:0:
192,192,363342,1,0,1:1:0:0:
320,192,363412,1,0,1:1:0:0:
448,192,363412,1,0,1:1:0:0:
64,192,363483,1,0,1:1:0:0:
320,192,363553,1,0,1:1:0:0:
448,192,363553,1,0,1:1:0:0:
192,192,363623,1,0,1:1:0:0:
64,192,363693,1,0,1:1:0:0:
448,192,363693,1,0,1:1:0:0:
320,192,363763,1,0,1:1:0:0:
192,192,363833,1,0,1:1:0:0:
448,192,363833,1,0,1:1:0:0:
64,192,363903,1,0,1:1:0:0:
192,192,363973,1,0,1:1:0:0:
320,192,363973,1,0,1:1:0:0:
64,192,364043,1,0,1:1:0:0:
192,192,364113,1,0,1:1:0:0:
64,192,364183,1,0,1:1:0:0:
320,192,364254,1,0,1:1:0:0:
448,192,364254,1,0,1:1:0:0:
192,192,364324,1,0,1:1:0:0:
320,192,364394,1,0,1:1:0:0:
448,192,364394,1,0,1:1:0:0:
192,192,364464,1,0,1:1:0:0:
64,192,364534,1,0,1:1:0:0:
448,192,364534,1,0,1:1:0:0:
192,192,364604,1,0,1:1:0:0:
320,192,364604,1,0,1:1:0:0:
64,192,364674,1,0,1:1:0:0:
448,192,364674,1,0,1:1:0:0:
320,192,364744,1,0,1:1:0:0:
192,192,364814,1,0,1:1:0:0:
448,192,364814,1,0,1:1:0:0:
64,192,364884,1,0,1:1:0:0:
192,192,364954,1,0,1:1:0:0:
64,192,365025,1,0,1:1:0:0:
192,192,365095,1,0,1:1:0:0:
320,192,365095,1,0,1:1:0:0:
448,192,365165,1,0,1:1:0:0:
64,192,365235,1,0,1:1:0:0:
192,192,365235,1,0,1:1:0:0:
320,192,365305,1,0,1:1:0:0:
64,192,365375,1,0,1:1:0:0:
448,192,365375,1,0,1:1:0:0:
320,192,365445,1,0,1:1:0:0:
448,192,365515,1,0,1:1:0:0:
320,192,365585,1,0,1:1:0:0:
64,192,365655,1,0,1:1:0:0:
448,192,365655,1,0,1:1:0:0:
192,192,365726,1,0,1:1:0:0:
64,192,365796,1,0,1:1:0:0:
448,192,365796,1,0,1:1:0:0:
320,192,365866,1,0,1:1:0:0:
64,192,365936,1,0,1:1:0:0:
192,192,365936,1,0,1:1:0:0:
448,192,366006,1,0,1:1:0:0:
64,192,366076,1,0,1:1:0:0:
448,192,366146,1,0,1:1:0:0:
192,192,366216,1,0,1:1:0:0:
320,192,366216,1,0,1:1:0:0:
64,192,366286,1,0,1:1:0:0:
448,192,366356,1,0,1:1:0:0:
64,192,366426,1,0,1:1:0:0:
320,192,366497,1,0,1:1:0:0:
448,192,366497,1,0,1:1:0:0:
64,192,366567,1,0,1:1:0:0:
192,192,366567,1,0,1:1:0:0:
320,192,366637,1,0,1:1:0:0:
448,192,366637,1,0,1:1:0:0:
192,192,366707,1,0,1:1:0:0:
64,192,366777,1,0,1:1:0:0:
448,192,366777,1,0,1:1:0:0:
320,192,366847,1,0,1:1:0:0:
448,192,366917,1,0,1:1:0:0:
320,192,366987,1,0,1:1:0:0:
448,192,367057,1,0,1:1:0:0:
192,192,367127,1,0,1:1:0:0:
448,192,367197,1,0,1:1:0:0:
64,192,367197,1,0,1:1:0:0:
320,192,367268,1,0,1:1:0:0:
192,192,367338,1,0,1:1:0:0:
320,192,367408,1,0,1:1:0:0:
192,192,367478,1,0,1:1:0:0:
320,192,367548,1,0,1:1:0:0:
192,192,367618,1,0,1:1:0:0:
64,192,367758,1,0,1:1:0:0:
192,192,367828,1,0,1:1:0:0:
448,192,367969,1,0,1:1:0:0:
320,192,368039,1,0,1:1:0:0:
64,192,368179,1,0,1:1:0:0:
192,192,368249,1,0,1:1:0:0:
448,192,368389,1,0,1:1:0:0:
320,192,368459,1,0,1:1:0:0:
64,192,368599,1,0,1:1:0:0:
192,192,368599,1,0,1:1:0:0:
64,192,368740,1,0,1:1:0:0:
192,192,368740,1,0,1:1:0:0:
448,192,368810,1,0,1:1:0:0:
320,192,368880,1,0,1:1:0:0:
64,192,368950,1,0,1:1:0:0:
192,192,369020,1,0,1:1:0:0:
448,192,369020,1,0,1:1:0:0:
320,192,369090,1,0,1:1:0:0:
64,192,369160,1,0,1:1:0:0:
448,192,369230,1,0,1:1:0:0:
192,192,369300,1,0,1:1:0:0:
320,192,369300,1,0,1:1:0:0:
64,192,369370,1,0,1:1:0:0:
448,192,369440,1,0,1:1:0:0:
192,192,369511,1,0,1:1:0:0:
64,192,369581,1,0,1:1:0:0:
320,192,369581,1,0,1:1:0:0:
448,192,369651,1,0,1:1:0:0:
64,192,369721,1,0,1:1:0:0:
320,192,369791,1,0,1:1:0:0:
64,192,369861,1,0,1:1:0:0:
192,192,369861,1,0,1:1:0:0:
448,192,369931,1,0,1:1:0:0:
64,192,370001,1,0,1:1:0:0:
320,192,370071,1,0,1:1:0:0:
192,192,370141,1,0,1:1:0:0:
448,192,370141,1,0,1:1:0:0:
64,192,370211,1,0,1:1:0:0:
320,192,370282,1,0,1:1:0:0:
448,192,370282,1,0,1:1:0:0:
64,192,370352,1,0,1:1:0:0:
192,192,370352,1,0,1:1:0:0:
448,192,370422,1,0,1:1:0:0:
192,192,370492,1,0,1:1:0:0:
320,192,370562,1,0,1:1:0:0:
64,192,370632,1,0,1:1:0:0:
320,192,370702,1,0,1:1:0:0:
448,192,370702,1,0,1:1:0:0:
192,192,370749,1,0,1:1:0:0:
64,192,370796,1,0,1:1:0:0:
320,192,370842,1,0,1:1:0:0:
192,192,370889,1,0,1:1:0:0:
64,192,370983,1,0,1:1:0:0:
448,192,370983,1,0,1:1:0:0:
192,192,371053,1,0,1:1:0:0:
320,192,371053,1,0,1:1:0:0:
64,192,371123,1,0,1:1:0:0:
448,192,371123,1,0,1:1:0:0:
192,192,371193,1,0,1:1:0:0:
320,192,371193,1,0,1:1:0:0:
64,192,371263,1,0,1:1:0:0:
320,192,371333,1,0,1:1:0:0:
64,192,371403,1,0,1:1:0:0:
320,192,371473,1,0,1:1:0:0:
192,192,371543,1,0,1:1:0:0:
448,192,371543,1,0,1:1:0:0:
64,192,371613,1,0,1:1:0:0:
448,192,371683,1,0,1:1:0:0:
192,192,371754,1,0,1:1:0:0:
64,192,371824,1,0,1:1:0:0:
320,192,371824,1,0,1:1:0:0:
192,192,371894,1,0,1:1:0:0:
448,192,371894,1,0,1:1:0:0:
64,192,371964,1,0,1:1:0:0:
320,192,371964,1,0,1:1:0:0:
192,192,372034,1,0,1:1:0:0:
320,192,372104,1,0,1:1:0:0:
448,192,372104,1,0,1:1:0:0:
64,192,372174,1,0,1:1:0:0:
448,192,372244,1,0,1:1:0:0:
64,192,372314,1,0,1:1:0:0:
320,192,372384,1,0,1:1:0:0:
448,192,372384,1,0,1:1:0:0:
192,192,372454,1,0,1:1:0:0:
448,192,372525,1,0,1:1:0:0:
192,192,372595,1,0,1:1:0:0:
64,192,372665,1,0,1:1:0:0:
320,192,372665,1,0,1:1:0:0:
448,192,372735,1,0,1:1:0:0:
320,192,372805,1,0,1:1:0:0:
448,192,372875,1,0,1:1:0:0:
64,192,372945,1,0,1:1:0:0:
320,192,372945,1,0,1:1:0:0:
192,192,373015,1,0,1:1:0:0:
64,192,373085,1,0,1:1:0:0:
192,192,373155,1,0,1:1:0:0:
320,192,373226,1,0,1:1:0:0:
448,192,373226,1,0,1:1:0:0:
64,192,373296,1,0,1:1:0:0:
320,192,373366,1,0,1:1:0:0:
192,192,373436,1,0,1:1:0:0:
64,192,373506,1,0,1:1:0:0:
448,192,373506,1,0,1:1:0:0:
320,192,373576,1,0,1:1:0:0:
64,192,373646,1,0,1:1:0:0:
448,192,373716,1,0,1:1:0:0:
64,192,373786,1,0,1:1:0:0:
192,192,373786,1,0,1:1:0:0:
320,192,373856,1,0,1:1:0:0:
192,192,373926,1,0,1:1:0:0:
448,192,373997,1,0,1:1:0:0:
64,192,374067,1,0,1:1:0:0:
192,192,374067,1,0,1:1:0:0:
448,192,374137,1,0,1:1:0:0:
64,192,374207,1,0,1:1:0:0:
320,192,374277,1,0,1:1:0:0:
64,192,374347,1,0,1:1:0:0:
192,192,374347,1,0,1:1:0:0:
320,192,374417,1,0,1:1:0:0:
448,192,374417,1,0,1:1:0:0:
192,192,374487,1,0,1:1:0:0:
64,192,374557,1,0,1:1:0:0:
320,192,374627,1,0,1:1:0:0:
448,192,374697,1,0,1:1:0:0:
64,192,374768,1,0,1:1:0:0:
320,192,374838,1,0,1:1:0:0:
192,192,374908,1,0,1:1:0:0:
448,192,374908,1,0,1:1:0:0:
320,192,374978,1,0,1:1:0:0:
448,192,375048,1,0,1:1:0:0:
320,192,375118,1,0,1:1:0:0:
64,192,375188,1,0,1:1:0:0:
448,192,375188,1,0,1:1:0:0:
192,192,375258,1,0,1:1:0:0:
64,192,375328,1,0,1:1:0:0:
192,192,375398,1,0,1:1:0:0:
320,192,375469,1,0,1:1:0:0:
448,192,375469,1,0,1:1:0:0:
64,192,375539,1,0,1:1:0:0:
192,192,375609,1,0,1:1:0:0:
448,192,375609,1,0,1:1:0:0:
64,192,375679,1,0,1:1:0:0:
320,192,375749,1,0,1:1:0:0:
448,192,375749,1,0,1:1:0:0:
64,192,375819,1,0,1:1:0:0:
192,192,375889,1,0,1:1:0:0:
448,192,375889,1,0,1:1:0:0:
64,192,375959,1,0,1:1:0:0:
320,192,376029,1,0,1:1:0:0:
448,192,376029,1,0,1:1:0:0:
64,192,376099,1,0,1:1:0:0:
192,192,376169,1,0,1:1:0:0:
448,192,376169,1,0,1:1:0:0:
64,192,376240,1,0,1:1:0:0:
320,192,376310,1,0,1:1:0:0:
448,192,376310,1,0,1:1:0:0:
64,192,376380,1,0,1:1:0:0:
192,192,376450,1,0,1:1:0:0:
448,192,376450,1,0,1:1:0:0:
64,192,376520,1,0,1:1:0:0:
192,192,376590,1,0,1:1:0:0:
448,192,376590,1,0,1:1:0:0:
320,192,376660,1,0,1:1:0:0:
192,192,376730,1,0,1:1:0:0:
448,192,376730,1,0,1:1:0:0:
320,192,376800,1,0,1:1:0:0:
64,192,376870,1,0,1:1:0:0:
192,192,376905,1,0,1:1:0:0:
448,192,376940,1,0,1:1:0:0:
320,192,376976,1,0,1:1:0:0:
64,192,377011,1,0,1:1:0:0:
192,192,377046,1,0,1:1:0:0:
448,192,377081,1,0,1:1:0:0:
320,192,377116,1,0,1:1:0:0:
64,192,377151,1,0,1:1:0:0:
192,192,377151,1,0,1:1:0:0:
448,192,377221,1,0,1:1:0:0:
64,192,377291,1,0,1:1:0:0:
320,192,377291,1,0,1:1:0:0:
448,192,377361,1,0,1:1:0:0:
64,192,377431,1,0,1:1:0:0:
192,192,377466,1,0,1:1:0:0:
448,192,377501,1,0,1:1:0:0:
320,192,377536,1,0,1:1:0:0:
64,192,377571,1,0,1:1:0:0:
192,192,377606,1,0,1:1:0:0:
448,192,377641,1,0,1:1:0:0:
64,192,377711,1,0,1:1:0:0:
192,192,377711,1,0,1:1:0:0:
320,192,377782,1,0,1:1:0:0:
64,192,377852,1,0,1:1:0:0:
448,192,377852,1,0,1:1:0:0:
320,192,377922,1,0,1:1:0:0:
64,192,377992,1,0,1:1:0:0:
192,192,377992,1,0,1:1:0:0:
448,192,378062,1,0,1:1:0:0:
64,192,378132,1,0,1:1:0:0:
192,192,378132,1,0,1:1:0:0:
320,192,378202,1,0,1:1:0:0:
192,192,378272,1,0,1:1:0:0:
448,192,378272,1,0,1:1:0:0:
64,192,378342,1,0,1:1:0:0:
320,192,378412,1,0,1:1:0:0:
448,192,378412,1,0,1:1:0:0:
64,192,378483,1,0,1:1:0:0:
192,192,378553,1,0,1:1:0:0:
448,192,378553,1,0,1:1:0:0:
320,192,378623,1,0,1:1:0:0:
64,192,378693,1,0,1:1:0:0:
192,192,378693,1,0,1:1:0:0:
448,192,378763,1,0,1:1:0:0:
64,192,378833,1,0,1:1:0:0:
320,192,378833,1,0,1:1:0:0:
192,192,378903,1,0,1:1:0:0:
448,192,378973,1,0,1:1:0:0:
64,192,378973,1,0,1:1:0:0:
320,192,379043,1,0,1:1:0:0:
64,192,379113,1,0,1:1:0:0:
192,192,379113,1,0,1:1:0:0:
320,192,379183,1,0,1:1:0:0:
448,192,379254,1,0,1:1:0:0:
192,192,379254,1,0,1:1:0:0:
320,192,379324,1,0,1:1:0:0:
64,192,379324,1,0,1:1:0:0:
448,192,379394,1,0,1:1:0:0:
192,192,379394,1,0,1:1:0:0:
64,192,379464,1,0,1:1:0:0:
320,192,379534,1,0,1:1:0:0:
448,192,379534,1,0,1:1:0:0:
64,192,379604,1,0,1:1:0:0:
192,192,379604,1,0,1:1:0:0:
320,192,379674,1,0,1:1:0:0:
448,192,379674,1,0,1:1:0:0:
64,192,379721,1,0,1:1:0:0:
192,192,379768,1,0,1:1:0:0:
448,192,379814,1,0,1:1:0:0:
320,192,379861,1,0,1:1:0:0:
64,192,379954,1,0,1:1:0:0:
448,192,379954,1,0,1:1:0:0:
192,192,380025,1,0,1:1:0:0:
320,192,380025,1,0,1:1:0:0:
64,192,380095,1,0,1:1:0:0:
448,192,380095,1,0,1:1:0:0:
192,192,380165,1,0,1:1:0:0:
320,192,380165,1,0,1:1:0:0:
64,192,380235,1,0,1:1:0:0:
448,192,380305,1,0,1:1:0:0:
64,192,380375,1,0,1:1:0:0:
320,192,380375,1,0,1:1:0:0:
448,192,380445,1,0,1:1:0:0:
64,192,380515,1,0,1:1:0:0:
192,192,380515,1,0,1:1:0:0:
320,192,380585,1,0,1:1:0:0:
64,192,380655,1,0,1:1:0:0:
448,192,380655,1,0,1:1:0:0:
320,192,380726,1,0,1:1:0:0:
192,192,380796,1,0,1:1:0:0:
448,192,380796,1,0,1:1:0:0:
64,192,380866,1,0,1:1:0:0:
320,192,380866,1,0,1:1:0:0:
192,192,380936,1,0,1:1:0:0:
448,192,380936,1,0,1:1:0:0:
64,192,381006,1,0,1:1:0:0:
320,192,381076,1,0,1:1:0:0:
448,192,381076,1,0,1:1:0:0:
64,192,381146,1,0,1:1:0:0:
192,192,381146,1,0,1:1:0:0:
320,192,381216,1,0,1:1:0:0:
448,192,381216,1,0,1:1:0:0:
64,192,381286,1,0,1:1:0:0:
192,192,381286,1,0,1:1:0:0:
448,192,381356,1,0,1:1:0:0:
320,192,381391,1,0,1:1:0:0:
64,192,381426,1,0,1:1:0:0:
192,192,381461,1,0,1:1:0:0:
448,192,381497,1,0,1:1:0:0:
320,192,381532,1,0,1:1:0:0:
64,192,381567,1,0,1:1:0:0:
192,192,381602,1,0,1:1:0:0:
320,192,381637,1,0,1:1:0:0:
448,192,381637,1,0,1:1:0:0:
64,192,381707,1,0,1:1:0:0:
192,192,381707,1,0,1:1:0:0:
320,192,381777,1,0,1:1:0:0:
448,192,381777,1,0,1:1:0:0:
64,192,381847,1,0,1:1:0:0:
192,192,381847,1,0,1:1:0:0:
320,192,381917,128,0,382197:1:1:0:0:
192,192,382057,128,0,382197:1:1:0:0:
64,192,382197,1,0,1:1:0:0:
448,192,382197,1,0,1:1:0:0:
320,192,382268,1,0,1:1:0:0:
64,192,382338,1,0,1:1:0:0:
192,192,382338,1,0,1:1:0:0:
448,192,382408,1,0,1:1:0:0:
64,192,382478,1,0,1:1:0:0:
320,192,382478,1,0,1:1:0:0:
192,192,382548,1,0,1:1:0:0:
64,192,382618,1,0,1:1:0:0:
320,192,382688,1,0,1:1:0:0:
64,192,382758,1,0,1:1:0:0:
192,192,382758,1,0,1:1:0:0:
448,192,382828,1,0,1:1:0:0:
64,192,382898,1,0,1:1:0:0:
320,192,382898,1,0,1:1:0:0:
448,192,382969,1,0,1:1:0:0:
64,192,383039,1,0,1:1:0:0:
192,192,383039,1,0,1:1:0:0:
320,192,383109,1,0,1:1:0:0:
64,192,383179,1,0,1:1:0:0:
448,192,383179,1,0,1:1:0:0:
192,192,383249,1,0,1:1:0:0:
320,192,383319,1,0,1:1:0:0:
448,192,383319,1,0,1:1:0:0:
64,192,383389,1,0,1:1:0:0:
192,192,383459,1,0,1:1:0:0:
448,192,383459,1,0,1:1:0:0:
64,192,383529,1,0,1:1:0:0:
320,192,383599,1,0,1:1:0:0:
448,192,383599,1,0,1:1:0:0:
192,192,383669,1,0,1:1:0:0:
320,192,383740,1,0,1:1:0:0:
448,192,383740,1,0,1:1:0:0:
64,192,383810,1,0,1:1:0:0:
192,192,383810,1,0,1:1:0:0:
320,192,383880,1,0,1:1:0:0:
448,192,383880,1,0,1:1:0:0:
64,192,383950,1,0,1:1:0:0:
192,192,384020,1,0,1:1:0:0:
448,192,384020,1,0,1:1:0:0:
64,192,384090,1,0,1:1:0:0:
320,192,384160,1,0,1:1:0:0:
448,192,384160,1,0,1:1:0:0:
192,192,384207,1,0,1:1:0:0:
64,192,384254,1,0,1:1:0:0:
320,192,384300,1,0,1:1:0:0:
448,192,384347,1,0,1:1:0:0:
64,192,384440,1,0,1:1:0:0:
192,192,384440,1,0,1:1:0:0:
320,192,384511,1,0,1:1:0:0:
448,192,384511,1,0,1:1:0:0:
64,192,384581,1,0,1:1:0:0:
192,192,384581,1,0,1:1:0:0:
320,192,384651,1,0,1:1:0:0:
448,192,384651,1,0,1:1:0:0:
64,192,384721,1,0,1:1:0:0:
192,192,384721,1,0,1:1:0:0:
448,192,384791,1,0,1:1:0:0:
64,192,384861,1,0,1:1:0:0:
320,192,384861,1,0,1:1:0:0:
448,192,384931,1,0,1:1:0:0:
64,192,385001,1,0,1:1:0:0:
192,192,385001,1,0,1:1:0:0:
320,192,385071,1,0,1:1:0:0:
192,192,385141,1,0,1:1:0:0:
448,192,385141,1,0,1:1:0:0:
64,192,385211,1,0,1:1:0:0:
320,192,385211,1,0,1:1:0:0:
192,192,385282,1,0,1:1:0:0:
448,192,385282,1,0,1:1:0:0:
64,192,385352,1,0,1:1:0:0:
320,192,385422,1,0,1:1:0:0:
448,192,385422,1,0,1:1:0:0:
192,192,385492,1,0,1:1:0:0:
64,192,385562,1,0,1:1:0:0:
320,192,385562,1,0,1:1:0:0:
448,192,385562,1,0,1:1:0:0:
192,192,385632,1,0,1:1:0:0:
64,192,385702,1,0,1:1:0:0:
448,192,385702,1,0,1:1:0:0:
320,192,385772,1,0,1:1:0:0:
64,192,385842,1,0,1:1:0:0:
192,192,385842,1,0,1:1:0:0:
320,192,385912,1,0,1:1:0:0:
64,192,385983,1,0,1:1:0:0:
192,192,385983,1,0,1:1:0:0:
448,192,385983,1,0,1:1:0:0:
320,192,386053,1,0,1:1:0:0:
64,192,386123,1,0,1:1:0:0:
448,192,386123,1,0,1:1:0:0:
192,192,386193,1,0,1:1:0:0:
64,192,386263,1,0,1:1:0:0:
320,192,386263,1,0,1:1:0:0:
192,192,386333,1,0,1:1:0:0:
64,192,386403,1,0,1:1:0:0:
448,192,386403,1,0,1:1:0:0:
320,192,386473,1,0,1:1:0:0:
192,192,386543,1,0,1:1:0:0:
448,192,386543,1,0,1:1:0:0:
320,192,386613,1,0,1:1:0:0:
64,192,386683,1,0,1:1:0:0:
192,192,386683,1,0,1:1:0:0:
448,192,386754,1,0,1:1:0:0:
64,192,386824,1,0,1:1:0:0:
320,192,386824,1,0,1:1:0:0:
192,192,386894,1,0,1:1:0:0:
320,192,386964,1,0,1:1:0:0:
448,192,386964,1,0,1:1:0:0:
64,192,387034,1,0,1:1:0:0:
192,192,387104,1,0,1:1:0:0:
448,192,387104,1,0,1:1:0:0:
320,192,387174,1,0,1:1:0:0:
64,192,387244,1,0,1:1:0:0:
448,192,387244,1,0,1:1:0:0:
320,192,387314,1,0,1:1:0:0:
64,192,387384,1,0,1:1:0:0:
192,192,387384,1,0,1:1:0:0:
320,192,387454,1,0,1:1:0:0:
448,192,387454,1,0,1:1:0:0:
64,192,387525,1,0,1:1:0:0:
192,192,387525,1,0,1:1:0:0:
448,192,387595,1,0,1:1:0:0:
192,192,387665,1,0,1:1:0:0:
64,192,387735,1,0,1:1:0:0:
320,192,387735,1,0,1:1:0:0:
192,192,387805,1,0,1:1:0:0:
448,192,387805,1,0,1:1:0:0:
320,192,387875,1,0,1:1:0:0:
64,192,387945,1,0,1:1:0:0:
448,192,387945,1,0,1:1:0:0:
320,192,388015,1,0,1:1:0:0:
192,192,388085,1,0,1:1:0:0:
448,192,388085,1,0,1:1:0:0:
64,192,388155,1,0,1:1:0:0:
192,192,388226,1,0,1:1:0:0:
448,192,388226,1,0,1:1:0:0:
64,192,388296,1,0,1:1:0:0:
320,192,388296,1,0,1:1:0:0:
192,192,388366,1,0,1:1:0:0:
448,192,388366,1,0,1:1:0:0:
320,192,388436,1,0,1:1:0:0:
64,192,388506,1,0,1:1:0:0:
192,192,388506,1,0,1:1:0:0:
320,192,388576,1,0,1:1:0:0:
448,192,388576,1,0,1:1:0:0:
64,192,388646,1,0,1:1:0:0:
192,192,388646,1,0,1:1:0:0:
448,192,388716,1,0,1:1:0:0:
64,192,388786,1,0,1:1:0:0:
320,192,388786,1,0,1:1:0:0:
192,192,388856,1,0,1:1:0:0:
448,192,388856,1,0,1:1:0:0:
64,192,388926,1,0,1:1:0:0:
192,192,388997,1,0,1:1:0:0:
64,192,389067,1,0,1:1:0:0:
448,192,389067,1,0,1:1:0:0:
192,192,389137,1,0,1:1:0:0:
320,192,389207,1,0,1:1:0:0:
448,192,389207,1,0,1:1:0:0:
64,192,389277,1,0,1:1:0:0:
192,192,389277,1,0,1:1:0:0:
320,192,389347,1,0,1:1:0:0:
448,192,389347,1,0,1:1:0:0:
192,192,389417,1,0,1:1:0:0:
64,192,389487,1,0,1:1:0:0:
448,192,389487,1,0,1:1:0:0:
192,192,389557,1,0,1:1:0:0:
320,192,389557,1,0,1:1:0:0:
64,192,389627,1,0,1:1:0:0:
448,192,389627,1,0,1:1:0:0:
320,192,389697,1,0,1:1:0:0:
192,192,389768,1,0,1:1:0:0:
448,192,389768,1,0,1:1:0:0:
64,192,389838,1,0,1:1:0:0:
320,192,389838,1,0,1:1:0:0:
192,192,389908,1,0,1:1:0:0:
448,192,389908,1,0,1:1:0:0:
64,192,389978,1,0,1:1:0:0:
192,192,390048,1,0,1:1:0:0:
320,192,390048,1,0,1:1:0:0:
64,192,390118,1,0,1:1:0:0:
448,192,390118,1,0,1:1:0:0:
192,192,390188,1,0,1:1:0:0:
320,192,390188,1,0,1:1:0:0:
448,192,390258,1,0,1:1:0:0:
64,192,390328,1,0,1:1:0:0:
192,192,390328,1,0,1:1:0:0:
320,192,390398,1,0,1:1:0:0:
192,192,390469,1,0,1:1:0:0:
448,192,390469,1,0,1:1:0:0:
64,192,390539,1,0,1:1:0:0:
192,192,390609,1,0,1:1:0:0:
448,192,390609,1,0,1:1:0:0:
320,192,390679,1,0,1:1:0:0:
64,192,390679,1,0,1:1:0:0:
192,192,390749,1,0,1:1:0:0:
448,192,390749,1,0,1:1:0:0:
320,192,390819,1,0,1:1:0:0:
448,192,390889,1,0,1:1:0:0:
64,192,390889,1,0,1:1:0:0:
192,192,390959,1,0,1:1:0:0:
320,192,390959,1,0,1:1:0:0:
448,192,391029,1,0,1:1:0:0:
64,192,391029,1,0,1:1:0:0:
320,192,391099,1,0,1:1:0:0:
64,192,391169,1,0,1:1:0:0:
192,192,391169,1,0,1:1:0:0:
320,192,391240,1,0,1:1:0:0:
192,192,391310,1,0,1:1:0:0:
448,192,391310,1,0,1:1:0:0:
64,192,391380,1,0,1:1:0:0:
192,192,391450,1,0,1:1:0:0:
320,192,391450,1,0,1:1:0:0:
64,192,391520,1,0,1:1:0:0:
448,192,391590,1,0,1:1:0:0:
320,192,391590,1,0,1:1:0:0:
192,192,391660,1,0,1:1:0:0:
64,192,391730,1,0,1:1:0:0:
448,192,391730,1,0,1:1:0:0:
320,192,391800,1,0,1:1:0:0:
192,192,391870,1,0,1:1:0:0:
448,192,391870,1,0,1:1:0:0:
320,192,391940,1,0,1:1:0:0:
448,192,392011,1,0,1:1:0:0:
64,192,392011,1,0,1:1:0:0:
192,192,392081,1,0,1:1:0:0:
320,192,392081,1,0,1:1:0:0:
448,192,392151,1,0,1:1:0:0:
64,192,392151,1,0,1:1:0:0:
192,192,392221,1,0,1:1:0:0:
320,192,392291,1,0,1:1:0:0:
448,192,392291,1,0,1:1:0:0:
192,192,392361,1,0,1:1:0:0:
64,192,392431,1,0,1:1:0:0:
320,192,392431,1,0,1:1:0:0:
192,192,392501,1,0,1:1:0:0:
448,192,392501,1,0,1:1:0:0:
64,192,392571,1,0,1:1:0:0:
320,192,392571,1,0,1:1:0:0:
448,192,392641,1,0,1:1:0:0:
64,192,392711,1,0,1:1:0:0:
192,192,392711,1,0,1:1:0:0:
448,192,392782,1,0,1:1:0:0:
64,192,392852,1,0,1:1:0:0:
320,192,392852,1,0,1:1:0:0:
192,192,392922,1,0,1:1:0:0:
64,192,392992,1,0,1:1:0:0:
448,192,392992,1,0,1:1:0:0:
192,192,393062,1,0,1:1:0:0:
320,192,393132,1,0,1:1:0:0:
448,192,393132,1,0,1:1:0:0:
64,192,393202,1,0,1:1:0:0:
192,192,393202,1,0,1:1:0:0:
320,192,393272,1,0,1:1:0:0:
448,192,393272,1,0,1:1:0:0:
192,192,393342,1,0,1:1:0:0:
64,192,393412,1,0,1:1:0:0:
448,192,393412,1,0,1:1:0:0:
192,192,393483,1,0,1:1:0:0:
320,192,393483,1,0,1:1:0:0:
64,192,393553,1,0,1:1:0:0:
448,192,393553,1,0,1:1:0:0:
320,192,393623,1,0,1:1:0:0:
192,192,393693,1,0,1:1:0:0:
448,192,393693,1,0,1:1:0:0:
64,192,393763,1,0,1:1:0:0:
192,192,393833,1,0,1:1:0:0:
320,192,393833,1,0,1:1:0:0:
64,192,393903,1,0,1:1:0:0:
448,192,393903,1,0,1:1:0:0:
192,192,393973,1,0,1:1:0:0:
320,192,393973,1,0,1:1:0:0:
448,192,394043,1,0,1:1:0:0:
64,192,394113,1,0,1:1:0:0:
192,192,394113,1,0,1:1:0:0:
320,192,394183,1,0,1:1:0:0:
448,192,394183,1,0,1:1:0:0:
64,192,394254,1,0,1:1:0:0:
192,192,394254,1,0,1:1:0:0:
320,192,394324,1,0,1:1:0:0:
64,192,394394,1,0,1:1:0:0:
192,192,394394,1,0,1:1:0:0:
448,192,394464,1,0,1:1:0:0:
64,192,394534,1,0,1:1:0:0:
320,192,394534,1,0,1:1:0:0:
192,192,394604,1,0,1:1:0:0:
64,192,394674,1,0,1:1:0:0:
448,192,394674,1,0,1:1:0:0:
192,192,394744,1,0,1:1:0:0:
64,192,394814,1,0,1:1:0:0:
448,192,394814,1,0,1:1:0:0:
320,192,394884,1,0,1:1:0:0:
192,192,394954,1,0,1:1:0:0:
448,192,394954,1,0,1:1:0:0:
320,192,395025,1,0,1:1:0:0:
64,192,395095,1,0,1:1:0:0:
192,192,395095,1,0,1:1:0:0:
320,192,395165,1,0,1:1:0:0:
448,192,395165,1,0,1:1:0:0:
64,192,395235,1,0,1:1:0:0:
192,192,395235,1,0,1:1:0:0:
320,192,395305,1,0,1:1:0:0:
64,192,395375,1,0,1:1:0:0:
192,192,395375,1,0,1:1:0:0:
320,192,395422,1,0,1:1:0:0:
448,192,395469,1,0,1:1:0:0:
192,192,395515,1,0,1:1:0:0:
320,192,395562,1,0,1:1:0:0:
64,192,395655,1,0,1:1:0:0:
192,192,395655,1,0,1:1:0:0:
320,192,395726,1,0,1:1:0:0:
448,192,395726,1,0,1:1:0:0:
64,192,395796,1,0,1:1:0:0:
192,192,395796,1,0,1:1:0:0:
320,192,395866,1,0,1:1:0:0:
448,192,395866,1,0,1:1:0:0:
192,192,395936,1,0,1:1:0:0:
448,192,396006,1,0,1:1:0:0:
64,192,396076,1,0,1:1:0:0:
320,192,396076,1,0,1:1:0:0:
192,192,396146,1,0,1:1:0:0:
64,192,396216,1,0,1:1:0:0:
448,192,396216,1,0,1:1:0:0:
320,192,396286,1,0,1:1:0:0:
192,192,396356,1,0,1:1:0:0:
448,192,396356,1,0,1:1:0:0:
64,192,396426,1,0,1:1:0:0:
320,192,396426,1,0,1:1:0:0:
192,192,396497,1,0,1:1:0:0:
448,192,396497,1,0,1:1:0:0:
64,192,396567,1,0,1:1:0:0:
320,192,396637,1,0,1:1:0:0:
448,192,396637,1,0,1:1:0:0:
64,192,396707,1,0,1:1:0:0:
320,192,396777,1,0,1:1:0:0:
448,192,396777,1,0,1:1:0:0:
192,192,396847,1,0,1:1:0:0:
64,192,396917,1,0,1:1:0:0:
448,192,396917,1,0,1:1:0:0:
192,192,396987,1,0,1:1:0:0:
320,192,397057,1,0,1:1:0:0:
448,192,397057,1,0,1:1:0:0:
64,192,397127,1,0,1:1:0:0:
192,192,397197,1,0,1:1:0:0:
448,192,397197,1,0,1:1:0:0:
320,192,397268,1,0,1:1:0:0:
64,192,397338,1,0,1:1:0:0:
448,192,397338,1,0,1:1:0:0:
192,192,397408,1,0,1:1:0:0:
64,192,397478,1,0,1:1:0:0:
320,192,397478,1,0,1:1:0:0:
192,192,397548,1,0,1:1:0:0:
64,192,397618,1,0,1:1:0:0:
448,192,397618,1,0,1:1:0:0:
320,192,397688,1,0,1:1:0:0:
192,192,397758,1,0,1:1:0:0:
448,192,397758,1,0,1:1:0:0:
320,192,397828,1,0,1:1:0:0:
64,192,397898,1,0,1:1:0:0:
192,192,397898,1,0,1:1:0:0:
448,192,397969,1,0,1:1:0:0:
64,192,398039,1,0,1:1:0:0:
320,192,398039,1,0,1:1:0:0:
192,192,398109,1,0,1:1:0:0:
320,192,398179,1,0,1:1:0:0:
448,192,398179,1,0,1:1:0:0:
64,192,398249,1,0,1:1:0:0:
320,192,398319,1,0,1:1:0:0:
448,192,398319,1,0,1:1:0:0:
64,192,398389,1,0,1:1:0:0:
192,192,398389,1,0,1:1:0:0:
320,192,398459,1,0,1:1:0:0:
448,192,398459,1,0,1:1:0:0:
64,192,398529,1,0,1:1:0:0:
192,192,398529,1,0,1:1:0:0:
320,192,398599,128,0,398740:1:1:0:0:
448,192,398599,128,0,398740:1:1:0:0:
192,192,398740,128,0,399020:1:1:0:0:
64,192,398880,128,0,399020:1:1:0:0:
320,192,399020,1,0,1:1:0:0:
448,192,399020,1,0,1:1:0:0:
192,192,399090,1,0,1:1:0:0:
64,192,399160,1,0,1:1:0:0:
448,192,399160,1,0,1:1:0:0:
320,192,399230,1,0,1:1:0:0:
192,192,399300,1,0,1:1:0:0:
448,192,399300,1,0,1:1:0:0:
320,192,399370,1,0,1:1:0:0:
64,192,399440,1,0,1:1:0:0:
448,192,399440,1,0,1:1:0:0:
192,192,399511,1,0,1:1:0:0:
64,192,399581,1,0,1:1:0:0:
320,192,399581,1,0,1:1:0:0:
192,192,399651,1,0,1:1:0:0:
64,192,399721,1,0,1:1:0:0:
320,192,399721,1,0,1:1:0:0:
448,192,399791,1,0,1:1:0:0:
64,192,399861,1,0,1:1:0:0:
192,192,399861,1,0,1:1:0:0:
320,192,399931,1,0,1:1:0:0:
448,192,399931,1,0,1:1:0:0:
64,192,400001,1,0,1:1:0:0:
192,192,400001,1,0,1:1:0:0:
448,192,400071,1,0,1:1:0:0:
64,192,400141,1,0,1:1:0:0:
320,192,400141,1,0,1:1:0:0:
192,192,400211,1,0,1:1:0:0:
320,192,400282,1,0,1:1:0:0:
448,192,400282,1,0,1:1:0:0:
64,192,400352,1,0,1:1:0:0:
192,192,400422,1,0,1:1:0:0:
448,192,400422,1,0,1:1:0:0:
320,192,400492,1,0,1:1:0:0:
64,192,400562,1,0,1:1:0:0:
192,192,400562,1,0,1:1:0:0:
448,192,400632,1,0,1:1:0:0:
64,192,400702,1,0,1:1:0:0:
320,192,400702,1,0,1:1:0:0:
192,192,400772,1,0,1:1:0:0:
64,192,400842,1,0,1:1:0:0:
448,192,400842,1,0,1:1:0:0:
192,192,400912,1,0,1:1:0:0:
320,192,400983,1,0,1:1:0:0:
448,192,400983,1,0,1:1:0:0:
64,192,401053,1,0,1:1:0:0:
192,192,401053,1,0,1:1:0:0:
320,192,401123,1,0,1:1:0:0:
448,192,401123,1,0,1:1:0:0:
64,192,401193,1,0,1:1:0:0:
192,192,401263,1,0,1:1:0:0:
448,192,401263,1,0,1:1:0:0:
320,192,401333,1,0,1:1:0:0:
64,192,401403,1,0,1:1:0:0:
448,192,401403,1,0,1:1:0:0:
320,192,401473,1,0,1:1:0:0:
192,192,401543,1,0,1:1:0:0:
448,192,401543,1,0,1:1:0:0:
64,192,401613,1,0,1:1:0:0:
192,192,401683,1,0,1:1:0:0:
320,192,401683,1,0,1:1:0:0:
64,192,401754,1,0,1:1:0:0:
192,192,401824,1,0,1:1:0:0:
448,192,401824,1,0,1:1:0:0:
320,192,401894,1,0,1:1:0:0:
64,192,401964,1,0,1:1:0:0:
192,192,401964,1,0,1:1:0:0:
448,192,402034,1,0,1:1:0:0:
64,192,402104,1,0,1:1:0:0:
192,192,402104,1,0,1:1:0:0:
448,192,402174,1,0,1:1:0:0:
64,192,402244,1,0,1:1:0:0:
320,192,402244,1,0,1:1:0:0:
192,192,402314,1,0,1:1:0:0:
64,192,402384,1,0,1:1:0:0:
448,192,402384,1,0,1:1:0:0:
320,192,402454,1,0,1:1:0:0:
64,192,402525,1,0,1:1:0:0:
448,192,402525,1,0,1:1:0:0:
192,192,402595,1,0,1:1:0:0:
64,192,402665,1,0,1:1:0:0:
320,192,402665,1,0,1:1:0:0:
448,192,402735,1,0,1:1:0:0:
64,192,402805,1,0,1:1:0:0:
192,192,402805,1,0,1:1:0:0:
320,192,402875,1,0,1:1:0:0:
448,192,402875,1,0,1:1:0:0:
64,192,402945,1,0,1:1:0:0:
192,192,402945,1,0,1:1:0:0:
320,192,403015,1,0,1:1:0:0:
448,192,403015,1,0,1:1:0:0:
192,192,403085,1,0,1:1:0:0:
320,192,403155,1,0,1:1:0:0:
64,192,403226,1,0,1:1:0:0:
448,192,403226,1,0,1:1:0:0:
192,192,403296,1,0,1:1:0:0:
64,192,403366,1,0,1:1:0:0:
448,192,403366,1,0,1:1:0:0:
320,192,403436,1,0,1:1:0:0:
64,192,403506,1,0,1:1:0:0:
192,192,403506,1,0,1:1:0:0:
320,192,403646,1,0,1:1:0:0:
192,192,403716,1,0,1:1:0:0:
64,192,403786,1,0,1:1:0:0:
320,192,403786,1,0,1:1:0:0:
192,192,403926,1,0,1:1:0:0:
448,192,403997,1,0,1:1:0:0:
64,192,404067,1,0,1:1:0:0:
320,192,404067,1,0,1:1:0:0:
320,192,404207,1,0,1:1:0:0:
192,192,404277,1,0,1:1:0:0:
64,192,404347,1,0,1:1:0:0:
320,192,404347,1,0,1:1:0:0:
448,192,404417,1,0,1:1:0:0:
64,192,404487,1,0,1:1:0:0:
448,192,404557,1,0,1:1:0:0:
64,192,404627,1,0,1:1:0:0:
192,192,404627,1,0,1:1:0:0:
320,192,404697,1,0,1:1:0:0:
192,192,404768,1,0,1:1:0:0:
320,192,404838,1,0,1:1:0:0:
192,192,404908,1,0,1:1:0:0:
448,192,404908,1,0,1:1:0:0:
320,192,404978,1,0,1:1:0:0:
192,192,405048,1,0,1:1:0:0:
320,192,405118,1,0,1:1:0:0:
192,192,405188,1,0,1:1:0:0:
320,192,405258,1,0,1:1:0:0:
64,192,405328,1,0,1:1:0:0:
192,192,405328,1,0,1:1:0:0:
320,192,405398,1,0,1:1:0:0:
192,192,405469,1,0,1:1:0:0:
448,192,405469,1,0,1:1:0:0:
320,192,405539,1,0,1:1:0:0:
192,192,405609,1,0,1:1:0:0:
320,192,405679,1,0,1:1:0:0:
64,192,405749,1,0,1:1:0:0:
192,192,405749,1,0,1:1:0:0:
320,192,405819,1,0,1:1:0:0:
192,192,405889,1,0,1:1:0:0:
320,192,405959,1,0,1:1:0:0:
192,192,406029,1,0,1:1:0:0:
448,192,406029,1,0,1:1:0:0:
320,192,406099,1,0,1:1:0:0:
192,192,406169,1,0,1:1:0:0:
320,192,406240,1,0,1:1:0:0:
448,192,406240,1,0,1:1:0:0:
192,192,406310,1,0,1:1:0:0:
64,192,406380,1,0,1:1:0:0:
320,192,406380,1,0,1:1:0:0:
192,192,406450,1,0,1:1:0:0:
448,192,406450,1,0,1:1:0:0:
320,192,406520,1,0,1:1:0:0:
64,192,406590,1,0,1:1:0:0:
192,192,406590,1,0,1:1:0:0:
320,192,406660,1,0,1:1:0:0:
192,192,406730,1,0,1:1:0:0:
320,192,406800,1,0,1:1:0:0:
64,192,406870,1,0,1:1:0:0:
448,192,406870,1,0,1:1:0:0:
192,192,406940,1,0,1:1:0:0:
448,192,407011,1,0,1:1:0:0:
64,192,407081,1,0,1:1:0:0:
320,192,407151,1,0,1:1:0:0:
448,192,407151,1,0,1:1:0:0:
192,192,407221,1,0,1:1:0:0:
64,192,407291,1,0,1:1:0:0:
448,192,407291,1,0,1:1:0:0:
192,192,407361,1,0,1:1:0:0:
64,192,407431,1,0,1:1:0:0:
448,192,407431,1,0,1:1:0:0:
320,192,407501,1,0,1:1:0:0:
64,192,407571,1,0,1:1:0:0:
192,192,407571,1,0,1:1:0:0:
320,192,407641,1,0,1:1:0:0:
64,192,407711,1,0,1:1:0:0:
448,192,407711,1,0,1:1:0:0:
192,192,407782,1,0,1:1:0:0:
320,192,407852,1,0,1:1:0:0:
64,192,407922,1,0,1:1:0:0:
320,192,407992,1,0,1:1:0:0:
448,192,407992,1,0,1:1:0:0:
192,192,408062,1,0,1:1:0:0:
448,192,408132,1,0,1:1:0:0:
64,192,408202,1,0,1:1:0:0:
192,192,408272,1,0,1:1:0:0:
448,192,408272,1,0,1:1:0:0:
320,192,408342,1,0,1:1:0:0:
64,192,408412,1,0,1:1:0:0:
192,192,408412,1,0,1:1:0:0:
320,192,408483,1,0,1:1:0:0:
448,192,408483,1,0,1:1:0:0:
64,192,408553,1,0,1:1:0:0:
192,192,408553,1,0,1:1:0:0:
320,192,408623,1,0,1:1:0:0:
448,192,408623,1,0,1:1:0:0:
64,192,408693,1,0,1:1:0:0:
192,192,408693,1,0,1:1:0:0:
448,192,408763,1,0,1:1:0:0:
64,192,408833,1,0,1:1:0:0:
192,192,408833,1,0,1:1:0:0:
320,192,408903,1,0,1:1:0:0:
448,192,408973,1,0,1:1:0:0:
192,192,409043,1,0,1:1:0:0:
64,192,409113,1,0,1:1:0:0:
320,192,409113,1,0,1:1:0:0:
448,192,409183,1,0,1:1:0:0:
64,192,409254,1,0,1:1:0:0:
448,192,409324,1,0,1:1:0:0:
64,192,409394,1,0,1:1:0:0:
192,192,409394,1,0,1:1:0:0:
320,192,409464,1,0,1:1:0:0:
192,192,409534,1,0,1:1:0:0:
320,192,409604,1,0,1:1:0:0:
64,192,409674,1,0,1:1:0:0:
448,192,409674,1,0,1:1:0:0:
192,192,409744,1,0,1:1:0:0:
64,192,409814,1,0,1:1:0:0:
448,192,409814,1,0,1:1:0:0:
320,192,409884,1,0,1:1:0:0:
192,192,409954,1,0,1:1:0:0:
448,192,409954,1,0,1:1:0:0:
320,192,410025,1,0,1:1:0:0:
64,192,410095,1,0,1:1:0:0:
448,192,410165,1,0,1:1:0:0:
64,192,410235,1,0,1:1:0:0:
192,192,410235,1,0,1:1:0:0:
320,192,410305,1,0,1:1:0:0:
192,192,410375,1,0,1:1:0:0:
320,192,410445,1,0,1:1:0:0:
192,192,410515,1,0,1:1:0:0:
448,192,410515,1,0,1:1:0:0:
64,192,410585,1,0,1:1:0:0:
320,192,410655,1,0,1:1:0:0:
64,192,410726,1,0,1:1:0:0:
192,192,410796,1,0,1:1:0:0:
448,192,410796,1,0,1:1:0:0:
320,192,410866,1,0,1:1:0:0:
448,192,410936,1,0,1:1:0:0:
320,192,411006,1,0,1:1:0:0:
64,192,411076,1,0,1:1:0:0:
448,192,411076,1,0,1:1:0:0:
192,192,411146,1,0,1:1:0:0:
64,192,411216,1,0,1:1:0:0:
192,192,411286,1,0,1:1:0:0:
320,192,411356,1,0,1:1:0:0:
448,192,411356,1,0,1:1:0:0:
192,192,411497,1,0,1:1:0:0:
64,192,411567,1,0,1:1:0:0:
192,192,411637,1,0,1:1:0:0:
448,192,411637,1,0,1:1:0:0:
320,192,411777,1,0,1:1:0:0:
192,192,411847,1,0,1:1:0:0:
448,192,411917,1,0,1:1:0:0:
64,192,411917,1,0,1:1:0:0:
192,192,412057,1,0,1:1:0:0:
448,192,412127,1,0,1:1:0:0:
64,192,412197,1,0,1:1:0:0:
192,192,412197,1,0,1:1:0:0:
320,192,412197,1,0,1:1:0:0:
192,192,412338,1,0,1:1:0:0:
448,192,412408,1,0,1:1:0:0:
64,192,412478,1,0,1:1:0:0:
320,192,412478,1,0,1:1:0:0:
192,192,412625,1,0,1:1:0:0:
448,192,412698,1,0,1:1:0:0:
64,192,412772,1,0,1:1:0:0:
320,192,412772,1,0,1:1:0:0:
192,192,412947,1,0,1:1:0:0:
320,192,413035,1,0,1:1:0:0:
192,192,413123,1,0,1:1:0:0:
448,192,413123,1,0,1:1:0:0:
320,192,413345,1,0,1:1:0:0:
192,192,413456,1,0,1:1:0:0:
320,192,413567,1,0,1:1:0:0:
64,192,413568,1,0,1:1:0:0:
320,192,413837,1,0,1:1:0:0:
448,192,413942,1,0,1:1:0:0:
192,192,414025,1,0,1:1:0:0:
320,192,414025,1,0,1:1:0:0:
448,192,414095,1,0,1:1:0:0:
192,192,414165,1,0,1:1:0:0:
320,192,414165,1,0,1:1:0:0:
64,192,414235,1,0,1:1:0:0:
320,192,414305,1,0,1:1:0:0:
448,192,414305,1,0,1:1:0:0:
64,192,414375,1,0,1:1:0:0:
192,192,414445,1,0,1:1:0:0:
320,192,414445,1,0,1:1:0:0:
448,192,414515,1,0,1:1:0:0:
192,192,414585,1,0,1:1:0:0:
320,192,414585,1,0,1:1:0:0:
64,192,414655,1,0,1:1:0:0:
192,192,414725,1,0,1:1:0:0:
448,192,414725,1,0,1:1:0:0:
320,192,414796,1,0,1:1:0:0:
64,192,414866,1,0,1:1:0:0:
192,192,414866,1,0,1:1:0:0:
448,192,414936,1,0,1:1:0:0:
64,192,415006,1,0,1:1:0:0:
320,192,415006,1,0,1:1:0:0:
192,192,415076,1,0,1:1:0:0:
320,192,415146,1,0,1:1:0:0:
448,192,415146,1,0,1:1:0:0:
64,192,415216,1,0,1:1:0:0:
192,192,415286,1,0,1:1:0:0:
448,192,415286,1,0,1:1:0:0:
64,192,415356,1,0,1:1:0:0:
320,192,415356,1,0,1:1:0:0:
192,192,415426,1,0,1:1:0:0:
448,192,415426,1,0,1:1:0:0:
320,192,415496,1,0,1:1:0:0:
64,192,415567,1,0,1:1:0:0:
192,192,415567,1,0,1:1:0:0:
320,192,415637,1,0,1:1:0:0:
448,192,415637,1,0,1:1:0:0:
64,192,415707,1,0,1:1:0:0:
192,192,415707,1,0,1:1:0:0:
320,192,415777,1,0,1:1:0:0:
448,192,415777,1,0,1:1:0:0:
64,192,415847,1,0,1:1:0:0:
192,192,415847,1,0,1:1:0:0:
448,192,415917,1,0,1:1:0:0:
64,192,415987,1,0,1:1:0:0:
320,192,415987,1,0,1:1:0:0:
192,192,416057,1,0,1:1:0:0:
64,192,416127,1,0,1:1:0:0:
320,192,416127,1,0,1:1:0:0:
192,192,416197,1,0,1:1:0:0:
64,192,416267,1,0,1:1:0:0:
448,192,416267,1,0,1:1:0:0:
320,192,416338,1,0,1:1:0:0:
64,192,416408,1,0,1:1:0:0:
448,192,416408,1,0,1:1:0:0:
320,192,416478,1,0,1:1:0:0:
64,192,416548,1,0,1:1:0:0:
192,192,416548,1,0,1:1:0:0:
320,192,416618,1,0,1:1:0:0:
448,192,416688,1,0,1:1:0:0:
192,192,416688,1,0,1:1:0:0:
320,192,416758,1,0,1:1:0:0:
192,192,416828,1,0,1:1:0:0:
64,192,416828,1,0,1:1:0:0:
448,192,416898,1,0,1:1:0:0:
64,192,416968,1,0,1:1:0:0:
320,192,416968,1,0,1:1:0:0:
192,192,417039,1,0,1:1:0:0:
64,192,417109,1,0,1:1:0:0:
448,192,417109,1,0,1:1:0:0:
320,192,417179,1,0,1:1:0:0:
64,192,417249,1,0,1:1:0:0:
448,192,417249,1,0,1:1:0:0:
192,192,417319,1,0,1:1:0:0:
320,192,417319,1,0,1:1:0:0:
64,192,417389,1,0,1:1:0:0:
448,192,417389,1,0,1:1:0:0:
192,192,417459,1,0,1:1:0:0:
320,192,417529,1,0,1:1:0:0:
64,192,417529,1,0,1:1:0:0:
192,192,417599,1,0,1:1:0:0:
448,192,417599,1,0,1:1:0:0:
64,192,417669,1,0,1:1:0:0:
320,192,417669,1,0,1:1:0:0:
448,192,417739,1,0,1:1:0:0:
192,192,417810,1,0,1:1:0:0:
64,192,417810,1,0,1:1:0:0:
320,192,417880,1,0,1:1:0:0:
448,192,417880,1,0,1:1:0:0:
64,192,417950,1,0,1:1:0:0:
192,192,417950,1,0,1:1:0:0:
448,192,418020,1,0,1:1:0:0:
320,192,418090,1,0,1:1:0:0:
448,192,418160,1,0,1:1:0:0:
320,192,418230,1,0,1:1:0:0:
64,192,418230,1,0,1:1:0:0:
192,192,418300,1,0,1:1:0:0:
64,192,418370,1,0,1:1:0:0:
192,192,418440,1,0,1:1:0:0:
320,192,418510,1,0,1:1:0:0:
448,192,418510,1,0,1:1:0:0:
64,192,418581,1,0,1:1:0:0:
320,192,418651,1,0,1:1:0:0:
448,192,418651,1,0,1:1:0:0:
64,192,418721,1,0,1:1:0:0:
192,192,418791,1,0,1:1:0:0:
448,192,418791,1,0,1:1:0:0:
64,192,418861,1,0,1:1:0:0:
320,192,418861,1,0,1:1:0:0:
192,192,418931,1,0,1:1:0:0:
448,192,418931,1,0,1:1:0:0:
320,192,419001,1,0,1:1:0:0:
64,192,419071,1,0,1:1:0:0:
192,192,419071,1,0,1:1:0:0:
320,192,419141,1,0,1:1:0:0:
448,192,419141,1,0,1:1:0:0:
64,192,419211,1,0,1:1:0:0:
192,192,419211,1,0,1:1:0:0:
448,192,419282,1,0,1:1:0:0:
64,192,419352,1,0,1:1:0:0:
320,192,419352,1,0,1:1:0:0:
192,192,419422,1,0,1:1:0:0:
64,192,419492,1,0,1:1:0:0:
320,192,419492,1,0,1:1:0:0:
448,192,419562,1,0,1:1:0:0:
64,192,419632,1,0,1:1:0:0:
192,192,419632,1,0,1:1:0:0:
320,192,419702,1,0,1:1:0:0:
192,192,419772,1,0,1:1:0:0:
448,192,419772,1,0,1:1:0:0:
64,192,419842,1,0,1:1:0:0:
320,192,419912,1,0,1:1:0:0:
448,192,419912,1,0,1:1:0:0:
192,192,419982,1,0,1:1:0:0:
320,192,420053,1,0,1:1:0:0:
448,192,420053,1,0,1:1:0:0:
64,192,420123,1,0,1:1:0:0:
192,192,420123,1,0,1:1:0:0:
320,192,420193,1,0,1:1:0:0:
448,192,420193,1,0,1:1:0:0:
64,192,420263,1,0,1:1:0:0:
192,192,420333,1,0,1:1:0:0:
448,192,420333,1,0,1:1:0:0:
320,192,420403,1,0,1:1:0:0:
64,192,420473,1,0,1:1:0:0:
448,192,420473,1,0,1:1:0:0:
192,192,420543,1,0,1:1:0:0:
320,192,420613,1,0,1:1:0:0:
448,192,420613,1,0,1:1:0:0:
64,192,420683,1,0,1:1:0:0:
192,192,420753,1,0,1:1:0:0:
448,192,420753,1,0,1:1:0:0:
320,192,420824,1,0,1:1:0:0:
64,192,420894,1,0,1:1:0:0:
448,192,420894,1,0,1:1:0:0:
320,192,420964,1,0,1:1:0:0:
192,192,421034,1,0,1:1:0:0:
448,192,421034,1,0,1:1:0:0:
64,192,421104,1,0,1:1:0:0:
192,192,421174,1,0,1:1:0:0:
320,192,421174,1,0,1:1:0:0:
448,192,421244,1,0,1:1:0:0:
64,192,421314,1,0,1:1:0:0:
320,192,421314,1,0,1:1:0:0:
192,192,421384,1,0,1:1:0:0:
448,192,421454,1,0,1:1:0:0:
64,192,421525,1,0,1:1:0:0:
192,192,421595,1,0,1:1:0:0:
448,192,421595,1,0,1:1:0:0:
64,192,421665,1,0,1:1:0:0:
448,192,421735,1,0,1:1:0:0:
320,192,421805,1,0,1:1:0:0:
64,192,421875,1,0,1:1:0:0:
448,192,421875,1,0,1:1:0:0:
320,192,421945,1,0,1:1:0:0:
64,192,422015,1,0,1:1:0:0:
320,192,422085,1,0,1:1:0:0:
64,192,422155,1,0,1:1:0:0:
448,192,422155,1,0,1:1:0:0:
192,192,422225,1,0,1:1:0:0:
448,192,422296,1,0,1:1:0:0:
192,192,422366,1,0,1:1:0:0:
64,192,422436,1,0,1:1:0:0:
448,192,422436,1,0,1:1:0:0:
320,192,422506,1,0,1:1:0:0:
448,192,422576,1,0,1:1:0:0:
320,192,422646,1,0,1:1:0:0:
192,192,422716,1,0,1:1:0:0:
448,192,422716,1,0,1:1:0:0:
64,192,422786,1,0,1:1:0:0:
192,192,422856,1,0,1:1:0:0:
64,192,422926,1,0,1:1:0:0:
320,192,422996,1,0,1:1:0:0:
448,192,422996,1,0,1:1:0:0:
192,192,423067,1,0,1:1:0:0:
64,192,423137,1,0,1:1:0:0:
320,192,423137,1,0,1:1:0:0:
448,192,423207,1,0,1:1:0:0:
64,192,423277,1,0,1:1:0:0:
192,192,423277,1,0,1:1:0:0:
448,192,423347,1,0,1:1:0:0:
64,192,423417,1,0,1:1:0:0:
320,192,423417,1,0,1:1:0:0:
192,192,423487,1,0,1:1:0:0:
320,192,423557,1,0,1:1:0:0:
448,192,423557,1,0,1:1:0:0:
64,192,423627,1,0,1:1:0:0:
192,192,423627,1,0,1:1:0:0:
320,192,423697,1,0,1:1:0:0:
448,192,423697,1,0,1:1:0:0:
64,192,423767,1,0,1:1:0:0:
320,192,423838,1,0,1:1:0:0:
448,192,423838,1,0,1:1:0:0:
192,192,423908,1,0,1:1:0:0:
64,192,423978,1,0,1:1:0:0:
448,192,423978,1,0,1:1:0:0:
192,192,424048,1,0,1:1:0:0:
320,192,424048,1,0,1:1:0:0:
64,192,424118,1,0,1:1:0:0:
448,192,424118,1,0,1:1:0:0:
320,192,424188,1,0,1:1:0:0:
64,192,424258,1,0,1:1:0:0:
192,192,424258,1,0,1:1:0:0:
320,192,424328,1,0,1:1:0:0:
448,192,424328,1,0,1:1:0:0:
64,192,424398,1,0,1:1:0:0:
192,192,424398,1,0,1:1:0:0:
448,192,424468,1,0,1:1:0:0:
192,192,424539,1,0,1:1:0:0:
320,192,424539,1,0,1:1:0:0:
64,192,424609,1,0,1:1:0:0:
448,192,424609,1,0,1:1:0:0:
192,192,424679,1,0,1:1:0:0:
320,192,424679,1,0,1:1:0:0:
64,192,424749,1,0,1:1:0:0:
448,192,424749,1,0,1:1:0:0:
192,192,424819,1,0,1:1:0:0:
320,192,424819,1,0,1:1:0:0:
64,192,424889,1,0,1:1:0:0:
320,192,424959,1,0,1:1:0:0:
448,192,424959,1,0,1:1:0:0:
192,192,425029,1,0,1:1:0:0:
64,192,425099,1,0,1:1:0:0:
320,192,425099,1,0,1:1:0:0:
448,192,425169,1,0,1:1:0:0:
64,192,425239,1,0,1:1:0:0:
192,192,425239,1,0,1:1:0:0:
320,192,425310,1,0,1:1:0:0:
192,192,425380,1,0,1:1:0:0:
448,192,425380,1,0,1:1:0:0:
320,192,425450,1,0,1:1:0:0:
64,192,425520,1,0,1:1:0:0:
192,192,425520,1,0,1:1:0:0:
320,192,425590,1,0,1:1:0:0:
64,192,425660,1,0,1:1:0:0:
192,192,425660,1,0,1:1:0:0:
448,192,425730,1,0,1:1:0:0:
64,192,425800,1,0,1:1:0:0:
320,192,425800,1,0,1:1:0:0:
192,192,425870,1,0,1:1:0:0:
320,192,425940,1,0,1:1:0:0:
448,192,425940,1,0,1:1:0:0:
64,192,426010,1,0,1:1:0:0:
192,192,426081,1,0,1:1:0:0:
448,192,426081,1,0,1:1:0:0:
320,192,426151,1,0,1:1:0:0:
64,192,426221,1,0,1:1:0:0:
192,192,426221,1,0,1:1:0:0:
448,192,426291,1,0,1:1:0:0:
64,192,426361,1,0,1:1:0:0:
320,192,426361,1,0,1:1:0:0:
448,192,426431,1,0,1:1:0:0:
64,192,426501,1,0,1:1:0:0:
320,192,426501,1,0,1:1:0:0:
448,192,426571,1,0,1:1:0:0:
64,192,426641,1,0,1:1:0:0:
192,192,426641,1,0,1:1:0:0:
448,192,426711,1,0,1:1:0:0:
64,192,426782,1,0,1:1:0:0:
320,192,426782,1,0,1:1:0:0:
448,192,426852,1,0,1:1:0:0:
64,192,426922,1,0,1:1:0:0:
192,192,426922,1,0,1:1:0:0:
320,192,426992,1,0,1:1:0:0:
448,192,426992,1,0,1:1:0:0:
64,192,427062,1,0,1:1:0:0:
192,192,427062,1,0,1:1:0:0:
320,192,427132,1,0,1:1:0:0:
64,192,427202,1,0,1:1:0:0:
448,192,427202,1,0,1:1:0:0:
192,192,427272,1,0,1:1:0:0:
320,192,427272,1,0,1:1:0:0:
64,192,427342,1,0,1:1:0:0:
448,192,427342,1,0,1:1:0:0:
192,192,427412,1,0,1:1:0:0:
320,192,427482,1,0,1:1:0:0:
448,192,427482,1,0,1:1:0:0:
64,192,427553,1,0,1:1:0:0:
192,192,427553,1,0,1:1:0:0:
320,192,427623,1,0,1:1:0:0:
448,192,427623,1,0,1:1:0:0:
64,192,427693,1,0,1:1:0:0:
192,192,427763,1,0,1:1:0:0:
448,192,427763,1,0,1:1:0:0:
320,192,427833,1,0,1:1:0:0:
192,192,427903,1,0,1:1:0:0:
448,192,427903,1,0,1:1:0:0:
320,192,427973,1,0,1:1:0:0:
64,192,428043,1,0,1:1:0:0:
448,192,428043,1,0,1:1:0:0:
192,192,428113,1,0,1:1:0:0:
320,192,428183,1,0,1:1:0:0:
448,192,428183,1,0,1:1:0:0:
64,192,428253,1,0,1:1:0:0:
192,192,428324,1,0,1:1:0:0:
448,192,428324,1,0,1:1:0:0:
64,192,428394,1,0,1:1:0:0:
320,192,428464,1,0,1:1:0:0:
448,192,428464,1,0,1:1:0:0:
64,192,428534,1,0,1:1:0:0:
192,192,428534,1,0,1:1:0:0:
320,192,428604,1,0,1:1:0:0:
448,192,428604,1,0,1:1:0:0:
64,192,428674,1,0,1:1:0:0:
192,192,428674,1,0,1:1:0:0:
320,192,428744,1,0,1:1:0:0:
448,192,428744,1,0,1:1:0:0:
192,192,428814,1,0,1:1:0:0:
64,192,428884,1,0,1:1:0:0:
320,192,428884,1,0,1:1:0:0:
192,192,428954,1,0,1:1:0:0:
64,192,429025,1,0,1:1:0:0:
448,192,429025,1,0,1:1:0:0:
192,192,429095,1,0,1:1:0:0:
64,192,429165,1,0,1:1:0:0:
320,192,429165,1,0,1:1:0:0:
448,192,429235,1,0,1:1:0:0:
64,192,429305,1,0,1:1:0:0:
320,192,429305,1,0,1:1:0:0:
192,192,429375,1,0,1:1:0:0:
64,192,429445,1,0,1:1:0:0:
448,192,429445,1,0,1:1:0:0:
192,192,429515,1,0,1:1:0:0:
64,192,429585,1,0,1:1:0:0:
448,192,429585,1,0,1:1:0:0:
192,192,429655,1,0,1:1:0:0:
320,192,429725,1,0,1:1:0:0:
448,192,429725,1,0,1:1:0:0:
64,192,429796,1,0,1:1:0:0:
192,192,429796,1,0,1:1:0:0:
320,192,429866,1,0,1:1:0:0:
448,192,429866,1,0,1:1:0:0:
64,192,429936,1,0,1:1:0:0:
192,192,430006,1,0,1:1:0:0:
448,192,430006,1,0,1:1:0:0:
320,192,430076,1,0,1:1:0:0:
64,192,430146,1,0,1:1:0:0:
448,192,430146,1,0,1:1:0:0:
192,192,430216,1,0,1:1:0:0:
320,192,430216,1,0,1:1:0:0:
64,192,430286,1,0,1:1:0:0:
448,192,430286,1,0,1:1:0:0:
192,192,430356,1,0,1:1:0:0:
320,192,430426,1,0,1:1:0:0:
448,192,430426,1,0,1:1:0:0:
64,192,430496,1,0,1:1:0:0:
192,192,430567,1,0,1:1:0:0:
448,192,430567,1,0,1:1:0:0:
64,192,430637,1,0,1:1:0:0:
320,192,430637,1,0,1:1:0:0:
192,192,430707,1,0,1:1:0:0:
448,192,430707,1,0,1:1:0:0:
320,192,430777,1,0,1:1:0:0:
64,192,430847,1,0,1:1:0:0:
192,192,430847,1,0,1:1:0:0:
320,192,430917,1,0,1:1:0:0:
448,192,430917,1,0,1:1:0:0:
64,192,430987,1,0,1:1:0:0:
192,192,430987,1,0,1:1:0:0:
320,192,431057,1,0,1:1:0:0:
448,192,431057,1,0,1:1:0:0:
64,192,431127,1,0,1:1:0:0:
192,192,431127,1,0,1:1:0:0:
320,192,431197,1,0,1:1:0:0:
448,192,431197,1,0,1:1:0:0:
64,192,431267,1,0,1:1:0:0:
448,192,431338,1,0,1:1:0:0:
192,192,431408,1,0,1:1:0:0:
320,192,431408,1,0,1:1:0:0:
448,192,431478,1,0,1:1:0:0:
64,192,431548,1,0,1:1:0:0:
320,192,431548,1,0,1:1:0:0:
448,192,431618,1,0,1:1:0:0:
192,192,431688,1,0,1:1:0:0:
320,192,431758,1,0,1:1:0:0:
192,192,431828,1,0,1:1:0:0:
320,192,431898,1,0,1:1:0:0:
192,192,431968,1,0,1:1:0:0:
448,192,432039,1,0,1:1:0:0:
192,192,432109,1,0,1:1:0:0:
320,192,432109,1,0,1:1:0:0:
64,192,432179,1,0,1:1:0:0:
192,192,432249,1,0,1:1:0:0:
448,192,432249,1,0,1:1:0:0:
320,192,432319,1,0,1:1:0:0:
64,192,432389,1,0,1:1:0:0:
192,192,432389,1,0,1:1:0:0:
448,192,432459,1,0,1:1:0:0:
64,192,432529,1,0,1:1:0:0:
192,192,432529,1,0,1:1:0:0:
320,192,432599,1,0,1:1:0:0:
192,192,432669,1,0,1:1:0:0:
448,192,432669,1,0,1:1:0:0:
64,192,432739,1,0,1:1:0:0:
320,192,432810,1,0,1:1:0:0:
448,192,432810,1,0,1:1:0:0:
192,192,432880,1,0,1:1:0:0:
320,192,432950,1,0,1:1:0:0:
448,192,432950,1,0,1:1:0:0:
64,192,433020,1,0,1:1:0:0:
192,192,433020,1,0,1:1:0:0:
320,192,433090,1,0,1:1:0:0:
448,192,433090,1,0,1:1:0:0:
64,192,433160,1,0,1:1:0:0:
192,192,433230,1,0,1:1:0:0:
448,192,433230,1,0,1:1:0:0:
320,192,433300,1,0,1:1:0:0:
64,192,433370,1,0,1:1:0:0:
192,192,433370,1,0,1:1:0:0:
448,192,433440,1,0,1:1:0:0:
64,192,433510,1,0,1:1:0:0:
320,192,433510,1,0,1:1:0:0:
192,192,433581,1,0,1:1:0:0:
320,192,433651,1,0,1:1:0:0:
448,192,433651,1,0,1:1:0:0:
64,192,433721,1,0,1:1:0:0:
192,192,433791,1,0,1:1:0:0:
448,192,433791,1,0,1:1:0:0:
320,192,433861,1,0,1:1:0:0:
64,192,433931,1,0,1:1:0:0:
192,192,433931,1,0,1:1:0:0:
448,192,434001,1,0,1:1:0:0:
64,192,434071,1,0,1:1:0:0:
320,192,434071,1,0,1:1:0:0:
192,192,434141,1,0,1:1:0:0:
320,192,434211,1,0,1:1:0:0:
448,192,434211,1,0,1:1:0:0:
64,192,434282,1,0,1:1:0:0:
192,192,434352,1,0,1:1:0:0:
448,192,434352,1,0,1:1:0:0:
64,192,434422,1,0,1:1:0:0:
320,192,434492,1,0,1:1:0:0:
448,192,434492,1,0,1:1:0:0:
64,192,434562,1,0,1:1:0:0:
320,192,434632,1,0,1:1:0:0:
448,192,434632,1,0,1:1:0:0:
192,192,434702,1,0,1:1:0:0:
64,192,434772,1,0,1:1:0:0:
320,192,434772,1,0,1:1:0:0:
448,192,434842,1,0,1:1:0:0:
64,192,434912,1,0,1:1:0:0:
192,192,434912,1,0,1:1:0:0:
320,192,434982,1,0,1:1:0:0:
192,192,435053,1,0,1:1:0:0:
448,192,435053,1,0,1:1:0:0:
64,192,435123,1,0,1:1:0:0:
320,192,435193,1,0,1:1:0:0:
448,192,435193,1,0,1:1:0:0:
64,192,435263,1,0,1:1:0:0:
192,192,435333,1,0,1:1:0:0:
448,192,435333,1,0,1:1:0:0:
64,192,435403,1,0,1:1:0:0:
192,192,435473,1,0,1:1:0:0:
448,192,435473,1,0,1:1:0:0:
64,192,435543,1,0,1:1:0:0:
320,192,435613,1,0,1:1:0:0:
448,192,435613,1,0,1:1:0:0:
192,192,435683,1,0,1:1:0:0:
64,192,435753,1,0,1:1:0:0:
448,192,435753,1,0,1:1:0:0:
192,192,435824,1,0,1:1:0:0:
64,192,435894,1,0,1:1:0:0:
320,192,435894,1,0,1:1:0:0:
448,192,435964,1,0,1:1:0:0:
192,192,436034,1,0,1:1:0:0:
320,192,436034,1,0,1:1:0:0:
448,192,436104,1,0,1:1:0:0:
64,192,436174,1,0,1:1:0:0:
320,192,436174,1,0,1:1:0:0:
192,192,436244,1,0,1:1:0:0:
64,192,436314,1,0,1:1:0:0:
448,192,436314,1,0,1:1:0:0:
192,192,436384,1,0,1:1:0:0:
320,192,436454,1,0,1:1:0:0:
448,192,436454,1,0,1:1:0:0:
64,192,436525,1,0,1:1:0:0:
320,192,436595,1,0,1:1:0:0:
448,192,436595,1,0,1:1:0:0:
64,192,436665,1,0,1:1:0:0:
192,192,436735,1,0,1:1:0:0:
448,192,436735,1,0,1:1:0:0:
320,192,436805,1,0,1:1:0:0:
64,192,436875,1,0,1:1:0:0:
192,192,436875,1,0,1:1:0:0:
448,192,436945,1,0,1:1:0:0:
64,192,437015,1,0,1:1:0:0:
320,192,437015,1,0,1:1:0:0:
192,192,437085,1,0,1:1:0:0:
448,192,437085,1,0,1:1:0:0:
64,192,437155,1,0,1:1:0:0:
320,192,437155,1,0,1:1:0:0:
192,192,437225,1,0,1:1:0:0:
320,192,437296,1,0,1:1:0:0:
448,192,437296,1,0,1:1:0:0:
64,192,437366,1,0,1:1:0:0:
192,192,437436,1,0,1:1:0:0:
320,192,437436,1,0,1:1:0:0:
64,192,437506,1,0,1:1:0:0:
448,192,437506,1,0,1:1:0:0:
192,192,437576,1,0,1:1:0:0:
320,192,437576,1,0,1:1:0:0:
448,192,437646,1,0,1:1:0:0:
64,192,437716,1,0,1:1:0:0:
192,192,437716,1,0,1:1:0:0:
320,192,437786,1,0,1:1:0:0:
192,192,437856,1,0,1:1:0:0:
448,192,437856,1,0,1:1:0:0:
64,192,437926,1,0,1:1:0:0:
320,192,437996,1,0,1:1:0:0:
448,192,437996,1,0,1:1:0:0:
192,192,438067,1,0,1:1:0:0:
64,192,438137,1,0,1:1:0:0:
448,192,438137,1,0,1:1:0:0:
320,192,438207,1,0,1:1:0:0:
192,192,438277,1,0,1:1:0:0:
448,192,438277,1,0,1:1:0:0:
320,192,438347,1,0,1:1:0:0:
64,192,438417,1,0,1:1:0:0:
448,192,438417,1,0,1:1:0:0:
192,192,438487,1,0,1:1:0:0:
64,192,438557,1,0,1:1:0:0:
320,192,438557,1,0,1:1:0:0:
192,192,438627,1,0,1:1:0:0:
64,192,438697,1,0,1:1:0:0:
448,192,438697,1,0,1:1:0:0:
320,192,438767,1,0,1:1:0:0:
64,192,438838,1,0,1:1:0:0:
192,192,438838,1,0,1:1:0:0:
448,192,438908,1,0,1:1:0:0:
64,192,438978,1,0,1:1:0:0:
320,192,438978,1,0,1:1:0:0:
192,192,439048,1,0,1:1:0:0:
320,192,439118,1,0,1:1:0:0:
448,192,439118,1,0,1:1:0:0:
64,192,439188,1,0,1:1:0:0:
192,192,439258,1,0,1:1:0:0:
448,192,439258,1,0,1:1:0:0:
320,192,439328,1,0,1:1:0:0:
64,192,439398,1,0,1:1:0:0:
192,192,439398,1,0,1:1:0:0:
448,192,439468,1,0,1:1:0:0:
64,192,439539,1,0,1:1:0:0:
192,192,439539,1,0,1:1:0:0:
320,192,439609,1,0,1:1:0:0:
192,192,439679,1,0,1:1:0:0:
448,192,439679,1,0,1:1:0:0:
64,192,439749,1,0,1:1:0:0:
320,192,439819,1,0,1:1:0:0:
320,192,439959,1,0,1:1:0:0:
64,192,440029,1,0,1:1:0:0:
320,192,440099,1,0,1:1:0:0:
320,192,440239,1,0,1:1:0:0:
448,192,440380,1,0,1:1:0:0:
192,192,440397,1,0,1:1:0:0:
320,192,440415,1,0,1:1:0:0:
64,192,440432,1,0,1:1:0:0:
320,192,440520,1,0,1:1:0:0:
64,192,440590,1,0,1:1:0:0:
320,192,440660,1,0,1:1:0:0:
320,192,440800,1,0,1:1:0:0:
64,192,440870,1,0,1:1:0:0:
320,192,440940,1,0,1:1:0:0:
448,192,440940,1,0,1:1:0:0:
64,192,441010,1,0,1:1:0:0:
192,192,441081,1,0,1:1:0:0:
448,192,441081,1,0,1:1:0:0:
320,192,441151,1,0,1:1:0:0:
64,192,441221,1,0,1:1:0:0:
192,192,441221,1,0,1:1:0:0:
448,192,441291,1,0,1:1:0:0:
64,192,441361,1,0,1:1:0:0:
320,192,441361,1,0,1:1:0:0:
192,192,441431,1,0,1:1:0:0:
320,192,441501,1,0,1:1:0:0:
448,192,441501,1,0,1:1:0:0:
64,192,441571,1,0,1:1:0:0:
192,192,441641,1,0,1:1:0:0:
448,192,441641,1,0,1:1:0:0:
320,192,441711,1,0,1:1:0:0:
64,192,441782,1,0,1:1:0:0:
192,192,441782,1,0,1:1:0:0:
320,192,441852,1,0,1:1:0:0:
448,192,441852,1,0,1:1:0:0:
64,192,441922,1,0,1:1:0:0:
192,192,441922,1,0,1:1:0:0:
448,192,441992,1,0,1:1:0:0:
64,192,442062,1,0,1:1:0:0:
320,192,442062,1,0,1:1:0:0:
192,192,442132,1,0,1:1:0:0:
320,192,442202,1,0,1:1:0:0:
448,192,442202,1,0,1:1:0:0:
64,192,442272,1,0,1:1:0:0:
448,192,442342,1,0,1:1:0:0:
320,192,442389,1,0,1:1:0:0:
192,192,442436,1,0,1:1:0:0:
64,192,442482,1,0,1:1:0:0:
320,192,442553,1,0,1:1:0:0:
192,192,442623,1,0,1:1:0:0:
448,192,442669,1,0,1:1:0:0:
64,192,442716,1,0,1:1:0:0:
320,192,442763,1,0,1:1:0:0:
192,192,442810,1,0,1:1:0:0:
64,192,442903,1,0,1:1:0:0:
320,192,442903,1,0,1:1:0:0:
192,192,442950,1,0,1:1:0:0:
448,192,442996,1,0,1:1:0:0:
64,192,443043,1,0,1:1:0:0:
192,192,443043,1,0,1:1:0:0:
320,192,443113,1,0,1:1:0:0:
448,192,443113,1,0,1:1:0:0:
64,192,443183,1,0,1:1:0:0:
192,192,443183,1,0,1:1:0:0:
320,192,443253,1,0,1:1:0:0:
192,192,443324,1,0,1:1:0:0:
448,192,443324,1,0,1:1:0:0:
64,192,443394,1,0,1:1:0:0:
192,192,443464,1,0,1:1:0:0:
320,192,443464,1,0,1:1:0:0:
448,192,443534,1,0,1:1:0:0:
64,192,443604,1,0,1:1:0:0:
320,192,443604,1,0,1:1:0:0:
192,192,443674,1,0,1:1:0:0:
64,192,443744,1,0,1:1:0:0:
448,192,443744,1,0,1:1:0:0:
320,192,443814,1,0,1:1:0:0:
192,192,443884,1,0,1:1:0:0:
448,192,443884,1,0,1:1:0:0:
320,192,443954,1,0,1:1:0:0:
64,192,444025,1,0,1:1:0:0:
448,192,444025,1,0,1:1:0:0:
192,192,444095,1,0,1:1:0:0:
320,192,444165,1,0,1:1:0:0:
448,192,444165,1,0,1:1:0:0:
64,192,444235,1,0,1:1:0:0:
192,192,444235,1,0,1:1:0:0:
448,192,444305,1,0,1:1:0:0:
64,192,444375,1,0,1:1:0:0:
192,192,444375,1,0,1:1:0:0:
320,192,444445,1,0,1:1:0:0:
448,192,444445,1,0,1:1:0:0:
64,192,444515,1,0,1:1:0:0:
192,192,444515,1,0,1:1:0:0:
320,192,444585,1,0,1:1:0:0:
448,192,444585,1,0,1:1:0:0:
192,192,444655,1,0,1:1:0:0:
320,192,444725,1,0,1:1:0:0:
448,192,444725,1,0,1:1:0:0:
64,192,444796,1,0,1:1:0:0:
192,192,444866,1,0,1:1:0:0:
448,192,444866,1,0,1:1:0:0:
320,192,444936,1,0,1:1:0:0:
64,192,445006,1,0,1:1:0:0:
448,192,445006,1,0,1:1:0:0:
320,192,445076,1,0,1:1:0:0:
192,192,445146,1,0,1:1:0:0:
448,192,445146,1,0,1:1:0:0:
64,192,445216,1,0,1:1:0:0:
192,192,445286,1,0,1:1:0:0:
448,192,445286,1,0,1:1:0:0:
64,192,445356,1,0,1:1:0:0:
192,192,445426,1,0,1:1:0:0:
448,192,445426,1,0,1:1:0:0:
64,192,445496,1,0,1:1:0:0:
320,192,445496,1,0,1:1:0:0:
448,192,445567,1,0,1:1:0:0:
64,192,445637,1,0,1:1:0:0:
192,192,445637,1,0,1:1:0:0:
320,192,445707,1,0,1:1:0:0:
448,192,445707,1,0,1:1:0:0:
64,192,445777,1,0,1:1:0:0:
192,192,445777,1,0,1:1:0:0:
320,192,445847,1,0,1:1:0:0:
448,192,445847,1,0,1:1:0:0:
64,192,445917,1,0,1:1:0:0:
192,192,445917,1,0,1:1:0:0:
320,192,445987,1,0,1:1:0:0:
64,192,446057,1,0,1:1:0:0:
448,192,446057,1,0,1:1:0:0:
192,192,446127,1,0,1:1:0:0:
320,192,446127,1,0,1:1:0:0:
64,192,446197,1,0,1:1:0:0:
448,192,446197,1,0,1:1:0:0:
192,192,446267,1,0,1:1:0:0:
320,192,446267,1,0,1:1:0:0:
64,192,446338,1,0,1:1:0:0:
192,192,446408,1,0,1:1:0:0:
448,192,446408,1,0,1:1:0:0:
320,192,446478,1,0,1:1:0:0:
64,192,446548,1,0,1:1:0:0:
192,192,446548,1,0,1:1:0:0:
448,192,446618,1,0,1:1:0:0:
64,192,446688,1,0,1:1:0:0:
320,192,446688,1,0,1:1:0:0:
192,192,446758,1,0,1:1:0:0:
64,192,446828,1,0,1:1:0:0:
448,192,446828,1,0,1:1:0:0:
192,192,446898,1,0,1:1:0:0:
64,192,446968,1,0,1:1:0:0:
448,192,446968,1,0,1:1:0:0:
320,192,447039,1,0,1:1:0:0:
64,192,447109,1,0,1:1:0:0:
192,192,447109,1,0,1:1:0:0:
320,192,447179,1,0,1:1:0:0:
448,192,447179,1,0,1:1:0:0:
64,192,447249,1,0,1:1:0:0:
192,192,447249,1,0,1:1:0:0:
320,192,447319,1,0,1:1:0:0:
192,192,447389,1,0,1:1:0:0:
448,192,447389,1,0,1:1:0:0:
64,192,447459,1,0,1:1:0:0:
320,192,447459,1,0,1:1:0:0:
192,192,447529,1,0,1:1:0:0:
448,192,447529,1,0,1:1:0:0:
64,192,447599,1,0,1:1:0:0:
448,192,447669,1,0,1:1:0:0:
320,192,447716,1,0,1:1:0:0:
192,192,447763,1,0,1:1:0:0:
64,192,447810,1,0,1:1:0:0:
448,192,447856,1,0,1:1:0:0:
320,192,447903,1,0,1:1:0:0:
64,192,447950,1,0,1:1:0:0:
192,192,447950,1,0,1:1:0:0:
448,192,448020,1,0,1:1:0:0:
64,192,448090,1,0,1:1:0:0:
320,192,448090,1,0,1:1:0:0:
192,192,448160,1,0,1:1:0:0:
320,192,448230,1,0,1:1:0:0:
448,192,448230,1,0,1:1:0:0:
64,192,448300,1,0,1:1:0:0:
192,192,448370,1,0,1:1:0:0:
448,192,448370,1,0,1:1:0:0:
64,192,448440,1,0,1:1:0:0:
320,192,448510,1,0,1:1:0:0:
448,192,448510,1,0,1:1:0:0:
64,192,448581,1,0,1:1:0:0:
192,192,448581,1,0,1:1:0:0:
320,192,448651,1,0,1:1:0:0:
448,192,448651,1,0,1:1:0:0:
192,192,448721,1,0,1:1:0:0:
64,192,448791,1,0,1:1:0:0:
448,192,448791,1,0,1:1:0:0:
192,192,448861,1,0,1:1:0:0:
320,192,448861,1,0,1:1:0:0:
64,192,448931,1,0,1:1:0:0:
448,192,448931,1,0,1:1:0:0:
320,192,449001,1,0,1:1:0:0:
64,192,449071,1,0,1:1:0:0:
192,192,449071,1,0,1:1:0:0:
320,192,449141,1,0,1:1:0:0:
192,192,449211,1,0,1:1:0:0:
448,192,449211,1,0,1:1:0:0:
320,192,449282,1,0,1:1:0:0:
64,192,449352,1,0,1:1:0:0:
448,192,449352,1,0,1:1:0:0:
192,192,449422,1,0,1:1:0:0:
64,192,449492,1,0,1:1:0:0:
448,192,449492,1,0,1:1:0:0:
192,192,449562,1,0,1:1:0:0:
320,192,449632,1,0,1:1:0:0:
192,192,449702,1,0,1:1:0:0:
320,192,449772,1,0,1:1:0:0:
192,192,449842,1,0,1:1:0:0:
320,192,449912,1,0,1:1:0:0:
448,192,449912,1,0,1:1:0:0:
64,192,449982,1,0,1:1:0:0:
320,192,450053,1,0,1:1:0:0:
448,192,450053,1,0,1:1:0:0:
192,192,450123,1,0,1:1:0:0:
64,192,450193,1,0,1:1:0:0:
320,192,450193,1,0,1:1:0:0:
448,192,450263,1,0,1:1:0:0:
64,192,450333,1,0,1:1:0:0:
192,192,450333,1,0,1:1:0:0:
320,192,450403,1,0,1:1:0:0:
64,192,450473,1,0,1:1:0:0:
448,192,450473,1,0,1:1:0:0:
192,192,450543,1,0,1:1:0:0:
64,192,450613,1,0,1:1:0:0:
448,192,450613,1,0,1:1:0:0:
192,192,450683,1,0,1:1:0:0:
320,192,450683,1,0,1:1:0:0:
448,192,450753,1,0,1:1:0:0:
192,192,450824,1,0,1:1:0:0:
64,192,450894,1,0,1:1:0:0:
320,192,450894,1,0,1:1:0:0:
192,192,450964,1,0,1:1:0:0:
448,192,450964,1,0,1:1:0:0:
64,192,451034,1,0,1:1:0:0:
320,192,451034,1,0,1:1:0:0:
448,192,451104,1,0,1:1:0:0:
64,192,451174,1,0,1:1:0:0:
192,192,451174,1,0,1:1:0:0:
320,192,451244,1,0,1:1:0:0:
192,192,451314,1,0,1:1:0:0:
448,192,451314,1,0,1:1:0:0:
64,192,451384,1,0,1:1:0:0:
320,192,451454,1,0,1:1:0:0:
448,192,451454,1,0,1:1:0:0:
192,192,451525,1,0,1:1:0:0:
64,192,451595,1,0,1:1:0:0:
320,192,451641,1,0,1:1:0:0:
448,192,451688,1,0,1:1:0:0:
192,192,451735,1,0,1:1:0:0:
320,192,451782,1,0,1:1:0:0:
64,192,451875,1,0,1:1:0:0:
192,192,451875,1,0,1:1:0:0:
320,192,451945,1,0,1:1:0:0:
192,192,452015,1,0,1:1:0:0:
448,192,452015,1,0,1:1:0:0:
64,192,452085,1,0,1:1:0:0:
320,192,452155,1,0,1:1:0:0:
448,192,452155,1,0,1:1:0:0:
64,192,452225,1,0,1:1:0:0:
192,192,452296,1,0,1:1:0:0:
320,192,452296,1,0,1:1:0:0:
448,192,452366,1,0,1:1:0:0:
64,192,452436,1,0,1:1:0:0:
320,192,452436,1,0,1:1:0:0:
192,192,452506,1,0,1:1:0:0:
64,192,452576,1,0,1:1:0:0:
448,192,452576,1,0,1:1:0:0:
192,192,452646,1,0,1:1:0:0:
64,192,452716,1,0,1:1:0:0:
320,192,452716,1,0,1:1:0:0:
448,192,452786,1,0,1:1:0:0:
192,192,452856,1,0,1:1:0:0:
320,192,452856,1,0,1:1:0:0:
64,192,452926,1,0,1:1:0:0:
192,192,452996,1,0,1:1:0:0:
448,192,452996,1,0,1:1:0:0:
320,192,453067,1,0,1:1:0:0:
64,192,453137,1,0,1:1:0:0:
448,192,453137,1,0,1:1:0:0:
320,192,453207,1,0,1:1:0:0:
64,192,453277,1,0,1:1:0:0:
192,192,453277,1,0,1:1:0:0:
448,192,453347,1,0,1:1:0:0:
64,192,453417,1,0,1:1:0:0:
192,192,453417,1,0,1:1:0:0:
448,192,453487,1,0,1:1:0:0:
64,192,453557,1,0,1:1:0:0:
320,192,453557,1,0,1:1:0:0:
192,192,453627,1,0,1:1:0:0:
64,192,453697,1,0,1:1:0:0:
448,192,453697,1,0,1:1:0:0:
320,192,453767,1,0,1:1:0:0:
192,192,453838,1,0,1:1:0:0:
448,192,453838,1,0,1:1:0:0:
320,192,453908,1,0,1:1:0:0:
64,192,453978,1,0,1:1:0:0:
448,192,453978,1,0,1:1:0:0:
320,192,454048,1,0,1:1:0:0:
64,192,454118,1,0,1:1:0:0:
192,192,454118,1,0,1:1:0:0:
448,192,454188,1,0,1:1:0:0:
64,192,454258,1,0,1:1:0:0:
192,192,454258,1,0,1:1:0:0:
448,192,454328,1,0,1:1:0:0:
64,192,454398,1,0,1:1:0:0:
192,192,454398,1,0,1:1:0:0:
320,192,454468,1,0,1:1:0:0:
192,192,454539,1,0,1:1:0:0:
448,192,454539,1,0,1:1:0:0:
64,192,454609,1,0,1:1:0:0:
320,192,454679,1,0,1:1:0:0:
192,192,454749,1,0,1:1:0:0:
64,192,454784,1,0,1:1:0:0:
320,192,454819,1,0,1:1:0:0:
448,192,454819,1,0,1:1:0:0:
64,192,454889,1,0,1:1:0:0:
192,192,454889,1,0,1:1:0:0:
320,192,454959,1,0,1:1:0:0:
448,192,454959,1,0,1:1:0:0:
192,192,455029,1,0,1:1:0:0:
64,192,455099,1,0,1:1:0:0:
448,192,455099,1,0,1:1:0:0:
192,192,455169,1,0,1:1:0:0:
320,192,455169,1,0,1:1:0:0:
64,192,455239,1,0,1:1:0:0:
448,192,455239,1,0,1:1:0:0:
320,192,455310,1,0,1:1:0:0:
64,192,455380,1,0,1:1:0:0:
448,192,455380,1,0,1:1:0:0:
192,192,455450,1,0,1:1:0:0:
320,192,455520,1,0,1:1:0:0:
448,192,455520,1,0,1:1:0:0:
64,192,455590,1,0,1:1:0:0:
192,192,455660,1,0,1:1:0:0:
448,192,455660,1,0,1:1:0:0:
320,192,455730,1,0,1:1:0:0:
64,192,455800,1,0,1:1:0:0:
192,192,455800,1,0,1:1:0:0:
448,192,455870,1,0,1:1:0:0:
64,192,455940,1,0,1:1:0:0:
192,192,455940,1,0,1:1:0:0:
320,192,456010,1,0,1:1:0:0:
192,192,456081,1,0,1:1:0:0:
448,192,456081,1,0,1:1:0:0:
320,192,456151,1,0,1:1:0:0:
64,192,456221,1,0,1:1:0:0:
448,192,456221,1,0,1:1:0:0:
320,192,456291,1,0,1:1:0:0:
64,192,456361,1,0,1:1:0:0:
192,192,456361,1,0,1:1:0:0:
448,192,456431,1,0,1:1:0:0:
64,192,456501,1,0,1:1:0:0:
320,192,456501,1,0,1:1:0:0:
448,192,456571,1,0,1:1:0:0:
64,192,456641,1,0,1:1:0:0:
192,192,456688,1,0,1:1:0:0:
320,192,456735,1,0,1:1:0:0:
448,192,456782,1,0,1:1:0:0:
64,192,456828,1,0,1:1:0:0:
192,192,456875,1,0,1:1:0:0:
320,192,456922,1,0,1:1:0:0:
448,192,456922,1,0,1:1:0:0:
192,192,456992,1,0,1:1:0:0:
64,192,457062,1,0,1:1:0:0:
320,192,457062,1,0,1:1:0:0:
448,192,457132,1,0,1:1:0:0:
64,192,457202,1,0,1:1:0:0:
192,192,457202,1,0,1:1:0:0:
320,192,457272,1,0,1:1:0:0:
64,192,457342,1,0,1:1:0:0:
192,192,457342,1,0,1:1:0:0:
320,192,457412,1,0,1:1:0:0:
64,192,457482,1,0,1:1:0:0:
448,192,457482,1,0,1:1:0:0:
192,192,457553,1,0,1:1:0:0:
320,192,457553,1,0,1:1:0:0:
64,192,457623,1,0,1:1:0:0:
448,192,457623,1,0,1:1:0:0:
192,192,457693,1,0,1:1:0:0:
320,192,457763,1,0,1:1:0:0:
448,192,457763,1,0,1:1:0:0:
64,192,457833,1,0,1:1:0:0:
192,192,457833,1,0,1:1:0:0:
320,192,457903,1,0,1:1:0:0:
448,192,457903,1,0,1:1:0:0:
64,192,457973,1,0,1:1:0:0:
192,192,458043,1,0,1:1:0:0:
448,192,458043,1,0,1:1:0:0:
320,192,458113,1,0,1:1:0:0:
64,192,458183,1,0,1:1:0:0:
192,192,458183,1,0,1:1:0:0:
448,192,458253,1,0,1:1:0:0:
64,192,458324,1,0,1:1:0:0:
320,192,458324,1,0,1:1:0:0:
192,192,458394,1,0,1:1:0:0:
320,192,458464,1,0,1:1:0:0:
448,192,458464,1,0,1:1:0:0:
192,192,458534,1,0,1:1:0:0:
64,192,458604,1,0,1:1:0:0:
320,192,458604,1,0,1:1:0:0:
448,192,458744,1,0,1:1:0:0:
64,192,458884,1,0,1:1:0:0:
320,192,458884,1,0,1:1:0:0:
192,192,458954,1,0,1:1:0:0:
64,192,459025,1,0,1:1:0:0:
448,192,459025,1,0,1:1:0:0:
192,192,459095,1,0,1:1:0:0:
64,192,459165,1,0,1:1:0:0:
320,192,459165,1,0,1:1:0:0:
192,192,459235,1,0,1:1:0:0:
64,192,459305,1,0,1:1:0:0:
448,192,459305,1,0,1:1:0:0:
320,192,459375,1,0,1:1:0:0:
192,192,459445,1,0,1:1:0:0:
448,192,459445,1,0,1:1:0:0:
320,192,459515,1,0,1:1:0:0:
64,192,459585,1,0,1:1:0:0:
192,192,459585,1,0,1:1:0:0:
448,192,459655,1,0,1:1:0:0:
64,192,459725,1,0,1:1:0:0:
320,192,459725,1,0,1:1:0:0:
192,192,459796,1,0,1:1:0:0:
448,192,459796,1,0,1:1:0:0:
64,192,459866,1,0,1:1:0:0:
320,192,459936,1,0,1:1:0:0:
64,192,460006,1,0,1:1:0:0:
192,192,460006,1,0,1:1:0:0:
320,192,460076,1,0,1:1:0:0:
448,192,460076,1,0,1:1:0:0:
192,192,460146,1,0,1:1:0:0:
448,192,460216,1,0,1:1:0:0:
64,192,460286,1,0,1:1:0:0:
192,192,460356,1,0,1:1:0:0:
64,192,460426,1,0,1:1:0:0:
448,192,460473,1,0,1:1:0:0:
320,192,460520,1,0,1:1:0:0:
64,192,460567,1,0,1:1:0:0:
192,192,460567,1,0,1:1:0:0:
448,192,460637,1,0,1:1:0:0:
64,192,460707,1,0,1:1:0:0:
320,192,460707,1,0,1:1:0:0:
192,192,460777,1,0,1:1:0:0:
448,192,460777,1,0,1:1:0:0:
64,192,460847,1,0,1:1:0:0:
320,192,460847,1,0,1:1:0:0:
192,192,460917,1,0,1:1:0:0:
320,192,460987,1,0,1:1:0:0:
448,192,460987,1,0,1:1:0:0:
64,192,461057,1,0,1:1:0:0:
320,192,461127,1,0,1:1:0:0:
448,192,461127,1,0,1:1:0:0:
64,192,461197,1,0,1:1:0:0:
192,192,461197,1,0,1:1:0:0:
320,192,461267,1,0,1:1:0:0:
448,192,461267,1,0,1:1:0:0:
192,192,461338,1,0,1:1:0:0:
64,192,461408,1,0,1:1:0:0:
320,192,461408,1,0,1:1:0:0:
448,192,461478,1,0,1:1:0:0:
64,192,461548,1,0,1:1:0:0:
192,192,461548,1,0,1:1:0:0:
320,192,461618,1,0,1:1:0:0:
448,192,461618,1,0,1:1:0:0:
64,192,461688,1,0,1:1:0:0:
192,192,461688,1,0,1:1:0:0:
320,192,461758,1,0,1:1:0:0:
192,192,461828,1,0,1:1:0:0:
448,192,461828,1,0,1:1:0:0:
320,192,461898,1,0,1:1:0:0:
64,192,461968,1,0,1:1:0:0:
192,192,461968,1,0,1:1:0:0:
448,192,462039,1,0,1:1:0:0:
64,192,462109,1,0,1:1:0:0:
320,192,462109,1,0,1:1:0:0:
192,192,462179,1,0,1:1:0:0:
320,192,462249,1,0,1:1:0:0:
448,192,462249,1,0,1:1:0:0:
64,192,462319,1,0,1:1:0:0:
192,192,462319,1,0,1:1:0:0:
320,192,462389,1,0,1:1:0:0:
448,192,462389,1,0,1:1:0:0:
64,192,462459,1,0,1:1:0:0:
192,192,462529,1,0,1:1:0:0:
448,192,462529,1,0,1:1:0:0:
64,192,462599,1,0,1:1:0:0:
320,192,462599,1,0,1:1:0:0:
192,192,462669,1,0,1:1:0:0:
448,192,462669,1,0,1:1:0:0:
320,192,462739,1,0,1:1:0:0:
64,192,462810,1,0,1:1:0:0:
192,192,462810,1,0,1:1:0:0:
448,192,462880,1,0,1:1:0:0:
64,192,462950,1,0,1:1:0:0:
192,192,462950,1,0,1:1:0:0:
448,192,463020,1,0,1:1:0:0:
192,192,463090,1,0,1:1:0:0:
320,192,463090,1,0,1:1:0:0:
64,192,463160,1,0,1:1:0:0:
448,192,463160,1,0,1:1:0:0:
192,192,463230,1,0,1:1:0:0:
320,192,463230,1,0,1:1:0:0:
64,192,463300,1,0,1:1:0:0:
448,192,463300,1,0,1:1:0:0:
192,192,463370,1,0,1:1:0:0:
320,192,463370,1,0,1:1:0:0:
64,192,463440,1,0,1:1:0:0:
192,192,463510,1,0,1:1:0:0:
448,192,463510,1,0,1:1:0:0:
320,192,463581,1,0,1:1:0:0:
64,192,463651,1,0,1:1:0:0:
192,192,463651,1,0,1:1:0:0:
448,192,463721,1,0,1:1:0:0:
64,192,463791,1,0,1:1:0:0:
320,192,463791,1,0,1:1:0:0:
192,192,463861,1,0,1:1:0:0:
320,192,463931,1,0,1:1:0:0:
448,192,463931,1,0,1:1:0:0:
64,192,464001,1,0,1:1:0:0:
320,192,464071,1,0,1:1:0:0:
448,192,464071,1,0,1:1:0:0:
64,192,464141,1,0,1:1:0:0:
192,192,464211,1,0,1:1:0:0:
448,192,464211,1,0,1:1:0:0:
320,192,464282,1,0,1:1:0:0:
64,192,464352,1,0,1:1:0:0:
192,192,464352,1,0,1:1:0:0:
320,192,464422,1,0,1:1:0:0:
448,192,464422,1,0,1:1:0:0:
64,192,464492,1,0,1:1:0:0:
192,192,464492,1,0,1:1:0:0:
448,192,464562,1,0,1:1:0:0:
64,192,464632,1,0,1:1:0:0:
320,192,464632,1,0,1:1:0:0:
192,192,464702,1,0,1:1:0:0:
320,192,464772,1,0,1:1:0:0:
448,192,464772,1,0,1:1:0:0:
64,192,464842,1,0,1:1:0:0:
192,192,464912,1,0,1:1:0:0:
448,192,464912,1,0,1:1:0:0:
320,192,464982,1,0,1:1:0:0:
64,192,465053,1,0,1:1:0:0:
192,192,465099,1,0,1:1:0:0:
320,192,465146,1,0,1:1:0:0:
64,192,465193,1,0,1:1:0:0:
192,192,465239,1,0,1:1:0:0:
448,192,465286,1,0,1:1:0:0:
64,192,465333,1,0,1:1:0:0:
320,192,465333,1,0,1:1:0:0:
192,192,465403,1,0,1:1:0:0:
320,192,465473,1,0,1:1:0:0:
448,192,465473,1,0,1:1:0:0:
192,192,465543,1,0,1:1:0:0:
64,192,465613,1,0,1:1:0:0:
448,192,465613,1,0,1:1:0:0:
320,192,465683,1,0,1:1:0:0:
192,192,465753,1,0,1:1:0:0:
448,192,465753,1,0,1:1:0:0:
64,192,465824,1,0,1:1:0:0:
192,192,465894,1,0,1:1:0:0:
448,192,465894,1,0,1:1:0:0:
320,192,465964,1,0,1:1:0:0:
64,192,466034,1,0,1:1:0:0:
192,192,466034,1,0,1:1:0:0:
320,192,466104,1,0,1:1:0:0:
448,192,466104,1,0,1:1:0:0:
64,192,466174,1,0,1:1:0:0:
192,192,466174,1,0,1:1:0:0:
448,192,466244,1,0,1:1:0:0:
64,192,466314,1,0,1:1:0:0:
320,192,466314,1,0,1:1:0:0:
192,192,466384,1,0,1:1:0:0:
64,192,466454,1,0,1:1:0:0:
448,192,466454,1,0,1:1:0:0:
320,192,466525,1,0,1:1:0:0:
64,192,466595,1,0,1:1:0:0:
192,192,466595,1,0,1:1:0:0:
448,192,466665,1,0,1:1:0:0:
64,192,466735,1,0,1:1:0:0:
192,192,466735,1,0,1:1:0:0:
320,192,466735,1,0,1:1:0:0:
448,192,466805,1,0,1:1:0:0:
64,192,466875,1,0,1:1:0:0:
320,192,466875,1,0,1:1:0:0:
192,192,466945,1,0,1:1:0:0:
64,192,467015,1,0,1:1:0:0:
448,192,467015,1,0,1:1:0:0:
320,192,467085,1,0,1:1:0:0:
64,192,467155,1,0,1:1:0:0:
192,192,467155,1,0,1:1:0:0:
448,192,467155,1,0,1:1:0:0:
320,192,467225,1,0,1:1:0:0:
192,192,467296,1,0,1:1:0:0:
448,192,467296,1,0,1:1:0:0:
64,192,467366,1,0,1:1:0:0:
320,192,467436,1,0,1:1:0:0:
448,192,467436,1,0,1:1:0:0:
64,192,467506,1,0,1:1:0:0:
320,192,467576,1,0,1:1:0:0:
448,192,467576,1,0,1:1:0:0:
192,192,467716,1,0,1:1:0:0:
64,192,467856,1,0,1:1:0:0:
320,192,467856,1,0,1:1:0:0:
448,192,467926,1,0,1:1:0:0:
64,192,467996,1,0,1:1:0:0:
320,192,467996,1,0,1:1:0:0:
192,192,468067,1,0,1:1:0:0:
320,192,468137,1,0,1:1:0:0:
448,192,468137,1,0,1:1:0:0:
64,192,468207,1,0,1:1:0:0:
192,192,468277,1,0,1:1:0:0:
448,192,468277,1,0,1:1:0:0:
320,192,468347,1,0,1:1:0:0:
64,192,468417,1,0,1:1:0:0:
192,192,468417,1,0,1:1:0:0:
448,192,468487,1,0,1:1:0:0:
64,192,468557,1,0,1:1:0:0:
320,192,468557,1,0,1:1:0:0:
192,192,468627,1,0,1:1:0:0:
320,192,468697,1,0,1:1:0:0:
448,192,468697,1,0,1:1:0:0:
64,192,468767,1,0,1:1:0:0:
320,192,468838,1,0,1:1:0:0:
448,192,468838,1,0,1:1:0:0:
64,192,468908,1,0,1:1:0:0:
192,192,468908,1,0,1:1:0:0:
320,192,468978,1,0,1:1:0:0:
448,192,468978,1,0,1:1:0:0:
192,192,469048,1,0,1:1:0:0:
64,192,469118,1,0,1:1:0:0:
320,192,469118,1,0,1:1:0:0:
448,192,469188,1,0,1:1:0:0:
64,192,469258,1,0,1:1:0:0:
192,192,469258,1,0,1:1:0:0:
320,192,469328,1,0,1:1:0:0:
192,192,469398,1,0,1:1:0:0:
448,192,469398,1,0,1:1:0:0:
64,192,469468,1,0,1:1:0:0:
448,192,469539,1,0,1:1:0:0:
320,192,469539,1,0,1:1:0:0:
64,192,469609,1,0,1:1:0:0:
192,192,469679,1,0,1:1:0:0:
448,192,469679,1,0,1:1:0:0:
320,192,469749,1,0,1:1:0:0:
64,192,469819,1,0,1:1:0:0:
192,192,469819,1,0,1:1:0:0:
448,192,469889,1,0,1:1:0:0:
64,192,469959,1,0,1:1:0:0:
320,192,469959,1,0,1:1:0:0:
192,192,470029,1,0,1:1:0:0:
320,192,470099,1,0,1:1:0:0:
448,192,470099,1,0,1:1:0:0:
64,192,470169,1,0,1:1:0:0:
192,192,470239,1,0,1:1:0:0:
448,192,470239,1,0,1:1:0:0:
320,192,470310,1,0,1:1:0:0:
64,192,470380,1,0,1:1:0:0:
192,192,470380,1,0,1:1:0:0:
448,192,470450,1,0,1:1:0:0:
64,192,470520,1,0,1:1:0:0:
192,192,470520,1,0,1:1:0:0:
448,192,470590,1,0,1:1:0:0:
64,192,470660,1,0,1:1:0:0:
320,192,470660,1,0,1:1:0:0:
192,192,470730,1,0,1:1:0:0:
320,192,470800,1,0,1:1:0:0:
448,192,470800,1,0,1:1:0:0:
64,192,470870,1,0,1:1:0:0:
320,192,470940,1,0,1:1:0:0:
448,192,470940,1,0,1:1:0:0:
64,192,471010,1,0,1:1:0:0:
192,192,471081,1,0,1:1:0:0:
448,192,471081,1,0,1:1:0:0:
320,192,471151,1,0,1:1:0:0:
64,192,471221,1,0,1:1:0:0:
448,192,471221,1,0,1:1:0:0:
192,192,471291,1,0,1:1:0:0:
64,192,471361,1,0,1:1:0:0:
448,192,471361,1,0,1:1:0:0:
192,192,471431,1,0,1:1:0:0:
320,192,471501,1,0,1:1:0:0:
448,192,471501,1,0,1:1:0:0:
64,192,471571,1,0,1:1:0:0:
192,192,471641,1,0,1:1:0:0:
448,192,471641,1,0,1:1:0:0:
64,192,471711,1,0,1:1:0:0:
320,192,471711,1,0,1:1:0:0:
192,192,471782,1,0,1:1:0:0:
448,192,471782,1,0,1:1:0:0:
320,192,471852,1,0,1:1:0:0:
64,192,471922,1,0,1:1:0:0:
192,192,471922,1,0,1:1:0:0:
320,192,471992,1,0,1:1:0:0:
64,192,472062,1,0,1:1:0:0:
448,192,472062,1,0,1:1:0:0:
192,192,472132,1,0,1:1:0:0:
320,192,472202,1,0,1:1:0:0:
448,192,472202,1,0,1:1:0:0:
192,192,472272,1,0,1:1:0:0:
320,192,472342,1,0,1:1:0:0:
448,192,472342,1,0,1:1:0:0:
64,192,472412,1,0,1:1:0:0:
192,192,472482,1,0,1:1:0:0:
448,192,472482,1,0,1:1:0:0:
320,192,472553,1,0,1:1:0:0:
64,192,472623,1,0,1:1:0:0:
192,192,472623,1,0,1:1:0:0:
448,192,472693,1,0,1:1:0:0:
64,192,472763,1,0,1:1:0:0:
320,192,472763,1,0,1:1:0:0:
192,192,472833,1,0,1:1:0:0:
64,192,472903,1,0,1:1:0:0:
448,192,472903,1,0,1:1:0:0:
320,192,472973,1,0,1:1:0:0:
192,192,473043,1,0,1:1:0:0:
448,192,473043,1,0,1:1:0:0:
320,192,473113,1,0,1:1:0:0:
64,192,473183,1,0,1:1:0:0:
192,192,473183,1,0,1:1:0:0:
448,192,473253,1,0,1:1:0:0:
64,192,473324,1,0,1:1:0:0:
192,192,473324,1,0,1:1:0:0:
320,192,473394,1,0,1:1:0:0:
448,192,473394,1,0,1:1:0:0:
64,192,473464,1,0,1:1:0:0:
192,192,473464,1,0,1:1:0:0:
320,192,473534,1,0,1:1:0:0:
192,192,473604,1,0,1:1:0:0:
448,192,473604,1,0,1:1:0:0:
64,192,473674,1,0,1:1:0:0:
192,192,473744,1,0,1:1:0:0:
320,192,473744,1,0,1:1:0:0:
64,192,473814,1,0,1:1:0:0:
320,192,473884,1,0,1:1:0:0:
448,192,473884,1,0,1:1:0:0:
192,192,473954,1,0,1:1:0:0:
64,192,474025,1,0,1:1:0:0:
320,192,474025,1,0,1:1:0:0:
448,192,474095,1,0,1:1:0:0:
192,192,474165,1,0,1:1:0:0:
320,192,474165,1,0,1:1:0:0:
448,192,474235,1,0,1:1:0:0:
64,192,474305,1,0,1:1:0:0:
320,192,474305,1,0,1:1:0:0:
192,192,474375,1,0,1:1:0:0:
64,192,474445,1,0,1:1:0:0:
448,192,474445,1,0,1:1:0:0:
192,192,474515,1,0,1:1:0:0:
320,192,474585,1,0,1:1:0:0:
448,192,474585,1,0,1:1:0:0:
64,192,474655,1,0,1:1:0:0:
192,192,474725,1,0,1:1:0:0:
448,192,474725,1,0,1:1:0:0:
320,192,474796,1,0,1:1:0:0:
64,192,474866,1,0,1:1:0:0:
192,192,474866,1,0,1:1:0:0:
448,192,474936,1,0,1:1:0:0:
64,192,475006,1,0,1:1:0:0:
320,192,475006,1,0,1:1:0:0:
192,192,475076,1,0,1:1:0:0:
320,192,475146,1,0,1:1:0:0:
448,192,475146,1,0,1:1:0:0:
64,192,475216,1,0,1:1:0:0:
192,192,475286,1,0,1:1:0:0:
448,192,475286,1,0,1:1:0:0:
320,192,475356,1,0,1:1:0:0:
64,192,475426,1,0,1:1:0:0:
448,192,475426,1,0,1:1:0:0:
192,192,475496,1,0,1:1:0:0:
320,192,475567,1,0,1:1:0:0:
448,192,475567,1,0,1:1:0:0:
64,192,475637,1,0,1:1:0:0:
192,192,475707,1,0,1:1:0:0:
448,192,475707,1,0,1:1:0:0:
320,192,475777,1,0,1:1:0:0:
64,192,475847,1,0,1:1:0:0:
448,192,475847,1,0,1:1:0:0:
320,192,475917,1,0,1:1:0:0:
192,192,475987,1,0,1:1:0:0:
448,192,475987,1,0,1:1:0:0:
320,192,476057,1,0,1:1:0:0:
64,192,476127,1,0,1:1:0:0:
192,192,476127,1,0,1:1:0:0:
320,192,476197,1,0,1:1:0:0:
448,192,476197,1,0,1:1:0:0:
64,192,476267,1,0,1:1:0:0:
192,192,476267,1,0,1:1:0:0:
320,192,476408,1,0,1:1:0:0:
64,192,476828,1,0,1:1:0:0:
192,192,476828,1,0,1:1:0:0:
448,192,476898,1,0,1:1:0:0:
320,192,476968,1,0,1:1:0:0:
64,192,477039,1,0,1:1:0:0:
192,192,477109,1,0,1:1:0:0:
448,192,477109,1,0,1:1:0:0:
320,192,477179,1,0,1:1:0:0:
64,192,477249,1,0,1:1:0:0:
448,192,477319,1,0,1:1:0:0:
192,192,477389,1,0,1:1:0:0:
320,192,477389,1,0,1:1:0:0:
64,192,477459,1,0,1:1:0:0:
448,192,477529,1,0,1:1:0:0:
192,192,477599,1,0,1:1:0:0:
64,192,477669,1,0,1:1:0:0:
320,192,477669,1,0,1:1:0:0:
448,192,477739,1,0,1:1:0:0:
64,192,477810,1,0,1:1:0:0:
320,192,477880,1,0,1:1:0:0:
64,192,477950,1,0,1:1:0:0:
192,192,477950,1,0,1:1:0:0:
448,192,478020,1,0,1:1:0:0:
64,192,478090,1,0,1:1:0:0:
320,192,478160,1,0,1:1:0:0:
192,192,478230,1,0,1:1:0:0:
448,192,478230,1,0,1:1:0:0:
64,192,478300,1,0,1:1:0:0:
448,192,478370,1,0,1:1:0:0:
320,192,478440,1,0,1:1:0:0:
64,192,478510,1,0,1:1:0:0:
192,192,478510,1,0,1:1:0:0:
448,192,478581,1,0,1:1:0:0:
64,192,478651,1,0,1:1:0:0:
320,192,478721,1,0,1:1:0:0:
192,192,478791,1,0,1:1:0:0:
448,192,478791,1,0,1:1:0:0:
64,192,478861,1,0,1:1:0:0:
448,192,478931,1,0,1:1:0:0:
192,192,479001,1,0,1:1:0:0:
320,192,479071,1,0,1:1:0:0:
448,192,479071,1,0,1:1:0:0:
64,192,479141,1,0,1:1:0:0:
320,192,479211,1,0,1:1:0:0:
192,192,479282,1,0,1:1:0:0:
64,192,479352,1,0,1:1:0:0:
320,192,479352,1,0,1:1:0:0:
448,192,479422,1,0,1:1:0:0:
64,192,479492,1,0,1:1:0:0:
320,192,479562,1,0,1:1:0:0:
64,192,479632,1,0,1:1:0:0:
192,192,479632,1,0,1:1:0:0:
448,192,479702,1,0,1:1:0:0:
64,192,479772,1,0,1:1:0:0:
320,192,479842,1,0,1:1:0:0:
192,192,479912,1,0,1:1:0:0:
448,192,479912,1,0,1:1:0:0:
64,192,479982,1,0,1:1:0:0:
320,192,480053,1,0,1:1:0:0:
192,192,480123,1,0,1:1:0:0:
320,192,480193,1,0,1:1:0:0:
448,192,480193,1,0,1:1:0:0:
64,192,480263,1,0,1:1:0:0:
448,192,480333,1,0,1:1:0:0:
192,192,480403,1,0,1:1:0:0:
64,192,480473,1,0,1:1:0:0:
320,192,480473,1,0,1:1:0:0:
448,192,480543,1,0,1:1:0:0:
64,192,480613,1,0,1:1:0:0:
320,192,480683,1,0,1:1:0:0:
64,192,480753,1,0,1:1:0:0:
192,192,480753,1,0,1:1:0:0:
448,192,480824,1,0,1:1:0:0:
192,192,480894,1,0,1:1:0:0:
320,192,480964,1,0,1:1:0:0:
64,192,481034,1,0,1:1:0:0:
192,192,481034,1,0,1:1:0:0:
320,192,481314,1,0,1:1:0:0:
448,192,481314,1,0,1:1:0:0:
64,192,481384,1,0,1:1:0:0:
192,192,481454,1,0,1:1:0:0:
448,192,481525,1,0,1:1:0:0:
64,192,481595,1,0,1:1:0:0:
320,192,481595,1,0,1:1:0:0:
192,192,481665,1,0,1:1:0:0:
448,192,481735,1,0,1:1:0:0:
64,192,481805,1,0,1:1:0:0:
192,192,481875,1,0,1:1:0:0:
320,192,481875,1,0,1:1:0:0:
448,192,481945,1,0,1:1:0:0:
64,192,482015,1,0,1:1:0:0:
320,192,482085,1,0,1:1:0:0:
192,192,482155,1,0,1:1:0:0:
448,192,482155,1,0,1:1:0:0:
64,192,482225,1,0,1:1:0:0:
448,192,482296,1,0,1:1:0:0:
192,192,482366,1,0,1:1:0:0:
320,192,482436,1,0,1:1:0:0:
448,192,482436,1,0,1:1:0:0:
64,192,482506,1,0,1:1:0:0:
448,192,482576,1,0,1:1:0:0:
192,192,482646,1,0,1:1:0:0:
64,192,482716,1,0,1:1:0:0:
320,192,482716,1,0,1:1:0:0:
448,192,482786,1,0,1:1:0:0:
64,192,482856,1,0,1:1:0:0:
192,192,482926,1,0,1:1:0:0:
320,192,482996,1,0,1:1:0:0:
448,192,482996,1,0,1:1:0:0:
64,192,483067,1,0,1:1:0:0:
448,192,483137,1,0,1:1:0:0:
192,192,483207,1,0,1:1:0:0:
64,192,483277,1,0,1:1:0:0:
320,192,483277,1,0,1:1:0:0:
448,192,483347,1,0,1:1:0:0:
64,192,483417,1,0,1:1:0:0:
320,192,483487,1,0,1:1:0:0:
64,192,483557,1,0,1:1:0:0:
192,192,483557,1,0,1:1:0:0:
448,192,483627,1,0,1:1:0:0:
192,192,483697,1,0,1:1:0:0:
320,192,483767,1,0,1:1:0:0:
192,192,483838,1,0,1:1:0:0:
448,192,483838,1,0,1:1:0:0:
64,192,483908,1,0,1:1:0:0:
448,192,483978,1,0,1:1:0:0:
192,192,484048,1,0,1:1:0:0:
320,192,484118,1,0,1:1:0:0:
448,192,484118,1,0,1:1:0:0:
64,192,484188,1,0,1:1:0:0:
448,192,484258,1,0,1:1:0:0:
192,192,484328,1,0,1:1:0:0:
64,192,484398,1,0,1:1:0:0:
320,192,484398,1,0,1:1:0:0:
448,192,484468,1,0,1:1:0:0:
192,192,484539,1,0,1:1:0:0:
320,192,484609,1,0,1:1:0:0:
64,192,484679,1,0,1:1:0:0:
192,192,484679,1,0,1:1:0:0:
448,192,484749,1,0,1:1:0:0:
64,192,484819,1,0,1:1:0:0:
320,192,484889,1,0,1:1:0:0:
192,192,484959,1,0,1:1:0:0:
448,192,484959,1,0,1:1:0:0:
64,192,485029,1,0,1:1:0:0:
448,192,485099,1,0,1:1:0:0:
192,192,485169,1,0,1:1:0:0:
320,192,485239,1,0,1:1:0:0:
448,192,485239,1,0,1:1:0:0:
64,192,485310,1,0,1:1:0:0:
320,192,485380,1,0,1:1:0:0:
192,192,485450,1,0,1:1:0:0:
320,192,485520,1,0,1:1:0:0:
448,192,485520,1,0,1:1:0:0:
64,192,485800,1,0,1:1:0:0:
192,192,485800,1,0,1:1:0:0:
448,192,485877,1,0,1:1:0:0:
320,192,485955,1,0,1:1:0:0:
64,192,486033,1,0,1:1:0:0:
192,192,486111,1,0,1:1:0:0:
448,192,486111,1,0,1:1:0:0:
320,192,486189,1,0,1:1:0:0:
64,192,486267,1,0,1:1:0:0:
448,192,486345,1,0,1:1:0:0:
192,192,486423,1,0,1:1:0:0:
320,192,486423,1,0,1:1:0:0:
64,192,486500,1,0,1:1:0:0:
448,192,486578,1,0,1:1:0:0:
192,192,486656,1,0,1:1:0:0:
64,192,486734,1,0,1:1:0:0:
320,192,486734,1,0,1:1:0:0:
448,192,486812,1,0,1:1:0:0:
64,192,486890,1,0,1:1:0:0:
320,192,486968,1,0,1:1:0:0:
64,192,487046,1,0,1:1:0:0:
192,192,487046,1,0,1:1:0:0:
448,192,487123,1,0,1:1:0:0:
192,192,487201,1,0,1:1:0:0:
320,192,487279,1,0,1:1:0:0:
192,192,487357,1,0,1:1:0:0:
448,192,487357,1,0,1:1:0:0:
64,192,487435,1,0,1:1:0:0:
448,192,487513,1,0,1:1:0:0:
192,192,487591,1,0,1:1:0:0:
320,192,487669,1,0,1:1:0:0:
448,192,487669,1,0,1:1:0:0:
64,192,487747,1,0,1:1:0:0:
320,192,487824,1,0,1:1:0:0:
192,192,487902,1,0,1:1:0:0:
64,192,487980,1,0,1:1:0:0:
320,192,487980,1,0,1:1:0:0:
448,192,488058,1,0,1:1:0:0:
192,192,488136,1,0,1:1:0:0:
320,192,488214,1,0,1:1:0:0:
64,192,488292,1,0,1:1:0:0:
192,192,488292,1,0,1:1:0:0:
448,192,488370,1,0,1:1:0:0:
64,192,488447,1,0,1:1:0:0:
320,192,488525,1,0,1:1:0:0:
64,192,488603,1,0,1:1:0:0:
192,192,488603,1,0,1:1:0:0:
448,192,488681,1,0,1:1:0:0:
192,192,488759,1,0,1:1:0:0:
320,192,488837,1,0,1:1:0:0:
192,192,488915,1,0,1:1:0:0:
448,192,488915,1,0,1:1:0:0:
64,192,488993,1,0,1:1:0:0:
320,192,489071,1,0,1:1:0:0:
192,192,489148,1,0,1:1:0:0:
320,192,489226,1,0,1:1:0:0:
448,192,489226,1,0,1:1:0:0:
64,192,489304,1,0,1:1:0:0:
320,192,489382,1,0,1:1:0:0:
192,192,489460,1,0,1:1:0:0:
64,192,489538,1,0,1:1:0:0:
320,192,489538,1,0,1:1:0:0:
448,192,489616,1,0,1:1:0:0:
192,192,489694,1,0,1:1:0:0:
320,192,489771,1,0,1:1:0:0:
64,192,489849,1,0,1:1:0:0:
192,192,489849,1,0,1:1:0:0:
448,192,489927,1,0,1:1:0:0:
64,192,490005,1,0,1:1:0:0:
320,192,490083,1,0,1:1:0:0:
64,192,490161,1,0,1:1:0:0:
192,192,490161,1,0,1:1:0:0:
320,192,490239,1,0,1:1:0:0:
192,192,490317,1,0,1:1:0:0:
448,192,490395,1,0,1:1:0:0:
64,192,490472,1,0,1:1:0:0:
192,192,490472,1,0,1:1:0:0:
320,192,490785,1,0,1:1:0:0:
448,192,490785,1,0,1:1:0:0:
64,192,490872,1,0,1:1:0:0:
192,192,490960,1,0,1:1:0:0:
448,192,491047,1,0,1:1:0:0:
64,192,491135,1,0,1:1:0:0:
320,192,491135,1,0,1:1:0:0:
192,192,491223,1,0,1:1:0:0:
448,192,491310,1,0,1:1:0:0:
64,192,491398,1,0,1:1:0:0:
192,192,491485,1,0,1:1:0:0:
320,192,491485,1,0,1:1:0:0:
448,192,491573,1,0,1:1:0:0:
64,192,491661,1,0,1:1:0:0:
320,192,491748,1,0,1:1:0:0:
192,192,491836,1,0,1:1:0:0:
448,192,491836,1,0,1:1:0:0:
64,192,491924,1,0,1:1:0:0:
320,192,492011,1,0,1:1:0:0:
192,192,492099,1,0,1:1:0:0:
320,192,492186,1,0,1:1:0:0:
448,192,492186,1,0,1:1:0:0:
64,192,492274,1,0,1:1:0:0:
448,192,492362,1,0,1:1:0:0:
192,192,492449,1,0,1:1:0:0:
320,192,492537,1,0,1:1:0:0:
448,192,492537,1,0,1:1:0:0:
64,192,492624,1,0,1:1:0:0:
320,192,492712,1,0,1:1:0:0:
192,192,492800,1,0,1:1:0:0:
64,192,492887,1,0,1:1:0:0:
320,192,492887,1,0,1:1:0:0:
448,192,492975,1,0,1:1:0:0:
192,192,493063,1,0,1:1:0:0:
320,192,493150,1,0,1:1:0:0:
64,192,493238,1,0,1:1:0:0:
192,192,493238,1,0,1:1:0:0:
448,192,493325,1,0,1:1:0:0:
64,192,493413,1,0,1:1:0:0:
320,192,493501,1,0,1:1:0:0:
64,192,493588,1,0,1:1:0:0:
192,192,493588,1,0,1:1:0:0:
448,192,493676,1,0,1:1:0:0:
192,192,493763,1,0,1:1:0:0:
320,192,493851,1,0,1:1:0:0:
192,192,493939,1,0,1:1:0:0:
448,192,493939,1,0,1:1:0:0:
64,192,494026,1,0,1:1:0:0:
320,192,494114,1,0,1:1:0:0:
192,192,494202,1,0,1:1:0:0:
320,192,494289,1,0,1:1:0:0:
448,192,494289,1,0,1:1:0:0:
64,192,494377,1,0,1:1:0:0:
448,192,494464,1,0,1:1:0:0:
192,192,494552,1,0,1:1:0:0:
320,192,494640,1,0,1:1:0:0:
448,192,494640,1,0,1:1:0:0:
64,192,494727,1,0,1:1:0:0:
320,192,494815,1,0,1:1:0:0:
192,192,494902,1,0,1:1:0:0:
64,192,494990,1,0,1:1:0:0:
320,192,494990,1,0,1:1:0:0:
448,192,495078,1,0,1:1:0:0:
192,192,495165,1,0,1:1:0:0:
320,192,495253,1,0,1:1:0:0:
64,192,495341,1,0,1:1:0:0:
192,192,495341,1,0,1:1:0:0:
448,192,495428,1,0,1:1:0:0:
64,192,495516,1,0,1:1:0:0:
320,192,495603,1,0,1:1:0:0:
64,192,495691,1,0,1:1:0:0:
192,192,495691,1,0,1:1:0:0:
448,192,495779,1,0,1:1:0:0:
192,192,495866,1,0,1:1:0:0:
320,192,495954,1,0,1:1:0:0:
192,192,496042,1,0,1:1:0:0:
448,192,496042,1,0,1:1:0:0:
64,192,496388,1,0,1:1:0:0:
192,192,496388,1,0,1:1:0:0:
320,192,496488,1,0,1:1:0:0:
64,192,496588,1,0,1:1:0:0:
448,192,496688,1,0,1:1:0:0:
64,192,496789,1,0,1:1:0:0:
192,192,496789,1,0,1:1:0:0:
448,192,496897,1,0,1:1:0:0:
192,192,497005,1,0,1:1:0:0:
320,192,497113,1,0,1:1:0:0:
192,192,497221,1,0,1:1:0:0:
448,192,497221,1,0,1:1:0:0:
64,192,497364,1,0,1:1:0:0:
320,192,497507,1,0,1:1:0:0:
192,192,497650,1,0,1:1:0:0:
320,192,497793,1,0,1:1:0:0:
448,192,497793,1,0,1:1:0:0:
64,192,497947,1,0,1:1:0:0:
320,192,498101,1,0,1:1:0:0:
192,192,498255,1,0,1:1:0:0:
320,192,498410,1,0,1:1:0:0:
448,192,498410,1,0,1:1:0:0:
64,192,498615,1,0,1:1:0:0:
320,192,498820,1,0,1:1:0:0:
192,192,499025,1,0,1:1:0:0:
64,192,499230,1,0,1:1:0:0:
448,192,499230,1,0,1:1:0:0:
320,192,499450,1,0,1:1:0:0:
192,192,499670,1,0,1:1:0:0:
64,192,499890,1,0,1:1:0:0:
448,192,500111,1,0,1:1:0:0:
