osu file format v14

[General]
AudioFilename: audio.mp3
AudioLeadIn: 0
PreviewTime: 65391
Countdown: 0
SampleSet: Soft
StackLeniency: 0.9
Mode: 0
LetterboxInBreaks: 0
WidescreenStoryboard: 1

[Editor]
DistanceSpacing: 1.2
BeatDivisor: 2
GridSize: 32
TimelineZoom: 1.5

[Metadata]
Title:Words (feat. Laura Brehm)
TitleUnicode:Words (feat. Laura Brehm)
Artist:Feint
ArtistUnicode:Feint
Creator:MrMenda
Version:Misery's Normal
Source:
Tags:Laura Brehm best waifu DnB Drum and Bass Monstercat Celektus Misery
BeatmapID:1631191
BeatmapSetID:759581

[Difficulty]
HPDrainRate:4
CircleSize:3.5
OverallDifficulty:4.5
ApproachRate:5
SliderMultiplier:1
SliderTickRate:1

[Events]
//Background and Video events
0,0,"xTxC5KH.jpg",0,0
//Break Periods
2,46020,52877
//Storyboard Layer 0 (Background)
//Storyboard Layer 1 (Fail)
//Storyboard Layer 2 (Pass)
//Storyboard Layer 3 (Foreground)
//Storyboard Sound Samples

[TimingPoints]
1449,342.857142857143,4,2,0,50,1,0
23391,-100,4,2,0,50,0,0
56306,-100,4,2,0,60,0,0
61791,-100,4,2,0,65,0,0
64534,-100,4,2,0,70,0,0
65906,-100,4,2,0,75,0,0
67277,-100,4,2,0,80,0,1
89220,-100,4,2,0,50,0,0

[Colours]
Combo1 : 255,0,0
Combo2 : 255,128,64
Combo3 : 255,128,128
Combo4 : 255,128,0

[HitObjects]
256,192,20649,12,0,22706,0:0:0:0:
64,64,23391,6,0,P|109:46|150:71,1,100
193,114,23906,2,0,L|257:108,1,50
363,98,24420,1,0,0:0:0:0:
363,98,24591,2,0,P|379:141|373:193,1,100
334,240,25106,2,0,L|271:245,1,50
245,198,25449,2,0,P|202:182|150:188,1,100
37,230,26134,6,0,P|20:274|45:315,1,100
87,359,26649,2,0,L|151:353,1,50
256,337,27163,1,0,0:0:0:0:
256,337,27334,2,0,P|300:321|352:327,1,100
406,355,27849,2,0,L|412:291,1,50
453,263,28191,2,0,L|503:267,2,50
336,239,28877,6,0,P|293:223|241:229,1,100
192,263,29391,2,0,L|187:199,1,50
158,98,29906,1,0,0:0:0:0:
158,98,30077,2,0,P|201:82|253:88,1,100
303,123,30591,2,0,P|335:139|367:139,1,50
398,105,30934,2,0,L|408:216,1,100
356,313,31620,6,0,P|313:329|261:323,1,100
223,275,32134,2,0,P|174:268|128:284,1,100
88,320,32649,1,0,0:0:0:0:
51,272,32820,2,0,L|63:144,1,100
107,133,33334,2,0,P|131:125|156:125,2,50
288,288,34363,6,0,P|337:295|383:279,1,100
433,244,34877,2,0,L|439:180,1,50
412,77,35391,1,0,0:0:0:0:
412,77,35563,2,0,P|369:61|317:67,1,100
271,107,36077,2,0,L|265:171,1,50
223,197,36420,2,0,P|174:203|128:187,1,100
30,118,37106,6,0,L|19:245,1,100
48,271,37620,2,0,L|112:276,1,50
218,286,38134,1,0,0:0:0:0:
218,286,38306,2,0,P|268:279|314:295,1,100
352,340,38820,2,0,P|384:356|416:356,1,50
446,327,39163,2,0,L|452:263,2,50
374,230,39849,6,0,P|367:181|383:135,1,100
412,81,40363,2,0,L|333:74,1,50
243,66,40877,1,0,0:0:0:0:
243,66,41048,2,0,P|260:112|253:161,1,100
213,207,41563,2,0,L|164:211,1,50
118,171,41906,2,0,P|72:154|23:161,1,100
22,282,42591,6,0,L|150:293,1,100
168,328,43106,1,0,0:0:0:0:
168,328,43277,2,0,L|296:316,1,100
256,192,43963,12,0,45335,0:0:0:0:
256,192,54248,12,0,56305,0:0:0:0:
16,352,56991,6,0,P|8:305|24:258,1,100
75,222,57506,1,0,0:0:0:0:
133,235,57677,2,0,L|196:241,1,50
351,301,58363,6,0,P|398:309|445:293,1,100
481,242,58878,1,0,0:0:0:0:
468,184,59049,2,0,L|462:121,1,50
315,33,59734,6,0,P|267:25|220:41,1,100
185,92,60249,1,0,0:0:0:0:
172,151,60420,2,0,L|166:215,1,50
282,339,61106,6,0,L|291:228,1,100
302,119,61791,2,0,P|346:103|395:111,1,100
473,204,62477,2,0,P|428:221|379:213,1,100
302,119,63163,2,0,P|257:103|208:111,1,100
130,204,63849,2,0,L|121:304,1,100
256,192,64534,12,0,66591,0:0:0:0:
464,32,67277,6,0,P|483:77|472:125,1,100
436,175,67791,1,0,0:0:0:0:
323,135,68134,2,0,L|259:130,1,50
174,65,68649,2,0,P|120:86|92:126,1,100
111,238,69334,2,0,L|116:302,1,50
160,327,69677,2,0,L|224:322,1,50
260,291,70020,6,0,P|305:272|353:283,1,100
403,319,70534,1,0,0:0:0:0:
471,221,70877,2,0,L|466:157,1,50
389,81,71391,2,0,P|348:54|298:51,1,100
178,61,72077,2,0,L|114:66,1,50
89,110,72420,2,0,L|94:174,1,50
137,200,72763,6,0,P|182:219|230:208,1,100
280,172,73277,1,0,0:0:0:0:
358,82,73620,2,0,L|422:87,1,50
497,164,74134,2,0,P|500:204|478:258,1,100
384,335,74820,2,0,L|334:339,2,50
353,219,75506,6,0,P|308:200|260:211,1,100
210,247,76020,1,0,0:0:0:0:
132,337,76363,2,0,L|82:341,1,50
16,243,76877,2,0,P|12:204|34:150,1,100
133,83,77563,2,0,L|182:79,1,50
234,110,77906,2,0,L|283:114,1,50
328,74,78249,6,0,P|373:55|421:66,1,100
471,102,78763,1,0,0:0:0:0:
460,221,79106,2,0,L|456:270,1,50
363,348,79620,2,0,P|326:361|268:354,1,100
175,278,80306,2,0,L|125:275,2,50
252,186,80991,6,0,P|297:167|345:178,1,100
395,214,81505,1,0,0:0:0:0:
486,137,81849,2,0,L|483:88,1,50
383,22,82363,2,0,L|334:18,1,50
282,49,82706,2,0,L|233:53,1,50
179,26,83049,2,0,P|125:47|97:87,1,100
58,193,83734,6,0,P|103:212|151:201,1,100
201,165,84248,1,0,0:0:0:0:
299,99,84591,2,0,L|348:103,1,50
438,181,85106,2,0,P|441:221|419:275,1,100
325,352,85792,2,0,L|225:342,1,100
256,192,86477,12,0,89220,0:0:0:0:
