osu file format v14

[General]
AudioFilename: audio.mp3
AudioLeadIn: 0
PreviewTime: -1
Countdown: 1
SampleSet: None
StackLeniency: 0.7
Mode: 0
LetterboxInBreaks: 0
WidescreenStoryboard: 0

[Editor]
DistanceSpacing: 1.3
BeatDivisor: 2
GridSize: 4
TimelineZoom: 1

[Metadata]
Title:Challenge for Mr.Wash
TitleUnicode:Challenge for Mr.Wash
Artist:Feint-The journey ft. Veela
ArtistUnicode:Feint-The journey ft. Veela
Creator:Lotroli
Version:Speed challenge Lv.1
Source:
Tags:
BeatmapID:1519341
BeatmapSetID:719476

[Difficulty]
HPDrainRate:3
CircleSize:3
OverallDifficulty:6
ApproachRate:7
SliderMultiplier:1.5
SliderTickRate:1

[Events]
//Background and Video events
0,0,"1439486096876.jpg",0,0
//Break Periods
//Storyboard Layer 0 (Background)
//Storyboard Layer 1 (Fail)
//Storyboard Layer 2 (Pass)
//Storyboard Layer 3 (Foreground)
//Storyboard Sound Samples

[TimingPoints]
3599,348.837209302326,4,2,0,100,1,0
3599,-100,4,2,0,80,0,0
25924,-90.9090909090909,4,2,0,100,0,1

[HitObjects]
48,68,3599,6,4,P|112:44|192:76,1,150
332,152,4296,1,4,0:0:0:0:
284,68,4471,1,0,0:0:0:0:
240,156,4645,1,4,0:0:0:0:
304,228,4819,2,0,P|240:248|156:220,1,150
160,144,5517,6,0,L|72:120,1,75,0|4,0:0|0:0,0:0:0:0:
72,220,5866,1,0,0:0:0:0:
88,316,6040,2,0,L|176:340,1,75,4|0,0:0|0:0,0:0:0:0:
256,352,6389,6,4,P|336:348|392:300,1,150
460,180,7087,1,4,0:0:0:0:
460,276,7261,1,0,0:0:0:0:
376,224,7436,1,4,0:0:0:0:
308,156,7610,2,0,P|244:116|172:148,1,150
372,184,8831,5,4,0:0:0:0:
292,96,9180,2,0,B|208:48|196:208|88:148,1,225,4|0,0:0|0:0,0:0:0:0:
84,232,10226,1,4,0:0:0:0:
148,304,10575,2,4,P|232:320|280:276,1,150
352,196,11622,6,4,P|408:268|380:328,2,150
220,136,12668,1,4,0:0:0:0:
316,124,12843,1,0,0:0:0:0:
276,212,13017,1,4,0:0:0:0:
228,292,13366,2,0,P|188:300|140:272,1,75,4|0,0:0|0:0,0:0:0:0:
96,200,13889,2,0,B|124:148|200:192|200:192|220:188|232:108|300:152,1,225,0|4,0:0|0:0,0:0:0:0:
108,108,14761,6,4,P|92:168|112:256,1,150
260,288,15459,1,4,0:0:0:0:
168,320,15633,1,0,0:0:0:0:
188,224,15808,1,4,0:0:0:0:
264,164,15982,2,0,P|208:136|116:160,1,150
316,44,16680,6,0,L|336:128,1,75,0|4,0:0|0:0,0:0:0:0:
260,184,17029,1,0,0:0:0:0:
165,157,17203,2,0,L|145:73,1,75,4|0,0:0|0:0,0:0:0:0:
60,132,17552,6,4,P|68:228|116:264,1,150
244,320,18250,1,4,0:0:0:0:
148,332,18424,1,0,0:0:0:0:
188,244,18599,1,4,0:0:0:0:
280,224,18773,2,0,P|304:128|244:96,1,150
136,132,19994,5,4,0:0:0:0:
136,268,20343,2,0,B|152:192|220:220|268:204|276:104,1,225,4|0,0:0|0:0,0:0:0:0:
280,32,21389,1,4,0:0:0:0:
168,60,21738,2,0,B|108:96|148:152|68:184|100:272|32:264,1,225,4|0,0:0|0:0,0:0:0:0:
356,280,22785,6,4,P|380:208|328:160,2,150
200,268,23831,1,4,0:0:0:0:
280,320,24005,1,0,0:0:0:0:
288,224,24180,1,4,0:0:0:0:
340,128,24529,2,0,P|296:116|264:124,1,75,4|0,0:0|0:0,0:0:0:0:
176,124,25052,2,0,B|128:200|180:264|180:264|120:328,1,225,0|4,0:0|0:0,0:0:0:0:
212,132,25924,6,4,P|164:92|88:144,1,165.000005035401
112,280,26622,1,4,0:0:0:0:
216,300,26796,1,0,0:0:0:0:
236,196,26971,1,4,0:0:0:0:
292,108,27145,2,0,P|396:68|468:108,1,165.000005035401
196,64,27843,6,0,P|156:36|112:36,1,82.5000025177003,0|4,0:0|0:0,0:0:0:0:
128,140,28192,1,0,0:0:0:0:
80,232,28366,2,0,P|120:260|164:260,1,82.5000025177003,4|0,0:0|0:0,0:0:0:0:
244,204,28715,6,4,P|304:212|360:316,1,165.000005035401
216,304,29412,1,4,0:0:0:0:
116,268,29587,1,0,0:0:0:0:
152,168,29761,1,4,0:0:0:0:
224,76,29936,2,0,P|272:164|244:224,1,165.000005035401
124,144,31157,5,4,0:0:0:0:
192,224,31505,2,0,B|272:156|240:112|240:112|300:80|272:-4,1,247.500007553101,4|0,0:0|0:0,0:0:0:0:
392,72,32552,1,4,0:0:0:0:
396,176,32901,2,4,P|344:248|292:204,1,165.000005035401
188,72,33947,6,4,P|116:128|104:204,2,165.000005035401
296,80,34994,1,4,0:0:0:0:
372,156,35168,1,0,0:0:0:0:
284,216,35343,1,4,0:0:0:0:
232,308,35692,2,0,P|180:312|144:304,1,82.5000025177003,4|0,0:0|0:0,0:0:0:0:
80,200,36215,2,0,B|164:148|200:112|340:204,1,247.500007553101,0|4,0:0|0:0,0:0:0:0:
68,56,37087,6,4,P|132:44|224:88,1,165.000005035401
184,176,37785,1,4,0:0:0:0:
80,144,37959,1,0,0:0:0:0:
116,44,38133,1,4,0:0:0:0:
220,72,38308,2,0,P|316:64|368:112,1,165.000005035401
136,60,39005,6,0,P|120:108|132:172,1,82.5000025177003,0|4,0:0|0:0,0:0:0:0:
220,180,39354,1,0,0:0:0:0:
324,152,39529,2,0,P|340:104|328:40,1,82.5000025177003,4|0,0:0|0:0,0:0:0:0:
240,32,39878,6,4,P|156:92|160:152,1,165.000005035401
232,228,40575,1,4,0:0:0:0:
312,156,40750,1,0,0:0:0:0:
240,76,40924,1,4,0:0:0:0:
152,148,41099,2,0,P|56:180|8:124,1,165.000005035401
204,64,42319,5,4,0:0:0:0:
312,144,42668,2,0,B|204:216|148:160|152:288|280:212,1,247.500007553101,4|0,0:0|0:0,0:0:0:0:
372,232,43715,1,4,0:0:0:0:
480,120,44064,2,0,B|392:36|424:-28|416:188,1,247.500007553101,4|0,0:0|0:0,0:0:0:0:
324,120,45110,6,4,P|384:200|360:288,2,165.000005035401
236,52,46157,1,4,0:0:0:0:
156,124,46331,1,0,0:0:0:0:
236,196,46505,1,4,0:0:0:0:
340,244,46854,2,0,P|356:200|336:152,1,82.5000025177003,4|0,0:0|0:0,0:0:0:0:
216,88,47378,2,0,P|176:236|244:304,1,247.500007553101,0|4,0:0|0:0,0:0:0:0:
