osu file format v14

[General]
AudioFilename: Feint - The Journey ft. Veela.mp3
AudioLeadIn: 0
PreviewTime: 89918
Countdown: 0
SampleSet: Normal
StackLeniency: 0.7
Mode: 0
LetterboxInBreaks: 1
WidescreenStoryboard: 1

[Editor]
DistanceSpacing: 1.2
BeatDivisor: 4
GridSize: 4
TimelineZoom: 1.4

[Metadata]
Title:The Journey
TitleUnicode:The Journey
Artist:Feint ft. Veela
ArtistUnicode:Feint ft. Veela
Creator:R4UP1
Version:EXTRA
Source:
Tags:Electronic Feint DnB liquicity
BeatmapID:917683
BeatmapSetID:312798

[Difficulty]
HPDrainRate:5
CircleSize:4.2
OverallDifficulty:8.5
ApproachRate:9
SliderMultiplier:1.8
SliderTickRate:2

[Events]
//Background and Video events
0,0,"Anime-Wallpaper-HD-540.jpg",0,0
//Break Periods
//Storyboard Layer 0 (Background)
//Storyboard Layer 1 (Fail)
//Storyboard Layer 2 (Pass)
//Storyboard Layer 3 (Foreground)
//Storyboard Sound Samples

[TimingPoints]
21530,348.837209302326,4,2,1,60,1,0
23971,-133.333333333333,4,1,1,60,0,0
24320,-100,4,1,1,60,0,0
25367,-133.333333333333,4,1,1,60,0,0
25716,-100,4,1,1,60,0,0
26762,-133.333333333333,4,1,1,60,0,0
27111,-100,4,1,1,60,0,0
28157,-133.333333333333,4,1,1,60,0,0
28506,-100,4,1,1,60,0,0
29553,-133.333333333333,4,1,1,60,0,0
29902,-100,4,1,1,60,0,0
30948,-133.333333333333,4,1,1,60,0,0
31297,-100,4,1,1,60,0,0
32343,-133.333333333333,4,1,1,60,0,0
32692,-100,4,1,1,60,0,0
33739,-133.333333333333,4,1,1,60,0,0
34088,-100,4,1,1,60,0,0
35134,-133.333333333333,4,1,1,60,0,0
35483,-100,4,1,1,60,0,0
36530,-133.333333333333,4,1,1,60,0,0
36878,-100,4,1,1,60,0,0
37925,-133.333333333333,4,1,1,60,0,0
38274,-100,4,1,1,60,0,0
39320,-133.333333333333,4,1,1,60,0,0
39669,-100,4,1,1,60,0,0
40716,-133.333333333333,4,1,1,60,0,0
41064,-100,4,1,1,60,0,0
42111,-133.333333333333,4,1,1,60,0,0
42460,-100,4,1,1,60,0,0
45251,-83.3333333333333,4,1,1,60,0,0
88855,-100,4,2,1,60,0,0
89924,-166.666666666667,4,2,1,60,0,0
134553,-80,4,1,1,80,0,1
179204,-100,4,1,1,60,0,0
197344,-100,4,2,1,60,0,0
197518,-100,4,1,1,60,0,0
197867,-100,4,2,1,60,0,0
198739,-200,4,2,1,60,0,0
200134,-133.333333333333,4,2,1,60,0,0
201530,-100,4,1,1,60,0,0
223855,-200,4,2,1,60,0,0

[HitObjects]
256,192,21530,12,0,22925,0:0:0:0:
304,276,23099,6,0,P|340:240|352:204,1,90
272,200,23448,1,0,0:0:0:0:
269,222,23535,1,0,0:0:0:0:
267,244,23622,1,0,0:0:0:0:
264,267,23709,1,0,0:0:0:0:
262,289,23796,1,0,0:0:0:0:
176,224,23971,6,0,P|156:172|104:128,1,101.250003862381,2|0,0:0|0:0,0:0:0:0:
95,211,24320,6,0,P|147:203|195:175,1,90
220,116,24669,1,0,0:0:0:0:
292,156,24843,1,0,0:0:0:0:
311,144,24930,1,0,0:0:0:0:
330,132,25017,1,0,0:0:0:0:
349,121,25104,1,0,0:0:0:0:
369,109,25191,1,0,0:0:0:0:
412,216,25367,6,0,P|376:260|316:272,1,101.250003862381,2|0,0:0|0:0,0:0:0:0:
335,195,25716,5,0,0:0:0:0:
264,232,25890,2,0,B|240:281|240:281|196:312,1,90
180,228,26239,1,0,0:0:0:0:
180,205,26326,1,0,0:0:0:0:
180,183,26413,1,0,0:0:0:0:
180,160,26500,1,0,0:0:0:0:
180,138,26587,1,0,0:0:0:0:
84,188,26762,6,0,P|36:232|28:276,1,101.250003862381,2|0,0:0|0:0,0:0:0:0:
105,259,27111,6,0,P|80:212|84:160,1,90
120,108,27460,1,0,0:0:0:0:
192,72,27634,1,0,0:0:0:0:
213,65,27721,1,0,0:0:0:0:
235,63,27808,1,0,0:0:0:0:
258,65,27895,1,0,0:0:0:0:
279,72,27982,1,0,0:0:0:0:
360,148,28157,2,0,B|300:184|300:184|344:204,1,101.250003862381,2|0,0:0|0:0,0:0:0:0:
300,132,28506,6,0,P|256:120|208:136,1,90
148,176,28855,1,0,0:0:0:0:
212,228,29030,1,0,0:0:0:0:
206,249,29117,1,0,0:0:0:0:
201,271,29204,1,0,0:0:0:0:
195,293,29291,1,0,0:0:0:0:
190,315,29378,1,0,0:0:0:0:
288,272,29553,6,0,P|340:248|388:252,1,101.250003862381,2|0,0:0|0:0,0:0:0:0:
352,320,29902,6,0,L|324:216,1,90
368,164,30250,2,0,B|424:148|424:148|384:124,1,90
376,124,30512,1,0,0:0:0:0:
354,116,30599,1,0,0:0:0:0:
332,112,30686,1,0,0:0:0:0:
310,110,30773,1,0,0:0:0:0:
196,132,30948,6,0,B|168:172|168:172|196:188|230:170,1,101.250003862381,2|0,0:0|0:0,0:0:0:0:
276,124,31297,6,0,P|248:76|192:52,1,90
140,44,31646,1,0,0:0:0:0:
72,88,31820,1,0,0:0:0:0:
56,104,31907,1,0,0:0:0:0:
44,123,31994,1,0,0:0:0:0:
36,143,32081,1,0,0:0:0:0:
32,166,32168,1,0,0:0:0:0:
108,244,32343,6,0,P|148:284|156:356,1,101.250003862381,2|0,0:0|0:0,0:0:0:0:
84,316,32692,6,0,P|160:268|192:268,1,90
204,204,33041,2,0,P|236:256|228:304,1,90
157,268,33303,1,0,0:0:0:0:
134,268,33390,1,0,0:0:0:0:
112,268,33477,1,0,0:0:0:0:
89,268,33564,1,0,0:0:0:0:
132,168,33739,6,0,P|172:128|232:128,1,101.250003862381,2|0,0:0|0:0,0:0:0:0:
204,200,34088,6,0,L|148:108,1,90
116,56,34436,1,0,0:0:0:0:
68,120,34611,1,0,0:0:0:0:
68,142,34698,1,0,0:0:0:0:
68,165,34785,1,0,0:0:0:0:
68,187,34872,1,0,0:0:0:0:
68,210,34959,1,0,0:0:0:0:
120,304,35134,6,0,B|144:344|144:344|164:332|200:328,1,101.250003862381,2|0,0:0|0:0,0:0:0:0:
268,300,35483,5,0,0:0:0:0:
348,320,35657,2,0,L|440:320,1,90
380,264,36006,1,0,0:0:0:0:
361,250,36093,1,0,0:0:0:0:
348,233,36180,1,0,0:0:0:0:
340,211,36267,1,0,0:0:0:0:
339,189,36354,1,0,0:0:0:0:
444,216,36530,6,0,P|391:237|324:240,1,101.250003862381,2|0,0:0|0:0,0:0:0:0:
276,212,36878,6,0,P|308:176|368:168,1,90
256,288,37227,2,0,L|164:288,1,90
144,288,37489,1,0,0:0:0:0:
121,288,37576,1,0,0:0:0:0:
99,288,37663,1,0,0:0:0:0:
76,288,37750,1,0,0:0:0:0:
52,184,37925,6,0,B|100:124|100:124|100:156,1,101.250003862381,2|0,0:0|0:0,0:0:0:0:
124,220,38274,5,0,0:0:0:0:
172,156,38448,2,0,L|172:56,1,90
92,56,38797,1,0,0:0:0:0:
100,76,38884,1,0,0:0:0:0:
115,92,38971,1,0,0:0:0:0:
135,103,39058,1,0,0:0:0:0:
158,105,39145,1,0,0:0:0:0:
268,104,39320,6,0,B|336:104|336:104|384:84,1,101.250003862381,2|0,0:0|0:0,0:0:0:0:
320,32,39669,6,0,L|320:132,1,90
364,192,40018,1,0,0:0:0:0:
300,244,40192,1,0,0:0:0:0:
279,252,40279,1,0,0:0:0:0:
257,255,40366,1,0,0:0:0:0:
234,253,40453,1,0,0:0:0:0:
213,246,40540,1,0,0:0:0:0:
256,144,40716,6,0,L|256:272,1,101.250003862381,2|0,0:0|0:0,0:0:0:0:
221,313,41064,6,0,P|165:353|141:353,1,90
76,316,41413,1,0,0:0:0:0:
24,252,41588,1,0,0:0:0:0:
16,230,41675,1,0,0:0:0:0:
14,208,41762,1,0,0:0:0:0:
18,186,41849,1,0,0:0:0:0:
26,165,41936,1,0,0:0:0:0:
104,92,42111,5,2,0:0:0:0:
256,192,42460,12,0,45250,0:0:0:0:
332,80,45425,6,0,P|378:130|436:148,1,107.999996704102
